  0
SECTION
  2
HEADER
  9
$ACADVER
  1
AC1018
  9
$ACADMAINTVER
 70
    39
  9
$DWGCODEPAGE
  3
ANSI_932
  9
$INSBASE
 10
0.0
 20
0.0
 30
0.0
  9
$EXTMIN
 10
-403.1766347458779
 20
74.73889237774869
 30
-0.0015258207003583
  9
$EXTMAX
 10
-59.68008331893952
 20
266.9237219699702
 30
0.0000000349246037
  9
$LIMMIN
 10
-423.0
 20
-2.0
  9
$LIMMAX
 10
-5.0
 20
293.0
  9
$ORTHOMODE
 70
     0
  9
$REGENMODE
 70
     1
  9
$FILLMODE
 70
     1
  9
$QTEXTMODE
 70
     0
  9
$MIRRTEXT
 70
     0
  9
$LTSCALE
 40
1.0
  9
$ATTMODE
 70
     1
  9
$TEXTSIZE
 40
0.2
  9
$TRACEWID
 40
0.05
  9
$TEXTSTYLE
  7
STANDARD
  9
$CLAYER
  8
0
  9
$CELTYPE
  6
CONTINUOUS
  9
$CECOLOR
 62
   256
  9
$CELTSCALE
 40
1.0
  9
$DISPSILH
 70
     0
  9
$DIMSCALE
 40
1.0
  9
$DIMASZ
 40
1.0
  9
$DIMEXO
 40
2.54
  9
$DIMDLI
 40
0.38
  9
$DIMRND
 40
0.0
  9
$DIMDLE
 40
0.0
  9
$DIMEXE
 40
2.54
  9
$DIMTP
 40
0.0
  9
$DIMTM
 40
0.0
  9
$DIMTXT
 40
3.0
  9
$DIMCEN
 40
0.09
  9
$DIMTSZ
 40
0.0
  9
$DIMTOL
 70
     0
  9
$DIMLIM
 70
     0
  9
$DIMTIH
 70
     0
  9
$DIMTOH
 70
     0
  9
$DIMSE1
 70
     0
  9
$DIMSE2
 70
     0
  9
$DIMTAD
 70
     1
  9
$DIMZIN
 70
     0
  9
$DIMBLK
  1

  9
$DIMASO
 70
     1
  9
$DIMSHO
 70
     0
  9
$DIMPOST
  1

  9
$DIMAPOST
  1

  9
$DIMALT
 70
     0
  9
$DIMALTD
 70
     2
  9
$DIMALTF
 40
25.4
  9
$DIMLFAC
 40
1.0
  9
$DIMTOFL
 70
     0
  9
$DIMTVP
 40
1.0
  9
$DIMTIX
 70
     0
  9
$DIMSOXD
 70
     0
  9
$DIMSAH
 70
     1
  9
$DIMBLK1
  1

  9
$DIMBLK2
  1

  9
$DIMSTYLE
  2
DIMSTYLE1
  9
$DIMCLRD
 70
     0
  9
$DIMCLRE
 70
     0
  9
$DIMCLRT
 70
     0
  9
$DIMTFAC
 40
1.0
  9
$DIMGAP
 40
1.5
  9
$DIMJUST
 70
     0
  9
$DIMSD1
 70
     0
  9
$DIMSD2
 70
     0
  9
$DIMTOLJ
 70
     1
  9
$DIMTZIN
 70
     0
  9
$DIMALTZ
 70
     0
  9
$DIMALTTZ
 70
     0
  9
$DIMUPT
 70
     0
  9
$DIMDEC
 70
     4
  9
$DIMTDEC
 70
     4
  9
$DIMALTU
 70
     2
  9
$DIMALTTD
 70
     2
  9
$DIMTXSTY
  7
STANDARD
  9
$DIMAUNIT
 70
     0
  9
$DIMADEC
 70
     0
  9
$DIMALTRND
 40
0.0
  9
$DIMAZIN
 70
     0
  9
$DIMDSEP
 70
    46
  9
$DIMATFIT
 70
     3
  9
$DIMFRAC
 70
     0
  9
$DIMLDRBLK
  1

  9
$DIMLUNIT
 70
     2
  9
$DIMLWD
 70
    -2
  9
$DIMLWE
 70
    -2
  9
$DIMTMOVE
 70
     0
  9
$LUNITS
 70
     2
  9
$LUPREC
 70
     4
  9
$SKETCHINC
 40
0.1
  9
$FILLETRAD
 40
0.0
  9
$AUNITS
 70
     0
  9
$AUPREC
 70
     0
  9
$MENU
  1
.
  9
$ELEVATION
 40
0.0
  9
$PELEVATION
 40
0.0
  9
$THICKNESS
 40
0.0
  9
$LIMCHECK
 70
     0
  9
$CHAMFERA
 40
0.0
  9
$CHAMFERB
 40
0.0
  9
$CHAMFERC
 40
0.0
  9
$CHAMFERD
 40
0.0
  9
$SKPOLY
 70
     0
  9
$TDCREATE
 40
2457844.601327211
  9
$TDUCREATE
 40
2457844.226327211
  9
$TDUPDATE
 40
2457844.601797222
  9
$TDUUPDATE
 40
2457844.226797222
  9
$TDINDWG
 40
0.0004713079
  9
$TDUSRTIMER
 40
0.0004713079
  9
$USRTIMER
 70
     1
  9
$ANGBASE
 50
0.0
  9
$ANGDIR
 70
     0
  9
$PDMODE
 70
     0
  9
$PDSIZE
 40
0.0
  9
$PLINEWID
 40
0.0
  9
$SPLFRAME
 70
     0
  9
$SPLINETYPE
 70
     6
  9
$SPLINESEGS
 70
     8
  9
$HANDSEED
  5
198
  9
$SURFTAB1
 70
     6
  9
$SURFTAB2
 70
     6
  9
$SURFTYPE
 70
     6
  9
$SURFU
 70
     6
  9
$SURFV
 70
     6
  9
$UCSBASE
  2

  9
$UCSNAME
  2

  9
$UCSORG
 10
0.0
 20
0.0
 30
0.0
  9
$UCSXDIR
 10
1.0
 20
0.0
 30
0.0
  9
$UCSYDIR
 10
0.0
 20
1.0
 30
0.0
  9
$UCSORTHOREF
  2

  9
$UCSORTHOVIEW
 70
     0
  9
$UCSORGTOP
 10
0.0
 20
0.0
 30
0.0
  9
$UCSORGBOTTOM
 10
0.0
 20
0.0
 30
0.0
  9
$UCSORGLEFT
 10
0.0
 20
0.0
 30
0.0
  9
$UCSORGRIGHT
 10
0.0
 20
0.0
 30
0.0
  9
$UCSORGFRONT
 10
0.0
 20
0.0
 30
0.0
  9
$UCSORGBACK
 10
0.0
 20
0.0
 30
0.0
  9
$PUCSBASE
  2

  9
$PUCSNAME
  2

  9
$PUCSORG
 10
0.0
 20
0.0
 30
0.0
  9
$PUCSXDIR
 10
1.0
 20
0.0
 30
0.0
  9
$PUCSYDIR
 10
0.0
 20
1.0
 30
0.0
  9
$PUCSORTHOREF
  2

  9
$PUCSORTHOVIEW
 70
     0
  9
$PUCSORGTOP
 10
0.0
 20
0.0
 30
0.0
  9
$PUCSORGBOTTOM
 10
0.0
 20
0.0
 30
0.0
  9
$PUCSORGLEFT
 10
0.0
 20
0.0
 30
0.0
  9
$PUCSORGRIGHT
 10
0.0
 20
0.0
 30
0.0
  9
$PUCSORGFRONT
 10
0.0
 20
0.0
 30
0.0
  9
$PUCSORGBACK
 10
0.0
 20
0.0
 30
0.0
  9
$USERI1
 70
     0
  9
$USERI2
 70
     0
  9
$USERI3
 70
     0
  9
$USERI4
 70
     0
  9
$USERI5
 70
     0
  9
$USERR1
 40
0.0
  9
$USERR2
 40
0.0
  9
$USERR3
 40
0.0
  9
$USERR4
 40
0.0
  9
$USERR5
 40
0.0
  9
$WORLDVIEW
 70
     1
  9
$SHADEDGE
 70
     3
  9
$SHADEDIF
 70
    70
  9
$TILEMODE
 70
     1
  9
$MAXACTVP
 70
    64
  9
$PINSBASE
 10
0.0
 20
0.0
 30
0.0
  9
$PLIMCHECK
 70
     0
  9
$PEXTMIN
 10
1.000000000000000E+20
 20
1.000000000000000E+20
 30
1.000000000000000E+20
  9
$PEXTMAX
 10
-1.000000000000000E+20
 20
-1.000000000000000E+20
 30
-1.000000000000000E+20
  9
$PLIMMIN
 10
-423.0
 20
-2.0
  9
$PLIMMAX
 10
-5.0
 20
293.0
  9
$UNITMODE
 70
     0
  9
$VISRETAIN
 70
     1
  9
$PLINEGEN
 70
     0
  9
$PSLTSCALE
 70
     1
  9
$TREEDEPTH
 70
  3020
  9
$CMLSTYLE
  2
Standard
  9
$CMLJUST
 70
     0
  9
$CMLSCALE
 40
1.0
  9
$PROXYGRAPHICS
 70
     1
  9
$MEASUREMENT
 70
     0
  9
$CELWEIGHT
370
    -1
  9
$ENDCAPS
280
     0
  9
$JOINSTYLE
280
     0
  9
$LWDISPLAY
290
     0
  9
$INSUNITS
 70
     0
  9
$HYPERLINKBASE
  1

  9
$STYLESHEET
  1

  9
$XEDIT
290
     1
  9
$CEPSNTYPE
380
     0
  9
$PSTYLEMODE
290
     1
  9
$FINGERPRINTGUID
  2
{95FE7131-7CE0-4F6C-9ECA-7677187C789B}
  9
$VERSIONGUID
  2
{31911116-1472-4BF1-80AA-71A49BE4242B}
  9
$EXTNAMES
290
     1
  9
$PSVPSCALE
 40
0.0
  9
$OLESTARTUP
290
     0
  9
$SORTENTS
280
   127
  9
$INDEXCTL
280
     0
  9
$HIDETEXT
280
     0
  9
$XCLIPFRAME
290
     0
  9
$HALOGAP
280
     0
  9
$OBSCOLOR
 70
   257
  9
$OBSLTYPE
280
     0
  9
$INTERSECTIONDISPLAY
280
     0
  9
$INTERSECTIONCOLOR
 70
   257
  9
$DIMASSOC
280
     1
  9
$PROJECTNAME
  1

  0
ENDSEC
  0
SECTION
  2
CLASSES
  0
CLASS
  1
ACDBDICTIONARYWDFLT
  2
AcDbDictionaryWithDefault
  3
ObjectDBX Classes
 90
        0
 91
        1
280
     0
281
     0
  0
CLASS
  1
TABLESTYLE
  2
AcDbTableStyle
  3
ObjectDBX Classes
 90
     2047
 91
        1
280
     0
281
     0
  0
CLASS
  1
DICTIONARYVAR
  2
AcDbDictionaryVar
  3
ObjectDBX Classes
 90
        0
 91
        1
280
     0
281
     0
  0
ENDSEC
  0
SECTION
  2
TABLES
  0
TABLE
  2
VPORT
  5
8
330
0
100
AcDbSymbolTable
 70
     2
  0
VPORT
  5
197
330
8
100
AcDbSymbolTableRecord
100
AcDbViewportTableRecord
  2
*Active
 70
     0
 10
0.0
 20
0.0
 11
1.0
 21
1.0
 12
-214.0
 22
145.5
 13
0.0
 23
0.0
 14
1.0
 24
1.0
 15
0.0
 25
0.0
 16
0.0
 26
0.0
 36
1.0
 17
0.0
 27
0.0
 37
0.0
 40
297.3320158102766
 41
1.707124010554089
 42
50.0
 43
0.0
 44
0.0
 50
0.0
 51
0.0
 71
     0
 72
   100
 73
     1
 74
     1
 75
     0
 76
     0
 77
     0
 78
     0
281
     0
 65
     1
110
0.0
120
0.0
130
0.0
111
1.0
121
0.0
131
0.0
112
0.0
122
1.0
132
0.0
 79
     0
146
0.0
  0
ENDTAB
  0
TABLE
  2
LTYPE
  5
5
330
0
100
AcDbSymbolTable
 70
     6
  0
LTYPE
  5
13
330
5
100
AcDbSymbolTableRecord
100
AcDbLinetypeTableRecord
  2
ByBlock
 70
     0
  3

 72
    65
 73
     0
 40
0.0
  0
LTYPE
  5
14
330
5
100
AcDbSymbolTableRecord
100
AcDbLinetypeTableRecord
  2
ByLayer
 70
     0
  3

 72
    65
 73
     0
 40
0.0
  0
LTYPE
  5
15
330
5
100
AcDbSymbolTableRecord
100
AcDbLinetypeTableRecord
  2
CONTINUOUS
 70
     0
  3
Solid line
 72
    65
 73
     0
 40
0.0
  0
LTYPE
  5
26
330
5
100
AcDbSymbolTableRecord
100
AcDbLinetypeTableRecord
  2
DASHED
 70
     0
  3
__ __ __ __ __ __ __ __ __ __ __ __ __ __ __
 72
    65
 73
     2
 40
3.5
 49
2.0
 74
     0
 49
-1.5
 74
     0
  0
LTYPE
  5
27
330
5
100
AcDbSymbolTableRecord
100
AcDbLinetypeTableRecord
  2
CENTER
 70
     0
  3
____ _ ____ _ ____ _ ____ _ ____ _ ____ _ ____
 72
    65
 73
     4
 40
17.5
 49
13.0
 74
     0
 49
-1.5
 74
     0
 49
1.5
 74
     0
 49
-1.5
 74
     0
  0
LTYPE
  5
28
330
5
100
AcDbSymbolTableRecord
100
AcDbLinetypeTableRecord
  2
PHANTOM
 70
     0
  3
_____ _ _ _____ _ _ _____ _ _ _____ _ _ ____  
 72
    65
 73
     6
 40
15.5
 49
8.0
 74
     0
 49
-1.5
 74
     0
 49
1.5
 74
     0
 49
-1.5
 74
     0
 49
1.5
 74
     0
 49
-1.5
 74
     0
  0
LTYPE
  5
29
330
5
100
AcDbSymbolTableRecord
100
AcDbLinetypeTableRecord
  2
DOT
 70
     0
  3
. . . . . . . . . . . . . . . . . . . . . . . .
 72
    65
 73
     2
 40
0.25
 49
0.0
 74
     0
 49
-0.25
 74
     0
  0
LTYPE
  5
2A
330
5
100
AcDbSymbolTableRecord
100
AcDbLinetypeTableRecord
  2
HIDDEN
 70
     0
  3
__ __ __ __ __ __ __ __ __ __ __ __ __ __ __
 72
    65
 73
     2
 40
3.5
 49
2.0
 74
     0
 49
-1.5
 74
     0
  0
ENDTAB
  0
TABLE
  2
LAYER
  5
2
330
0
100
AcDbSymbolTable
 70
     3
  0
LAYER
  5
10
330
2
100
AcDbSymbolTableRecord
100
AcDbLayerTableRecord
  2
0
 70
     0
 62
     7
  6
CONTINUOUS
370
    -3
390
F
  0
LAYER
  5
2B
330
2
100
AcDbSymbolTableRecord
100
AcDbLayerTableRecord
  2
1
 70
     0
 62
     7
  6
CONTINUOUS
370
    -3
390
F
  0
LAYER
  5
2C
330
2
100
AcDbSymbolTableRecord
100
AcDbLayerTableRecord
  2
DEFPOINTS
 70
     0
 62
     7
  6
CONTINUOUS
290
     0
370
    -3
390
F
  0
ENDTAB
  0
TABLE
  2
STYLE
  5
3
330
0
100
AcDbSymbolTable
 70
     2
  0
STYLE
  5
11
330
3
100
AcDbSymbolTableRecord
100
AcDbTextStyleTableRecord
  2
STANDARD
 70
     0
 40
0.0
 41
1.0
 50
0.0
 71
     0
 42
0.2
  3

  4

1001
ACAD
1000
MS Gothic
1071
    32817
  0
ENDTAB
  0
TABLE
  2
VIEW
  5
6
330
0
100
AcDbSymbolTable
 70
     0
  0
ENDTAB
  0
TABLE
  2
UCS
  5
7
330
0
100
AcDbSymbolTable
 70
     0
  0
ENDTAB
  0
TABLE
  2
APPID
  5
9
330
0
100
AcDbSymbolTable
 70
     2
  0
APPID
  5
12
330
9
100
AcDbSymbolTableRecord
100
AcDbRegAppTableRecord
  2
ACAD
 70
     0
  0
APPID
  5
18C
330
9
100
AcDbSymbolTableRecord
100
AcDbRegAppTableRecord
  2
ACAD_PSEXT
 70
     0
  0
ENDTAB
  0
TABLE
  2
DIMSTYLE
  5
A
330
0
100
AcDbSymbolTable
 70
     5
100
AcDbDimStyleTable
 71
     1
340
2D
  0
DIMSTYLE
105
2D
102
{ACAD_REACTORS
330
186
102
}
330
A
100
AcDbSymbolTableRecord
100
AcDbDimStyleTableRecord
  2
DIMSTYLE1
 70
     0
 41
1.0
 42
2.54
 44
2.54
 73
     0
 74
     0
 77
     1
140
3.0
145
1.0
147
1.5
172
     1
173
     1
279
     2
340
11
  0
DIMSTYLE
105
2E
102
{ACAD_REACTORS
330
187
102
}
330
A
100
AcDbSymbolTableRecord
100
AcDbDimStyleTableRecord
  2
DIMSTYLE2
 70
     0
 41
1.0
 42
2.54
 44
2.54
 73
     0
 74
     0
 77
     1
140
3.0
145
1.0
147
1.5
172
     1
173
     1
279
     2
340
11
  0
DIMSTYLE
105
2F
102
{ACAD_REACTORS
330
188
102
}
330
A
100
AcDbSymbolTableRecord
100
AcDbDimStyleTableRecord
  2
DIMSTYLE3
 70
     0
 41
1.0
 42
2.54
 44
2.54
 73
     0
 74
     0
 75
     1
 76
     1
 77
     1
140
3.0
145
1.0
147
1.5
172
     1
173
     1
279
     2
340
11
  0
DIMSTYLE
105
30
102
{ACAD_REACTORS
330
189
102
}
330
A
100
AcDbSymbolTableRecord
100
AcDbDimStyleTableRecord
  2
DIMSTYLE4
 70
     0
 41
1.0
 42
2.54
 44
2.54
 73
     0
 74
     0
 75
     1
 76
     1
 77
     1
140
3.0
145
1.0
147
1.5
172
     1
173
     1
279
     2
340
11
  0
ENDTAB
  0
TABLE
  2
BLOCK_RECORD
  5
1
330
0
100
AcDbSymbolTable
 70
     7
  0
BLOCK_RECORD
  5
22
330
1
100
AcDbSymbolTableRecord
100
AcDbBlockTableRecord
  2
*Model_Space
340
25
  0
BLOCK_RECORD
  5
1E
330
1
100
AcDbSymbolTableRecord
100
AcDbBlockTableRecord
  2
*Paper_Space
340
21
  0
BLOCK_RECORD
  5
34
330
1
100
AcDbSymbolTableRecord
100
AcDbBlockTableRecord
  2
_OPEN30
340
0
102
{BLKREFS
331
3D
331
3E
331
49
331
4A
331
55
331
56
331
5F
331
60
102
}
  0
BLOCK_RECORD
  5
3A
330
1
100
AcDbSymbolTableRecord
100
AcDbBlockTableRecord
  2
*D1
340
0
  0
BLOCK_RECORD
  5
46
330
1
100
AcDbSymbolTableRecord
100
AcDbBlockTableRecord
  2
*D2
340
0
  0
BLOCK_RECORD
  5
51
330
1
100
AcDbSymbolTableRecord
100
AcDbBlockTableRecord
  2
*D3
340
0
  0
BLOCK_RECORD
  5
5B
330
1
100
AcDbSymbolTableRecord
100
AcDbBlockTableRecord
  2
*D4
340
0
  0
BLOCK_RECORD
  5
65
330
1
100
AcDbSymbolTableRecord
100
AcDbBlockTableRecord
  2
KOZU0001
340
0
102
{BLKREFS
331
185
102
}
  0
ENDTAB
  0
ENDSEC
  0
SECTION
  2
BLOCKS
  0
BLOCK
  5
23
330
22
100
AcDbEntity
  8
0
100
AcDbBlockBegin
  2
*Model_Space
 70
     0
 10
0.0
 20
0.0
 30
0.0
  3
*Model_Space
  1

  0
ENDBLK
  5
24
330
22
100
AcDbEntity
  8
0
100
AcDbBlockEnd
  0
BLOCK
  5
1F
330
1E
100
AcDbEntity
 67
     1
  8
0
100
AcDbBlockBegin
  2
*Paper_Space
 70
     0
 10
0.0
 20
0.0
 30
0.0
  3
*Paper_Space
  1

  0
ENDBLK
  5
20
330
1E
100
AcDbEntity
 67
     1
  8
0
100
AcDbBlockEnd
  0
BLOCK
  5
35
330
34
100
AcDbEntity
  8
0
100
AcDbBlockBegin
  2
_OPEN30
 70
     0
 10
0.0
 20
0.0
 30
0.0
  3
_OPEN30
  1

  0
LINE
  5
36
330
34
100
AcDbEntity
  8
0
  6
ByBlock
 62
     0
100
AcDbLine
 10
0.0
 20
0.0
 30
0.0
 11
-2.999999999999993
 21
-1.000000000000017
 31
0.0
  0
LINE
  5
37
330
34
100
AcDbEntity
  8
0
  6
ByBlock
 62
     0
100
AcDbLine
 10
0.0
 20
0.0
 30
0.0
 11
-3.000000000000006
 21
0.9999999999999815
 31
0.0
  0
LINE
  5
38
330
34
100
AcDbEntity
  8
0
  6
ByBlock
 62
     0
100
AcDbLine
 10
0.0
 20
0.0
 30
0.0
 11
-3.0
 21
0.0
 31
0.0
  0
ENDBLK
  5
39
330
34
100
AcDbEntity
  8
0
100
AcDbBlockEnd
  0
BLOCK
  5
3B
330
3A
100
AcDbEntity
  8
0
100
AcDbBlockBegin
  2
*D1
 70
     1
 10
0.0
 20
0.0
 30
0.0
  3
*D1
  1

  0
LINE
  5
3C
330
3A
100
AcDbEntity
  8
0
  6
Continuous
 62
     7
100
AcDbLine
 10
-74.58956909179687
 20
262.8022155761719
 30
0.0
 11
-168.5895690917969
 21
262.8022155761719
 31
0.0
  0
INSERT
  5
3D
330
3A
100
AcDbEntity
  8
0
  6
Continuous
 62
     7
100
AcDbBlockReference
  2
_OPEN30
 10
-71.58956909179687
 20
262.8022155761719
 30
0.0
  0
INSERT
  5
3E
330
3A
100
AcDbEntity
  8
0
  6
Continuous
 62
     7
100
AcDbBlockReference
  2
_OPEN30
 10
-171.5895690917969
 20
262.8022155761719
 30
0.0
 50
180.0000000000004
  0
LINE
  5
3F
330
3A
100
AcDbEntity
  8
0
  6
Continuous
 62
     7
100
AcDbLine
 10
-71.58956909179689
 20
230.3086309814453
 30
0.0
 11
-71.58956909179687
 21
265.0882263183594
 31
0.0
  0
LINE
  5
40
330
3A
100
AcDbEntity
  8
0
  6
Continuous
 62
     7
100
AcDbLine
 10
-171.5895690917969
 20
253.8086309814453
 30
0.0
 11
-171.5895690917969
 21
265.0882263183594
 31
0.0
  0
TEXT
  5
41
330
3A
100
AcDbEntity
  8
0
  6
Continuous
 62
     7
100
AcDbText
 10
-125.6595692634583
 20
263.5522155761719
 30
0.0
 40
3.0
  1
100
 41
1.320000017011488
100
AcDbText
  0
POINT
  5
42
330
3A
100
AcDbEntity
  8
DEFPOINTS
  6
Continuous
 62
     7
100
AcDbPoint
 10
-71.58956909179687
 20
227.7686309814453
 30
0.0
  0
POINT
  5
43
330
3A
100
AcDbEntity
  8
DEFPOINTS
  6
Continuous
 62
     7
100
AcDbPoint
 10
-171.5895690917969
 20
251.2686309814453
 30
0.0
  0
POINT
  5
44
330
3A
100
AcDbEntity
  8
DEFPOINTS
  6
Continuous
 62
     7
100
AcDbPoint
 10
-171.5895690917969
 20
262.8022155761719
 30
0.0
  0
ENDBLK
  5
45
330
3A
100
AcDbEntity
  8
0
100
AcDbBlockEnd
  0
BLOCK
  5
47
330
46
100
AcDbEntity
  8
0
100
AcDbBlockBegin
  2
*D2
 70
     1
 10
0.0
 20
0.0
 30
0.0
  3
*D2
  1

  0
LINE
  5
48
330
46
100
AcDbEntity
  8
0
  6
Continuous
 62
     7
100
AcDbLine
 10
-174.5895690917969
 20
262.8022155761719
 30
0.0
 11
-178.5895690917969
 21
262.8022155761719
 31
0.0
  0
INSERT
  5
49
330
46
100
AcDbEntity
  8
0
  6
Continuous
 62
     7
100
AcDbBlockReference
  2
_OPEN30
 10
-171.5895690917969
 20
262.8022155761719
 30
0.0
  0
INSERT
  5
4A
330
46
100
AcDbEntity
  8
0
  6
Continuous
 62
     7
100
AcDbBlockReference
  2
_OPEN30
 10
-181.5895690917969
 20
262.8022155761719
 30
0.0
 50
180.0000000000004
  0
LINE
  5
4B
330
46
100
AcDbEntity
  8
0
  6
Continuous
 62
     7
100
AcDbLine
 10
-181.5895690917969
 20
242.0586309814453
 30
0.0
 11
-181.5895690917969
 21
265.0882263183594
 31
0.0
  0
TEXT
  5
4C
330
46
100
AcDbEntity
  8
0
  6
Continuous
 62
     7
100
AcDbText
 10
-179.1595692038536
 20
263.5522155761719
 30
0.0
 40
3.0
  1
10
 41
1.40181821042841
100
AcDbText
  0
POINT
  5
4D
330
46
100
AcDbEntity
  8
DEFPOINTS
  6
Continuous
 62
     7
100
AcDbPoint
 10
-171.5895690917969
 20
237.7096252441406
 30
0.0
  0
POINT
  5
4E
330
46
100
AcDbEntity
  8
DEFPOINTS
  6
Continuous
 62
     7
100
AcDbPoint
 10
-181.5895690917969
 20
239.5186309814453
 30
0.0
  0
POINT
  5
4F
330
46
100
AcDbEntity
  8
DEFPOINTS
  6
Continuous
 62
     7
100
AcDbPoint
 10
-181.5895690917969
 20
262.8022155761719
 30
0.0
  0
ENDBLK
  5
50
330
46
100
AcDbEntity
  8
0
100
AcDbBlockEnd
  0
BLOCK
  5
52
330
51
100
AcDbEntity
  8
0
100
AcDbBlockBegin
  2
*D3
 70
     1
 10
0.0
 20
0.0
 30
0.0
  3
*D3
  1

  0
LINE
  5
53
330
51
100
AcDbEntity
  8
0
  6
Continuous
 62
     7
100
AcDbLine
 10
-252.0667877197266
 20
216.0055999755859
 30
0.0
 11
-237.6132202148439
 21
225.8248291015625
 31
0.0
  0
LINE
  5
54
330
51
100
AcDbEntity
  8
0
  6
Continuous
 62
     7
100
AcDbLine
 10
-382.7598498090519
 20
127.2175041957138
 30
0.0
 11
-254.5483014360653
 21
214.3197501377823
 31
0.0
  0
INSERT
  5
55
330
51
100
AcDbEntity
  8
0
  6
Continuous
 62
     7
100
AcDbBlockReference
  2
_OPEN30
 10
-385.2413635253906
 20
125.5316543579102
 30
0.0
 50
214.1907570472015
  0
INSERT
  5
56
330
51
100
AcDbEntity
  8
0
  6
Continuous
 62
     7
100
AcDbBlockReference
  2
_OPEN30
 10
-252.0667877197266
 20
216.0055999755859
 30
0.0
 50
34.1907570472008
  0
TEXT
  5
57
330
51
100
AcDbEntity
  8
0
  6
Continuous
 62
     7
100
AcDbText
 10
-247.2489520487107
 20
220.1842843048814
 30
0.0
 40
3.0
  1
%%C161
 50
34.20000026868279
 41
1.124873790464911
100
AcDbText
  0
POINT
  5
58
330
51
100
AcDbEntity
  8
DEFPOINTS
  6
Continuous
 62
     7
100
AcDbPoint
 10
-385.2413635253906
 20
125.5316543579102
 30
0.0
  0
POINT
  5
59
330
51
100
AcDbEntity
  8
DEFPOINTS
  6
Continuous
 62
     7
100
AcDbPoint
 10
-252.0667877197266
 20
216.0055999755859
 30
0.0
  0
ENDBLK
  5
5A
330
51
100
AcDbEntity
  8
0
100
AcDbBlockEnd
  0
BLOCK
  5
5C
330
5B
100
AcDbEntity
  8
0
100
AcDbBlockBegin
  2
*D4
 70
     1
 10
0.0
 20
0.0
 30
0.0
  3
*D4
  1

  0
LINE
  5
5D
330
5B
100
AcDbEntity
  8
0
  6
Continuous
 62
     7
100
AcDbLine
 10
-261.8312377929688
 20
138.1892852783203
 30
0.0
 11
-237.6863708496094
 21
124.3458557128906
 31
0.0
  0
LINE
  5
5E
330
5B
100
AcDbEntity
  8
0
  6
Continuous
 62
     7
100
AcDbLine
 10
-372.8743553438982
 20
201.8557778348053
 30
0.0
 11
-264.433811160008
 21
139.6814688692963
 31
0.0
  0
INSERT
  5
5F
330
5B
100
AcDbEntity
  8
0
  6
Continuous
 62
     7
100
AcDbBlockReference
  2
_OPEN30
 10
-375.4769287109375
 20
203.3479614257813
 30
0.0
 50
150.1722272974018
  0
INSERT
  5
60
330
5B
100
AcDbEntity
  8
0
  6
Continuous
 62
     7
100
AcDbBlockReference
  2
_OPEN30
 10
-261.8312377929688
 20
138.1892852783203
 30
0.0
 50
330.1722272974025
  0
TEXT
  5
61
330
5B
100
AcDbEntity
  8
0
  6
Continuous
 62
     7
100
AcDbText
 10
-246.9792017443501
 20
130.5353097455747
 30
0.0
 40
3.0
  1
%%C131
 50
330.2000007644502
 41
1.124873790464911
100
AcDbText
  0
POINT
  5
62
330
5B
100
AcDbEntity
  8
DEFPOINTS
  6
Continuous
 62
     7
100
AcDbPoint
 10
-375.4769287109375
 20
203.3479614257813
 30
0.0
  0
POINT
  5
63
330
5B
100
AcDbEntity
  8
DEFPOINTS
  6
Continuous
 62
     7
100
AcDbPoint
 10
-261.8312377929688
 20
138.1892852783203
 30
0.0
  0
ENDBLK
  5
64
330
5B
100
AcDbEntity
  8
0
100
AcDbBlockEnd
  0
BLOCK
  5
66
330
65
100
AcDbEntity
  8
0
100
AcDbBlockBegin
  2
KOZU0001
 70
     0
 10
0.0
 20
0.0
 30
0.0
  3
KOZU0001
  1

  0
LINE
  5
67
330
65
100
AcDbEntity
  8
0
  6
Continuous
 62
     7
100
AcDbLine
 10
-75.58511047691952
 20
220.7686280883846
 30
0.0
 11
-71.58956922129117
 21
224.7641773351035
 31
0.0
  0
LINE
  5
68
330
65
100
AcDbEntity
  8
0
  6
Continuous
 62
     7
100
AcDbLine
 10
-80.0752340473328
 20
220.7686280883846
 30
0.0
 11
-73.07524804731881
 21
227.7686280883846
 31
0.0
  0
LINE
  5
69
330
65
100
AcDbEntity
  8
0
  6
Continuous
 62
     7
100
AcDbLine
 10
-84.56535761774608
 20
220.7686280883847
 30
0.0
 11
-77.56537161773207
 21
227.7686280883847
 31
0.0
  0
LINE
  5
6A
330
65
100
AcDbEntity
  8
0
  6
Continuous
 62
     7
100
AcDbLine
 10
-89.05548118815932
 20
220.7686280883846
 30
0.0
 11
-82.05549518814533
 21
227.7686280883846
 31
0.0
  0
LINE
  5
6B
330
65
100
AcDbEntity
  8
0
  6
Continuous
 62
     7
100
AcDbLine
 10
-93.5456047585726
 20
220.7686280883847
 30
0.0
 11
-86.54561875855861
 21
227.7686280883846
 31
0.0
  0
LINE
  5
6C
330
65
100
AcDbEntity
  8
0
  6
Continuous
 62
     7
100
AcDbLine
 10
-98.03572832898588
 20
220.7686280883847
 30
0.0
 11
-91.03574232897187
 21
227.7686280883847
 31
0.0
  0
LINE
  5
6D
330
65
100
AcDbEntity
  8
0
  6
Continuous
 62
     7
100
AcDbLine
 10
-102.5258518993992
 20
220.7686280883846
 30
0.0
 11
-95.52586589938515
 21
227.7686280883846
 31
0.0
  0
LINE
  5
6E
330
65
100
AcDbEntity
  8
0
  6
Continuous
 62
     7
100
AcDbLine
 10
-107.0159754698124
 20
220.7686280883847
 30
0.0
 11
-100.0159894697984
 21
227.7686280883847
 31
0.0
  0
LINE
  5
6F
330
65
100
AcDbEntity
  8
0
  6
Continuous
 62
     7
100
AcDbLine
 10
-111.5060990402257
 20
220.7686280883846
 30
0.0
 11
-104.5061130402117
 21
227.7686280883846
 31
0.0
  0
LINE
  5
70
330
65
100
AcDbEntity
  8
0
  6
Continuous
 62
     7
100
AcDbLine
 10
-115.9962226106389
 20
220.7686280883847
 30
0.0
 11
-108.996236610625
 21
227.7686280883846
 31
0.0
  0
LINE
  5
71
330
65
100
AcDbEntity
  8
0
  6
Continuous
 62
     7
100
AcDbLine
 10
-120.4863461810522
 20
220.7686280883847
 30
0.0
 11
-113.4863601810382
 21
227.7686280883847
 31
0.0
  0
LINE
  5
72
330
65
100
AcDbEntity
  8
0
  6
Continuous
 62
     7
100
AcDbLine
 10
-124.9764697514655
 20
220.7686280883846
 30
0.0
 11
-117.9764837514515
 21
227.7686280883846
 31
0.0
  0
LINE
  5
73
330
65
100
AcDbEntity
  8
0
  6
Continuous
 62
     7
100
AcDbLine
 10
-129.4665933218788
 20
220.7686280883847
 30
0.0
 11
-122.4666073218647
 21
227.7686280883847
 31
0.0
  0
LINE
  5
74
330
65
100
AcDbEntity
  8
0
  6
Continuous
 62
     7
100
AcDbLine
 10
-133.956716892292
 20
220.7686280883847
 30
0.0
 11
-126.956730892278
 21
227.7686280883847
 31
0.0
  0
LINE
  5
75
330
65
100
AcDbEntity
  8
0
  6
Continuous
 62
     7
100
AcDbLine
 10
-138.4468404627053
 20
220.7686280883846
 30
0.0
 11
-131.4468544626913
 21
227.7686280883846
 31
0.0
  0
LINE
  5
76
330
65
100
AcDbEntity
  8
0
  6
Continuous
 62
     7
100
AcDbLine
 10
-142.9369640331185
 20
220.7686280883847
 30
0.0
 11
-135.9369780331045
 21
227.7686280883847
 31
0.0
  0
LINE
  5
77
330
65
100
AcDbEntity
  8
0
  6
Continuous
 62
     7
100
AcDbLine
 10
-147.4270876035318
 20
220.7686280883846
 30
0.0
 11
-140.4271016035178
 21
227.7686280883846
 31
0.0
  0
LINE
  5
78
330
65
100
AcDbEntity
  8
0
  6
Continuous
 62
     7
100
AcDbLine
 10
-151.9172111739451
 20
220.7686280883847
 30
0.0
 11
-144.9172251739311
 21
227.7686280883846
 31
0.0
  0
LINE
  5
79
330
65
100
AcDbEntity
  8
0
  6
Continuous
 62
     7
100
AcDbLine
 10
-156.4073347443583
 20
220.7686280883847
 30
0.0
 11
-149.4073487443444
 21
227.7686280883847
 31
0.0
  0
LINE
  5
7A
330
65
100
AcDbEntity
  8
0
  6
Continuous
 62
     7
100
AcDbLine
 10
-160.8974583147716
 20
220.7686280883846
 30
0.0
 11
-153.8974723147576
 21
227.7686280883846
 31
0.0
  0
LINE
  5
7B
330
65
100
AcDbEntity
  8
0
  6
Continuous
 62
     7
100
AcDbLine
 10
-165.3875818851849
 20
220.7686280883847
 30
0.0
 11
-158.3875958851709
 21
227.7686280883847
 31
0.0
  0
LINE
  5
7C
330
65
100
AcDbEntity
  8
0
  6
Continuous
 62
     7
100
AcDbLine
 10
-169.8777054555981
 20
220.7686280883847
 30
0.0
 11
-162.8777194555842
 21
227.7686280883847
 31
0.0
  0
LINE
  5
7D
330
65
100
AcDbEntity
  8
0
  6
Continuous
 62
     7
100
AcDbLine
 10
-174.3678290260113
 20
220.7686280883847
 30
0.0
 11
-167.3678430259974
 21
227.7686280883846
 31
0.0
  0
LINE
  5
7E
330
65
100
AcDbEntity
  8
0
  6
Continuous
 62
     7
100
AcDbLine
 10
-178.5895692212912
 20
221.0370120002854
 30
0.0
 11
-175.007960296417
 21
224.6186280883846
 31
0.0
  0
ENDBLK
  5
7F
330
65
100
AcDbEntity
  8
0
100
AcDbBlockEnd
  0
ENDSEC
  0
SECTION
  2
ENTITIES
  0
POINT
  5
80
330
22
100
AcDbEntity
  8
0
  6
Continuous
 62
     7
100
AcDbPoint
 10
-71.58956909179687
 20
227.7686309814453
 30
0.0
  0
POINT
  5
81
330
22
100
AcDbEntity
  8
0
  6
Continuous
 62
     7
100
AcDbPoint
 10
-71.58956909179687
 20
113.7686309814453
 30
0.0
  0
LINE
  5
82
330
22
100
AcDbEntity
  8
0
  6
Continuous
 62
     7
100
AcDbLine
 10
-304.8540649414063
 20
191.6619567871094
 30
0.0
 11
-304.8540649414063
 21
217.261962890625
 31
0.0
  0
LINE
  5
83
330
22
100
AcDbEntity
  8
0
  6
Continuous
 62
     7
100
AcDbLine
 10
-310.2540893554688
 20
191.6619567871094
 30
0.0
 11
-310.2540893554688
 21
217.261962890625
 31
0.0
  0
LINE
  5
84
330
22
100
AcDbEntity
  8
0
  6
Continuous
 62
     7
100
AcDbLine
 10
-275.2540893554688
 20
195.8355407714844
 30
0.0
 11
-275.2540893554688
 21
184.2355346679688
 31
0.0
  0
LINE
  5
85
330
22
100
AcDbEntity
  8
0
  6
Continuous
 62
     7
100
AcDbLine
 10
-280.6540832519531
 20
195.8355407714844
 30
0.0
 11
-280.6540832519531
 21
184.2355346679688
 31
0.0
  0
LINE
  5
86
330
22
100
AcDbEntity
  8
0
  6
Continuous
 62
     7
100
AcDbLine
 10
-295.4540710449219
 20
189.3436126708984
 30
0.0
 11
-295.4540710449219
 21
210.9436187744141
 31
0.0
  0
LINE
  5
87
330
22
100
AcDbEntity
  8
0
  6
Continuous
 62
     7
100
AcDbLine
 10
-341.8540649414063
 20
189.3436126708984
 30
0.0
 11
-341.8540649414063
 21
210.9436187744141
 31
0.0
  0
LINE
  5
88
330
22
100
AcDbEntity
  8
0
  6
Continuous
 62
     7
100
AcDbLine
 10
-290.0540771484375
 20
189.3436126708984
 30
0.0
 11
-290.0540771484375
 21
210.9436187744141
 31
0.0
  0
LINE
  5
89
330
22
100
AcDbEntity
  8
0
  6
Continuous
 62
     7
100
AcDbLine
 10
-362.0540771484375
 20
195.8355407714844
 30
0.0
 11
-362.0540771484375
 21
184.2355346679688
 31
0.0
  0
LINE
  5
8A
330
22
100
AcDbEntity
  8
0
  6
Continuous
 62
     7
100
AcDbLine
 10
-356.6540832519531
 20
195.8355407714844
 30
0.0
 11
-356.6540832519531
 21
184.2355346679688
 31
0.0
  0
LINE
  5
8B
330
22
100
AcDbEntity
  8
0
  6
Continuous
 62
     7
100
AcDbLine
 10
-347.2540893554688
 20
189.3436126708984
 30
0.0
 11
-347.2540893554688
 21
210.9436187744141
 31
0.0
  0
LINE
  5
8C
330
22
100
AcDbEntity
  8
0
  6
Continuous
 62
     7
100
AcDbLine
 10
-332.4540710449219
 20
191.6619567871094
 30
0.0
 11
-332.4540710449219
 21
217.261962890625
 31
0.0
  0
LINE
  5
8D
330
22
100
AcDbEntity
  8
0
  6
Continuous
 62
     7
100
AcDbLine
 10
-327.0540771484375
 20
191.6619567871094
 30
0.0
 11
-327.0540771484375
 21
217.261962890625
 31
0.0
  0
LINE
  5
8E
330
22
100
AcDbEntity
  8
0
  6
Continuous
 62
     7
100
AcDbLine
 10
-275.2540893554688
 20
145.7017211914063
 30
0.0
 11
-275.2540893554688
 21
157.3017120361328
 31
0.0
  0
LINE
  5
8F
330
22
100
AcDbEntity
  8
0
  6
Continuous
 62
     7
100
AcDbLine
 10
-319.1170654296875
 20
234.0318756103516
 30
0.0
 11
-319.5744323730469
 21
230.6889953613281
 31
0.0
  0
LINE
  5
90
330
22
100
AcDbEntity
  8
0
  6
Continuous
 62
     7
100
AcDbLine
 10
-322.8921508789063
 20
230.2312774658203
 30
0.0
 11
-322.8921508789063
 21
229.7686309814453
 31
0.0
  0
LINE
  5
91
330
22
100
AcDbEntity
  8
0
  6
Continuous
 62
     7
100
AcDbLine
 10
-318.6540832519531
 20
234.0318756103516
 30
0.0
 11
-318.1910705566406
 21
234.0318756103516
 31
0.0
  0
LINE
  5
92
330
22
100
AcDbEntity
  8
0
  6
Continuous
 62
     7
100
AcDbLine
 10
-318.6540832519531
 20
234.0318756103516
 30
0.0
 11
-319.1170654296875
 21
234.0318756103516
 31
0.0
  0
LINE
  5
93
330
22
100
AcDbEntity
  8
0
  6
Continuous
 62
     7
100
AcDbLine
 10
-314.416015625
 20
230.2312774658203
 30
0.0
 11
-314.416015625
 21
229.7686309814453
 31
0.0
  0
LINE
  5
94
330
22
100
AcDbEntity
  8
0
  6
Continuous
 62
     7
100
AcDbLine
 10
-314.416015625
 20
229.3059692382813
 30
0.0
 11
-314.416015625
 21
229.7686309814453
 31
0.0
  0
LINE
  5
95
330
22
100
AcDbEntity
  8
0
  6
Continuous
 62
     7
100
AcDbLine
 10
-314.416015625
 20
229.3059692382813
 30
0.0
 11
-317.7337036132813
 21
228.8482513427734
 31
0.0
  0
LINE
  5
96
330
22
100
AcDbEntity
  8
0
  6
Continuous
 62
     7
100
AcDbLine
 10
-314.416015625
 20
230.2312774658203
 30
0.0
 11
-317.7337036132813
 21
230.6889953613281
 31
0.0
  0
LINE
  5
97
330
22
100
AcDbEntity
  8
0
  6
Continuous
 62
     7
100
AcDbLine
 10
-322.8921508789063
 20
229.3059692382813
 30
0.0
 11
-322.8921508789063
 21
229.7686309814453
 31
0.0
  0
LINE
  5
98
330
22
100
AcDbEntity
  8
0
  6
Continuous
 62
     7
100
AcDbLine
 10
-319.1170654296875
 20
225.50537109375
 30
0.0
 11
-319.5744323730469
 21
228.8482513427734
 31
0.0
  0
LINE
  5
99
330
22
100
AcDbEntity
  8
0
  6
Continuous
 62
     7
100
AcDbLine
 10
-318.6540832519531
 20
225.50537109375
 30
0.0
 11
-318.1910705566406
 21
225.50537109375
 31
0.0
  0
LINE
  5
9A
330
22
100
AcDbEntity
  8
0
  6
Continuous
 62
     7
100
AcDbLine
 10
-318.6540832519531
 20
225.50537109375
 30
0.0
 11
-319.1170654296875
 21
225.50537109375
 31
0.0
  0
LINE
  5
9B
330
22
100
AcDbEntity
  8
0
  6
Continuous
 62
     7
100
AcDbLine
 10
-318.1910705566406
 20
225.50537109375
 30
0.0
 11
-317.7337036132813
 21
228.8482513427734
 31
0.0
  0
LINE
  5
9C
330
22
100
AcDbEntity
  8
0
  6
Continuous
 62
     7
100
AcDbLine
 10
-322.8921508789063
 20
229.3059692382813
 30
0.0
 11
-319.5744323730469
 21
228.8482513427734
 31
0.0
  0
LINE
  5
9D
330
22
100
AcDbEntity
  8
0
  6
Continuous
 62
     7
100
AcDbLine
 10
-322.8921508789063
 20
230.2312774658203
 30
0.0
 11
-319.5744323730469
 21
230.6889953613281
 31
0.0
  0
LINE
  5
9E
330
22
100
AcDbEntity
  8
0
  6
Continuous
 62
     7
100
AcDbLine
 10
-318.1910705566406
 20
234.0318756103516
 30
0.0
 11
-317.7337036132813
 21
230.6889953613281
 31
0.0
  0
LINE
  5
9F
330
22
100
AcDbEntity
  8
0
  6
Continuous
 62
     7
100
AcDbLine
 10
-322.8921508789063
 20
111.3059768676758
 30
0.0
 11
-322.8921508789063
 21
111.7686309814453
 31
0.0
  0
LINE
  5
A0
330
22
100
AcDbEntity
  8
0
  6
Continuous
 62
     7
100
AcDbLine
 10
-332.4540710449219
 20
149.8752899169922
 30
0.0
 11
-332.4540710449219
 21
124.2752914428711
 31
0.0
  0
LINE
  5
A1
330
22
100
AcDbEntity
  8
0
  6
Continuous
 62
     7
100
AcDbLine
 10
-327.0540771484375
 20
149.8752899169922
 30
0.0
 11
-327.0540771484375
 21
124.2752914428711
 31
0.0
  0
LINE
  5
A2
330
22
100
AcDbEntity
  8
0
  6
Continuous
 62
     7
100
AcDbLine
 10
-319.1170654296875
 20
107.5053787231445
 30
0.0
 11
-319.5744323730469
 21
110.848258972168
 31
0.0
  0
LINE
  5
A3
330
22
100
AcDbEntity
  8
0
  6
Continuous
 62
     7
100
AcDbLine
 10
-318.6540832519531
 20
107.5053787231445
 30
0.0
 11
-318.1910705566406
 21
107.5053787231445
 31
0.0
  0
LINE
  5
A4
330
22
100
AcDbEntity
  8
0
  6
Continuous
 62
     7
100
AcDbLine
 10
-318.6540832519531
 20
107.5053787231445
 30
0.0
 11
-319.1170654296875
 21
107.5053787231445
 31
0.0
  0
LINE
  5
A5
330
22
100
AcDbEntity
  8
0
  6
Continuous
 62
     7
100
AcDbLine
 10
-354.6540832519531
 20
136.4765014648438
 30
0.0
 11
-354.6540832519531
 21
166.5765075683594
 31
0.0
  0
LINE
  5
A6
330
22
100
AcDbEntity
  8
0
  6
Continuous
 62
     7
100
AcDbLine
 10
-356.6540832519531
 20
145.7017211914063
 30
0.0
 11
-356.6540832519531
 21
157.3017120361328
 31
0.0
  0
LINE
  5
A7
330
22
100
AcDbEntity
  8
0
  6
Continuous
 62
     7
100
AcDbLine
 10
-349.2540893554688
 20
136.4765014648438
 30
0.0
 11
-349.2540893554688
 21
166.5765075683594
 31
0.0
  0
LINE
  5
A8
330
22
100
AcDbEntity
  8
0
  6
Continuous
 62
     7
100
AcDbLine
 10
-347.2540893554688
 20
152.1936340332031
 30
0.0
 11
-347.2540893554688
 21
130.5936431884766
 31
0.0
  0
LINE
  5
A9
330
22
100
AcDbEntity
  8
0
  6
Continuous
 62
     7
100
AcDbLine
 10
-362.0540771484375
 20
145.7017211914063
 30
0.0
 11
-362.0540771484375
 21
157.3017120361328
 31
0.0
  0
LINE
  5
AA
330
22
100
AcDbEntity
  8
0
  6
Continuous
 62
     7
100
AcDbLine
 10
-322.8921508789063
 20
112.2312774658203
 30
0.0
 11
-319.5744323730469
 21
112.6890029907227
 31
0.0
  0
LINE
  5
AB
330
22
100
AcDbEntity
  8
0
  6
Continuous
 62
     7
100
AcDbLine
 10
-318.1910705566406
 20
116.0318832397461
 30
0.0
 11
-317.7337036132813
 21
112.6890029907227
 31
0.0
  0
LINE
  5
AC
330
22
100
AcDbEntity
  8
0
  6
Continuous
 62
     7
100
AcDbLine
 10
-319.1170654296875
 20
116.0318832397461
 30
0.0
 11
-319.5744323730469
 21
112.6890029907227
 31
0.0
  0
LINE
  5
AD
330
22
100
AcDbEntity
  8
0
  6
Continuous
 62
     7
100
AcDbLine
 10
-322.8921508789063
 20
112.2312774658203
 30
0.0
 11
-322.8921508789063
 21
111.7686309814453
 31
0.0
  0
LINE
  5
AE
330
22
100
AcDbEntity
  8
0
  6
Continuous
 62
     7
100
AcDbLine
 10
-318.6540832519531
 20
116.0318832397461
 30
0.0
 11
-318.1910705566406
 21
116.0318832397461
 31
0.0
  0
LINE
  5
AF
330
22
100
AcDbEntity
  8
0
  6
Continuous
 62
     7
100
AcDbLine
 10
-318.6540832519531
 20
116.0318832397461
 30
0.0
 11
-319.1170654296875
 21
116.0318832397461
 31
0.0
  0
LINE
  5
B0
330
22
100
AcDbEntity
  8
0
  6
Continuous
 62
     7
100
AcDbLine
 10
-314.416015625
 20
112.2312774658203
 30
0.0
 11
-314.416015625
 21
111.7686309814453
 31
0.0
  0
LINE
  5
B1
330
22
100
AcDbEntity
  8
0
  6
Continuous
 62
     7
100
AcDbLine
 10
-319.6540832519531
 20
164.7201385498047
 30
0.0
 11
-319.6540832519531
 21
123.1120452880859
 31
0.0
  0
LINE
  5
B2
330
22
100
AcDbEntity
  8
0
  6
Continuous
 62
     7
100
AcDbLine
 10
-325.0540771484375
 20
164.7201385498047
 30
0.0
 11
-325.0540771484375
 21
123.1201477050781
 31
0.0
  0
LINE
  5
B3
330
22
100
AcDbEntity
  8
0
  6
Continuous
 62
     7
100
AcDbLine
 10
-295.4540710449219
 20
152.1936340332031
 30
0.0
 11
-295.4540710449219
 21
130.5936431884766
 31
0.0
  0
LINE
  5
B4
330
22
100
AcDbEntity
  8
0
  6
Continuous
 62
     7
100
AcDbLine
 10
-312.2540893554688
 20
164.7201385498047
 30
0.0
 11
-312.2540893554688
 21
123.1201477050781
 31
0.0
  0
LINE
  5
B5
330
22
100
AcDbEntity
  8
0
  6
Continuous
 62
     7
100
AcDbLine
 10
-317.6540832519531
 20
164.7201385498047
 30
0.0
 11
-317.6540832519531
 21
123.1120452880859
 31
0.0
  0
LINE
  5
B6
330
22
100
AcDbEntity
  8
0
  6
Continuous
 62
     7
100
AcDbLine
 10
-339.8540649414063
 20
166.3095092773438
 30
0.0
 11
-339.8540649414063
 21
126.7095108032227
 31
0.0
  0
LINE
  5
B7
330
22
100
AcDbEntity
  8
0
  6
Continuous
 62
     7
100
AcDbLine
 10
-290.0540771484375
 20
152.1936340332031
 30
0.0
 11
-290.0540771484375
 21
130.5936431884766
 31
0.0
  0
LINE
  5
B8
330
22
100
AcDbEntity
  8
0
  6
Continuous
 62
     7
100
AcDbLine
 10
-314.416015625
 20
111.3059768676758
 30
0.0
 11
-314.416015625
 21
111.7686309814453
 31
0.0
  0
LINE
  5
B9
330
22
100
AcDbEntity
  8
0
  6
Continuous
 62
     7
100
AcDbLine
 10
-314.416015625
 20
111.3059768676758
 30
0.0
 11
-317.7337036132813
 21
110.848258972168
 31
0.0
  0
LINE
  5
BA
330
22
100
AcDbEntity
  8
0
  6
Continuous
 62
     7
100
AcDbLine
 10
-314.416015625
 20
112.2312774658203
 30
0.0
 11
-317.7337036132813
 21
112.6890029907227
 31
0.0
  0
LINE
  5
BB
330
22
100
AcDbEntity
  8
0
  6
Continuous
 62
     7
100
AcDbLine
 10
-282.6540832519531
 20
136.4765014648438
 30
0.0
 11
-282.6540832519531
 21
166.5765075683594
 31
0.0
  0
LINE
  5
BC
330
22
100
AcDbEntity
  8
0
  6
Continuous
 62
     7
100
AcDbLine
 10
-280.6540832519531
 20
145.7017211914063
 30
0.0
 11
-280.6540832519531
 21
157.3017120361328
 31
0.0
  0
LINE
  5
BD
330
22
100
AcDbEntity
  8
0
  6
Continuous
 62
     7
100
AcDbLine
 10
-288.0540771484375
 20
136.4765014648438
 30
0.0
 11
-288.0540771484375
 21
166.5765075683594
 31
0.0
  0
LINE
  5
BE
330
22
100
AcDbEntity
  8
0
  6
Continuous
 62
     7
100
AcDbLine
 10
-334.4540710449219
 20
166.3095092773438
 30
0.0
 11
-334.4541320800781
 21
126.7095108032227
 31
0.0
  0
LINE
  5
BF
330
22
100
AcDbEntity
  8
0
  6
Continuous
 62
     7
100
AcDbLine
 10
-341.8540649414063
 20
152.1936340332031
 30
0.0
 11
-341.8540649414063
 21
130.5936431884766
 31
0.0
  0
LINE
  5
C0
330
22
100
AcDbEntity
  8
0
  6
Continuous
 62
     7
100
AcDbLine
 10
-297.4540710449219
 20
166.3095092773438
 30
0.0
 11
-297.4540710449219
 21
126.7095108032227
 31
0.0
  0
LINE
  5
C1
330
22
100
AcDbEntity
  8
0
  6
Continuous
 62
     7
100
AcDbLine
 10
-302.8540649414063
 20
166.3095092773438
 30
0.0
 11
-302.8540344238281
 21
126.7095108032227
 31
0.0
  0
LINE
  5
C2
330
22
100
AcDbEntity
  8
0
  6
Continuous
 62
     7
100
AcDbLine
 10
-304.8540649414063
 20
149.8752899169922
 30
0.0
 11
-304.8540649414063
 21
124.2752914428711
 31
0.0
  0
LINE
  5
C3
330
22
100
AcDbEntity
  8
0
  6
Continuous
 62
     7
100
AcDbLine
 10
-310.2540893554688
 20
149.8752899169922
 30
0.0
 11
-310.2540893554688
 21
124.2752914428711
 31
0.0
  0
LINE
  5
C4
330
22
100
AcDbEntity
  8
0
  6
Continuous
 62
     7
100
AcDbLine
 10
-318.1910705566406
 20
107.5053787231445
 30
0.0
 11
-317.7337036132813
 21
110.848258972168
 31
0.0
  0
LINE
  5
C5
330
22
100
AcDbEntity
  8
0
  6
Continuous
 62
     7
100
AcDbLine
 10
-322.8921508789063
 20
111.3059768676758
 30
0.0
 11
-319.5744323730469
 21
110.848258972168
 31
0.0
  0
LINE
  5
C6
330
22
100
AcDbEntity
  8
0
  6
Continuous
 62
     7
100
AcDbLine
 10
-354.6540832519531
 20
205.0607604980469
 30
0.0
 11
-354.6540832519531
 21
174.9607543945313
 31
0.0
  0
LINE
  5
C7
330
22
100
AcDbEntity
  8
0
  6
Continuous
 62
     7
100
AcDbLine
 10
-349.2540893554688
 20
205.0607604980469
 30
0.0
 11
-349.2540893554688
 21
174.9607543945313
 31
0.0
  0
LINE
  5
C8
330
22
100
AcDbEntity
  8
0
  6
CENTER
 62
     7
100
AcDbLine
 10
-318.6540832519531
 20
256.5646667480469
 30
0.0
 11
-318.6540832519531
 21
80.80947875976562
 31
0.0
  0
LINE
  5
C9
330
22
100
AcDbEntity
  8
0
  6
Continuous
 62
     7
100
AcDbLine
 10
-339.8540649414063
 20
175.2277526855469
 30
0.0
 11
-339.8540649414063
 21
214.8277435302734
 31
0.0
  0
LINE
  5
CA
330
22
100
AcDbEntity
  8
0
  6
Continuous
 62
     7
100
AcDbLine
 10
-334.4540710449219
 20
175.2277526855469
 30
0.0
 11
-334.4541320800781
 21
214.8277435302734
 31
0.0
  0
LINE
  5
CB
330
22
100
AcDbEntity
  8
0
  6
Continuous
 62
     7
100
AcDbLine
 10
-325.0540771484375
 20
176.8171081542969
 30
0.0
 11
-325.0540771484375
 21
218.4171142578125
 31
0.0
  0
LINE
  5
CC
330
22
100
AcDbEntity
  8
0
  6
Continuous
 62
     7
100
AcDbLine
 10
-297.4540710449219
 20
175.2277526855469
 30
0.0
 11
-297.4540710449219
 21
214.8277435302734
 31
0.0
  0
LINE
  5
CD
330
22
100
AcDbEntity
  8
0
  6
Continuous
 62
     7
100
AcDbLine
 10
-302.8540649414063
 20
175.2277526855469
 30
0.0
 11
-302.8540344238281
 21
214.8277435302734
 31
0.0
  0
LINE
  5
CE
330
22
100
AcDbEntity
  8
0
  6
Continuous
 62
     7
100
AcDbLine
 10
-312.2540893554688
 20
176.8171081542969
 30
0.0
 11
-312.2540893554688
 21
218.4171142578125
 31
0.0
  0
LINE
  5
CF
330
22
100
AcDbEntity
  8
0
  6
Continuous
 62
     7
100
AcDbLine
 10
-317.6540832519531
 20
176.8171081542969
 30
0.0
 11
-317.6540832519531
 21
218.4252166748047
 31
0.0
  0
LINE
  5
D0
330
22
100
AcDbEntity
  8
0
  6
Continuous
 62
     7
100
AcDbLine
 10
-319.6540832519531
 20
176.8171081542969
 30
0.0
 11
-319.6540832519531
 21
218.4252166748047
 31
0.0
  0
LINE
  5
D1
330
22
100
AcDbEntity
  8
0
  6
Continuous
 62
     7
100
AcDbLine
 10
-273.2540893554688
 20
153.5265350341797
 30
0.0
 11
-273.2540893554688
 21
188.0107269287109
 31
0.0
  0
LINE
  5
D2
330
22
100
AcDbEntity
  8
0
  6
Continuous
 62
     7
100
AcDbLine
 10
-275.2540893554688
 20
176.5686340332031
 30
0.0
 11
-275.2540893554688
 21
164.9686279296875
 31
0.0
  0
LINE
  5
D3
330
22
100
AcDbEntity
  8
0
  6
CENTER
 62
     7
100
AcDbLine
 10
-403.1561889648438
 20
170.7686309814453
 30
0.0
 11
-232.2372283935547
 21
170.7686309814453
 31
0.0
  0
LINE
  5
D4
330
22
100
AcDbEntity
  8
0
  6
Continuous
 62
     7
100
AcDbLine
 10
-280.6540832519531
 20
176.5686340332031
 30
0.0
 11
-280.6540832519531
 21
164.9686279296875
 31
0.0
  0
LINE
  5
D5
330
22
100
AcDbEntity
  8
0
  6
Continuous
 62
     7
100
AcDbLine
 10
-304.8540649414063
 20
183.5686340332031
 30
0.0
 11
-304.8540649414063
 21
157.9686279296875
 31
0.0
  0
LINE
  5
D6
330
22
100
AcDbEntity
  8
0
  6
Continuous
 62
     7
100
AcDbLine
 10
-310.2540893554688
 20
183.5686340332031
 30
0.0
 11
-310.2540893554688
 21
157.9686279296875
 31
0.0
  0
LINE
  5
D7
330
22
100
AcDbEntity
  8
0
  6
Continuous
 62
     7
100
AcDbLine
 10
-341.8540649414063
 20
181.5686340332031
 30
0.0
 11
-341.8540649414063
 21
159.9686279296875
 31
0.0
  0
LINE
  5
D8
330
22
100
AcDbEntity
  8
0
  6
Continuous
 62
     7
100
AcDbLine
 10
-295.4540710449219
 20
181.5686340332031
 30
0.0
 11
-295.4540710449219
 21
159.9686279296875
 31
0.0
  0
LINE
  5
D9
330
22
100
AcDbEntity
  8
0
  6
Continuous
 62
     7
100
AcDbLine
 10
-332.4540710449219
 20
183.5686340332031
 30
0.0
 11
-332.4540710449219
 21
157.9686279296875
 31
0.0
  0
LINE
  5
DA
330
22
100
AcDbEntity
  8
0
  6
Continuous
 62
     7
100
AcDbLine
 10
-290.0540771484375
 20
181.5686340332031
 30
0.0
 11
-290.0540771484375
 21
159.9686279296875
 31
0.0
  0
LINE
  5
DB
330
22
100
AcDbEntity
  8
0
  6
Continuous
 62
     7
100
AcDbLine
 10
-327.0540771484375
 20
183.5686340332031
 30
0.0
 11
-327.0540771484375
 21
157.9686279296875
 31
0.0
  0
LINE
  5
DC
330
22
100
AcDbEntity
  8
0
  6
Continuous
 62
     7
100
AcDbLine
 10
-356.6540832519531
 20
176.5686340332031
 30
0.0
 11
-356.6540832519531
 21
164.9686279296875
 31
0.0
  0
LINE
  5
DD
330
22
100
AcDbEntity
  8
0
  6
Continuous
 62
     7
100
AcDbLine
 10
-347.2540893554688
 20
181.5686340332031
 30
0.0
 11
-347.2540893554688
 21
159.9686279296875
 31
0.0
  0
LINE
  5
DE
330
22
100
AcDbEntity
  8
0
  6
Continuous
 62
     7
100
AcDbLine
 10
-362.0540771484375
 20
176.5686340332031
 30
0.0
 11
-362.0540771484375
 21
164.9686279296875
 31
0.0
  0
LINE
  5
DF
330
22
100
AcDbEntity
  8
0
  6
Continuous
 62
     7
100
AcDbLine
 10
-282.6540832519531
 20
205.0607604980469
 30
0.0
 11
-282.6540832519531
 21
174.9607543945313
 31
0.0
  0
LINE
  5
E0
330
22
100
AcDbEntity
  8
0
  6
Continuous
 62
     7
100
AcDbLine
 10
-288.0540771484375
 20
205.0607604980469
 30
0.0
 11
-288.0540771484375
 21
174.9607543945313
 31
0.0
  0
LINE
  5
E1
330
22
100
AcDbEntity
  8
0
  6
Continuous
 62
     7
100
AcDbLine
 10
-364.0540771484375
 20
153.5265350341797
 30
0.0
 11
-364.0540771484375
 21
188.0107269287109
 31
0.0
  0
LINE
  5
E2
330
22
100
AcDbEntity
  8
0
  6
Continuous
 62
     7
100
AcDbLine
 10
-71.58956909179687
 20
227.7686309814453
 30
0.0
 11
-171.5895690917969
 21
227.7686309814453
 31
0.0
  0
LINE
  5
E3
330
22
100
AcDbEntity
  8
0
  6
Continuous
 62
     7
100
AcDbLine
 10
-178.5895690917969
 20
220.7686309814453
 30
0.0
 11
-71.58956909179687
 21
220.7686309814453
 31
0.0
  0
LINE
  5
E4
330
22
100
AcDbEntity
  8
0
  6
Continuous
 62
     7
100
AcDbLine
 10
-181.5895690917969
 20
236.6686248779297
 30
0.0
 11
-178.5895690917969
 21
236.6686248779297
 31
0.0
  0
LINE
  5
E5
330
22
100
AcDbEntity
  8
0
  6
Continuous
 62
     7
100
AcDbLine
 10
-178.5895690917969
 20
224.6186218261719
 30
0.0
 11
-177.4395751953125
 21
225.7686309814453
 31
0.0
  0
LINE
  5
E6
330
22
100
AcDbEntity
  8
0
  6
Continuous
 62
     7
100
AcDbLine
 10
-181.5895690917969
 20
224.2686309814453
 30
0.0
 11
-178.5895690917969
 21
227.2686309814453
 31
0.0
  0
LINE
  5
E7
330
22
100
AcDbEntity
  8
0
  6
Continuous
 62
     7
100
AcDbLine
 10
-181.5895690917969
 20
234.2686309814453
 30
0.0
 11
-181.5895690917969
 21
224.2686309814453
 31
0.0
  0
LINE
  5
E8
330
22
100
AcDbEntity
  8
0
  6
Continuous
 62
     7
100
AcDbLine
 10
-181.5895690917969
 20
234.2686309814453
 30
0.0
 11
-178.5895690917969
 21
231.2686309814453
 31
0.0
  0
LINE
  5
E9
330
22
100
AcDbEntity
  8
0
  6
Continuous
 62
     7
100
AcDbLine
 10
-178.5895690917969
 20
236.6686248779297
 30
0.0
 11
-178.5895690917969
 21
231.2686309814453
 31
0.0
  0
LINE
  5
EA
330
22
100
AcDbEntity
  8
0
  6
Continuous
 62
     7
100
AcDbLine
 10
-181.4952545166016
 20
239.7201080322266
 30
0.0
 11
-176.2243957519531
 21
250.9805908203125
 31
0.0
  0
LINE
  5
EB
330
22
100
AcDbEntity
  8
0
  6
Continuous
 62
     7
100
AcDbLine
 10
-181.5895690917969
 20
236.2686309814453
 30
0.0
 11
-178.5895690917969
 21
236.2686309814453
 31
0.0
  0
LINE
  5
EC
330
22
100
AcDbEntity
  8
0
  6
Continuous
 62
     7
100
AcDbLine
 10
-172.3986358642578
 20
230.2369689941406
 30
0.0
 11
-172.3986358642578
 21
228.2686309814453
 31
0.0
  0
LINE
  5
ED
330
22
100
AcDbEntity
  8
0
  6
Continuous
 62
     7
100
AcDbLine
 10
-172.3986358642578
 20
228.2686309814453
 30
0.0
 11
-173.3986358642578
 21
227.2686309814453
 31
0.0
  0
LINE
  5
EE
330
22
100
AcDbEntity
  8
0
  6
Continuous
 62
     7
100
AcDbLine
 10
-172.3986358642578
 20
230.2369689941406
 30
0.0
 11
-173.2286987304688
 21
231.2686309814453
 31
0.0
  0
LINE
  5
EF
330
22
100
AcDbEntity
  8
0
  6
Continuous
 62
     7
100
AcDbLine
 10
-171.5895690917969
 20
224.6186218261719
 30
0.0
 11
-178.5895690917969
 21
224.6186218261719
 31
0.0
  0
LINE
  5
F0
330
22
100
AcDbEntity
  8
0
  6
Continuous
 62
     7
100
AcDbLine
 10
-171.5895690917969
 20
225.7686309814453
 30
0.0
 11
-178.5895690917969
 21
225.7686309814453
 31
0.0
  0
LINE
  5
F1
330
22
100
AcDbEntity
  8
0
  6
Continuous
 62
     7
100
AcDbLine
 10
-178.5895690917969
 20
231.2686309814453
 30
0.0
 11
-171.6197662353516
 21
231.2686309814453
 31
0.0
  0
LINE
  5
F2
330
22
100
AcDbEntity
  8
0
  6
Continuous
 62
     7
100
AcDbLine
 10
-178.5895690917969
 20
227.2686309814453
 30
0.0
 11
-171.6197662353516
 21
227.2686309814453
 31
0.0
  0
LINE
  5
F3
330
22
100
AcDbEntity
  8
0
  6
Continuous
 62
     7
100
AcDbLine
 10
-171.5895690917969
 20
224.6186218261719
 30
0.0
 11
-172.7395629882813
 21
225.7686309814453
 31
0.0
  0
LINE
  5
F4
330
22
100
AcDbEntity
  8
0
  6
Continuous
 62
     7
100
AcDbLine
 10
-171.5895690917969
 20
224.6186218261719
 30
0.0
 11
-171.5895690917969
 21
251.2686309814453
 31
0.0
  0
LINE
  5
F5
330
22
100
AcDbEntity
  8
0
  6
Continuous
 62
     7
100
AcDbLine
 10
-172.2657012939453
 20
251.2686309814453
 30
0.0
 11
-171.5895690917969
 21
250.5924987792969
 31
0.0
  0
LINE
  5
F6
330
22
100
AcDbEntity
  8
0
  6
Continuous
 62
     7
100
AcDbLine
 10
-172.9728088378906
 20
251.2686309814453
 30
0.0
 11
-171.5895690917969
 21
249.8853912353516
 31
0.0
  0
LINE
  5
F7
330
22
100
AcDbEntity
  8
0
  6
Continuous
 62
     7
100
AcDbLine
 10
-175.0941314697266
 20
251.2686309814453
 30
0.0
 11
-171.5895690917969
 21
247.7640686035156
 31
0.0
  0
LINE
  5
F8
330
22
100
AcDbEntity
  8
0
  6
Continuous
 62
     7
100
AcDbLine
 10
-175.7967987060547
 20
251.2641906738281
 30
0.0
 11
-171.5895690917969
 21
247.0569610595703
 31
0.0
  0
LINE
  5
F9
330
22
100
AcDbEntity
  8
0
  6
Continuous
 62
     7
100
AcDbLine
 10
-176.6739959716797
 20
250.0200653076172
 30
0.0
 11
-171.5895690917969
 21
244.9356384277344
 31
0.0
  0
LINE
  5
FA
330
22
100
AcDbEntity
  8
0
  6
Continuous
 62
     7
100
AcDbLine
 10
-176.8994598388672
 20
249.5384216308594
 30
0.0
 11
-171.5895690917969
 21
244.2285308837891
 31
0.0
  0
LINE
  5
FB
330
22
100
AcDbEntity
  8
0
  6
Continuous
 62
     7
100
AcDbLine
 10
-177.5758209228516
 20
248.0934600830078
 30
0.0
 11
-171.5895690917969
 21
242.1072082519531
 31
0.0
  0
LINE
  5
FC
330
22
100
AcDbEntity
  8
0
  6
Continuous
 62
     7
100
AcDbLine
 10
-177.80126953125
 20
247.61181640625
 30
0.0
 11
-171.5895690917969
 21
241.4001159667969
 31
0.0
  0
LINE
  5
FD
330
22
100
AcDbEntity
  8
0
  6
Continuous
 62
     7
100
AcDbLine
 10
-178.4776306152344
 20
246.1668548583984
 30
0.0
 11
-171.5895690917969
 21
239.2787933349609
 31
0.0
  0
LINE
  5
FE
330
22
100
AcDbEntity
  8
0
  6
Continuous
 62
     7
100
AcDbLine
 10
-178.7030944824219
 20
245.6851959228516
 30
0.0
 11
-171.5895690917969
 21
238.5716857910156
 31
0.0
  0
LINE
  5
FF
330
22
100
AcDbEntity
  8
0
  6
Continuous
 62
     7
100
AcDbLine
 10
-179.3794555664063
 20
244.2402496337891
 30
0.0
 11
-171.5895690917969
 21
236.4503631591797
 31
0.0
  0
LINE
  5
100
330
22
100
AcDbEntity
  8
0
  6
Continuous
 62
     7
100
AcDbLine
 10
-179.6049041748046
 20
243.7585906982422
 30
0.0
 11
-171.5895690917969
 21
235.7432556152344
 31
0.0
  0
LINE
  5
101
330
22
100
AcDbEntity
  8
0
  6
Continuous
 62
     7
100
AcDbLine
 10
-180.2812652587891
 20
242.3136291503906
 30
0.0
 11
-171.5895690917969
 21
233.6219329833984
 31
0.0
  0
LINE
  5
102
330
22
100
AcDbEntity
  8
0
  6
Continuous
 62
     7
100
AcDbLine
 10
-180.5067291259766
 20
241.8319854736328
 30
0.0
 11
-171.5895690917969
 21
232.9148254394531
 31
0.0
  0
LINE
  5
103
330
22
100
AcDbEntity
  8
0
  6
Continuous
 62
     7
100
AcDbLine
 10
-181.1830902099609
 20
240.3870239257813
 30
0.0
 11
-172.064697265625
 21
231.2686309814453
 31
0.0
  0
LINE
  5
104
330
22
100
AcDbEntity
  8
0
  6
Continuous
 62
     7
100
AcDbLine
 10
-181.4085388183594
 20
239.9053649902344
 30
0.0
 11
-172.7718048095703
 21
231.2686309814453
 31
0.0
  0
LINE
  5
105
330
22
100
AcDbEntity
  8
0
  6
Continuous
 62
     7
100
AcDbLine
 10
-178.5895690917969
 20
234.9650726318359
 30
0.0
 11
-174.8931121826172
 21
231.2686309814453
 31
0.0
  0
LINE
  5
106
330
22
100
AcDbEntity
  8
0
  6
Continuous
 62
     7
100
AcDbLine
 10
-181.5895690917969
 20
237.9650726318359
 30
0.0
 11
-180.2931213378906
 21
236.6686248779297
 31
0.0
  0
LINE
  5
107
330
22
100
AcDbEntity
  8
0
  6
Continuous
 62
     7
100
AcDbLine
 10
-178.5895690917969
 20
234.2579803466797
 30
0.0
 11
-175.6002197265625
 21
231.2686309814453
 31
0.0
  0
LINE
  5
108
330
22
100
AcDbEntity
  8
0
  6
Continuous
 62
     7
100
AcDbLine
 10
-181.5895690917969
 20
237.2579803466797
 30
0.0
 11
-181.0002288818359
 21
236.6686248779297
 31
0.0
  0
LINE
  5
109
330
22
100
AcDbEntity
  8
0
  6
Continuous
 62
     7
100
AcDbLine
 10
-173.7215423583984
 20
227.2686309814453
 30
0.0
 11
-172.2215423583984
 21
225.7686309814453
 31
0.0
  0
LINE
  5
10A
330
22
100
AcDbEntity
  8
0
  6
Continuous
 62
     7
100
AcDbLine
 10
-178.5895690917969
 20
232.1366577148438
 30
0.0
 11
-177.7215423583984
 21
231.2686309814453
 31
0.0
  0
LINE
  5
10B
330
22
100
AcDbEntity
  8
0
  6
Continuous
 62
     7
100
AcDbLine
 10
-174.4286499023438
 20
227.2686309814453
 30
0.0
 11
-172.9286499023438
 21
225.7686309814453
 31
0.0
  0
LINE
  5
10C
330
22
100
AcDbEntity
  8
0
  6
Continuous
 62
     7
100
AcDbLine
 10
-178.5895690917969
 20
231.4295501708984
 30
0.0
 11
-178.4286499023438
 21
231.2686309814453
 31
0.0
  0
LINE
  5
10D
330
22
100
AcDbEntity
  8
0
  6
Continuous
 62
     7
100
AcDbLine
 10
-176.5499725341797
 20
227.2686309814453
 30
0.0
 11
-175.0499725341797
 21
225.7686309814453
 31
0.0
  0
LINE
  5
10E
330
22
100
AcDbEntity
  8
0
  6
Continuous
 62
     7
100
AcDbLine
 10
-177.257080078125
 20
227.2686309814453
 30
0.0
 11
-175.757080078125
 21
225.7686309814453
 31
0.0
  0
LINE
  5
10F
330
22
100
AcDbEntity
  8
0
  6
Continuous
 62
     7
100
AcDbLine
 10
-178.5895690917969
 20
226.4797973632813
 30
0.0
 11
-177.8784027099609
 21
225.7686309814453
 31
0.0
  0
LINE
  5
110
330
22
100
AcDbEntity
  8
0
  6
Continuous
 62
     7
100
AcDbLine
 10
-178.5895690917969
 20
225.7726898193359
 30
0.0
 11
-178.5855102539063
 21
225.7686309814453
 31
0.0
  0
LINE
  5
111
330
22
100
AcDbEntity
  8
0
  6
Continuous
 62
     7
100
AcDbLine
 10
-171.5895690917969
 20
251.2686309814453
 30
0.0
 11
-175.7715454101563
 21
251.2686309814453
 31
0.0
  0
LINE
  5
112
330
22
100
AcDbEntity
  8
0
  6
Continuous
 62
     7
100
AcDbLine
 10
-181.5895690917969
 20
173.2686309814453
 30
0.0
 11
-178.5895690917969
 21
173.2686309814453
 31
0.0
  0
LINE
  5
113
330
22
100
AcDbEntity
  8
0
  6
Continuous
 62
     7
100
AcDbLine
 10
-176.0895690917969
 20
170.7686309814453
 30
0.0
 11
-176.0895690917969
 21
93.39376068115234
 31
0.0
  0
LINE
  5
114
330
22
100
AcDbEntity
  8
0
  6
Continuous
 62
     7
100
AcDbLine
 10
-181.4952545166016
 20
101.8171463012695
 30
0.0
 11
-176.2243957519531
 21
90.55665588378905
 31
0.0
  0
LINE
  5
115
330
22
100
AcDbEntity
  8
0
  6
Continuous
 62
     7
100
AcDbLine
 10
-175.7715454101563
 20
90.26863098144531
 30
0.0
 11
-171.5895690917969
 21
90.26863098144531
 31
0.0
  0
LINE
  5
116
330
22
100
AcDbEntity
  8
0
  6
Continuous
 62
     7
100
AcDbLine
 10
-171.5895690917969
 20
90.26863098144531
 30
0.0
 11
-171.5895690917969
 21
170.7686309814453
 31
0.0
  0
LINE
  5
117
330
22
100
AcDbEntity
  8
0
  6
Continuous
 62
     7
100
AcDbLine
 10
-71.58956909179687
 20
113.7686309814453
 30
0.0
 11
-171.5895690917969
 21
113.7686309814453
 31
0.0
  0
LINE
  5
118
330
22
100
AcDbEntity
  8
0
  6
CENTER
 62
     7
100
AcDbLine
 10
-192.7516784667969
 20
170.7686309814453
 30
0.0
 11
-59.70096969604492
 21
170.7686309814453
 31
0.0
  0
LINE
  5
119
330
22
100
AcDbEntity
  8
0
  6
Continuous
 62
     7
100
AcDbLine
 10
-181.5895690917969
 20
235.3131256103516
 30
0.0
 11
-180.6340637207031
 21
236.2686309814453
 31
0.0
  0
LINE
  5
11A
330
22
100
AcDbEntity
  8
0
  6
Continuous
 62
     7
100
AcDbLine
 10
-180.6976013183594
 20
233.3766632080078
 30
0.0
 11
-178.5895690917969
 21
235.4846954345703
 31
0.0
  0
LINE
  5
11B
330
22
100
AcDbEntity
  8
0
  6
Continuous
 62
     7
100
AcDbLine
 10
-179.2833862304688
 20
231.9624481201172
 30
0.0
 11
-178.5895690917969
 21
232.6562805175781
 31
0.0
  0
LINE
  5
11C
330
22
100
AcDbEntity
  8
0
  6
Continuous
 62
     7
100
AcDbLine
 10
-181.5895690917969
 20
223.9994201660156
 30
0.0
 11
-178.5895690917969
 21
226.9994201660156
 31
0.0
  0
LINE
  5
11D
330
22
100
AcDbEntity
  8
0
  6
Continuous
 62
     7
100
AcDbLine
 10
-181.5895690917969
 20
221.1709899902344
 30
0.0
 11
-178.5895690917969
 21
224.1709899902344
 31
0.0
  0
LINE
  5
11E
330
22
100
AcDbEntity
  8
0
  6
Continuous
 62
     7
100
AcDbLine
 10
-181.5895690917969
 20
218.3425598144531
 30
0.0
 11
-178.5895690917969
 21
221.3425598144531
 31
0.0
  0
LINE
  5
11F
330
22
100
AcDbEntity
  8
0
  6
Continuous
 62
     7
100
AcDbLine
 10
-181.5895690917969
 20
215.5141448974609
 30
0.0
 11
-178.5895690917969
 21
218.5141448974609
 31
0.0
  0
LINE
  5
120
330
22
100
AcDbEntity
  8
0
  6
Continuous
 62
     7
100
AcDbLine
 10
-181.5895690917969
 20
212.6857147216797
 30
0.0
 11
-178.5895690917969
 21
215.6857147216797
 31
0.0
  0
LINE
  5
121
330
22
100
AcDbEntity
  8
0
  6
Continuous
 62
     7
100
AcDbLine
 10
-181.5895690917969
 20
209.8572845458984
 30
0.0
 11
-178.5895690917969
 21
212.8572845458984
 31
0.0
  0
LINE
  5
122
330
22
100
AcDbEntity
  8
0
  6
Continuous
 62
     7
100
AcDbLine
 10
-181.5895690917969
 20
207.0288543701172
 30
0.0
 11
-178.5895690917969
 21
210.0288543701172
 31
0.0
  0
LINE
  5
123
330
22
100
AcDbEntity
  8
0
  6
Continuous
 62
     7
100
AcDbLine
 10
-181.5895690917969
 20
204.2004241943359
 30
0.0
 11
-178.5895690917969
 21
207.2004241943359
 31
0.0
  0
LINE
  5
124
330
22
100
AcDbEntity
  8
0
  6
Continuous
 62
     7
100
AcDbLine
 10
-181.5895690917969
 20
201.3720092773438
 30
0.0
 11
-178.5895690917969
 21
204.3720092773438
 31
0.0
  0
LINE
  5
125
330
22
100
AcDbEntity
  8
0
  6
Continuous
 62
     7
100
AcDbLine
 10
-181.5895690917969
 20
198.5435791015625
 30
0.0
 11
-178.5895690917969
 21
201.5435791015625
 31
0.0
  0
LINE
  5
126
330
22
100
AcDbEntity
  8
0
  6
Continuous
 62
     7
100
AcDbLine
 10
-181.5895690917969
 20
195.7151489257813
 30
0.0
 11
-178.5895690917969
 21
198.7151489257813
 31
0.0
  0
LINE
  5
127
330
22
100
AcDbEntity
  8
0
  6
Continuous
 62
     7
100
AcDbLine
 10
-181.5895690917969
 20
192.88671875
 30
0.0
 11
-178.5895690917969
 21
195.88671875
 31
0.0
  0
LINE
  5
128
330
22
100
AcDbEntity
  8
0
  6
Continuous
 62
     7
100
AcDbLine
 10
-181.5895690917969
 20
190.0582885742188
 30
0.0
 11
-178.5895690917969
 21
193.0582885742188
 31
0.0
  0
LINE
  5
129
330
22
100
AcDbEntity
  8
0
  6
Continuous
 62
     7
100
AcDbLine
 10
-181.5895690917969
 20
187.2298736572266
 30
0.0
 11
-178.5895690917969
 21
190.2298736572266
 31
0.0
  0
LINE
  5
12A
330
22
100
AcDbEntity
  8
0
  6
Continuous
 62
     7
100
AcDbLine
 10
-181.5895690917969
 20
184.4014434814453
 30
0.0
 11
-178.5895690917969
 21
187.4014434814453
 31
0.0
  0
LINE
  5
12B
330
22
100
AcDbEntity
  8
0
  6
Continuous
 62
     7
100
AcDbLine
 10
-181.5895690917969
 20
181.5730133056641
 30
0.0
 11
-178.5895690917969
 21
184.5730133056641
 31
0.0
  0
LINE
  5
12C
330
22
100
AcDbEntity
  8
0
  6
Continuous
 62
     7
100
AcDbLine
 10
-181.5895690917969
 20
178.7445831298828
 30
0.0
 11
-178.5895690917969
 21
181.7445831298828
 31
0.0
  0
LINE
  5
12D
330
22
100
AcDbEntity
  8
0
  6
Continuous
 62
     7
100
AcDbLine
 10
-181.5895690917969
 20
175.9161529541016
 30
0.0
 11
-178.5895690917969
 21
178.9161529541016
 31
0.0
  0
LINE
  5
12E
330
22
100
AcDbEntity
  8
0
  6
Continuous
 62
     7
100
AcDbLine
 10
-181.4086761474609
 20
173.2686309814453
 30
0.0
 11
-178.5895690917969
 21
176.0877380371094
 31
0.0
  0
LINE
  5
12F
330
22
100
AcDbEntity
  8
0
  6
Continuous
 62
     7
100
AcDbLine
 10
-71.58956909179687
 20
113.7686309814453
 30
0.0
 11
-71.58956909179687
 21
227.7686309814453
 31
0.0
  0
LINE
  5
130
330
22
100
AcDbEntity
  8
0
  6
Continuous
 62
     7
100
AcDbLine
 10
-181.5895690917969
 20
239.2961730957031
 30
0.0
 11
-181.5895690917969
 21
102.2410888671875
 31
0.0
  0
LINE
  5
131
330
22
100
AcDbEntity
  8
0
  6
Continuous
 62
     7
100
AcDbLine
 10
-178.5895690917969
 20
227.2686309814453
 30
0.0
 11
-178.5895690917969
 21
170.7686309814453
 31
0.0
  0
LINE
  5
132
330
22
100
AcDbEntity
  8
0
  6
CENTER
 62
     7
100
AcDbLine
 10
-183.8475494384766
 20
229.2686309814453
 30
0.0
 11
-171.6197662353516
 21
229.2686309814453
 31
0.0
  0
ARC
  5
133
330
22
100
AcDbEntity
  8
0
  6
Continuous
 62
     7
100
AcDbCircle
 10
-272.2540893554688
 20
188.0107269287109
 30
0.0
 40
1.0
100
AcDbArc
 50
20.38495856990432
 51
180.0000000000004
  0
ARC
  5
134
330
22
100
AcDbEntity
  8
0
  6
Continuous
 62
     7
100
AcDbCircle
 10
-277.9540710449219
 20
195.8355407714844
 30
0.0
 40
2.700000047683715
100
AcDbArc
 50
0.0
 51
180.0000000000004
  0
ARC
  5
135
330
22
100
AcDbEntity
  8
0
  6
Continuous
 62
     7
100
AcDbCircle
 10
-300.1540832519531
 20
214.8434448242188
 30
0.0
 40
2.700000047683715
100
AcDbArc
 50
0.0
 51
180.3331940755769
  0
ARC
  5
136
330
22
100
AcDbEntity
  8
0
  6
Continuous
 62
     7
100
AcDbCircle
 10
-307.5540771484375
 20
217.261962890625
 30
0.0
 40
2.700000047683715
100
AcDbArc
 50
0.0
 51
180.0000000000004
  0
ARC
  5
137
330
22
100
AcDbEntity
  8
0
  6
Continuous
 62
     7
100
AcDbCircle
 10
-344.5540771484375
 20
210.9436187744141
 30
0.0
 40
2.700000047683715
100
AcDbArc
 50
0.0
 51
180.0000000000004
  0
ARC
  5
138
330
22
100
AcDbEntity
  8
0
  6
Continuous
 62
     7
100
AcDbCircle
 10
-351.9540710449219
 20
205.0607604980469
 30
0.0
 40
2.700000047683715
100
AcDbArc
 50
0.0
 51
180.0000000000004
  0
ARC
  5
139
330
22
100
AcDbEntity
  8
0
  6
Continuous
 62
     7
100
AcDbCircle
 10
-314.9540710449219
 20
218.4252166748047
 30
0.0
 40
2.700000047683715
100
AcDbArc
 50
359.8280607213844
 51
180.2062621019131
  0
ARC
  5
13A
330
22
100
AcDbEntity
  8
0
  6
Continuous
 62
     7
100
AcDbCircle
 10
-322.3540649414063
 20
218.4252166748047
 30
0.0
 40
2.700000047683715
100
AcDbArc
 50
359.7937378980881
 51
180.1719373352411
  0
ARC
  5
13B
330
22
100
AcDbEntity
  8
0
  6
Continuous
 62
     7
100
AcDbCircle
 10
-337.1540832519531
 20
214.8434448242188
 30
0.0
 40
2.700000047683715
100
AcDbArc
 50
359.6668059244245
 51
180.0000000000004
  0
ARC
  5
13C
330
22
100
AcDbEntity
  8
0
  6
Continuous
 62
     7
100
AcDbCircle
 10
-329.7540893554688
 20
217.261962890625
 30
0.0
 40
2.700000047683715
100
AcDbArc
 50
0.0
 51
180.0000000000004
  0
ARC
  5
13D
330
22
100
AcDbEntity
  8
0
  6
Continuous
 62
     7
100
AcDbCircle
 10
-307.5540771484375
 20
183.5686340332031
 30
0.0
 40
2.700000047683715
100
AcDbArc
 50
0.0
 51
180.0000000000004
  0
ARC
  5
13E
330
22
100
AcDbEntity
  8
0
  6
Continuous
 62
     7
100
AcDbCircle
 10
-329.7540893554688
 20
183.5686340332031
 30
0.0
 40
2.700000047683715
100
AcDbArc
 50
0.0
 51
180.0000000000004
  0
ARC
  5
13F
330
22
100
AcDbEntity
  8
0
  6
Continuous
 62
     7
100
AcDbCircle
 10
-359.3540649414063
 20
195.8355407714844
 30
0.0
 40
2.700000047683715
100
AcDbArc
 50
0.0
 51
180.0000000000004
  0
ARC
  5
140
330
22
100
AcDbEntity
  8
0
  6
Continuous
 62
     7
100
AcDbCircle
 10
-307.5540771484375
 20
191.6619567871094
 30
0.0
 40
2.700000047683715
100
AcDbArc
 50
180.0000000000004
 51
0.0
  0
ARC
  5
141
330
22
100
AcDbEntity
  8
0
  6
Continuous
 62
     7
100
AcDbCircle
 10
-329.7540893554688
 20
191.6619567871094
 30
0.0
 40
2.700000047683715
100
AcDbArc
 50
180.0000000000004
 51
0.0
  0
ARC
  5
142
330
22
100
AcDbEntity
  8
0
  6
Continuous
 62
     7
100
AcDbCircle
 10
-365.0540771484375
 20
188.0107269287109
 30
0.0
 40
1.0
100
AcDbArc
 50
0.0
 51
159.6150414300957
  0
ARC
  5
143
330
22
100
AcDbEntity
  8
0
  6
Continuous
 62
     7
100
AcDbCircle
 10
-292.7540893554688
 20
189.3436126708984
 30
0.0
 40
2.700000047683715
100
AcDbArc
 50
180.0000000000004
 51
0.0
  0
ARC
  5
144
330
22
100
AcDbEntity
  8
0
  6
Continuous
 62
     7
100
AcDbCircle
 10
-344.5540771484375
 20
189.3436126708984
 30
0.0
 40
2.700000047683715
100
AcDbArc
 50
180.0000000000004
 51
0.0
  0
ARC
  5
145
330
22
100
AcDbEntity
  8
0
  6
Continuous
 62
     7
100
AcDbCircle
 10
-277.9540710449219
 20
157.3017120361328
 30
0.0
 40
2.700000047683715
100
AcDbArc
 50
0.0
 51
180.0000000000004
  0
ARC
  5
146
330
22
100
AcDbEntity
  8
0
  6
Continuous
 62
     7
100
AcDbCircle
 10
-277.9540710449219
 20
145.7017211914063
 30
0.0
 40
2.700000047683715
100
AcDbArc
 50
180.0000000000004
 51
0.0
  0
ARC
  5
147
330
22
100
AcDbEntity
  8
0
  6
Continuous
 62
     7
100
AcDbCircle
 10
-272.2540893554688
 20
153.5265350341797
 30
0.0
 40
1.0
100
AcDbArc
 50
180.0000000000004
 51
339.6150414300964
  0
ARC
  5
148
330
22
100
AcDbEntity
  8
0
  6
Continuous
 62
     7
100
AcDbCircle
 10
-277.9540710449219
 20
164.9686279296875
 30
0.0
 40
2.700000047683715
100
AcDbArc
 50
180.0000000000004
 51
0.0
  0
ARC
  5
149
330
22
100
AcDbEntity
  8
0
  6
Continuous
 62
     7
100
AcDbCircle
 10
-285.3540649414063
 20
205.0607604980469
 30
0.0
 40
2.700000047683715
100
AcDbArc
 50
0.0
 51
180.0000000000004
  0
CIRCLE
  5
14A
330
22
100
AcDbEntity
  8
0
  6
Continuous
 62
     7
100
AcDbCircle
 10
-318.6540832519531
 20
229.7686309814453
 30
0.0
 40
5.25
  0
CIRCLE
  5
14B
330
22
100
AcDbEntity
  8
0
  6
Continuous
 62
     7
100
AcDbCircle
 10
-318.6540832519531
 20
229.7686309814453
 30
0.0
 40
5.0
  0
ARC
  5
14C
330
22
100
AcDbEntity
  8
0
  6
Continuous
 62
     7
100
AcDbCircle
 10
-292.7540893554688
 20
210.9436187744141
 30
0.0
 40
2.700000047683715
100
AcDbArc
 50
0.0
 51
180.0000000000004
  0
ARC
  5
14D
330
22
100
AcDbEntity
  8
0
  6
Continuous
 62
     7
100
AcDbCircle
 10
-329.7540893554688
 20
149.8752899169922
 30
0.0
 40
2.700000047683715
100
AcDbArc
 50
0.0
 51
180.0000000000004
  0
ARC
  5
14E
330
22
100
AcDbEntity
  8
0
  6
Continuous
 62
     7
100
AcDbCircle
 10
-329.7540893554688
 20
124.2752914428711
 30
0.0
 40
2.700000047683715
100
AcDbArc
 50
180.0000000000004
 51
0.0
  0
ARC
  5
14F
330
22
100
AcDbEntity
  8
0
  6
Continuous
 62
     7
100
AcDbCircle
 10
-322.3540649414063
 20
164.7201385498047
 30
0.0
 40
2.700000047683715
100
AcDbArc
 50
0.0
 51
180.0000000000004
  0
ARC
  5
150
330
22
100
AcDbEntity
  8
0
  6
Continuous
 62
     7
100
AcDbCircle
 10
-351.9540710449219
 20
136.4765014648438
 30
0.0
 40
2.700000047683715
100
AcDbArc
 50
180.0000000000004
 51
0.0
  0
ARC
  5
151
330
22
100
AcDbEntity
  8
0
  6
Continuous
 62
     7
100
AcDbCircle
 10
-344.5540771484375
 20
130.5936431884766
 30
0.0
 40
2.700000047683715
100
AcDbArc
 50
180.0000000000004
 51
0.0
  0
ARC
  5
152
330
22
100
AcDbEntity
  8
0
  6
Continuous
 62
     7
100
AcDbCircle
 10
-344.5540771484375
 20
159.9686279296875
 30
0.0
 40
2.700000047683715
100
AcDbArc
 50
180.0000000000004
 51
0.0
  0
ARC
  5
153
330
22
100
AcDbEntity
  8
0
  6
Continuous
 62
     7
100
AcDbCircle
 10
-344.5540771484375
 20
152.1936340332031
 30
0.0
 40
2.700000047683715
100
AcDbArc
 50
0.0
 51
180.0000000000004
  0
ARC
  5
154
330
22
100
AcDbEntity
  8
0
  6
Continuous
 62
     7
100
AcDbCircle
 10
-351.9540710449219
 20
174.9607543945313
 30
0.0
 40
2.700000047683715
100
AcDbArc
 50
180.0000000000004
 51
0.0
  0
ARC
  5
155
330
22
100
AcDbEntity
  8
0
  6
Continuous
 62
     7
100
AcDbCircle
 10
-351.9540710449219
 20
166.5765075683594
 30
0.0
 40
2.700000047683715
100
AcDbArc
 50
0.0
 51
180.0000000000004
  0
CIRCLE
  5
156
330
22
100
AcDbEntity
  8
0
  6
Continuous
 62
     7
100
AcDbCircle
 10
-377.6540832519531
 20
170.7686309814453
 30
0.0
 40
3.5
  0
ARC
  5
157
330
22
100
AcDbEntity
  8
0
  6
Continuous
 62
     7
100
AcDbCircle
 10
-359.3540649414063
 20
145.7017211914063
 30
0.0
 40
2.700000047683715
100
AcDbArc
 50
180.0000000000004
 51
0.0
  0
ARC
  5
158
330
22
100
AcDbEntity
  8
0
  6
Continuous
 62
     7
100
AcDbCircle
 10
-365.0540771484375
 20
153.5265350341797
 30
0.0
 40
1.0
100
AcDbArc
 50
200.384958569905
 51
0.0
  0
ARC
  5
159
330
22
100
AcDbEntity
  8
0
  6
Continuous
 62
     7
100
AcDbCircle
 10
-359.3540649414063
 20
157.3017120361328
 30
0.0
 40
2.700000047683715
100
AcDbArc
 50
0.0
 51
180.0000000000004
  0
ARC
  5
15A
330
22
100
AcDbEntity
  8
0
  6
Continuous
 62
     7
100
AcDbCircle
 10
-359.3540649414063
 20
164.9686279296875
 30
0.0
 40
2.700000047683715
100
AcDbArc
 50
180.0000000000004
 51
0.0
  0
ARC
  5
15B
330
22
100
AcDbEntity
  8
0
  6
Continuous
 62
     7
100
AcDbCircle
 10
-337.1540832519531
 20
126.6938018798828
 30
0.0
 40
2.700000047683715
100
AcDbArc
 50
180.0000000000004
 51
0.3333559738065817
  0
ARC
  5
15C
330
22
100
AcDbEntity
  8
0
  6
Continuous
 62
     7
100
AcDbCircle
 10
-322.3540649414063
 20
123.1120452880859
 30
0.0
 40
2.700000047683715
100
AcDbArc
 50
179.8280626647596
 51
0.2061002021307694
  0
ARC
  5
15D
330
22
100
AcDbEntity
  8
0
  6
Continuous
 62
     7
100
AcDbCircle
 10
-307.5540771484375
 20
149.8752899169922
 30
0.0
 40
2.700000047683715
100
AcDbArc
 50
0.0
 51
180.0000000000004
  0
ARC
  5
15E
330
22
100
AcDbEntity
  8
0
  6
Continuous
 62
     7
100
AcDbCircle
 10
-307.5540771484375
 20
157.9686279296875
 30
0.0
 40
2.700000047683715
100
AcDbArc
 50
180.0000000000004
 51
0.0
  0
ARC
  5
15F
330
22
100
AcDbEntity
  8
0
  6
Continuous
 62
     7
100
AcDbCircle
 10
-300.1540832519531
 20
126.6938018798828
 30
0.0
 40
2.700000047683715
100
AcDbArc
 50
179.6666440261934
 51
0.0
  0
ARC
  5
160
330
22
100
AcDbEntity
  8
0
  6
Continuous
 62
     7
100
AcDbCircle
 10
-292.7540893554688
 20
130.5936431884766
 30
0.0
 40
2.700000047683715
100
AcDbArc
 50
180.0000000000004
 51
0.0
  0
ARC
  5
161
330
22
100
AcDbEntity
  8
0
  6
Continuous
 62
     7
100
AcDbCircle
 10
-292.7540893554688
 20
159.9686279296875
 30
0.0
 40
2.700000047683715
100
AcDbArc
 50
180.0000000000004
 51
0.0
  0
ARC
  5
162
330
22
100
AcDbEntity
  8
0
  6
Continuous
 62
     7
100
AcDbCircle
 10
-292.7540893554688
 20
152.1936340332031
 30
0.0
 40
2.700000047683715
100
AcDbArc
 50
0.0
 51
180.0000000000004
  0
ARC
  5
163
330
22
100
AcDbEntity
  8
0
  6
Continuous
 62
     7
100
AcDbCircle
 10
-285.3540649414063
 20
166.5765075683594
 30
0.0
 40
2.700000047683715
100
AcDbArc
 50
0.0
 51
180.0000000000004
  0
ARC
  5
164
330
22
100
AcDbEntity
  8
0
  6
Continuous
 62
     7
100
AcDbCircle
 10
-285.3540649414063
 20
136.4765014648438
 30
0.0
 40
2.700000047683715
100
AcDbArc
 50
180.0000000000004
 51
0.0
  0
ARC
  5
165
330
22
100
AcDbEntity
  8
0
  6
Continuous
 62
     7
100
AcDbCircle
 10
-337.1540832519531
 20
166.3095092773438
 30
0.0
 40
2.700000047683715
100
AcDbArc
 50
0.0
 51
180.0000000000004
  0
ARC
  5
166
330
22
100
AcDbEntity
  8
0
  6
Continuous
 62
     7
100
AcDbCircle
 10
-337.1540832519531
 20
175.2277526855469
 30
0.0
 40
2.700000047683715
100
AcDbArc
 50
180.0000000000004
 51
0.0
  0
ARC
  5
167
330
22
100
AcDbEntity
  8
0
  6
Continuous
 62
     7
100
AcDbCircle
 10
-329.7540893554688
 20
157.9686279296875
 30
0.0
 40
2.700000047683715
100
AcDbArc
 50
180.0000000000004
 51
0.0
  0
CIRCLE
  5
168
330
22
100
AcDbEntity
  8
0
  6
Continuous
 62
     7
100
AcDbCircle
 10
-318.6540832519531
 20
170.7686309814453
 30
0.0
 40
2.5
  0
ARC
  5
169
330
22
100
AcDbEntity
  8
0
  6
Continuous
 62
     7
100
AcDbCircle
 10
-314.9540710449219
 20
164.7201385498047
 30
0.0
 40
2.700000047683715
100
AcDbArc
 50
0.0
 51
180.0000000000004
  0
ARC
  5
16A
330
22
100
AcDbEntity
  8
0
  6
Continuous
 62
     7
100
AcDbCircle
 10
-307.5540771484375
 20
124.2752914428711
 30
0.0
 40
2.700000047683715
100
AcDbArc
 50
180.0000000000004
 51
0.0
  0
ARC
  5
16B
330
22
100
AcDbEntity
  8
0
  6
Continuous
 62
     7
100
AcDbCircle
 10
-314.9540710449219
 20
123.1120452880859
 30
0.0
 40
2.700000047683715
100
AcDbArc
 50
179.7938997978692
 51
0.1719392786163373
  0
ARC
  5
16C
330
22
100
AcDbEntity
  8
0
  6
Continuous
 62
     7
100
AcDbCircle
 10
-300.1540832519531
 20
166.3095092773438
 30
0.0
 40
2.700000047683715
100
AcDbArc
 50
0.0
 51
180.0000000000004
  0
ARC
  5
16D
330
22
100
AcDbEntity
  8
0
  6
Continuous
 62
     7
100
AcDbCircle
 10
-300.1540832519531
 20
175.2277526855469
 30
0.0
 40
2.700000047683715
100
AcDbArc
 50
180.0000000000004
 51
0.0
  0
ARC
  5
16E
330
22
100
AcDbEntity
  8
0
  6
Continuous
 62
     7
100
AcDbCircle
 10
-285.3540649414063
 20
174.9607543945313
 30
0.0
 40
2.700000047683715
100
AcDbArc
 50
180.0000000000004
 51
0.0
  0
CIRCLE
  5
16F
330
22
100
AcDbEntity
  8
0
  6
Continuous
 62
     7
100
AcDbCircle
 10
-318.6540832519531
 20
111.7686309814453
 30
0.0
 40
5.25
  0
CIRCLE
  5
170
330
22
100
AcDbEntity
  8
0
  6
Continuous
 62
     7
100
AcDbCircle
 10
-318.6540832519531
 20
111.7686309814453
 30
0.0
 40
5.0
  0
ARC
  5
171
330
22
100
AcDbEntity
  8
0
  6
Continuous
 62
     7
100
AcDbCircle
 10
-318.6540832519531
 20
170.7686309814453
 30
0.0
 40
50.5
100
AcDbArc
 50
159.6150868299291
 51
200.3849131700716
  0
ARC
  5
172
330
22
100
AcDbEntity
  8
0
  6
Continuous
 62
     7
100
AcDbCircle
 10
-277.9540710449219
 20
184.2355346679688
 30
0.0
 40
2.700000047683715
100
AcDbArc
 50
180.0000000000004
 51
0.0
  0
ARC
  5
173
330
22
100
AcDbEntity
  8
0
  6
Continuous
 62
     7
100
AcDbCircle
 10
-277.9540710449219
 20
176.5686340332031
 30
0.0
 40
2.700000047683715
100
AcDbArc
 50
0.0
 51
180.0000000000004
  0
CIRCLE
  5
174
330
22
100
AcDbEntity
  8
0
  6
Continuous
 62
     7
100
AcDbCircle
 10
-318.6540832519531
 20
170.7686309814453
 30
0.0
 40
65.5
  0
CIRCLE
  5
175
330
22
100
AcDbEntity
  8
0
  6
Continuous
 62
     7
100
AcDbCircle
 10
-318.6540832519531
 20
170.7686309814453
 30
0.0
 40
65.5
  0
CIRCLE
  5
176
330
22
100
AcDbEntity
  8
0
  6
Continuous
 62
     7
100
AcDbCircle
 10
-318.6540832519531
 20
170.7686309814453
 30
0.0
 40
66.0
  0
CIRCLE
  5
177
330
22
100
AcDbEntity
  8
0
  6
Continuous
 62
     7
100
AcDbCircle
 10
-259.6540832519531
 20
170.7686309814453
 30
0.0
 40
3.5
  0
CIRCLE
  5
178
330
22
100
AcDbEntity
  8
0
  6
Continuous
 62
     7
100
AcDbCircle
 10
-318.6540832519531
 20
170.7686309814453
 30
0.0
 40
80.5
  0
ARC
  5
179
330
22
100
AcDbEntity
  8
0
  6
Continuous
 62
     7
100
AcDbCircle
 10
-322.3540649414063
 20
176.8171081542969
 30
0.0
 40
2.700000047683715
100
AcDbArc
 50
180.0000000000004
 51
0.0
  0
ARC
  5
17A
330
22
100
AcDbEntity
  8
0
  6
Continuous
 62
     7
100
AcDbCircle
 10
-314.9540710449219
 20
176.8171081542969
 30
0.0
 40
2.700000047683715
100
AcDbArc
 50
180.0000000000004
 51
0.0
  0
ARC
  5
17B
330
22
100
AcDbEntity
  8
0
  6
Continuous
 62
     7
100
AcDbCircle
 10
-292.7540893554688
 20
181.5686340332031
 30
0.0
 40
2.700000047683715
100
AcDbArc
 50
0.0
 51
180.0000000000004
  0
ARC
  5
17C
330
22
100
AcDbEntity
  8
0
  6
Continuous
 62
     7
100
AcDbCircle
 10
-344.5540771484375
 20
181.5686340332031
 30
0.0
 40
2.700000047683715
100
AcDbArc
 50
0.0
 51
180.0000000000004
  0
ARC
  5
17D
330
22
100
AcDbEntity
  8
0
  6
Continuous
 62
     7
100
AcDbCircle
 10
-359.3540649414063
 20
184.2355346679688
 30
0.0
 40
2.700000047683715
100
AcDbArc
 50
180.0000000000004
 51
0.0
  0
ARC
  5
17E
330
22
100
AcDbEntity
  8
0
  6
Continuous
 62
     7
100
AcDbCircle
 10
-359.3540649414063
 20
176.5686340332031
 30
0.0
 40
2.700000047683715
100
AcDbArc
 50
0.0
 51
180.0000000000004
  0
ARC
  5
17F
330
22
100
AcDbEntity
  8
0
  6
Continuous
 62
     7
100
AcDbCircle
 10
-318.6540832519531
 20
170.7686309814453
 30
0.0
 40
50.5
100
AcDbArc
 50
339.6150868299299
 51
20.3849131700709
  0
ARC
  5
180
330
22
100
AcDbEntity
  8
0
  6
Continuous
 62
     7
100
AcDbCircle
 10
-175.7715454101563
 20
250.7686309814453
 30
0.0
 40
0.5
100
AcDbArc
 50
90.00000000000019
 51
154.9177200646417
  0
ARC
  5
181
330
22
100
AcDbEntity
  8
0
  6
Continuous
 62
     7
100
AcDbCircle
 10
-180.5895690917969
 20
239.2961730957031
 30
0.0
 40
1.0
100
AcDbArc
 50
154.9165576184813
 51
180.0000000000004
  0
ARC
  5
182
330
22
100
AcDbEntity
  8
0
  6
Continuous
 62
     7
100
AcDbCircle
 10
-175.7715454101563
 20
90.76863098144531
 30
0.0
 40
0.5
100
AcDbArc
 50
205.0838635556956
 51
270.0000000000005
  0
ARC
  5
183
330
22
100
AcDbEntity
  8
0
  6
Continuous
 62
     7
100
AcDbCircle
 10
-180.5895690917969
 20
102.2410888671875
 30
0.0
 40
1.0
100
AcDbArc
 50
180.0000000000004
 51
205.0838382895956
  0
TEXT
  5
184
330
22
100
AcDbEntity
  8
0
  6
Continuous
 62
     7
100
AcDbText
 10
-254.8554773330689
 20
76.03224945068359
 30
0.0
 40
7.0
  1
ＤＬ－ＵＰＰ－１００Ｇ
 41
0.8440126641457824
100
AcDbText
  0
INSERT
  5
185
330
22
100
AcDbEntity
  8
0
  6
Continuous
 62
     7
100
AcDbBlockReference
  2
KOZU0001
 10
0.0
 20
0.0
 30
0.0
  0
DIMENSION
  5
186
330
22
100
AcDbEntity
  8
0
  6
Continuous
 62
     7
100
AcDbDimension
  2
*D1
 10
-171.5895690917969
 20
262.8022155761719
 30
0.0
 11
-121.5895690917969
 21
262.8022155761719
 31
0.0
 71
     5
 42
-1.0
  3
DIMSTYLE1
100
AcDbAlignedDimension
 13
-71.58956909179687
 23
227.7686309814453
 33
0.0
 14
-171.5895690917969
 24
251.2686309814453
 34
0.0
100
AcDbRotatedDimension
  0
DIMENSION
  5
187
330
22
100
AcDbEntity
  8
0
  6
Continuous
 62
     7
100
AcDbDimension
  2
*D2
 10
-181.5895690917969
 20
262.8022155761719
 30
0.0
 11
-176.5895690917969
 21
262.8022155761719
 31
0.0
 71
     5
 42
-1.0
  3
DIMSTYLE2
100
AcDbAlignedDimension
 13
-171.5895690917969
 23
237.7096252441406
 33
0.0
 14
-181.5895690917969
 24
239.5186309814453
 34
0.0
100
AcDbRotatedDimension
  0
DIMENSION
  5
188
330
22
100
AcDbEntity
  8
0
  6
Continuous
 62
     7
100
AcDbDimension
  2
*D3
 10
-385.2413664139576
 20
125.5316580378117
 30
0.0
 11
-242.2205505371094
 21
222.6947784423828
 31
0.0
 70
     3
 71
     5
 42
-1.0
  3
DIMSTYLE3
100
AcDbDiametricDimension
 15
-252.0668000899487
 25
216.005603925079
 35
0.0
 40
0.0
  0
DIMENSION
  5
189
330
22
100
AcDbEntity
  8
0
  6
Continuous
 62
     7
100
AcDbDimension
  2
*D4
 10
-375.4769361895176
 20
203.3479708157011
 30
0.0
 11
-242.5184783935547
 21
127.116340637207
 31
0.0
 70
     3
 71
     5
 42
-1.0
  3
DIMSTYLE4
100
AcDbDiametricDimension
 15
-261.8312303143885
 25
138.1892911471896
 35
0.0
 40
0.0
  0
ENDSEC
  0
SECTION
  2
OBJECTS
  0
DICTIONARY
  5
C
330
0
100
AcDbDictionary
281
     1
  3
ACAD_COLOR
350
1B
  3
ACAD_GROUP
350
D
  3
ACAD_LAYOUT
350
19
  3
ACAD_MATERIAL
350
1A
  3
ACAD_MLINESTYLE
350
16
  3
ACAD_PLOTSETTINGS
350
18
  3
ACAD_PLOTSTYLENAME
350
E
  3
ACAD_TABLESTYLE
350
1C
  3
AcDbVariableDictionary
350
195
  0
DICTIONARY
  5
1B
102
{ACAD_REACTORS
330
C
102
}
330
C
100
AcDbDictionary
281
     1
  0
DICTIONARY
  5
D
102
{ACAD_REACTORS
330
C
102
}
330
C
100
AcDbDictionary
281
     1
  0
DICTIONARY
  5
19
102
{ACAD_REACTORS
330
C
102
}
330
C
100
AcDbDictionary
281
     1
  3
Model
350
25
  3
レイアウト1
350
21
  0
DICTIONARY
  5
1A
102
{ACAD_REACTORS
330
C
102
}
330
C
100
AcDbDictionary
281
     1
  0
DICTIONARY
  5
16
102
{ACAD_REACTORS
330
C
102
}
330
C
100
AcDbDictionary
281
     1
  3
Standard
350
17
  0
DICTIONARY
  5
18
102
{ACAD_REACTORS
330
C
102
}
330
C
100
AcDbDictionary
281
     1
  0
ACDBDICTIONARYWDFLT
  5
E
102
{ACAD_REACTORS
330
C
102
}
330
C
100
AcDbDictionary
281
     1
  3
Normal
350
F
100
AcDbDictionaryWithDefault
340
F
  0
DICTIONARY
  5
1C
102
{ACAD_REACTORS
330
C
102
}
330
C
100
AcDbDictionary
281
     1
  3
Standard
350
1D
  0
DICTIONARY
  5
195
102
{ACAD_REACTORS
330
C
102
}
330
C
100
AcDbDictionary
281
     1
  3
CTABLESTYLE
350
196
  0
LAYOUT
  5
25
102
{ACAD_REACTORS
330
19
102
}
330
19
100
AcDbPlotSettings
  1

  2
PDF reDirect v2
  4
A3
  6

 40
3.174999952316284
 41
3.174999952316284
 42
3.17498779296875
 43
3.17498779296875
 44
297.0530090332031
 45
420.1583251953125
 46
0.0
 47
0.0
 48
0.0
 49
0.0
140
0.0
141
0.0
142
1.0
143
1.0
 70
 11952
 72
     1
 73
     1
 74
     2
  7
C:\Users\ck\AppData\Roaming\Autodesk\AutoCAD 2005\R16.1\jpn\Plot Styles\black.ctb
 75
    16
147
1.0
 76
     0
 77
     2
 78
   300
148
423.0
149
2.0
100
AcDbLayout
  1
Model
 70
     1
 71
     0
 10
0.0
 20
0.0
 11
12.0
 21
9.0
 12
0.0
 22
0.0
 32
0.0
 14
0.0
 24
0.0
 34
0.0
 15
0.0
 25
0.0
 35
0.0
146
0.0
 13
0.0
 23
0.0
 33
0.0
 16
1.0
 26
0.0
 36
0.0
 17
0.0
 27
1.0
 37
0.0
 76
     0
330
22
1001
ACAD_PSEXT
1000
PDF reDirect v2
1000
PDF reDirect Pro
1000
PDF_REDIRECT_PORT:
1000
PDF reDirect provided by EXP Systems
1070
     0
  0
LAYOUT
  5
21
102
{ACAD_REACTORS
330
19
102
}
330
19
100
AcDbPlotSettings
  1

  2
PDF reDirect v2
  4

  6

 40
0.0
 41
0.0
 42
0.0
 43
0.0
 44
0.0
 45
0.0
 46
0.0
 47
0.0
 48
0.0
 49
0.0
140
0.0
141
0.0
142
1.0
143
1.0
 70
   688
 72
     0
 73
     0
 74
     5
  7
C:\Users\ck\AppData\Roaming\Autodesk\AutoCAD 2005\R16.1\jpn\Plot Styles\black.ctb
 75
    16
147
1.0
 76
     0
 77
     2
 78
   300
148
0.0
149
0.0
100
AcDbLayout
  1
レイアウト1
 70
     1
 71
     1
 10
-423.0
 20
-2.0
 11
-5.0
 21
293.0
 12
0.0
 22
0.0
 32
0.0
 14
1.000000000000000E+20
 24
1.000000000000000E+20
 34
1.000000000000000E+20
 15
-1.000000000000000E+20
 25
-1.000000000000000E+20
 35
-1.000000000000000E+20
146
0.0
 13
0.0
 23
0.0
 33
0.0
 16
1.0
 26
0.0
 36
0.0
 17
0.0
 27
1.0
 37
0.0
 76
     0
330
1E
  0
MLINESTYLE
  5
17
102
{ACAD_REACTORS
330
16
102
}
330
16
100
AcDbMlineStyle
  2
STANDARD
 70
     0
  3

 62
   256
 51
90.0
 52
90.0
 71
     2
 49
0.5
 62
   256
  6
BYLAYER
 49
-0.5
 62
   256
  6
BYLAYER
  0
ACDBPLACEHOLDER
  5
F
102
{ACAD_REACTORS
330
E
102
}
330
E
  0
TABLESTYLE
  5
1D
102
{ACAD_REACTORS
330
1C
102
}
330
1C
100
AcDbTableStyle
  3
Standard
 70
     0
 71
     0
 40
0.06
 41
0.06
280
     0
281
     0
  7
STANDARD
140
0.18
170
     2
 62
     0
 63
     7
283
     0
274
    -2
284
     1
 64
     0
275
    -2
285
     1
 65
     0
276
    -2
286
     1
 66
     0
277
    -2
287
     1
 67
     0
278
    -2
288
     1
 68
     0
279
    -2
289
     1
 69
     0
  7
STANDARD
140
0.25
170
     5
 62
     0
 63
     7
283
     0
274
    -2
284
     1
 64
     0
275
    -2
285
     1
 65
     0
276
    -2
286
     1
 66
     0
277
    -2
287
     1
 67
     0
278
    -2
288
     1
 68
     0
279
    -2
289
     1
 69
     0
  7
STANDARD
140
0.18
170
     5
 62
     0
 63
     7
283
     0
274
    -2
284
     1
 64
     0
275
    -2
285
     1
 65
     0
276
    -2
286
     1
 66
     0
277
    -2
287
     1
 67
     0
278
    -2
288
     1
 68
     0
279
    -2
289
     1
 69
     0
  0
DICTIONARYVAR
  5
196
102
{ACAD_REACTORS
330
195
102
}
330
195
100
DictionaryVariables
280
     0
  1
STANDARD
  0
ENDSEC
  0
EOF
