  0
SECTION
  2
HEADER
  9
$ACADVER
  1
AC1015
  9
$ACADMAINTVER
 70
    20
  9
$DWGCODEPAGE
  3
ANSI_932
  9
$INSBASE
 10
0.0
 20
0.0
 30
0.0
  9
$EXTMIN
 10
-370.7117299229276
 20
82.23362810424715
 30
-0.0015258207003583
  9
$EXTMAX
 10
-111.2795096485404
 20
264.13288944719
 30
0.0000000349246037
  9
$LIMMIN
 10
-423.0
 20
-2.0
  9
$LIMMAX
 10
-5.0
 20
293.0
  9
$ORTHOMODE
 70
     0
  9
$REGENMODE
 70
     1
  9
$FILLMODE
 70
     1
  9
$QTEXTMODE
 70
     0
  9
$MIRRTEXT
 70
     0
  9
$LTSCALE
 40
1.0
  9
$ATTMODE
 70
     1
  9
$TEXTSIZE
 40
0.2
  9
$TRACEWID
 40
0.05
  9
$TEXTSTYLE
  7
STANDARD
  9
$CLAYER
  8
0
  9
$CELTYPE
  6
CONTINUOUS
  9
$CECOLOR
 62
   256
  9
$CELTSCALE
 40
1.0
  9
$DISPSILH
 70
     0
  9
$DIMSCALE
 40
1.0
  9
$DIMASZ
 40
1.0
  9
$DIMEXO
 40
2.54
  9
$DIMDLI
 40
0.38
  9
$DIMRND
 40
0.0
  9
$DIMDLE
 40
0.0
  9
$DIMEXE
 40
2.54
  9
$DIMTP
 40
0.0
  9
$DIMTM
 40
0.0
  9
$DIMTXT
 40
3.0
  9
$DIMCEN
 40
0.09
  9
$DIMTSZ
 40
0.0
  9
$DIMTOL
 70
     0
  9
$DIMLIM
 70
     0
  9
$DIMTIH
 70
     0
  9
$DIMTOH
 70
     0
  9
$DIMSE1
 70
     0
  9
$DIMSE2
 70
     0
  9
$DIMTAD
 70
     1
  9
$DIMZIN
 70
     0
  9
$DIMBLK
  1

  9
$DIMASO
 70
     1
  9
$DIMSHO
 70
     0
  9
$DIMPOST
  1

  9
$DIMAPOST
  1

  9
$DIMALT
 70
     0
  9
$DIMALTD
 70
     2
  9
$DIMALTF
 40
25.4
  9
$DIMLFAC
 40
1.0
  9
$DIMTOFL
 70
     0
  9
$DIMTVP
 40
1.0
  9
$DIMTIX
 70
     0
  9
$DIMSOXD
 70
     0
  9
$DIMSAH
 70
     1
  9
$DIMBLK1
  1

  9
$DIMBLK2
  1

  9
$DIMSTYLE
  2
DIMSTYLE1
  9
$DIMCLRD
 70
     0
  9
$DIMCLRE
 70
     0
  9
$DIMCLRT
 70
     0
  9
$DIMTFAC
 40
1.0
  9
$DIMGAP
 40
1.5
  9
$DIMJUST
 70
     0
  9
$DIMSD1
 70
     0
  9
$DIMSD2
 70
     0
  9
$DIMTOLJ
 70
     1
  9
$DIMTZIN
 70
     0
  9
$DIMALTZ
 70
     0
  9
$DIMALTTZ
 70
     0
  9
$DIMUPT
 70
     0
  9
$DIMDEC
 70
     4
  9
$DIMTDEC
 70
     4
  9
$DIMALTU
 70
     2
  9
$DIMALTTD
 70
     2
  9
$DIMTXSTY
  7
STANDARD
  9
$DIMAUNIT
 70
     0
  9
$DIMADEC
 70
     0
  9
$DIMALTRND
 40
0.0
  9
$DIMAZIN
 70
     0
  9
$DIMDSEP
 70
    46
  9
$DIMATFIT
 70
     3
  9
$DIMFRAC
 70
     0
  9
$DIMLDRBLK
  1

  9
$DIMLUNIT
 70
     2
  9
$DIMLWD
 70
    -2
  9
$DIMLWE
 70
    -2
  9
$DIMTMOVE
 70
     0
  9
$LUNITS
 70
     2
  9
$LUPREC
 70
     4
  9
$SKETCHINC
 40
0.1
  9
$FILLETRAD
 40
0.0
  9
$AUNITS
 70
     0
  9
$AUPREC
 70
     0
  9
$MENU
  1
.
  9
$ELEVATION
 40
0.0
  9
$PELEVATION
 40
0.0
  9
$THICKNESS
 40
0.0
  9
$LIMCHECK
 70
     0
  9
$CHAMFERA
 40
0.0
  9
$CHAMFERB
 40
0.0
  9
$CHAMFERC
 40
0.0
  9
$CHAMFERD
 40
0.0
  9
$SKPOLY
 70
     0
  9
$TDCREATE
 40
2457707.059671030
  9
$TDUCREATE
 40
2457706.684671030
  9
$TDUPDATE
 40
2457707.060178415
  9
$TDUUPDATE
 40
2457706.685178414
  9
$TDINDWG
 40
0.0005088889
  9
$TDUSRTIMER
 40
0.0005088889
  9
$USRTIMER
 70
     1
  9
$ANGBASE
 50
0.0
  9
$ANGDIR
 70
     0
  9
$PDMODE
 70
     0
  9
$PDSIZE
 40
0.0
  9
$PLINEWID
 40
0.0
  9
$SPLFRAME
 70
     0
  9
$SPLINETYPE
 70
     6
  9
$SPLINESEGS
 70
     8
  9
$HANDSEED
  5
1BD
  9
$SURFTAB1
 70
     6
  9
$SURFTAB2
 70
     6
  9
$SURFTYPE
 70
     6
  9
$SURFU
 70
     6
  9
$SURFV
 70
     6
  9
$UCSBASE
  2

  9
$UCSNAME
  2

  9
$UCSORG
 10
0.0
 20
0.0
 30
0.0
  9
$UCSXDIR
 10
1.0
 20
0.0
 30
0.0
  9
$UCSYDIR
 10
0.0
 20
1.0
 30
0.0
  9
$UCSORTHOREF
  2

  9
$UCSORTHOVIEW
 70
     0
  9
$UCSORGTOP
 10
0.0
 20
0.0
 30
0.0
  9
$UCSORGBOTTOM
 10
0.0
 20
0.0
 30
0.0
  9
$UCSORGLEFT
 10
0.0
 20
0.0
 30
0.0
  9
$UCSORGRIGHT
 10
0.0
 20
0.0
 30
0.0
  9
$UCSORGFRONT
 10
0.0
 20
0.0
 30
0.0
  9
$UCSORGBACK
 10
0.0
 20
0.0
 30
0.0
  9
$PUCSBASE
  2

  9
$PUCSNAME
  2

  9
$PUCSORG
 10
0.0
 20
0.0
 30
0.0
  9
$PUCSXDIR
 10
1.0
 20
0.0
 30
0.0
  9
$PUCSYDIR
 10
0.0
 20
1.0
 30
0.0
  9
$PUCSORTHOREF
  2

  9
$PUCSORTHOVIEW
 70
     0
  9
$PUCSORGTOP
 10
0.0
 20
0.0
 30
0.0
  9
$PUCSORGBOTTOM
 10
0.0
 20
0.0
 30
0.0
  9
$PUCSORGLEFT
 10
0.0
 20
0.0
 30
0.0
  9
$PUCSORGRIGHT
 10
0.0
 20
0.0
 30
0.0
  9
$PUCSORGFRONT
 10
0.0
 20
0.0
 30
0.0
  9
$PUCSORGBACK
 10
0.0
 20
0.0
 30
0.0
  9
$USERI1
 70
     0
  9
$USERI2
 70
     0
  9
$USERI3
 70
     0
  9
$USERI4
 70
     0
  9
$USERI5
 70
     0
  9
$USERR1
 40
0.0
  9
$USERR2
 40
0.0
  9
$USERR3
 40
0.0
  9
$USERR4
 40
0.0
  9
$USERR5
 40
0.0
  9
$WORLDVIEW
 70
     1
  9
$SHADEDGE
 70
     3
  9
$SHADEDIF
 70
    70
  9
$TILEMODE
 70
     1
  9
$MAXACTVP
 70
    64
  9
$PINSBASE
 10
0.0
 20
0.0
 30
0.0
  9
$PLIMCHECK
 70
     0
  9
$PEXTMIN
 10
1.000000000000000E+20
 20
1.000000000000000E+20
 30
1.000000000000000E+20
  9
$PEXTMAX
 10
-1.000000000000000E+20
 20
-1.000000000000000E+20
 30
-1.000000000000000E+20
  9
$PLIMMIN
 10
-423.0
 20
-2.0
  9
$PLIMMAX
 10
-5.0
 20
293.0
  9
$UNITMODE
 70
     0
  9
$VISRETAIN
 70
     1
  9
$PLINEGEN
 70
     0
  9
$PSLTSCALE
 70
     1
  9
$TREEDEPTH
 70
  3020
  9
$CMLSTYLE
  2
Standard
  9
$CMLJUST
 70
     0
  9
$CMLSCALE
 40
1.0
  9
$PROXYGRAPHICS
 70
     1
  9
$MEASUREMENT
 70
     0
  9
$CELWEIGHT
370
    -1
  9
$ENDCAPS
280
     0
  9
$JOINSTYLE
280
     0
  9
$LWDISPLAY
290
     0
  9
$INSUNITS
 70
     0
  9
$HYPERLINKBASE
  1

  9
$STYLESHEET
  1

  9
$XEDIT
290
     1
  9
$CEPSNTYPE
380
     0
  9
$PSTYLEMODE
290
     1
  9
$FINGERPRINTGUID
  2
{D21F7D90-0118-4525-AF54-21D78251B59A}
  9
$VERSIONGUID
  2
{B81382CC-D10A-4007-ACCE-2190326D11BA}
  9
$EXTNAMES
290
     1
  9
$PSVPSCALE
 40
0.0
  9
$OLESTARTUP
290
     0
  0
ENDSEC
  0
SECTION
  2
CLASSES
  0
CLASS
  1
ACDBDICTIONARYWDFLT
  2
AcDbDictionaryWithDefault
  3
ObjectDBX Classes
 90
        0
280
     0
281
     0
  0
CLASS
  1
TABLESTYLE
  2
AcDbTableStyle
  3
ObjectDBX Classes
 90
     2047
280
     0
281
     0
  0
CLASS
  1
DICTIONARYVAR
  2
AcDbDictionaryVar
  3
ObjectDBX Classes
 90
        0
280
     0
281
     0
  0
CLASS
  1
ACDBPLACEHOLDER
  2
AcDbPlaceHolder
  3
ObjectDBX Classes
 90
        0
280
     0
281
     0
  0
CLASS
  1
LAYOUT
  2
AcDbLayout
  3
ObjectDBX Classes
 90
        0
280
     0
281
     0
  0
ENDSEC
  0
SECTION
  2
TABLES
  0
TABLE
  2
VPORT
  5
8
330
0
100
AcDbSymbolTable
 70
     2
  0
VPORT
  5
1B7
330
8
100
AcDbSymbolTableRecord
100
AcDbViewportTableRecord
  2
*Active
 70
     0
 10
0.0
 20
0.0
 11
1.0
 21
1.0
 12
-214.0
 22
145.5
 13
0.0
 23
0.0
 14
1.0
 24
1.0
 15
0.0
 25
0.0
 16
0.0
 26
0.0
 36
1.0
 17
0.0
 27
0.0
 37
0.0
 40
297.3258869908016
 41
1.555263157894736
 42
50.0
 43
0.0
 44
0.0
 50
0.0
 51
0.0
 71
     0
 72
   100
 73
     1
 74
     1
 75
     0
 76
     0
 77
     0
 78
     0
281
     0
 65
     1
110
0.0
120
0.0
130
0.0
111
1.0
121
0.0
131
0.0
112
0.0
122
1.0
132
0.0
 79
     0
146
0.0
  0
ENDTAB
  0
TABLE
  2
LTYPE
  5
5
330
0
100
AcDbSymbolTable
 70
     6
  0
LTYPE
  5
13
330
5
100
AcDbSymbolTableRecord
100
AcDbLinetypeTableRecord
  2
ByBlock
 70
     0
  3

 72
    65
 73
     0
 40
0.0
  0
LTYPE
  5
14
330
5
100
AcDbSymbolTableRecord
100
AcDbLinetypeTableRecord
  2
ByLayer
 70
     0
  3

 72
    65
 73
     0
 40
0.0
  0
LTYPE
  5
15
330
5
100
AcDbSymbolTableRecord
100
AcDbLinetypeTableRecord
  2
CONTINUOUS
 70
     0
  3
Solid line
 72
    65
 73
     0
 40
0.0
  0
LTYPE
  5
26
330
5
100
AcDbSymbolTableRecord
100
AcDbLinetypeTableRecord
  2
DASHED
 70
     0
  3
__ __ __ __ __ __ __ __ __ __ __ __ __ __ __
 72
    65
 73
     2
 40
3.5
 49
2.0
 74
     0
 49
-1.5
 74
     0
  0
LTYPE
  5
27
330
5
100
AcDbSymbolTableRecord
100
AcDbLinetypeTableRecord
  2
CENTER
 70
     0
  3
____ _ ____ _ ____ _ ____ _ ____ _ ____ _ ____
 72
    65
 73
     4
 40
17.5
 49
13.0
 74
     0
 49
-1.5
 74
     0
 49
1.5
 74
     0
 49
-1.5
 74
     0
  0
LTYPE
  5
28
330
5
100
AcDbSymbolTableRecord
100
AcDbLinetypeTableRecord
  2
PHANTOM
 70
     0
  3
_____ _ _ _____ _ _ _____ _ _ _____ _ _ ____  
 72
    65
 73
     6
 40
15.5
 49
8.0
 74
     0
 49
-1.5
 74
     0
 49
1.5
 74
     0
 49
-1.5
 74
     0
 49
1.5
 74
     0
 49
-1.5
 74
     0
  0
LTYPE
  5
29
330
5
100
AcDbSymbolTableRecord
100
AcDbLinetypeTableRecord
  2
DOT
 70
     0
  3
. . . . . . . . . . . . . . . . . . . . . . . .
 72
    65
 73
     2
 40
0.25
 49
0.0
 74
     0
 49
-0.25
 74
     0
  0
LTYPE
  5
2A
330
5
100
AcDbSymbolTableRecord
100
AcDbLinetypeTableRecord
  2
HIDDEN
 70
     0
  3
__ __ __ __ __ __ __ __ __ __ __ __ __ __ __
 72
    65
 73
     2
 40
3.5
 49
2.0
 74
     0
 49
-1.5
 74
     0
  0
ENDTAB
  0
TABLE
  2
LAYER
  5
2
330
0
100
AcDbSymbolTable
 70
     3
  0
LAYER
  5
10
330
2
100
AcDbSymbolTableRecord
100
AcDbLayerTableRecord
  2
0
 70
     0
 62
     7
  6
CONTINUOUS
370
    -3
390
F
  0
LAYER
  5
2B
330
2
100
AcDbSymbolTableRecord
100
AcDbLayerTableRecord
  2
1
 70
     0
 62
     7
  6
CONTINUOUS
370
    -3
390
F
  0
LAYER
  5
2C
330
2
100
AcDbSymbolTableRecord
100
AcDbLayerTableRecord
  2
DEFPOINTS
 70
     0
 62
     7
  6
CONTINUOUS
290
     0
370
    -3
390
F
  0
ENDTAB
  0
TABLE
  2
STYLE
  5
3
330
0
100
AcDbSymbolTable
 70
     2
  0
STYLE
  5
11
330
3
100
AcDbSymbolTableRecord
100
AcDbTextStyleTableRecord
  2
STANDARD
 70
     0
 40
0.0
 41
1.0
 50
0.0
 71
     0
 42
0.2
  3

  4

1001
ACAD
1000
MS Gothic
1071
    32817
  0
ENDTAB
  0
TABLE
  2
VIEW
  5
6
330
0
100
AcDbSymbolTable
 70
     0
  0
ENDTAB
  0
TABLE
  2
UCS
  5
7
330
0
100
AcDbSymbolTable
 70
     0
  0
ENDTAB
  0
TABLE
  2
APPID
  5
9
330
0
100
AcDbSymbolTable
 70
     2
  0
APPID
  5
12
330
9
100
AcDbSymbolTableRecord
100
AcDbRegAppTableRecord
  2
ACAD
 70
     0
  0
APPID
  5
1AA
330
9
100
AcDbSymbolTableRecord
100
AcDbRegAppTableRecord
  2
ACAD_PSEXT
 70
     0
  0
ENDTAB
  0
TABLE
  2
DIMSTYLE
  5
A
330
0
100
AcDbSymbolTable
 70
     5
100
AcDbDimStyleTable
 71
     1
340
2D
  0
DIMSTYLE
105
2D
102
{ACAD_REACTORS
330
1A3
102
}
330
A
100
AcDbSymbolTableRecord
100
AcDbDimStyleTableRecord
  2
DIMSTYLE1
 70
     0
 41
1.0
 42
2.54
 44
2.54
 73
     0
 74
     0
 77
     1
140
3.0
145
1.0
147
1.5
172
     1
173
     1
279
     2
340
11
  0
DIMSTYLE
105
2E
102
{ACAD_REACTORS
330
1A4
102
}
330
A
100
AcDbSymbolTableRecord
100
AcDbDimStyleTableRecord
  2
DIMSTYLE2
 70
     0
 41
1.0
 42
2.54
 44
2.54
 73
     0
 74
     0
 77
     1
140
3.0
145
1.0
147
1.5
172
     1
173
     1
279
     2
340
11
  0
DIMSTYLE
105
2F
102
{ACAD_REACTORS
330
1A5
102
}
330
A
100
AcDbSymbolTableRecord
100
AcDbDimStyleTableRecord
  2
DIMSTYLE3
 70
     0
 41
1.0
 42
2.54
 44
2.54
 73
     0
 74
     0
 77
     1
140
3.0
145
1.0
147
1.5
172
     1
173
     1
279
     2
340
11
  0
DIMSTYLE
105
30
102
{ACAD_REACTORS
330
1A7
102
}
330
A
100
AcDbSymbolTableRecord
100
AcDbDimStyleTableRecord
  2
DIMSTYLE4
 70
     0
 41
1.0
 42
2.54
 44
2.54
 73
     0
 74
     0
 75
     1
 76
     1
 77
     1
140
3.0
145
1.0
147
1.5
172
     1
173
     1
279
     2
340
11
  0
ENDTAB
  0
TABLE
  2
BLOCK_RECORD
  5
1
330
0
100
AcDbSymbolTable
 70
     7
  0
BLOCK_RECORD
  5
22
330
1
100
AcDbSymbolTableRecord
100
AcDbBlockTableRecord
  2
*Model_Space
340
25
  0
BLOCK_RECORD
  5
1E
330
1
100
AcDbSymbolTableRecord
100
AcDbBlockTableRecord
  2
*Paper_Space
340
21
  0
BLOCK_RECORD
  5
34
330
1
100
AcDbSymbolTableRecord
100
AcDbBlockTableRecord
  2
_OPEN30
340
0
102
{BLKREFS
331
3E
331
3F
331
4A
331
4B
331
54
331
55
331
61
331
62
102
}
  0
BLOCK_RECORD
  5
3A
330
1
100
AcDbSymbolTableRecord
100
AcDbBlockTableRecord
  2
*D1
340
0
  0
BLOCK_RECORD
  5
47
330
1
100
AcDbSymbolTableRecord
100
AcDbBlockTableRecord
  2
*D2
340
0
  0
BLOCK_RECORD
  5
51
330
1
100
AcDbSymbolTableRecord
100
AcDbBlockTableRecord
  2
*D3
340
0
  0
BLOCK_RECORD
  5
5D
330
1
100
AcDbSymbolTableRecord
100
AcDbBlockTableRecord
  2
*D4
340
0
  0
BLOCK_RECORD
  5
67
330
1
100
AcDbSymbolTableRecord
100
AcDbBlockTableRecord
  2
KOZU0001
340
0
102
{BLKREFS
331
1A6
102
}
  0
ENDTAB
  0
ENDSEC
  0
SECTION
  2
BLOCKS
  0
BLOCK
  5
23
330
22
100
AcDbEntity
  8
0
100
AcDbBlockBegin
  2
*Model_Space
 70
     0
 10
0.0
 20
0.0
 30
0.0
  3
*Model_Space
  1

  0
ENDBLK
  5
24
330
22
100
AcDbEntity
  8
0
100
AcDbBlockEnd
  0
BLOCK
  5
1F
330
1E
100
AcDbEntity
 67
     1
  8
0
100
AcDbBlockBegin
  2
*Paper_Space
 70
     0
 10
0.0
 20
0.0
 30
0.0
  3
*Paper_Space
  1

  0
ENDBLK
  5
20
330
1E
100
AcDbEntity
 67
     1
  8
0
100
AcDbBlockEnd
  0
BLOCK
  5
35
330
34
100
AcDbEntity
  8
0
100
AcDbBlockBegin
  2
_OPEN30
 70
     0
 10
0.0
 20
0.0
 30
0.0
  3
_OPEN30
  1

  0
LINE
  5
36
330
34
100
AcDbEntity
  8
0
  6
ByBlock
 62
     0
100
AcDbLine
 10
0.0
 20
0.0
 30
0.0
 11
-2.999999999999993
 21
-1.000000000000017
 31
0.0
  0
LINE
  5
37
330
34
100
AcDbEntity
  8
0
  6
ByBlock
 62
     0
100
AcDbLine
 10
0.0
 20
0.0
 30
0.0
 11
-3.000000000000006
 21
0.9999999999999815
 31
0.0
  0
LINE
  5
38
330
34
100
AcDbEntity
  8
0
  6
ByBlock
 62
     0
100
AcDbLine
 10
0.0
 20
0.0
 30
0.0
 11
-3.0
 21
0.0
 31
0.0
  0
ENDBLK
  5
39
330
34
100
AcDbEntity
  8
0
100
AcDbBlockEnd
  0
BLOCK
  5
3B
330
3A
100
AcDbEntity
  8
0
100
AcDbBlockBegin
  2
*D1
 70
     1
 10
0.0
 20
0.0
 30
0.0
  3
*D1
  1

  0
LINE
  5
3C
330
3A
100
AcDbEntity
  8
0
  6
Continuous
 62
     7
100
AcDbLine
 10
-173.0483093261719
 20
249.3420257568359
 30
0.0
 11
-115.0797805786133
 21
249.3420257568359
 31
0.0
  0
LINE
  5
3D
330
3A
100
AcDbEntity
  8
0
  6
Continuous
 62
     7
100
AcDbLine
 10
-180.0483093261719
 20
249.3420257568359
 30
0.0
 11
-176.0483093261719
 21
249.3420257568359
 31
0.0
  0
INSERT
  5
3E
330
3A
100
AcDbEntity
  8
0
  6
Continuous
 62
     7
100
AcDbBlockReference
  2
_OPEN30
 10
-183.0483093261719
 20
249.3420257568359
 30
0.0
 50
180.0000000000004
  0
INSERT
  5
3F
330
3A
100
AcDbEntity
  8
0
  6
Continuous
 62
     7
100
AcDbBlockReference
  2
_OPEN30
 10
-173.0483093261719
 20
249.3420257568359
 30
0.0
  0
LINE
  5
40
330
3A
100
AcDbEntity
  8
0
  6
Continuous
 62
     7
100
AcDbLine
 10
-183.0483093261719
 20
237.2427130126953
 30
0.0
 11
-183.0483093261719
 21
251.6280212402344
 31
0.0
  0
LINE
  5
41
330
3A
100
AcDbEntity
  8
0
  6
Continuous
 62
     7
100
AcDbLine
 10
-173.0483093261719
 20
232.2427130126953
 30
0.0
 11
-173.0483093261719
 21
251.6280212402344
 31
0.0
  0
TEXT
  5
42
330
3A
100
AcDbEntity
  8
0
  6
Continuous
 62
     7
100
AcDbText
 10
-144.2197808623314
 20
250.0920257568359
 30
0.0
 40
3.0
  1
最大挟み込み代　１０
 41
0.8443929326254473
100
AcDbText
  0
POINT
  5
43
330
3A
100
AcDbEntity
  8
DEFPOINTS
  6
Continuous
 62
     7
100
AcDbPoint
 10
-183.0483093261719
 20
234.7027130126953
 30
0.0
  0
POINT
  5
44
330
3A
100
AcDbEntity
  8
DEFPOINTS
  6
Continuous
 62
     7
100
AcDbPoint
 10
-173.0483093261719
 20
229.7027130126953
 30
0.0
  0
POINT
  5
45
330
3A
100
AcDbEntity
  8
DEFPOINTS
  6
Continuous
 62
     7
100
AcDbPoint
 10
-173.0483093261719
 20
249.3420257568359
 30
0.0
  0
ENDBLK
  5
46
330
3A
100
AcDbEntity
  8
0
100
AcDbBlockEnd
  0
BLOCK
  5
48
330
47
100
AcDbEntity
  8
0
100
AcDbBlockBegin
  2
*D2
 70
     1
 10
0.0
 20
0.0
 30
0.0
  3
*D2
  1

  0
LINE
  5
49
330
47
100
AcDbEntity
  8
0
  6
Continuous
 62
     7
100
AcDbLine
 10
-186.0483093261719
 20
249.3420257568359
 30
0.0
 11
-192.0483093261719
 21
249.3420257568359
 31
0.0
  0
INSERT
  5
4A
330
47
100
AcDbEntity
  8
0
  6
Continuous
 62
     7
100
AcDbBlockReference
  2
_OPEN30
 10
-183.0483093261719
 20
249.3420257568359
 30
0.0
  0
INSERT
  5
4B
330
47
100
AcDbEntity
  8
0
  6
Continuous
 62
     7
100
AcDbBlockReference
  2
_OPEN30
 10
-195.0483093261719
 20
249.3420257568359
 30
0.0
 50
180.0000000000004
  0
TEXT
  5
4C
330
47
100
AcDbEntity
  8
0
  6
Continuous
 62
     7
100
AcDbText
 10
-191.6183094382286
 20
250.0920257568359
 30
0.0
 40
3.0
  1
12
 41
1.285000026226043
100
AcDbText
  0
POINT
  5
4D
330
47
100
AcDbEntity
  8
DEFPOINTS
  6
Continuous
 62
     7
100
AcDbPoint
 10
-183.0483093261719
 20
247.1188201904297
 30
0.0
  0
POINT
  5
4E
330
47
100
AcDbEntity
  8
DEFPOINTS
  6
Continuous
 62
     7
100
AcDbPoint
 10
-195.0483093261719
 20
258.2607727050781
 30
0.0
  0
POINT
  5
4F
330
47
100
AcDbEntity
  8
DEFPOINTS
  6
Continuous
 62
     7
100
AcDbPoint
 10
-195.0483093261719
 20
249.3420257568359
 30
0.0
  0
ENDBLK
  5
50
330
47
100
AcDbEntity
  8
0
100
AcDbBlockEnd
  0
BLOCK
  5
52
330
51
100
AcDbEntity
  8
0
100
AcDbBlockBegin
  2
*D3
 70
     1
 10
0.0
 20
0.0
 30
0.0
  3
*D3
  1

  0
LINE
  5
53
330
51
100
AcDbEntity
  8
0
  6
Continuous
 62
     7
100
AcDbLine
 10
-192.0483093261719
 20
260.0261535644531
 30
0.0
 11
-150.0483093261719
 21
260.0261535644531
 31
0.0
  0
INSERT
  5
54
330
51
100
AcDbEntity
  8
0
  6
Continuous
 62
     7
100
AcDbBlockReference
  2
_OPEN30
 10
-195.0483093261719
 20
260.0261535644531
 30
0.0
 50
180.0000000000004
  0
INSERT
  5
55
330
51
100
AcDbEntity
  8
0
  6
Continuous
 62
     7
100
AcDbBlockReference
  2
_OPEN30
 10
-147.0483093261719
 20
260.0261535644531
 30
0.0
  0
LINE
  5
56
330
51
100
AcDbEntity
  8
0
  6
Continuous
 62
     7
100
AcDbLine
 10
-195.0483093261719
 20
229.1320257568359
 30
0.0
 11
-195.0483093261719
 21
262.3121643066406
 31
0.0
  0
LINE
  5
57
330
51
100
AcDbEntity
  8
0
  6
Continuous
 62
     7
100
AcDbLine
 10
-147.0483093261719
 20
220.2427130126953
 30
0.0
 11
-147.0483093261719
 21
262.3121643066406
 31
0.0
  0
TEXT
  5
58
330
51
100
AcDbEntity
  8
0
  6
Continuous
 62
     7
100
AcDbText
 10
-173.6183094382286
 20
260.7761535644531
 30
0.0
 40
3.0
  1
48
 41
1.028000020980834
100
AcDbText
  0
POINT
  5
59
330
51
100
AcDbEntity
  8
DEFPOINTS
  6
Continuous
 62
     7
100
AcDbPoint
 10
-195.0483093261719
 20
226.5920257568359
 30
0.0
  0
POINT
  5
5A
330
51
100
AcDbEntity
  8
DEFPOINTS
  6
Continuous
 62
     7
100
AcDbPoint
 10
-147.0483093261719
 20
217.7027130126953
 30
0.0
  0
POINT
  5
5B
330
51
100
AcDbEntity
  8
DEFPOINTS
  6
Continuous
 62
     7
100
AcDbPoint
 10
-147.0483093261719
 20
260.0261535644531
 30
0.0
  0
ENDBLK
  5
5C
330
51
100
AcDbEntity
  8
0
100
AcDbBlockEnd
  0
BLOCK
  5
5E
330
5D
100
AcDbEntity
  8
0
100
AcDbBlockBegin
  2
*D4
 70
     1
 10
0.0
 20
0.0
 30
0.0
  3
*D4
  1

  0
LINE
  5
5F
330
5D
100
AcDbEntity
  8
0
  6
Continuous
 62
     7
100
AcDbLine
 10
-275.5322570800781
 20
215.3373413085938
 30
0.0
 11
-263.95556640625
 21
224.3121032714844
 31
0.0
  0
LINE
  5
60
330
5D
100
AcDbEntity
  8
0
  6
Continuous
 62
     7
100
AcDbLine
 10
-352.193397885513
 20
155.9061628424761
 30
0.0
 11
-277.9032207668308
 21
213.4992631829146
 31
0.0
  0
INSERT
  5
61
330
5D
100
AcDbEntity
  8
0
  6
Continuous
 62
     7
100
AcDbBlockReference
  2
_OPEN30
 10
-354.5643615722656
 20
154.0680847167969
 30
0.0
 50
217.7844590272148
  0
INSERT
  5
62
330
5D
100
AcDbEntity
  8
0
  6
Continuous
 62
     7
100
AcDbBlockReference
  2
_OPEN30
 10
-275.5322570800781
 20
215.3373413085938
 30
0.0
 50
37.78445902721415
  0
TEXT
  5
63
330
5D
100
AcDbEntity
  8
0
  6
Continuous
 62
     7
100
AcDbText
 10
-273.2185099902671
 20
218.078138033734
 30
0.0
 40
3.0
  1
%%C100
 50
37.79999831980516
 41
1.144128733814191
100
AcDbText
  0
POINT
  5
64
330
5D
100
AcDbEntity
  8
DEFPOINTS
  6
Continuous
 62
     7
100
AcDbPoint
 10
-354.5643615722656
 20
154.0680847167969
 30
0.0
  0
POINT
  5
65
330
5D
100
AcDbEntity
  8
DEFPOINTS
  6
Continuous
 62
     7
100
AcDbPoint
 10
-275.5322570800781
 20
215.3373413085938
 30
0.0
  0
ENDBLK
  5
66
330
5D
100
AcDbEntity
  8
0
100
AcDbBlockEnd
  0
BLOCK
  5
68
330
67
100
AcDbEntity
  8
0
100
AcDbBlockBegin
  2
KOZU0001
 70
     0
 10
0.0
 20
0.0
 30
0.0
  3
KOZU0001
  1

  0
LINE
  5
69
330
67
100
AcDbEntity
  8
0
  6
Continuous
 62
     7
100
AcDbLine
 10
0.0
 20
0.0
 30
0.0
 11
15.47787475585938
 21
-17.85198974609375
 31
0.0
  0
LINE
  5
6A
330
67
100
AcDbEntity
  8
0
  6
Continuous
 62
     7
100
AcDbLine
 10
15.47787475585938
 20
-17.85198974609375
 30
0.0
 11
41.19896697998046
 21
-17.85198974609375
 31
0.0
  0
LINE
  5
6B
330
67
100
AcDbEntity
  8
0
  6
Continuous
 62
     7
100
AcDbLine
 10
0.0
 20
0.0
 30
0.0
 11
2.720797765995575
 21
-1.61160153777337
 31
0.0
  0
LINE
  5
6C
330
67
100
AcDbEntity
  8
0
  6
Continuous
 62
     7
100
AcDbLine
 10
0.0
 20
0.0
 30
0.0
 11
1.209677290132437
 21
-2.921759889816041
 31
0.0
  0
TEXT
  5
6D
330
67
100
AcDbEntity
  8
0
  6
Continuous
 62
     7
100
AcDbText
 10
16.50979542732239
 20
-17.10198974609375
 30
0.0
 40
3.0
  1
配管接続口
 41
0.8487395020950888
100
AcDbText
  0
TEXT
  5
6E
330
67
100
AcDbEntity
  8
0
  6
Continuous
 62
     7
100
AcDbText
 10
16.50979542732239
 20
-22.36698974609375
 30
0.0
 40
3.0
  1
Ｒｃ２（５０Ａ）
 41
0.8454512278006642
100
AcDbText
  0
ENDBLK
  5
6F
330
67
100
AcDbEntity
  8
0
100
AcDbBlockEnd
  0
ENDSEC
  0
SECTION
  2
ENTITIES
  0
POINT
  5
70
330
22
100
AcDbEntity
  8
0
  6
Continuous
 62
     7
100
AcDbPoint
 10
-195.0483093261719
 20
184.7027130126953
 30
0.0
  0
POINT
  5
71
330
22
100
AcDbEntity
  8
0
  6
Continuous
 62
     7
100
AcDbPoint
 10
-315.0483093261719
 20
184.7027130126953
 30
0.0
  0
POINT
  5
72
330
22
100
AcDbEntity
  8
0
  6
Continuous
 62
     7
100
AcDbPoint
 10
-195.0483093261719
 20
184.7027130126953
 30
0.0
  0
POINT
  5
73
330
22
100
AcDbEntity
  8
0
  6
Continuous
 62
     7
100
AcDbPoint
 10
-315.0483093261719
 20
184.7027130126953
 30
0.0
  0
POINT
  5
74
330
22
100
AcDbEntity
  8
0
  6
Continuous
 62
     7
100
AcDbPoint
 10
-155.5936889648438
 20
212.7849426269531
 30
0.0
  0
LINE
  5
75
330
22
100
AcDbEntity
  8
0
  6
Continuous
 62
     7
100
AcDbLine
 10
-192.0483093261719
 20
216.2027130126953
 30
0.0
 11
-193.0983123779297
 21
216.2027130126953
 31
0.0
  0
LINE
  5
76
330
22
100
AcDbEntity
  8
0
  6
Continuous
 62
     7
100
AcDbLine
 10
-192.8483123779297
 20
216.4527130126953
 30
0.0
 11
-189.4283142089844
 21
216.4527130126953
 31
0.0
  0
LINE
  5
77
330
22
100
AcDbEntity
  8
0
  6
Continuous
 62
     7
100
AcDbLine
 10
-188.7483062744141
 20
220.4527130126953
 30
0.0
 11
-189.1283111572266
 21
220.0727081298828
 31
0.0
  0
LINE
  5
78
330
22
100
AcDbEntity
  8
0
  6
Continuous
 62
     7
100
AcDbLine
 10
-189.1283111572266
 20
220.4527130126953
 30
0.0
 11
-188.7483062744141
 21
220.4527130126953
 31
0.0
  0
LINE
  5
79
330
22
100
AcDbEntity
  8
0
  6
Continuous
 62
     7
100
AcDbLine
 10
-192.0483093261719
 20
216.4527130126953
 30
0.0
 11
-189.1283111572266
 21
216.4527130126953
 31
0.0
  0
LINE
  5
7A
330
22
100
AcDbEntity
  8
0
  6
Continuous
 62
     7
100
AcDbLine
 10
-189.1283111572266
 20
216.4527130126953
 30
0.0
 11
-188.7483062744141
 21
216.4527130126953
 31
0.0
  0
LINE
  5
7B
330
22
100
AcDbEntity
  8
0
  6
Continuous
 62
     7
100
AcDbLine
 10
-189.1283111572266
 20
220.0727081298828
 30
0.0
 11
-191.6683044433594
 21
220.0727081298828
 31
0.0
  0
LINE
  5
7C
330
22
100
AcDbEntity
  8
0
  6
Continuous
 62
     7
100
AcDbLine
 10
-192.0483093261719
 20
220.4527130126953
 30
0.0
 11
-189.1283111572266
 21
220.4527130126953
 31
0.0
  0
LINE
  5
7D
330
22
100
AcDbEntity
  8
0
  6
Continuous
 62
     7
100
AcDbLine
 10
-186.0483093261719
 20
234.7027130126953
 30
0.0
 11
-186.0483093261719
 21
218.7027130126953
 31
0.0
  0
LINE
  5
7E
330
22
100
AcDbEntity
  8
0
  6
Continuous
 62
     7
100
AcDbLine
 10
-189.1283111572266
 20
216.8327178955078
 30
0.0
 11
-191.6683044433594
 21
216.8327178955078
 31
0.0
  0
LINE
  5
7F
330
22
100
AcDbEntity
  8
0
  6
Continuous
 62
     7
100
AcDbLine
 10
-189.1283111572266
 20
220.0727081298828
 30
0.0
 11
-189.1283111572266
 21
216.8327178955078
 31
0.0
  0
LINE
  5
80
330
22
100
AcDbEntity
  8
0
  6
Continuous
 62
     7
100
AcDbLine
 10
-188.7483062744141
 20
216.4527130126953
 30
0.0
 11
-189.1283111572266
 21
216.8327178955078
 31
0.0
  0
LINE
  5
81
330
22
100
AcDbEntity
  8
0
  6
Continuous
 62
     7
100
AcDbLine
 10
-192.0483093261719
 20
216.4527130126953
 30
0.0
 11
-192.0483093261719
 21
211.7027130126953
 31
0.0
  0
LINE
  5
82
330
22
100
AcDbEntity
  8
0
  6
Continuous
 62
     7
100
AcDbLine
 10
-186.0483093261719
 20
234.7027130126953
 30
0.0
 11
-183.0483093261719
 21
234.7027130126953
 31
0.0
  0
LINE
  5
83
330
22
100
AcDbEntity
  8
0
  6
Continuous
 62
     7
100
AcDbLine
 10
-183.0483093261719
 20
219.2027130126953
 30
0.0
 11
-186.0483093261719
 21
219.2027130126953
 31
0.0
  0
LINE
  5
84
330
22
100
AcDbEntity
  8
0
  6
Continuous
 62
     7
100
AcDbLine
 10
-183.0483093261719
 20
234.7027130126953
 30
0.0
 11
-183.0483093261719
 21
219.2027130126953
 31
0.0
  0
LINE
  5
85
330
22
100
AcDbEntity
  8
0
  6
Continuous
 62
     7
100
AcDbLine
 10
-186.0483093261719
 20
218.7027130126953
 30
0.0
 11
-182.0483093261719
 21
218.7027130126953
 31
0.0
  0
LINE
  5
86
330
22
100
AcDbEntity
  8
0
  6
Continuous
 62
     7
100
AcDbLine
 10
-182.0483093261719
 20
218.7027130126953
 30
0.0
 11
-181.0483093261719
 21
217.7027130126953
 31
0.0
  0
LINE
  5
87
330
22
100
AcDbEntity
  8
0
  6
Continuous
 62
     7
100
AcDbLine
 10
-184.5483093261719
 20
213.7027130126953
 30
0.0
 11
-164.0483093261719
 21
213.7027130126953
 31
0.0
  0
LINE
  5
88
330
22
100
AcDbEntity
  8
0
  6
Continuous
 62
     7
100
AcDbLine
 10
-148.0483093261719
 20
218.7027130126953
 30
0.0
 11
-182.0483093261719
 21
218.7027130126953
 31
0.0
  0
LINE
  5
89
330
22
100
AcDbEntity
  8
0
  6
Continuous
 62
     7
100
AcDbLine
 10
-147.0483093261719
 20
217.7027130126953
 30
0.0
 11
-181.0483093261719
 21
217.7027130126953
 31
0.0
  0
LINE
  5
8A
330
22
100
AcDbEntity
  8
0
  6
Continuous
 62
     7
100
AcDbLine
 10
-185.0483093261719
 20
213.2027130126953
 30
0.0
 11
-185.0483093261719
 21
211.7027130126953
 31
0.0
  0
LINE
  5
8B
330
22
100
AcDbEntity
  8
0
  6
Continuous
 62
     7
100
AcDbLine
 10
-191.5483093261719
 20
211.2027130126953
 30
0.0
 11
-185.5483093261719
 21
211.2027130126953
 31
0.0
  0
LINE
  5
8C
330
22
100
AcDbEntity
  8
0
  6
Continuous
 62
     7
100
AcDbLine
 10
-170.0483093261719
 20
229.7027130126953
 30
0.0
 11
-170.0483093261719
 21
218.7027130126953
 31
0.0
  0
LINE
  5
8D
330
22
100
AcDbEntity
  8
0
  6
Continuous
 62
     7
100
AcDbLine
 10
-169.0483093261719
 20
229.1808776855469
 30
0.0
 11
-168.5264739990234
 21
229.7027130126953
 31
0.0
  0
LINE
  5
8E
330
22
100
AcDbEntity
  8
0
  6
Continuous
 62
     7
100
AcDbLine
 10
-169.0483093261719
 20
224.938232421875
 30
0.0
 11
-166.5483093261719
 21
227.438232421875
 31
0.0
  0
LINE
  5
8F
330
22
100
AcDbEntity
  8
0
  6
Continuous
 62
     7
100
AcDbLine
 10
-169.0483093261719
 20
220.6955871582031
 30
0.0
 11
-163.0571899414063
 21
226.6867065429688
 31
0.0
  0
LINE
  5
90
330
22
100
AcDbEntity
  8
0
  6
Continuous
 62
     7
100
AcDbLine
 10
-166.7985534667969
 20
218.7027130126953
 30
0.0
 11
-159.1315460205078
 21
226.3697052001953
 31
0.0
  0
LINE
  5
91
330
22
100
AcDbEntity
  8
0
  6
Continuous
 62
     7
100
AcDbLine
 10
-162.555908203125
 20
218.7027130126953
 30
0.0
 11
-158.2002716064453
 21
223.058349609375
 31
0.0
  0
LINE
  5
92
330
22
100
AcDbEntity
  8
0
  6
Continuous
 62
     7
100
AcDbLine
 10
-158.3132629394531
 20
218.7027130126953
 30
0.0
 11
-157.6440124511719
 21
219.3719635009766
 31
0.0
  0
LINE
  5
93
330
22
100
AcDbEntity
  8
0
  6
Continuous
 62
     7
100
AcDbLine
 10
-169.0483093261719
 20
227.0595550537109
 30
0.0
 11
-166.5483093261719
 21
229.5595550537109
 31
0.0
  0
LINE
  5
94
330
22
100
AcDbEntity
  8
0
  6
Continuous
 62
     7
100
AcDbLine
 10
-169.0483093261719
 20
222.8169097900391
 30
0.0
 11
-165.1789245605469
 21
226.6862945556641
 31
0.0
  0
LINE
  5
95
330
22
100
AcDbEntity
  8
0
  6
Continuous
 62
     7
100
AcDbLine
 10
-168.9198608398438
 20
218.7027130126953
 30
0.0
 11
-160.9354705810547
 21
226.6871185302734
 31
0.0
  0
LINE
  5
96
330
22
100
AcDbEntity
  8
0
  6
Continuous
 62
     7
100
AcDbLine
 10
-164.6772308349609
 20
218.7027130126953
 30
0.0
 11
-158.6285400390625
 21
224.7513885498047
 31
0.0
  0
LINE
  5
97
330
22
100
AcDbEntity
  8
0
  6
Continuous
 62
     7
100
AcDbLine
 10
-160.4345855712891
 20
218.7027130126953
 30
0.0
 11
-157.8727111816406
 21
221.2645874023438
 31
0.0
  0
LINE
  5
98
330
22
100
AcDbEntity
  8
0
  6
Continuous
 62
     7
100
AcDbLine
 10
-158.0483093261719
 20
218.7027130126953
 30
0.0
 11
-159.0483093261719
 21
217.7027130126953
 31
0.0
  0
LINE
  5
99
330
22
100
AcDbEntity
  8
0
  6
Continuous
 62
     7
100
AcDbLine
 10
-147.0483093261719
 20
217.7027130126953
 30
0.0
 11
-148.0483093261719
 21
218.7027130126953
 31
0.0
  0
LINE
  5
9A
330
22
100
AcDbEntity
  8
0
  6
Continuous
 62
     7
100
AcDbLine
 10
-169.0483093261719
 20
229.7027130126953
 30
0.0
 11
-169.0483093261719
 21
218.7027130126953
 31
0.0
  0
LINE
  5
9B
330
22
100
AcDbEntity
  8
0
  6
Continuous
 62
     7
100
AcDbLine
 10
-173.0483093261719
 20
218.7027130126953
 30
0.0
 11
-169.0483093261719
 21
218.7027130126953
 31
0.0
  0
LINE
  5
9C
330
22
100
AcDbEntity
  8
0
  6
Continuous
 62
     7
100
AcDbLine
 10
-169.0483093261719
 20
218.7027130126953
 30
0.0
 11
-168.0483093261719
 21
217.7027130126953
 31
0.0
  0
LINE
  5
9D
330
22
100
AcDbEntity
  8
0
  6
Continuous
 62
     7
100
AcDbLine
 10
-173.0483093261719
 20
229.7027130126953
 30
0.0
 11
-173.0483093261719
 21
218.7027130126953
 31
0.0
  0
LINE
  5
9E
330
22
100
AcDbEntity
  8
0
  6
Continuous
 62
     7
100
AcDbLine
 10
-192.0483093261719
 20
226.2027130126953
 30
0.0
 11
-192.0483093261719
 21
220.4527130126953
 31
0.0
  0
LINE
  5
9F
330
22
100
AcDbEntity
  8
0
  6
Continuous
 62
     7
100
AcDbLine
 10
-188.7483062744141
 20
220.4527130126953
 30
0.0
 11
-188.7483062744141
 21
216.4527130126953
 31
0.0
  0
LINE
  5
A0
330
22
100
AcDbEntity
  8
0
  6
Continuous
 62
     7
100
AcDbLine
 10
-189.0483093261719
 20
220.0727081298828
 30
0.0
 11
-189.0483093261719
 21
216.8327178955078
 31
0.0
  0
LINE
  5
A1
330
22
100
AcDbEntity
  8
0
  6
Continuous
 62
     7
100
AcDbLine
 10
-189.0483093261719
 20
220.0727081298828
 30
0.0
 11
-189.4283142089844
 21
220.4527130126953
 31
0.0
  0
LINE
  5
A2
330
22
100
AcDbEntity
  8
0
  6
Continuous
 62
     7
100
AcDbLine
 10
-189.0483093261719
 20
216.8327178955078
 30
0.0
 11
-189.4283142089844
 21
216.4527130126953
 31
0.0
  0
LINE
  5
A3
330
22
100
AcDbEntity
  8
0
  6
Continuous
 62
     7
100
AcDbLine
 10
-189.0483093261719
 20
220.0727081298828
 30
0.0
 11
-192.4683074951172
 21
220.0727081298828
 31
0.0
  0
LINE
  5
A4
330
22
100
AcDbEntity
  8
0
  6
Continuous
 62
     7
100
AcDbLine
 10
-189.0483093261719
 20
216.8327178955078
 30
0.0
 11
-192.4683074951172
 21
216.8327178955078
 31
0.0
  0
LINE
  5
A5
330
22
100
AcDbEntity
  8
0
  6
Continuous
 62
     7
100
AcDbLine
 10
-192.8483123779297
 20
220.4527130126953
 30
0.0
 11
-192.4683074951172
 21
220.0727081298828
 31
0.0
  0
LINE
  5
A6
330
22
100
AcDbEntity
  8
0
  6
Continuous
 62
     7
100
AcDbLine
 10
-192.8483123779297
 20
220.4527130126953
 30
0.0
 11
-189.4283142089844
 21
220.4527130126953
 31
0.0
  0
LINE
  5
A7
330
22
100
AcDbEntity
  8
0
  6
Continuous
 62
     7
100
AcDbLine
 10
-192.8483123779297
 20
216.4527130126953
 30
0.0
 11
-192.4683074951172
 21
216.8327178955078
 31
0.0
  0
LINE
  5
A8
330
22
100
AcDbEntity
  8
0
  6
Continuous
 62
     7
100
AcDbLine
 10
-186.0483093261719
 20
134.7027130126953
 30
0.0
 11
-189.5876617431641
 21
134.7027130126953
 31
0.0
  0
LINE
  5
A9
330
22
100
AcDbEntity
  8
0
  6
Continuous
 62
     7
100
AcDbLine
 10
-182.0483093261719
 20
150.7027130126953
 30
0.0
 11
-183.0483093261719
 21
150.7027130126953
 31
0.0
  0
LINE
  5
AA
330
22
100
AcDbEntity
  8
0
  6
Continuous
 62
     7
100
AcDbLine
 10
-186.0483093261719
 20
134.7027130126953
 30
0.0
 11
-183.0483093261719
 21
134.7027130126953
 31
0.0
  0
LINE
  5
AB
330
22
100
AcDbEntity
  8
0
  6
Continuous
 62
     7
100
AcDbLine
 10
-181.0483093261719
 20
151.7027130126953
 30
0.0
 11
-173.0483093261719
 21
151.7027130126953
 31
0.0
  0
LINE
  5
AC
330
22
100
AcDbEntity
  8
0
  6
Continuous
 62
     7
100
AcDbLine
 10
-182.0483093261719
 20
150.7027130126953
 30
0.0
 11
-173.0483093261719
 21
150.7027130126953
 31
0.0
  0
LINE
  5
AD
330
22
100
AcDbEntity
  8
0
  6
Continuous
 62
     7
100
AcDbLine
 10
-182.0483093261719
 20
150.7027130126953
 30
0.0
 11
-181.0483093261719
 21
151.7027130126953
 31
0.0
  0
LINE
  5
AE
330
22
100
AcDbEntity
  8
0
  6
Continuous
 62
     7
100
AcDbLine
 10
-159.2397766113281
 20
226.6874389648438
 30
0.0
 11
-166.5483093261719
 21
226.68603515625
 31
0.0
  0
LINE
  5
AF
330
22
100
AcDbEntity
  8
0
  6
Continuous
 62
     7
100
AcDbLine
 10
-166.5483093261719
 20
229.7027130126953
 30
0.0
 11
-166.5483093261719
 21
226.68603515625
 31
0.0
  0
LINE
  5
B0
330
22
100
AcDbEntity
  8
0
  6
Continuous
 62
     7
100
AcDbLine
 10
-173.0483093261719
 20
229.7027130126953
 30
0.0
 11
-166.5483093261719
 21
229.7027130126953
 31
0.0
  0
LINE
  5
B1
330
22
100
AcDbEntity
  8
0
  6
Continuous
 62
     7
100
AcDbLine
 10
-147.0483093261719
 20
214.5027160644531
 30
0.0
 11
-164.0483093261719
 21
213.971435546875
 31
0.0
  0
LINE
  5
B2
330
22
100
AcDbEntity
  8
0
  6
Continuous
 62
     7
100
AcDbLine
 10
-147.0483093261719
 20
214.5027160644531
 30
0.0
 11
-148.5458221435547
 21
213.0052032470703
 31
0.0
  0
LINE
  5
B3
330
22
100
AcDbEntity
  8
0
  6
Continuous
 62
     7
100
AcDbLine
 10
-148.5458221435547
 20
213.0052032470703
 30
0.0
 11
-162.6415710449219
 21
212.564697265625
 31
0.0
  0
LINE
  5
B4
330
22
100
AcDbEntity
  8
0
  6
Continuous
 62
     7
100
AcDbLine
 10
-164.0483093261719
 20
213.971435546875
 30
0.0
 11
-162.6415710449219
 21
212.564697265625
 31
0.0
  0
LINE
  5
B5
330
22
100
AcDbEntity
  8
0
  6
Continuous
 62
     7
100
AcDbLine
 10
-191.3241577148438
 20
233.6949920654297
 30
0.0
 11
-194.3895263671875
 21
229.0055847167969
 31
0.0
  0
LINE
  5
B6
330
22
100
AcDbEntity
  8
0
  6
Continuous
 62
     7
100
AcDbLine
 10
-186.0483093261719
 20
234.7027130126953
 30
0.0
 11
-189.5876617431641
 21
234.7027130126953
 31
0.0
  0
LINE
  5
B7
330
22
100
AcDbEntity
  8
0
  6
Continuous
 62
     7
100
AcDbLine
 10
-187.0483093261719
 20
224.7027130126953
 30
0.0
 11
-186.0483093261719
 21
225.7027130126953
 31
0.0
  0
LINE
  5
B8
330
22
100
AcDbEntity
  8
0
  6
Continuous
 62
     7
100
AcDbLine
 10
-187.0483093261719
 20
224.7027130126953
 30
0.0
 11
-186.0483093261719
 21
223.7027130126953
 31
0.0
  0
LINE
  5
B9
330
22
100
AcDbEntity
  8
0
  6
Continuous
 62
     7
100
AcDbLine
 10
-187.0483093261719
 20
229.7027130126953
 30
0.0
 11
-186.0483093261719
 21
228.7027130126953
 31
0.0
  0
LINE
  5
BA
330
22
100
AcDbEntity
  8
0
  6
Continuous
 62
     7
100
AcDbLine
 10
-187.0483093261719
 20
229.7027130126953
 30
0.0
 11
-186.0483093261719
 21
230.7027130126953
 31
0.0
  0
LINE
  5
BB
330
22
100
AcDbEntity
  8
0
  6
Continuous
 62
     7
100
AcDbLine
 10
-147.0483093261719
 20
151.7027130126953
 30
0.0
 11
-148.0483093261719
 21
150.7027130126953
 31
0.0
  0
LINE
  5
BC
330
22
100
AcDbEntity
  8
0
  6
Continuous
 62
     7
100
AcDbLine
 10
-147.0483093261719
 20
151.7027130126953
 30
0.0
 11
-147.5483093261719
 21
151.7027130126953
 31
0.0
  0
LINE
  5
BD
330
22
100
AcDbEntity
  8
0
  6
Continuous
 62
     7
100
AcDbLine
 10
-173.0483093261719
 20
139.7027130126953
 30
0.0
 11
-166.5483093261719
 21
139.7027130126953
 31
0.0
  0
LINE
  5
BE
330
22
100
AcDbEntity
  8
0
  6
Continuous
 62
     7
100
AcDbLine
 10
-157.5340270996094
 20
151.7027130126953
 30
0.0
 11
-147.0483093261719
 21
151.7027130126953
 31
0.0
  0
LINE
  5
BF
330
22
100
AcDbEntity
  8
0
  6
Continuous
 62
     7
100
AcDbLine
 10
-157.5833129882813
 20
150.7027130126953
 30
0.0
 11
-148.0483093261719
 21
150.7027130126953
 31
0.0
  0
LINE
  5
C0
330
22
100
AcDbEntity
  8
0
  6
Continuous
 62
     7
100
AcDbLine
 10
-159.2397766113281
 20
164.8281097412109
 30
0.0
 11
-166.5483093261719
 21
164.8281097412109
 31
0.0
  0
LINE
  5
C1
330
22
100
AcDbEntity
  8
0
  6
Continuous
 62
     7
100
AcDbLine
 10
-159.2397766113281
 20
162.5970764160156
 30
0.0
 11
-166.5483093261719
 21
162.5970764160156
 31
0.0
  0
LINE
  5
C2
330
22
100
AcDbEntity
  8
0
  6
Continuous
 62
     7
100
AcDbLine
 10
-159.2397766113281
 20
142.7179870605469
 30
0.0
 11
-166.5483093261719
 21
142.7193908691406
 31
0.0
  0
LINE
  5
C3
330
22
100
AcDbEntity
  8
0
  6
Continuous
 62
     7
100
AcDbLine
 10
-159.2397766113281
 20
164.8281097412109
 30
0.0
 11
-159.2397766113281
 21
162.5970764160156
 31
0.0
  0
LINE
  5
C4
330
22
100
AcDbEntity
  8
0
  6
Continuous
 62
     7
100
AcDbLine
 10
-191.3241577148438
 20
135.7104339599609
 30
0.0
 11
-194.5108642578125
 21
140.6253967285156
 31
0.0
  0
LINE
  5
C5
330
22
100
AcDbEntity
  8
0
  6
Continuous
 62
     7
100
AcDbLine
 10
-166.5483093261719
 20
184.7027130126953
 30
0.0
 11
-166.5483093261719
 21
139.7027130126953
 31
0.0
  0
LINE
  5
C6
330
22
100
AcDbEntity
  8
0
  6
Continuous
 62
     7
100
AcDbLine
 10
-173.0483093261719
 20
184.7027130126953
 30
0.0
 11
-173.0483093261719
 21
139.7027130126953
 31
0.0
  0
LINE
  5
C7
330
22
100
AcDbEntity
  8
0
  6
Continuous
 62
     7
100
AcDbLine
 10
-170.0483093261719
 20
184.7027130126953
 30
0.0
 11
-170.0483093261719
 21
139.7027130126953
 31
0.0
  0
LINE
  5
C8
330
22
100
AcDbEntity
  8
0
  6
Continuous
 62
     7
100
AcDbLine
 10
-169.0483093261719
 20
184.7027130126953
 30
0.0
 11
-169.0483093261719
 21
139.7027130126953
 31
0.0
  0
LINE
  5
C9
330
22
100
AcDbEntity
  8
0
  6
Continuous
 62
     7
100
AcDbLine
 10
-157.5483093261719
 20
184.7027130126953
 30
0.0
 11
-157.5483093261719
 21
153.9825134277344
 31
0.0
  0
LINE
  5
CA
330
22
100
AcDbEntity
  8
0
  6
Continuous
 62
     7
100
AcDbLine
 10
-162.6415710449219
 20
212.564697265625
 30
0.0
 11
-162.6415710449219
 21
184.7027130126953
 31
0.0
  0
LINE
  5
CB
330
22
100
AcDbEntity
  8
0
  6
Continuous
 62
     7
100
AcDbLine
 10
-148.5458221435547
 20
213.0052032470703
 30
0.0
 11
-148.5458221435547
 21
184.7027130126953
 31
0.0
  0
LINE
  5
CC
330
22
100
AcDbEntity
  8
0
  6
Continuous
 62
     7
100
AcDbLine
 10
-147.0483093261719
 20
214.5027160644531
 30
0.0
 11
-147.0483093261719
 21
184.7027130126953
 31
0.0
  0
LINE
  5
CD
330
22
100
AcDbEntity
  8
0
  6
Continuous
 62
     7
100
AcDbLine
 10
-164.0483093261719
 20
213.971435546875
 30
0.0
 11
-164.0483093261719
 21
184.7027130126953
 31
0.0
  0
LINE
  5
CE
330
22
100
AcDbEntity
  8
0
  6
Continuous
 62
     7
100
AcDbLine
 10
-190.7483062744141
 20
136.9308013916016
 30
0.0
 11
-190.7483062744141
 21
184.7027130126953
 31
0.0
  0
LINE
  5
CF
330
22
100
AcDbEntity
  8
0
  6
Continuous
 62
     7
100
AcDbLine
 10
-186.0483093261719
 20
184.7027130126953
 30
0.0
 11
-186.0483093261719
 21
134.7027130126953
 31
0.0
  0
LINE
  5
D0
330
22
100
AcDbEntity
  8
0
  6
Continuous
 62
     7
100
AcDbLine
 10
-185.0483093261719
 20
211.7027130126953
 30
0.0
 11
-185.0483093261719
 21
184.7027130126953
 31
0.0
  0
LINE
  5
D1
330
22
100
AcDbEntity
  8
0
  6
Continuous
 62
     7
100
AcDbLine
 10
-192.0483093261719
 20
211.7027130126953
 30
0.0
 11
-192.0483093261719
 21
184.7027130126953
 31
0.0
  0
LINE
  5
D2
330
22
100
AcDbEntity
  8
0
  6
Continuous
 62
     7
100
AcDbLine
 10
-147.0483093261719
 20
217.7027130126953
 30
0.0
 11
-147.0483093261719
 21
151.7027130126953
 31
0.0
  0
LINE
  5
D3
330
22
100
AcDbEntity
  8
0
  6
Continuous
 62
     7
100
AcDbLine
 10
-183.0483093261719
 20
134.7027130126953
 30
0.0
 11
-183.0483093261719
 21
184.7027130126953
 31
0.0
  0
LINE
  5
D4
330
22
100
AcDbEntity
  8
0
  6
Continuous
 62
     7
100
AcDbLine
 10
-181.0483093261719
 20
151.7027130126953
 30
0.0
 11
-181.0483093261719
 21
184.7027130126953
 31
0.0
  0
LINE
  5
D5
330
22
100
AcDbEntity
  8
0
  6
Continuous
 62
     7
100
AcDbLine
 10
-195.0483093261719
 20
226.2027130126953
 30
0.0
 11
-192.0483093261719
 21
226.2027130126953
 31
0.0
  0
LINE
  5
D6
330
22
100
AcDbEntity
  8
0
  6
CENTER
 62
     7
100
AcDbLine
 10
-196.9727783203125
 20
218.4527130126953
 30
0.0
 11
-187.0483093261719
 21
218.4527130126953
 31
0.0
  0
LINE
  5
D7
330
22
100
AcDbEntity
  8
0
  6
Continuous
 62
     7
100
AcDbLine
 10
-195.0483093261719
 20
214.2527160644531
 30
0.0
 11
-192.8483123779297
 21
216.4527130126953
 31
0.0
  0
LINE
  5
D8
330
22
100
AcDbEntity
  8
0
  6
Continuous
 62
     7
100
AcDbLine
 10
-195.0483093261719
 20
222.6527099609375
 30
0.0
 11
-192.8483123779297
 21
220.4527130126953
 31
0.0
  0
LINE
  5
D9
330
22
100
AcDbEntity
  8
0
  6
Continuous
 62
     7
100
AcDbLine
 10
-195.0483093261719
 20
222.6527099609375
 30
0.0
 11
-195.0483093261719
 21
214.2527160644531
 31
0.0
  0
LINE
  5
DA
330
22
100
AcDbEntity
  8
0
  6
Continuous
 62
     7
100
AcDbLine
 10
-195.0483093261719
 20
226.5920257568359
 30
0.0
 11
-195.0483093261719
 21
142.7326049804688
 31
0.0
  0
LINE
  5
DB
330
22
100
AcDbEntity
  8
0
  6
Continuous
 62
     7
100
AcDbLine
 10
-193.4139556884766
 20
226.2027130126953
 30
0.0
 11
-192.0483093261719
 21
224.8370666503906
 31
0.0
  0
LINE
  5
DC
330
22
100
AcDbEntity
  8
0
  6
Continuous
 62
     7
100
AcDbLine
 10
-194.1210632324219
 20
226.2027130126953
 30
0.0
 11
-192.0483093261719
 21
224.1299591064453
 31
0.0
  0
LINE
  5
DD
330
22
100
AcDbEntity
  8
0
  6
Continuous
 62
     7
100
AcDbLine
 10
-195.0483093261719
 20
225.0086364746094
 30
0.0
 11
-192.0483093261719
 21
222.0086364746094
 31
0.0
  0
LINE
  5
DE
330
22
100
AcDbEntity
  8
0
  6
Continuous
 62
     7
100
AcDbLine
 10
-195.0483093261719
 20
224.3015289306641
 30
0.0
 11
-192.0483093261719
 21
221.3015289306641
 31
0.0
  0
LINE
  5
DF
330
22
100
AcDbEntity
  8
0
  6
Continuous
 62
     7
100
AcDbLine
 10
-192.6063537597656
 20
216.2027130126953
 30
0.0
 11
-192.0483093261719
 21
215.6446685791016
 31
0.0
  0
LINE
  5
E0
330
22
100
AcDbEntity
  8
0
  6
Continuous
 62
     7
100
AcDbLine
 10
-193.9129943847656
 20
215.3880310058594
 30
0.0
 11
-192.0483093261719
 21
213.5233612060547
 31
0.0
  0
LINE
  5
E1
330
22
100
AcDbEntity
  8
0
  6
Continuous
 62
     7
100
AcDbLine
 10
-194.2665405273438
 20
215.0344848632813
 30
0.0
 11
-192.0483093261719
 21
212.8162536621094
 31
0.0
  0
LINE
  5
E2
330
22
100
AcDbEntity
  8
0
  6
Continuous
 62
     7
100
AcDbLine
 10
-195.0483093261719
 20
213.6949310302734
 30
0.0
 11
-192.0483093261719
 21
210.6949310302734
 31
0.0
  0
LINE
  5
E3
330
22
100
AcDbEntity
  8
0
  6
Continuous
 62
     7
100
AcDbLine
 10
-195.0483093261719
 20
212.9878234863281
 30
0.0
 11
-192.0483093261719
 21
209.9878234863281
 31
0.0
  0
LINE
  5
E4
330
22
100
AcDbEntity
  8
0
  6
Continuous
 62
     7
100
AcDbLine
 10
-195.0483093261719
 20
210.8665008544922
 30
0.0
 11
-192.0483093261719
 21
207.8665008544922
 31
0.0
  0
LINE
  5
E5
330
22
100
AcDbEntity
  8
0
  6
Continuous
 62
     7
100
AcDbLine
 10
-195.0483093261719
 20
210.1593933105469
 30
0.0
 11
-192.0483093261719
 21
207.1593933105469
 31
0.0
  0
LINE
  5
E6
330
22
100
AcDbEntity
  8
0
  6
Continuous
 62
     7
100
AcDbLine
 10
-195.0483093261719
 20
208.0380706787109
 30
0.0
 11
-192.0483093261719
 21
205.0380706787109
 31
0.0
  0
LINE
  5
E7
330
22
100
AcDbEntity
  8
0
  6
Continuous
 62
     7
100
AcDbLine
 10
-195.0483093261719
 20
207.3309631347656
 30
0.0
 11
-192.0483093261719
 21
204.3309631347656
 31
0.0
  0
LINE
  5
E8
330
22
100
AcDbEntity
  8
0
  6
Continuous
 62
     7
100
AcDbLine
 10
-195.0483093261719
 20
205.2096405029297
 30
0.0
 11
-192.0483093261719
 21
202.2096405029297
 31
0.0
  0
LINE
  5
E9
330
22
100
AcDbEntity
  8
0
  6
Continuous
 62
     7
100
AcDbLine
 10
-195.0483093261719
 20
204.5025329589844
 30
0.0
 11
-192.0483093261719
 21
201.5025329589844
 31
0.0
  0
LINE
  5
EA
330
22
100
AcDbEntity
  8
0
  6
Continuous
 62
     7
100
AcDbLine
 10
-195.0483093261719
 20
202.3812255859375
 30
0.0
 11
-192.0483093261719
 21
199.3812255859375
 31
0.0
  0
LINE
  5
EB
330
22
100
AcDbEntity
  8
0
  6
Continuous
 62
     7
100
AcDbLine
 10
-195.0483093261719
 20
199.5527954101563
 30
0.0
 11
-192.0483093261719
 21
196.5527954101563
 31
0.0
  0
LINE
  5
EC
330
22
100
AcDbEntity
  8
0
  6
Continuous
 62
     7
100
AcDbLine
 10
-195.0483093261719
 20
198.8456878662109
 30
0.0
 11
-192.0483093261719
 21
195.8456878662109
 31
0.0
  0
LINE
  5
ED
330
22
100
AcDbEntity
  8
0
  6
Continuous
 62
     7
100
AcDbLine
 10
-195.0483093261719
 20
196.724365234375
 30
0.0
 11
-192.0483093261719
 21
193.724365234375
 31
0.0
  0
LINE
  5
EE
330
22
100
AcDbEntity
  8
0
  6
Continuous
 62
     7
100
AcDbLine
 10
-195.0483093261719
 20
196.0172576904297
 30
0.0
 11
-192.0483093261719
 21
193.0172576904297
 31
0.0
  0
LINE
  5
EF
330
22
100
AcDbEntity
  8
0
  6
Continuous
 62
     7
100
AcDbLine
 10
-195.0483093261719
 20
193.8959350585938
 30
0.0
 11
-192.0483093261719
 21
190.8959350585938
 31
0.0
  0
LINE
  5
F0
330
22
100
AcDbEntity
  8
0
  6
Continuous
 62
     7
100
AcDbLine
 10
-195.0483093261719
 20
193.1888275146484
 30
0.0
 11
-192.0483093261719
 21
190.1888275146484
 31
0.0
  0
LINE
  5
F1
330
22
100
AcDbEntity
  8
0
  6
Continuous
 62
     7
100
AcDbLine
 10
-195.0483093261719
 20
191.0675048828125
 30
0.0
 11
-192.0483093261719
 21
188.0675048828125
 31
0.0
  0
LINE
  5
F2
330
22
100
AcDbEntity
  8
0
  6
Continuous
 62
     7
100
AcDbLine
 10
-195.0483093261719
 20
190.3603973388672
 30
0.0
 11
-192.0483093261719
 21
187.3603973388672
 31
0.0
  0
LINE
  5
F3
330
22
100
AcDbEntity
  8
0
  6
Continuous
 62
     7
100
AcDbLine
 10
-195.0483093261719
 20
188.2390899658203
 30
0.0
 11
-192.0483093261719
 21
185.2390899658203
 31
0.0
  0
LINE
  5
F4
330
22
100
AcDbEntity
  8
0
  6
Continuous
 62
     7
100
AcDbLine
 10
-195.0483093261719
 20
187.531982421875
 30
0.0
 11
-192.2190551757813
 21
184.7027130126953
 31
0.0
  0
LINE
  5
F5
330
22
100
AcDbEntity
  8
0
  6
Continuous
 62
     7
100
AcDbLine
 10
-195.0483093261719
 20
185.4106597900391
 30
0.0
 11
-194.3403625488281
 21
184.7027130126953
 31
0.0
  0
LINE
  5
F6
330
22
100
AcDbEntity
  8
0
  6
Continuous
 62
     7
100
AcDbLine
 10
-195.0483093261719
 20
184.7035522460938
 30
0.0
 11
-195.0474700927734
 21
184.7027130126953
 31
0.0
  0
LINE
  5
F7
330
22
100
AcDbEntity
  8
0
  6
Continuous
 62
     7
100
AcDbLine
 10
-193.6841430664063
 20
230.0846710205078
 30
0.0
 11
-189.0661010742188
 21
234.7027130126953
 31
0.0
  0
LINE
  5
F8
330
22
100
AcDbEntity
  8
0
  6
Continuous
 62
     7
100
AcDbLine
 10
-194.9508209228516
 20
227.4037933349609
 30
0.0
 11
-187.6519012451172
 21
234.7027130126953
 31
0.0
  0
LINE
  5
F9
330
22
100
AcDbEntity
  8
0
  6
Continuous
 62
     7
100
AcDbLine
 10
-194.7376861572266
 20
226.2027130126953
 30
0.0
 11
-186.2376861572266
 21
234.7027130126953
 31
0.0
  0
LINE
  5
FA
330
22
100
AcDbEntity
  8
0
  6
Continuous
 62
     7
100
AcDbLine
 10
-193.3234710693359
 20
226.2027130126953
 30
0.0
 11
-186.0483093261719
 21
233.4778747558594
 31
0.0
  0
LINE
  5
FB
330
22
100
AcDbEntity
  8
0
  6
Continuous
 62
     7
100
AcDbLine
 10
-192.0483093261719
 20
226.0636596679688
 30
0.0
 11
-186.0483093261719
 21
232.0636596679688
 31
0.0
  0
LINE
  5
FC
330
22
100
AcDbEntity
  8
0
  6
Continuous
 62
     7
100
AcDbLine
 10
-192.0483093261719
 20
224.6494445800781
 30
0.0
 11
-187.0216827392578
 21
229.6760711669922
 31
0.0
  0
LINE
  5
FD
330
22
100
AcDbEntity
  8
0
  6
Continuous
 62
     7
100
AcDbLine
 10
-192.0483093261719
 20
223.2352294921875
 30
0.0
 11
-186.3145751953125
 21
228.9689636230469
 31
0.0
  0
LINE
  5
FE
330
22
100
AcDbEntity
  8
0
  6
Continuous
 62
     7
100
AcDbLine
 10
-192.0483093261719
 20
221.8210144042969
 30
0.0
 11
-186.0483093261719
 21
227.8210144042969
 31
0.0
  0
LINE
  5
FF
330
22
100
AcDbEntity
  8
0
  6
Continuous
 62
     7
100
AcDbLine
 10
-192.0023956298828
 20
220.4527130126953
 30
0.0
 11
-186.0483093261719
 21
226.4067993164063
 31
0.0
  0
LINE
  5
100
330
22
100
AcDbEntity
  8
0
  6
Continuous
 62
     7
100
AcDbLine
 10
-190.5881805419921
 20
220.4527130126953
 30
0.0
 11
-186.6932525634766
 21
224.34765625
 31
0.0
  0
LINE
  5
101
330
22
100
AcDbEntity
  8
0
  6
Continuous
 62
     7
100
AcDbLine
 10
-189.1739654541016
 20
220.4527130126953
 30
0.0
 11
-186.0483093261719
 21
223.578369140625
 31
0.0
  0
LINE
  5
102
330
22
100
AcDbEntity
  8
0
  6
Continuous
 62
     7
100
AcDbLine
 10
-188.7483062744141
 20
219.4641571044922
 30
0.0
 11
-186.0483093261719
 21
222.1641540527344
 31
0.0
  0
LINE
  5
103
330
22
100
AcDbEntity
  8
0
  6
Continuous
 62
     7
100
AcDbLine
 10
-192.0483093261719
 20
216.1641540527344
 30
0.0
 11
-191.759765625
 21
216.4527130126953
 31
0.0
  0
LINE
  5
104
330
22
100
AcDbEntity
  8
0
  6
Continuous
 62
     7
100
AcDbLine
 10
-188.3455505371094
 20
218.4527130126953
 30
0.0
 11
-186.0483093261719
 21
220.7499542236328
 31
0.0
  0
LINE
  5
105
330
22
100
AcDbEntity
  8
0
  6
Continuous
 62
     7
100
AcDbLine
 10
-188.7483062744141
 20
218.0499420166016
 30
0.0
 11
-188.3455505371094
 21
218.4527130126953
 31
0.0
  0
LINE
  5
106
330
22
100
AcDbEntity
  8
0
  6
Continuous
 62
     7
100
AcDbLine
 10
-192.0483093261719
 20
214.7499542236328
 30
0.0
 11
-190.3455505371094
 21
216.4527130126953
 31
0.0
  0
LINE
  5
107
330
22
100
AcDbEntity
  8
0
  6
Continuous
 62
     7
100
AcDbLine
 10
-188.7483062744141
 20
216.6357269287109
 30
0.0
 11
-186.0483093261719
 21
219.3357391357422
 31
0.0
  0
LINE
  5
108
330
22
100
AcDbEntity
  8
0
  6
Continuous
 62
     7
100
AcDbLine
 10
-192.0483093261719
 20
213.3357391357422
 30
0.0
 11
-188.9313354492188
 21
216.4527130126953
 31
0.0
  0
LINE
  5
109
330
22
100
AcDbEntity
  8
0
  6
Continuous
 62
     7
100
AcDbLine
 10
-192.0483093261719
 20
211.9215240478516
 30
0.0
 11
-185.2671203613281
 21
218.7027130126953
 31
0.0
  0
LINE
  5
10A
330
22
100
AcDbEntity
  8
0
  6
Continuous
 62
     7
100
AcDbLine
 10
-191.3529052734375
 20
211.2027130126953
 30
0.0
 11
-183.8529052734375
 21
218.7027130126953
 31
0.0
  0
LINE
  5
10B
330
22
100
AcDbEntity
  8
0
  6
Continuous
 62
     7
100
AcDbLine
 10
-189.9386901855469
 20
211.2027130126953
 30
0.0
 11
-182.4386901855469
 21
218.7027130126953
 31
0.0
  0
LINE
  5
10C
330
22
100
AcDbEntity
  8
0
  6
Continuous
 62
     7
100
AcDbLine
 10
-188.5244750976563
 20
211.2027130126953
 30
0.0
 11
-181.5363922119141
 21
218.1907958984375
 31
0.0
  0
LINE
  5
10D
330
22
100
AcDbEntity
  8
0
  6
Continuous
 62
     7
100
AcDbLine
 10
-184.6256408691406
 20
213.6873321533203
 30
0.0
 11
-180.6102600097656
 21
217.7027130126953
 31
0.0
  0
LINE
  5
10E
330
22
100
AcDbEntity
  8
0
  6
Continuous
 62
     7
100
AcDbLine
 10
-187.1102600097656
 20
211.2027130126953
 30
0.0
 11
-185.0329284667969
 21
213.2800445556641
 31
0.0
  0
LINE
  5
10F
330
22
100
AcDbEntity
  8
0
  6
Continuous
 62
     7
100
AcDbLine
 10
-183.196044921875
 20
213.7027130126953
 30
0.0
 11
-179.196044921875
 21
217.7027130126953
 31
0.0
  0
LINE
  5
110
330
22
100
AcDbEntity
  8
0
  6
Continuous
 62
     7
100
AcDbLine
 10
-185.696044921875
 20
211.2027130126953
 30
0.0
 11
-185.0483093261719
 21
211.8504486083984
 31
0.0
  0
LINE
  5
111
330
22
100
AcDbEntity
  8
0
  6
Continuous
 62
     7
100
AcDbLine
 10
-181.7818298339844
 20
213.7027130126953
 30
0.0
 11
-177.7818298339844
 21
217.7027130126953
 31
0.0
  0
LINE
  5
112
330
22
100
AcDbEntity
  8
0
  6
Continuous
 62
     7
100
AcDbLine
 10
-180.3676300048828
 20
213.7027130126953
 30
0.0
 11
-176.3676300048828
 21
217.7027130126953
 31
0.0
  0
LINE
  5
113
330
22
100
AcDbEntity
  8
0
  6
Continuous
 62
     7
100
AcDbLine
 10
-178.9534149169922
 20
213.7027130126953
 30
0.0
 11
-174.9534149169922
 21
217.7027130126953
 31
0.0
  0
LINE
  5
114
330
22
100
AcDbEntity
  8
0
  6
Continuous
 62
     7
100
AcDbLine
 10
-177.5391998291016
 20
213.7027130126953
 30
0.0
 11
-173.5391998291016
 21
217.7027130126953
 31
0.0
  0
LINE
  5
115
330
22
100
AcDbEntity
  8
0
  6
Continuous
 62
     7
100
AcDbLine
 10
-176.1249847412109
 20
213.7027130126953
 30
0.0
 11
-172.1249847412109
 21
217.7027130126953
 31
0.0
  0
LINE
  5
116
330
22
100
AcDbEntity
  8
0
  6
Continuous
 62
     7
100
AcDbLine
 10
-174.7107696533203
 20
213.7027130126953
 30
0.0
 11
-170.7107696533203
 21
217.7027130126953
 31
0.0
  0
LINE
  5
117
330
22
100
AcDbEntity
  8
0
  6
Continuous
 62
     7
100
AcDbLine
 10
-173.2965545654297
 20
213.7027130126953
 30
0.0
 11
-169.2965545654297
 21
217.7027130126953
 31
0.0
  0
LINE
  5
118
330
22
100
AcDbEntity
  8
0
  6
Continuous
 62
     7
100
AcDbLine
 10
-171.8823394775391
 20
213.7027130126953
 30
0.0
 11
-167.8823394775391
 21
217.7027130126953
 31
0.0
  0
LINE
  5
119
330
22
100
AcDbEntity
  8
0
  6
Continuous
 62
     7
100
AcDbLine
 10
-170.4681243896484
 20
213.7027130126953
 30
0.0
 11
-166.4681243896484
 21
217.7027130126953
 31
0.0
  0
LINE
  5
11A
330
22
100
AcDbEntity
  8
0
  6
Continuous
 62
     7
100
AcDbLine
 10
-169.0539093017578
 20
213.7027130126953
 30
0.0
 11
-165.0539093017578
 21
217.7027130126953
 31
0.0
  0
LINE
  5
11B
330
22
100
AcDbEntity
  8
0
  6
Continuous
 62
     7
100
AcDbLine
 10
-167.6396942138672
 20
213.7027130126953
 30
0.0
 11
-163.6396942138672
 21
217.7027130126953
 31
0.0
  0
LINE
  5
11C
330
22
100
AcDbEntity
  8
0
  6
Continuous
 62
     7
100
AcDbLine
 10
-166.2254943847656
 20
213.7027130126953
 30
0.0
 11
-162.2254943847656
 21
217.7027130126953
 31
0.0
  0
LINE
  5
11D
330
22
100
AcDbEntity
  8
0
  6
Continuous
 62
     7
100
AcDbLine
 10
-164.811279296875
 20
213.7027130126953
 30
0.0
 11
-160.811279296875
 21
217.7027130126953
 31
0.0
  0
LINE
  5
11E
330
22
100
AcDbEntity
  8
0
  6
Continuous
 62
     7
100
AcDbLine
 10
-163.0986633300781
 20
214.0011138916016
 30
0.0
 11
-159.3970642089844
 21
217.7027130126953
 31
0.0
  0
LINE
  5
11F
330
22
100
AcDbEntity
  8
0
  6
Continuous
 62
     7
100
AcDbLine
 10
-161.6388244628906
 20
214.0467376708984
 30
0.0
 11
-157.9828491210938
 21
217.7027130126953
 31
0.0
  0
LINE
  5
120
330
22
100
AcDbEntity
  8
0
  6
Continuous
 62
     7
100
AcDbLine
 10
-160.1789855957031
 20
214.0923614501953
 30
0.0
 11
-156.5686340332031
 21
217.7027130126953
 31
0.0
  0
LINE
  5
121
330
22
100
AcDbEntity
  8
0
  6
Continuous
 62
     7
100
AcDbLine
 10
-158.7191467285156
 20
214.1379852294922
 30
0.0
 11
-155.1544189453125
 21
217.7027130126953
 31
0.0
  0
LINE
  5
122
330
22
100
AcDbEntity
  8
0
  6
Continuous
 62
     7
100
AcDbLine
 10
-157.2593231201172
 20
214.1836090087891
 30
0.0
 11
-153.7402038574219
 21
217.7027130126953
 31
0.0
  0
LINE
  5
123
330
22
100
AcDbEntity
  8
0
  6
Continuous
 62
     7
100
AcDbLine
 10
-155.7994842529297
 20
214.2292327880859
 30
0.0
 11
-152.3259887695313
 21
217.7027130126953
 31
0.0
  0
LINE
  5
124
330
22
100
AcDbEntity
  8
0
  6
Continuous
 62
     7
100
AcDbLine
 10
-154.3396453857422
 20
214.2748413085938
 30
0.0
 11
-150.9117736816406
 21
217.7027130126953
 31
0.0
  0
LINE
  5
125
330
22
100
AcDbEntity
  8
0
  6
Continuous
 62
     7
100
AcDbLine
 10
-152.8798065185547
 20
214.3204650878906
 30
0.0
 11
-149.49755859375
 21
217.7027130126953
 31
0.0
  0
LINE
  5
126
330
22
100
AcDbEntity
  8
0
  6
Continuous
 62
     7
100
AcDbLine
 10
-151.4199676513672
 20
214.3660888671875
 30
0.0
 11
-148.0833587646484
 21
217.7027130126953
 31
0.0
  0
LINE
  5
127
330
22
100
AcDbEntity
  8
0
  6
Continuous
 62
     7
100
AcDbLine
 10
-149.9601440429688
 20
214.4117126464844
 30
0.0
 11
-147.0483093261719
 21
217.3235473632813
 31
0.0
  0
LINE
  5
128
330
22
100
AcDbEntity
  8
0
  6
Continuous
 62
     7
100
AcDbLine
 10
-148.5003051757813
 20
214.4573364257813
 30
0.0
 11
-147.0483093261719
 21
215.9093322753906
 31
0.0
  0
LINE
  5
129
330
22
100
AcDbEntity
  8
0
  6
CENTER
 62
     7
100
AcDbLine
 10
-204.8560638427734
 20
184.7027130126953
 30
0.0
 11
-138.9577789306641
 21
184.7027130126953
 31
0.0
  0
LINE
  5
12A
330
22
100
AcDbEntity
  8
0
  6
Continuous
 62
     7
100
AcDbLine
 10
-311.5195007324219
 20
216.9462280273438
 30
0.0
 11
-311.3558959960938
 21
217.3294677734375
 31
0.0
  0
LINE
  5
12B
330
22
100
AcDbEntity
  8
0
  6
Continuous
 62
     7
100
AcDbLine
 10
-318.74072265625
 20
219.5759735107422
 30
0.0
 11
-316.1353454589844
 21
218.0161285400391
 31
0.0
  0
LINE
  5
12C
330
22
100
AcDbEntity
  8
0
  6
Continuous
 62
     7
100
AcDbLine
 10
-318.5771179199219
 20
219.9591979980469
 30
0.0
 11
-318.74072265625
 21
219.5759735107422
 31
0.0
  0
LINE
  5
12D
330
22
100
AcDbEntity
  8
0
  6
Continuous
 62
     7
100
AcDbLine
 10
-318.5771179199219
 20
219.9591979980469
 30
0.0
 11
-318.4135131835938
 21
220.3424377441406
 31
0.0
  0
LINE
  5
12E
330
22
100
AcDbEntity
  8
0
  6
Continuous
 62
     7
100
AcDbLine
 10
-318.4135131835938
 20
220.3424377441406
 30
0.0
 11
-315.4848937988281
 21
219.5397644042969
 31
0.0
  0
LINE
  5
12F
330
22
100
AcDbEntity
  8
0
  6
Continuous
 62
     7
100
AcDbLine
 10
-316.9288635253906
 20
215.1082305908203
 30
0.0
 11
-316.5458984375
 21
214.9447479248047
 31
0.0
  0
LINE
  5
130
330
22
100
AcDbEntity
  8
0
  6
Continuous
 62
     7
100
AcDbLine
 10
-313.9336547851563
 20
222.1241607666016
 30
0.0
 11
-315.4848937988281
 21
219.5397644042969
 31
0.0
  0
LINE
  5
131
330
22
100
AcDbEntity
  8
0
  6
Continuous
 62
     7
100
AcDbLine
 10
-313.1677551269531
 20
221.7971954345703
 30
0.0
 11
-313.5507202148438
 21
221.9606781005859
 31
0.0
  0
LINE
  5
132
330
22
100
AcDbEntity
  8
0
  6
Continuous
 62
     7
100
AcDbLine
 10
-313.1677551269531
 20
221.7971954345703
 30
0.0
 11
-313.9612731933594
 21
218.8892974853516
 31
0.0
  0
LINE
  5
133
330
22
100
AcDbEntity
  8
0
  6
Continuous
 62
     7
100
AcDbLine
 10
-313.9336547851563
 20
222.1241607666016
 30
0.0
 11
-313.5507202148438
 21
221.9606781005859
 31
0.0
  0
LINE
  5
134
330
22
100
AcDbEntity
  8
0
  6
Continuous
 62
     7
100
AcDbLine
 10
-311.68310546875
 20
216.56298828125
 30
0.0
 11
-314.6117248535156
 21
217.3656616210938
 31
0.0
  0
LINE
  5
135
330
22
100
AcDbEntity
  8
0
  6
Continuous
 62
     7
100
AcDbLine
 10
-316.9288635253906
 20
215.1082305908203
 30
0.0
 11
-316.1353454589844
 21
218.0161285400391
 31
0.0
  0
LINE
  5
136
330
22
100
AcDbEntity
  8
0
  6
Continuous
 62
     7
100
AcDbLine
 10
-313.0483093261719
 20
161.7027130126953
 30
0.0
 11
-313.0483093261719
 21
178.9027099609375
 31
0.0
  0
LINE
  5
137
330
22
100
AcDbEntity
  8
0
  6
Continuous
 62
     7
100
AcDbLine
 10
-316.1629638671875
 20
214.7812652587891
 30
0.0
 11
-316.5458984375
 21
214.9447479248047
 31
0.0
  0
LINE
  5
138
330
22
100
AcDbEntity
  8
0
  6
Continuous
 62
     7
100
AcDbLine
 10
-331.0483093261719
 20
203.4527130126953
 30
0.0
 11
-331.0483093261719
 21
198.4527130126953
 31
0.0
  0
LINE
  5
139
330
22
100
AcDbEntity
  8
0
  6
Continuous
 62
     7
100
AcDbLine
 10
-299.0483093261719
 20
203.4527130126953
 30
0.0
 11
-299.0483093261719
 21
198.4527130126953
 31
0.0
  0
LINE
  5
13A
330
22
100
AcDbEntity
  8
0
  6
Continuous
 62
     7
100
AcDbLine
 10
-308.0483093261719
 20
207.7027130126953
 30
0.0
 11
-308.0483093261719
 21
190.5027160644531
 31
0.0
  0
LINE
  5
13B
330
22
100
AcDbEntity
  8
0
  6
Continuous
 62
     7
100
AcDbLine
 10
-304.0483093261719
 20
203.4527130126953
 30
0.0
 11
-304.0483093261719
 21
198.4527130126953
 31
0.0
  0
LINE
  5
13C
330
22
100
AcDbEntity
  8
0
  6
Continuous
 62
     7
100
AcDbLine
 10
-322.0483093261719
 20
207.7027130126953
 30
0.0
 11
-322.0483093261719
 21
190.5027160644531
 31
0.0
  0
LINE
  5
13D
330
22
100
AcDbEntity
  8
0
  6
Continuous
 62
     7
100
AcDbLine
 10
-313.0483093261719
 20
207.7027130126953
 30
0.0
 11
-313.0483093261719
 21
190.5027160644531
 31
0.0
  0
LINE
  5
13E
330
22
100
AcDbEntity
  8
0
  6
Continuous
 62
     7
100
AcDbLine
 10
-326.0483093261719
 20
203.4527130126953
 30
0.0
 11
-326.0483093261719
 21
198.4527130126953
 31
0.0
  0
LINE
  5
13F
330
22
100
AcDbEntity
  8
0
  6
Continuous
 62
     7
100
AcDbLine
 10
-317.0483093261719
 20
207.7027130126953
 30
0.0
 11
-317.0483093261719
 21
190.5027160644531
 31
0.0
  0
LINE
  5
140
330
22
100
AcDbEntity
  8
0
  6
Continuous
 62
     7
100
AcDbLine
 10
-316.1629638671875
 20
214.7812652587891
 30
0.0
 11
-314.6117248535156
 21
217.3656616210938
 31
0.0
  0
LINE
  5
141
330
22
100
AcDbEntity
  8
0
  6
Continuous
 62
     7
100
AcDbLine
 10
-311.5195007324219
 20
216.9462280273438
 30
0.0
 11
-311.68310546875
 21
216.56298828125
 31
0.0
  0
LINE
  5
142
330
22
100
AcDbEntity
  8
0
  6
Continuous
 62
     7
100
AcDbLine
 10
-311.3558959960938
 20
217.3294677734375
 30
0.0
 11
-313.9612731933594
 21
218.8892974853516
 31
0.0
  0
LINE
  5
143
330
22
100
AcDbEntity
  8
0
  6
Continuous
 62
     7
100
AcDbLine
 10
-344.7369079589844
 20
171.6372833251953
 30
0.0
 11
-345.1506042480469
 21
171.5873565673828
 31
0.0
  0
LINE
  5
144
330
22
100
AcDbEntity
  8
0
  6
Continuous
 62
     7
100
AcDbLine
 10
-348.0140686035156
 20
166.9575805664063
 30
0.0
 11
-348.06396484375
 21
167.3709716796875
 31
0.0
  0
LINE
  5
145
330
22
100
AcDbEntity
  8
0
  6
Continuous
 62
     7
100
AcDbLine
 10
-345.1506042480469
 20
171.5873565673828
 30
0.0
 11
-345.1987915039063
 21
168.5511169433594
 31
0.0
  0
LINE
  5
146
330
22
100
AcDbEntity
  8
0
  6
Continuous
 62
     7
100
AcDbLine
 10
-343.8174133300781
 20
164.0187072753906
 30
0.0
 11
-343.4037170410156
 21
164.0686492919922
 31
0.0
  0
LINE
  5
147
330
22
100
AcDbEntity
  8
0
  6
Continuous
 62
     7
100
AcDbLine
 10
-348.1138305664063
 20
167.7843475341797
 30
0.0
 11
-348.06396484375
 21
167.3709716796875
 31
0.0
  0
LINE
  5
148
330
22
100
AcDbEntity
  8
0
  6
Continuous
 62
     7
100
AcDbLine
 10
-343.4037170410156
 20
164.0686492919922
 30
0.0
 11
-343.3555297851563
 21
167.1048889160156
 31
0.0
  0
LINE
  5
149
330
22
100
AcDbEntity
  8
0
  6
Continuous
 62
     7
100
AcDbLine
 10
-344.3232116699219
 20
171.6872100830078
 30
0.0
 11
-343.5540466308594
 21
168.7496185302734
 31
0.0
  0
LINE
  5
14A
330
22
100
AcDbEntity
  8
0
  6
Continuous
 62
     7
100
AcDbLine
 10
-344.7369079589844
 20
171.6372833251953
 30
0.0
 11
-344.3232116699219
 21
171.6872100830078
 31
0.0
  0
LINE
  5
14B
330
22
100
AcDbEntity
  8
0
  6
Continuous
 62
     7
100
AcDbLine
 10
-326.0483093261719
 20
165.9527130126953
 30
0.0
 11
-326.0483093261719
 21
170.9527130126953
 31
0.0
  0
LINE
  5
14C
330
22
100
AcDbEntity
  8
0
  6
Continuous
 62
     7
100
AcDbLine
 10
-308.0483093261719
 20
161.7027130126953
 30
0.0
 11
-308.0483093261719
 21
178.9027099609375
 31
0.0
  0
LINE
  5
14D
330
22
100
AcDbEntity
  8
0
  6
Continuous
 62
     7
100
AcDbLine
 10
-331.0483093261719
 20
165.9527130126953
 30
0.0
 11
-331.0483093261719
 21
170.9527130126953
 31
0.0
  0
LINE
  5
14E
330
22
100
AcDbEntity
  8
0
  6
Continuous
 62
     7
100
AcDbLine
 10
-304.0483093261719
 20
165.9527130126953
 30
0.0
 11
-304.0483093261719
 21
170.9527130126953
 31
0.0
  0
LINE
  5
14F
330
22
100
AcDbEntity
  8
0
  6
Continuous
 62
     7
100
AcDbLine
 10
-322.0483093261719
 20
161.7027130126953
 30
0.0
 11
-322.0483093261719
 21
178.9027099609375
 31
0.0
  0
LINE
  5
150
330
22
100
AcDbEntity
  8
0
  6
Continuous
 62
     7
100
AcDbLine
 10
-317.0483093261719
 20
161.7027130126953
 30
0.0
 11
-317.0483093261719
 21
178.9027099609375
 31
0.0
  0
LINE
  5
151
330
22
100
AcDbEntity
  8
0
  6
Continuous
 62
     7
100
AcDbLine
 10
-299.0483093261719
 20
165.9527130126953
 30
0.0
 11
-299.0483093261719
 21
170.9527130126953
 31
0.0
  0
LINE
  5
152
330
22
100
AcDbEntity
  8
0
  6
Continuous
 62
     7
100
AcDbLine
 10
-340.4404907226563
 20
167.8716430664063
 30
0.0
 11
-343.3555297851563
 21
167.1048889160156
 31
0.0
  0
LINE
  5
153
330
22
100
AcDbEntity
  8
0
  6
Continuous
 62
     7
100
AcDbLine
 10
-348.0140686035156
 20
166.9575805664063
 30
0.0
 11
-345.0002746582031
 21
166.9063873291016
 31
0.0
  0
LINE
  5
154
330
22
100
AcDbEntity
  8
0
  6
Continuous
 62
     7
100
AcDbLine
 10
-340.540283203125
 20
168.6984100341797
 30
0.0
 11
-343.5540466308594
 21
168.7496185302734
 31
0.0
  0
LINE
  5
155
330
22
100
AcDbEntity
  8
0
  6
Continuous
 62
     7
100
AcDbLine
 10
-283.8643188476563
 20
164.5265960693359
 30
0.0
 11
-283.53125
 21
164.7764892578125
 31
0.0
  0
LINE
  5
156
330
22
100
AcDbEntity
  8
0
  6
Continuous
 62
     7
100
AcDbLine
 10
-282.5012817382813
 20
169.7969207763672
 30
0.0
 11
-284.6607360839844
 21
167.6620025634766
 31
0.0
  0
LINE
  5
157
330
22
100
AcDbEntity
  8
0
  6
Continuous
 62
     7
100
AcDbLine
 10
-283.00146484375
 20
170.4635314941406
 30
0.0
 11
-285.655029296875
 21
168.9871368408203
 31
0.0
  0
LINE
  5
158
330
22
100
AcDbEntity
  8
0
  6
Continuous
 62
     7
100
AcDbLine
 10
-283.1982116699219
 20
165.0263977050781
 30
0.0
 11
-284.6607360839844
 21
167.6620025634766
 31
0.0
  0
LINE
  5
159
330
22
100
AcDbEntity
  8
0
  6
Continuous
 62
     7
100
AcDbLine
 10
-283.1982116699219
 20
165.0263977050781
 30
0.0
 11
-283.53125
 21
164.7764892578125
 31
0.0
  0
LINE
  5
15A
330
22
100
AcDbEntity
  8
0
  6
Continuous
 62
     7
100
AcDbLine
 10
-282.7513732910156
 20
170.1302185058594
 30
0.0
 11
-283.00146484375
 21
170.4635314941406
 31
0.0
  0
LINE
  5
15B
330
22
100
AcDbEntity
  8
0
  6
Continuous
 62
     7
100
AcDbLine
 10
-344.2311096191406
 20
163.9687805175781
 30
0.0
 11
-345.0002746582031
 21
166.9063873291016
 31
0.0
  0
LINE
  5
15C
330
22
100
AcDbEntity
  8
0
  6
Continuous
 62
     7
100
AcDbLine
 10
-343.8174133300781
 20
164.0187072753906
 30
0.0
 11
-344.2311096191406
 21
163.9687805175781
 31
0.0
  0
LINE
  5
15D
330
22
100
AcDbEntity
  8
0
  6
Continuous
 62
     7
100
AcDbLine
 10
-282.7513732910156
 20
170.1302185058594
 30
0.0
 11
-282.5012817382813
 21
169.7969207763672
 31
0.0
  0
LINE
  5
15E
330
22
100
AcDbEntity
  8
0
  6
Continuous
 62
     7
100
AcDbLine
 10
-283.8643188476563
 20
164.5265960693359
 30
0.0
 11
-285.9858703613281
 21
166.667724609375
 31
0.0
  0
LINE
  5
15F
330
22
100
AcDbEntity
  8
0
  6
Continuous
 62
     7
100
AcDbLine
 10
-288.6394348144531
 20
165.1913299560547
 30
0.0
 11
-285.9858703613281
 21
166.667724609375
 31
0.0
  0
LINE
  5
160
330
22
100
AcDbEntity
  8
0
  6
Continuous
 62
     7
100
AcDbLine
 10
-289.1395874023438
 20
165.8579406738281
 30
0.0
 11
-286.9801635742188
 21
167.9928588867188
 31
0.0
  0
LINE
  5
161
330
22
100
AcDbEntity
  8
0
  6
Continuous
 62
     7
100
AcDbLine
 10
-288.4426879882813
 20
170.6284637451172
 30
0.0
 11
-288.1096496582031
 21
170.8783721923828
 31
0.0
  0
LINE
  5
162
330
22
100
AcDbEntity
  8
0
  6
Continuous
 62
     7
100
AcDbLine
 10
-288.8895263671875
 20
165.5246276855469
 30
0.0
 11
-289.1395874023438
 21
165.8579406738281
 31
0.0
  0
LINE
  5
163
330
22
100
AcDbEntity
  8
0
  6
Continuous
 62
     7
100
AcDbLine
 10
-288.8895263671875
 20
165.5246276855469
 30
0.0
 11
-288.6394348144531
 21
165.1913299560547
 31
0.0
  0
LINE
  5
164
330
22
100
AcDbEntity
  8
0
  6
Continuous
 62
     7
100
AcDbLine
 10
-287.7765808105469
 20
171.1282653808594
 30
0.0
 11
-285.655029296875
 21
168.9871368408203
 31
0.0
  0
LINE
  5
165
330
22
100
AcDbEntity
  8
0
  6
Continuous
 62
     7
100
AcDbLine
 10
-288.4426879882813
 20
170.6284637451172
 30
0.0
 11
-286.9801635742188
 21
167.9928588867188
 31
0.0
  0
LINE
  5
166
330
22
100
AcDbEntity
  8
0
  6
Continuous
 62
     7
100
AcDbLine
 10
-287.7765808105469
 20
171.1282653808594
 30
0.0
 11
-288.1096496582031
 21
170.8783721923828
 31
0.0
  0
LINE
  5
167
330
22
100
AcDbEntity
  8
0
  6
Continuous
 62
     7
100
AcDbLine
 10
-340.4404907226563
 20
167.8716430664063
 30
0.0
 11
-340.4903869628906
 21
168.2850341796875
 31
0.0
  0
LINE
  5
168
330
22
100
AcDbEntity
  8
0
  6
Continuous
 62
     7
100
AcDbLine
 10
-340.540283203125
 20
168.6984100341797
 30
0.0
 11
-340.4903869628906
 21
168.2850341796875
 31
0.0
  0
LINE
  5
169
330
22
100
AcDbEntity
  8
0
  6
CENTER
 62
     7
100
AcDbLine
 10
-315.0483093261719
 20
242.0573577880859
 30
0.0
 11
-315.0483093261719
 21
126.71435546875
 31
0.0
  0
LINE
  5
16A
330
22
100
AcDbEntity
  8
0
  6
Continuous
 62
     7
100
AcDbLine
 10
-348.1138305664063
 20
167.7843475341797
 30
0.0
 11
-345.1987915039063
 21
168.5511169433594
 31
0.0
  0
LINE
  5
16B
330
22
100
AcDbEntity
  8
0
  6
Continuous
 62
     7
100
AcDbLine
 10
-295.0483093261719
 20
197.2087097167969
 30
0.0
 11
-295.0483093261719
 21
172.1967163085938
 31
0.0
  0
LINE
  5
16C
330
22
100
AcDbEntity
  8
0
  6
Continuous
 62
     7
100
AcDbLine
 10
-326.0483093261719
 20
190.4527130126953
 30
0.0
 11
-326.0483093261719
 21
178.9527130126953
 31
0.0
  0
LINE
  5
16D
330
22
100
AcDbEntity
  8
0
  6
Continuous
 62
     7
100
AcDbLine
 10
-331.0483093261719
 20
190.4527130126953
 30
0.0
 11
-331.0483093261719
 21
178.9527130126953
 31
0.0
  0
LINE
  5
16E
330
22
100
AcDbEntity
  8
0
  6
CENTER
 62
     7
100
AcDbLine
 10
-370.7011108398438
 20
184.7027130126953
 30
0.0
 11
-257.5668029785155
 21
184.7027130126953
 31
0.0
  0
LINE
  5
16F
330
22
100
AcDbEntity
  8
0
  6
Continuous
 62
     7
100
AcDbLine
 10
-299.0483093261719
 20
190.4527130126953
 30
0.0
 11
-299.0483093261719
 21
178.9527130126953
 31
0.0
  0
LINE
  5
170
330
22
100
AcDbEntity
  8
0
  6
Continuous
 62
     7
100
AcDbLine
 10
-304.0483093261719
 20
190.4527130126953
 30
0.0
 11
-304.0483093261719
 21
178.9527130126953
 31
0.0
  0
LINE
  5
171
330
22
100
AcDbEntity
  8
0
  6
Continuous
 62
     7
100
AcDbLine
 10
-335.0483093261719
 20
197.2087097167969
 30
0.0
 11
-335.0483093261719
 21
172.1967163085938
 31
0.0
  0
ARC
  5
172
330
22
100
AcDbEntity
  8
0
  6
Continuous
 62
     7
100
AcDbCircle
 10
-185.5483093261719
 20
211.7027130126953
 30
0.0
 40
0.5
100
AcDbArc
 50
270.0000000000005
 51
0.0
  0
ARC
  5
173
330
22
100
AcDbEntity
  8
0
  6
Continuous
 62
     7
100
AcDbCircle
 10
-184.5483093261719
 20
213.2027130126953
 30
0.0
 40
0.5
100
AcDbArc
 50
90.00000000000019
 51
180.0000000000004
  0
ARC
  5
174
330
22
100
AcDbEntity
  8
0
  6
Continuous
 62
     7
100
AcDbCircle
 10
-191.5483093261719
 20
211.7027130126953
 30
0.0
 40
0.5
100
AcDbArc
 50
180.0000000000004
 51
270.0000000000005
  0
ARC
  5
175
330
22
100
AcDbEntity
  8
0
  6
Continuous
 62
     7
100
AcDbCircle
 10
-187.0789642333984
 20
216.7478942871094
 30
0.0
 40
29.56036567687988
100
AcDbArc
 50
3.791721948951924
 51
19.64830726480487
  0
ARC
  5
176
330
22
100
AcDbEntity
  8
0
  6
Continuous
 62
     7
100
AcDbCircle
 10
-189.5876617431641
 20
136.7027130126952
 30
0.0
 40
2.0
100
AcDbArc
 50
209.7447728583009
 51
270.0000000000005
  0
ARC
  5
177
330
22
100
AcDbEntity
  8
0
  6
Continuous
 62
     7
100
AcDbCircle
 10
-189.5876617431641
 20
232.7027130126953
 30
0.0
 40
2.0
100
AcDbArc
 50
90.00000000000019
 51
150.2552271416998
  0
ARC
  5
178
330
22
100
AcDbEntity
  8
0
  6
Continuous
 62
     7
100
AcDbCircle
 10
-187.0789642333984
 20
152.6575317382813
 30
0.0
 40
29.56036567687988
100
AcDbArc
 50
2.569024540154928
 51
19.64830726480487
  0
ARC
  5
179
330
22
100
AcDbEntity
  8
0
  6
Continuous
 62
     7
100
AcDbCircle
 10
-187.0789642333984
 20
152.6575317382813
 30
0.0
 40
29.56036567687988
100
AcDbArc
 50
340.3516927351958
 51
2.569024540154928
  0
ARC
  5
17A
330
22
100
AcDbEntity
  8
0
  6
Continuous
 62
     7
100
AcDbCircle
 10
-251.3073577880859
 20
182.6729583740234
 30
0.0
 40
93.78101348876951
100
AcDbArc
 50
349.0307518069761
 51
1.24018122325523
  0
ARC
  5
17B
330
22
100
AcDbEntity
  8
0
  6
Continuous
 62
     7
100
AcDbCircle
 10
-190.0483093261719
 20
226.5248870849609
 30
0.0
 40
5.0
100
AcDbArc
 50
150.2550970152432
 51
180.0000000000004
  0
ARC
  5
17C
330
22
100
AcDbEntity
  8
0
  6
Continuous
 62
     7
100
AcDbCircle
 10
-190.0483093261719
 20
142.8805389404297
 30
0.0
 40
5.0
100
AcDbArc
 50
180.0000000000004
 51
209.7449029847575
  0
CIRCLE
  5
17D
330
22
100
AcDbEntity
  8
0
  6
Continuous
 62
     7
100
AcDbCircle
 10
-315.0483093261719
 20
218.4527130126953
 30
0.0
 40
4.5
  0
ARC
  5
17E
330
22
100
AcDbEntity
  8
0
  6
Continuous
 62
     7
100
AcDbCircle
 10
-293.7483215332031
 20
197.2087097167969
 30
0.0
 40
1.299999952316284
100
AcDbArc
 50
30.41879749850129
 51
180.0000000000004
  0
ARC
  5
17F
330
22
100
AcDbEntity
  8
0
  6
Continuous
 62
     7
100
AcDbCircle
 10
-328.5483093261719
 20
203.4527130126953
 30
0.0
 40
2.5
100
AcDbArc
 50
0.0
 51
180.0000000000004
  0
ARC
  5
180
330
22
100
AcDbEntity
  8
0
  6
Continuous
 62
     7
100
AcDbCircle
 10
-328.5483093261719
 20
190.4527130126953
 30
0.0
 40
2.5
100
AcDbArc
 50
0.0
 51
180.0000000000004
  0
ARC
  5
181
330
22
100
AcDbEntity
  8
0
  6
Continuous
 62
     7
100
AcDbCircle
 10
-310.5483093261719
 20
190.5027160644531
 30
0.0
 40
2.5
100
AcDbArc
 50
180.0000000000004
 51
0.0
  0
ARC
  5
182
330
22
100
AcDbEntity
  8
0
  6
Continuous
 62
     7
100
AcDbCircle
 10
-301.5483093261719
 20
203.4527130126953
 30
0.0
 40
2.5
100
AcDbArc
 50
0.0
 51
180.0000000000004
  0
ARC
  5
183
330
22
100
AcDbEntity
  8
0
  6
Continuous
 62
     7
100
AcDbCircle
 10
-301.5483093261719
 20
198.4527130126953
 30
0.0
 40
2.5
100
AcDbArc
 50
180.0000000000004
 51
0.0
  0
ARC
  5
184
330
22
100
AcDbEntity
  8
0
  6
Continuous
 62
     7
100
AcDbCircle
 10
-301.5483093261719
 20
190.4527130126953
 30
0.0
 40
2.5
100
AcDbArc
 50
0.0
 51
180.0000000000004
  0
ARC
  5
185
330
22
100
AcDbEntity
  8
0
  6
Continuous
 62
     7
100
AcDbCircle
 10
-319.5483093261719
 20
190.5027160644531
 30
0.0
 40
2.5
100
AcDbArc
 50
180.0000000000004
 51
0.0
  0
ARC
  5
186
330
22
100
AcDbEntity
  8
0
  6
Continuous
 62
     7
100
AcDbCircle
 10
-328.5483093261719
 20
198.4527130126953
 30
0.0
 40
2.5
100
AcDbArc
 50
180.0000000000004
 51
0.0
  0
ARC
  5
187
330
22
100
AcDbEntity
  8
0
  6
Continuous
 62
     7
100
AcDbCircle
 10
-336.3482971191406
 20
197.2087097167969
 30
0.0
 40
1.299999952316284
100
AcDbArc
 50
0.0
 51
149.5812025014986
  0
ARC
  5
188
330
22
100
AcDbEntity
  8
0
  6
Continuous
 62
     7
100
AcDbCircle
 10
-319.5483093261719
 20
207.7027130126953
 30
0.0
 40
2.5
100
AcDbArc
 50
0.0
 51
180.0000000000004
  0
ARC
  5
189
330
22
100
AcDbEntity
  8
0
  6
Continuous
 62
     7
100
AcDbCircle
 10
-310.5483093261719
 20
207.7027130126953
 30
0.0
 40
2.5
100
AcDbArc
 50
0.0
 51
180.0000000000004
  0
CIRCLE
  5
18A
330
22
100
AcDbEntity
  8
0
  6
Continuous
 62
     7
100
AcDbCircle
 10
-344.2771606445313
 20
167.8280029296875
 30
0.0
 40
4.5
  0
ARC
  5
18B
330
22
100
AcDbEntity
  8
0
  6
Continuous
 62
     7
100
AcDbCircle
 10
-319.5483093261719
 20
161.7027130126953
 30
0.0
 40
2.5
100
AcDbArc
 50
180.0000000000004
 51
0.0
  0
ARC
  5
18C
330
22
100
AcDbEntity
  8
0
  6
Continuous
 62
     7
100
AcDbCircle
 10
-336.3482971191406
 20
172.1967163085938
 30
0.0
 40
1.299999952316284
100
AcDbArc
 50
210.418797498502
 51
0.0
  0
ARC
  5
18D
330
22
100
AcDbEntity
  8
0
  6
Continuous
 62
     7
100
AcDbCircle
 10
-328.5483093261719
 20
170.9527130126953
 30
0.0
 40
2.5
100
AcDbArc
 50
0.0
 51
180.0000000000004
  0
ARC
  5
18E
330
22
100
AcDbEntity
  8
0
  6
Continuous
 62
     7
100
AcDbCircle
 10
-328.5483093261719
 20
165.9527130126953
 30
0.0
 40
2.5
100
AcDbArc
 50
180.0000000000004
 51
0.0
  0
ARC
  5
18F
330
22
100
AcDbEntity
  8
0
  6
Continuous
 62
     7
100
AcDbCircle
 10
-301.5483093261719
 20
165.9527130126953
 30
0.0
 40
2.5
100
AcDbArc
 50
180.0000000000004
 51
0.0
  0
ARC
  5
190
330
22
100
AcDbEntity
  8
0
  6
Continuous
 62
     7
100
AcDbCircle
 10
-301.5483093261719
 20
170.9527130126953
 30
0.0
 40
2.5
100
AcDbArc
 50
0.0
 51
180.0000000000004
  0
ARC
  5
191
330
22
100
AcDbEntity
  8
0
  6
Continuous
 62
     7
100
AcDbCircle
 10
-301.5483093261719
 20
178.9527130126953
 30
0.0
 40
2.5
100
AcDbArc
 50
180.0000000000004
 51
0.0
  0
ARC
  5
192
330
22
100
AcDbEntity
  8
0
  6
Continuous
 62
     7
100
AcDbCircle
 10
-293.7483215332031
 20
172.1967163085938
 30
0.0
 40
1.299999952316284
100
AcDbArc
 50
180.0000000000004
 51
329.5812025014994
  0
CIRCLE
  5
193
330
22
100
AcDbEntity
  8
0
  6
Continuous
 62
     7
100
AcDbCircle
 10
-285.8204345703125
 20
167.8274230957031
 30
0.0
 40
4.5
  0
ARC
  5
194
330
22
100
AcDbEntity
  8
0
  6
Continuous
 62
     7
100
AcDbCircle
 10
-328.5483093261719
 20
178.9527130126953
 30
0.0
 40
2.5
100
AcDbArc
 50
180.0000000000004
 51
0.0
  0
ARC
  5
195
330
22
100
AcDbEntity
  8
0
  6
Continuous
 62
     7
100
AcDbCircle
 10
-310.5483093261719
 20
161.7027130126953
 30
0.0
 40
2.5
100
AcDbArc
 50
180.0000000000004
 51
0.0
  0
CIRCLE
  5
196
330
22
100
AcDbEntity
  8
0
  6
Continuous
 62
     7
100
AcDbCircle
 10
-315.0483093261719
 20
184.7027130126953
 30
0.0
 40
50.0
  0
CIRCLE
  5
197
330
22
100
AcDbEntity
  8
0
  6
Continuous
 62
     7
100
AcDbCircle
 10
-315.0483093261719
 20
184.7027130126953
 30
0.0
 40
41.5
  0
CIRCLE
  5
198
330
22
100
AcDbEntity
  8
0
  6
Continuous
 62
     7
100
AcDbCircle
 10
-315.0483093261719
 20
184.7027130126953
 30
0.0
 40
41.0
  0
ARC
  5
199
330
22
100
AcDbEntity
  8
0
  6
Continuous
 62
     7
100
AcDbCircle
 10
-315.0483093261719
 20
184.7027130126953
 30
0.0
 40
26.0
100
AcDbArc
 50
329.5812541181265
 51
30.41874588187427
  0
ARC
  5
19A
330
22
100
AcDbEntity
  8
0
  6
Continuous
 62
     7
100
AcDbCircle
 10
-319.5483093261719
 20
178.9027099609375
 30
0.0
 40
2.5
100
AcDbArc
 50
0.0
 51
180.0000000000004
  0
ARC
  5
19B
330
22
100
AcDbEntity
  8
0
  6
Continuous
 62
     7
100
AcDbCircle
 10
-310.5483093261719
 20
178.9027099609375
 30
0.0
 40
2.5
100
AcDbArc
 50
0.0
 51
180.0000000000004
  0
CIRCLE
  5
19C
330
22
100
AcDbEntity
  8
0
  6
Continuous
 62
     7
100
AcDbCircle
 10
-315.0483093261719
 20
184.7027130126953
 30
0.0
 40
3.0
  0
ARC
  5
19D
330
22
100
AcDbEntity
  8
0
  6
Continuous
 62
     7
100
AcDbCircle
 10
-315.0483093261719
 20
184.7027130126953
 30
0.0
 40
26.0
100
AcDbArc
 50
149.5812541181257
 51
210.418745881875
  0
TEXT
  5
19E
330
22
100
AcDbEntity
  8
0
  6
Continuous
 62
     7
100
AcDbText
 10
-268.0341424942017
 20
83.52456665039062
 30
0.0
 40
7.0
  1
DL-ULSS-50Z
 41
1.020317531767346
100
AcDbText
  0
SOLID
  5
19F
330
22
100
AcDbEntity
  8
0
  6
Continuous
 62
     7
100
AcDbTrace
 10
-183.0483093261719
 20
219.2027130126953
 30
0.0
 11
-186.0483093261719
 21
219.2027130126953
 31
0.0
 12
-183.0483093261719
 22
234.7027130126953
 32
0.0
 13
-186.0483093261719
 23
234.7027130126953
 33
0.0
  0
SOLID
  5
1A0
330
22
100
AcDbEntity
  8
0
  6
Continuous
 62
     7
100
AcDbTrace
 10
-170.0483093261719
 20
218.7027130126953
 30
0.0
 11
-173.0483093261719
 21
218.7027130126953
 31
0.0
 12
-170.0483093261719
 22
229.7027130126953
 32
0.0
 13
-173.0483093261719
 23
229.7027130126953
 33
0.0
  0
SOLID
  5
1A1
330
22
100
AcDbEntity
  8
0
  6
Continuous
 62
     7
100
AcDbTrace
 10
-170.0483093261719
 20
139.7027130126953
 30
0.0
 11
-173.0483093261719
 21
139.7027130126953
 31
0.0
 12
-170.0483093261719
 22
184.7027130126953
 32
0.0
 13
-173.0483093261719
 23
184.7027130126953
 33
0.0
  0
SOLID
  5
1A2
330
22
100
AcDbEntity
  8
0
  6
Continuous
 62
     7
100
AcDbTrace
 10
-183.0483093261719
 20
134.7027130126953
 30
0.0
 11
-186.0483093261719
 21
134.7027130126953
 31
0.0
 12
-183.0483093261719
 22
184.7027130126953
 32
0.0
 13
-186.0483093261719
 23
184.7027130126953
 33
0.0
  0
DIMENSION
  5
1A3
330
22
100
AcDbEntity
  8
0
  6
Continuous
 62
     7
100
AcDbDimension
  2
*D1
 10
-173.0483093261719
 20
249.3420257568359
 30
0.0
 11
-129.6497802734375
 21
249.3420257568359
 31
0.0
 71
     5
 42
-1.0
  3
DIMSTYLE1
100
AcDbAlignedDimension
 13
-183.0483093261719
 23
234.7027130126953
 33
0.0
 14
-173.0483093261719
 24
229.7027130126953
 34
0.0
100
AcDbRotatedDimension
  0
DIMENSION
  5
1A4
330
22
100
AcDbEntity
  8
0
  6
Continuous
 62
     7
100
AcDbDimension
  2
*D2
 10
-195.0483093261719
 20
249.3420257568359
 30
0.0
 11
-189.0483093261719
 21
249.3420257568359
 31
0.0
 71
     5
 42
-1.0
  3
DIMSTYLE2
100
AcDbAlignedDimension
 13
-183.0483093261719
 23
247.1188201904297
 33
0.0
 14
-195.0483093261719
 24
258.2607727050781
 34
0.0
100
AcDbRotatedDimension
  0
DIMENSION
  5
1A5
330
22
100
AcDbEntity
  8
0
  6
Continuous
 62
     7
100
AcDbDimension
  2
*D3
 10
-147.0483093261719
 20
260.0261535644531
 30
0.0
 11
-171.0483093261719
 21
260.0261535644531
 31
0.0
 71
     5
 42
-1.0
  3
DIMSTYLE3
100
AcDbAlignedDimension
 13
-195.0483093261719
 23
226.5920257568359
 33
0.0
 14
-147.0483093261719
 24
217.7027130126953
 34
0.0
100
AcDbRotatedDimension
  0
INSERT
  5
1A6
330
22
100
AcDbEntity
  8
0
  6
Continuous
 62
     7
100
AcDbBlockReference
  2
KOZU0001
 10
-155.1097412109375
 20
212.8000793457031
 30
0.0
  0
DIMENSION
  5
1A7
330
22
100
AcDbEntity
  8
0
  6
Continuous
 62
     7
100
AcDbDimension
  2
*D4
 10
-354.5643704447057
 20
154.0680771624635
 30
0.0
 11
-268.357666015625
 21
220.8994140625
 31
0.0
 70
     3
 71
     5
 42
-1.0
  3
DIMSTYLE4
100
AcDbDiametricDimension
 15
-275.5322482076382
 25
215.3373488629271
 35
0.0
 40
0.0
  0
ENDSEC
  0
SECTION
  2
OBJECTS
  0
DICTIONARY
  5
C
330
0
100
AcDbDictionary
281
     1
  3
ACAD_COLOR
350
1B
  3
ACAD_GROUP
350
D
  3
ACAD_LAYOUT
350
19
  3
ACAD_MATERIAL
350
1A
  3
ACAD_MLINESTYLE
350
16
  3
ACAD_PLOTSETTINGS
350
18
  3
ACAD_PLOTSTYLENAME
350
E
  3
ACAD_TABLESTYLE
350
1C
  3
ACDBHEADERROUNDTRIPXREC
350
1B8
  3
AcDbVariableDictionary
350
1B3
  0
DICTIONARY
  5
1B
102
{ACAD_REACTORS
330
C
102
}
330
C
100
AcDbDictionary
281
     1
  0
DICTIONARY
  5
D
102
{ACAD_REACTORS
330
C
102
}
330
C
100
AcDbDictionary
281
     1
  0
DICTIONARY
  5
19
102
{ACAD_REACTORS
330
C
102
}
330
C
100
AcDbDictionary
281
     1
  3
Model
350
25
  3
レイアウト1
350
21
  0
DICTIONARY
  5
1A
102
{ACAD_REACTORS
330
C
102
}
330
C
100
AcDbDictionary
281
     1
  0
DICTIONARY
  5
16
102
{ACAD_REACTORS
330
C
102
}
330
C
100
AcDbDictionary
281
     1
  3
Standard
350
17
  0
DICTIONARY
  5
18
102
{ACAD_REACTORS
330
C
102
}
330
C
100
AcDbDictionary
281
     1
  0
ACDBDICTIONARYWDFLT
  5
E
102
{ACAD_REACTORS
330
C
102
}
330
C
100
AcDbDictionary
281
     1
  3
Normal
350
F
100
AcDbDictionaryWithDefault
340
F
  0
DICTIONARY
  5
1C
102
{ACAD_REACTORS
330
C
102
}
330
C
100
AcDbDictionary
281
     1
  3
Standard
350
1D
  0
DICTIONARY
  5
1B8
102
{ACAD_REACTORS
330
C
102
}
330
C
100
AcDbDictionary
281
     1
  0
DICTIONARY
  5
1B3
102
{ACAD_REACTORS
330
C
102
}
330
C
100
AcDbDictionary
281
     1
  3
CTABLESTYLE
350
1B4
  3
DIMASSOC
350
1B5
  3
PROJECTNAME
350
1B6
  0
LAYOUT
  5
25
102
{ACAD_XDICTIONARY
360
1BB
102
}
102
{ACAD_REACTORS
330
19
102
}
330
19
100
AcDbPlotSettings
  1

  2
PDF reDirect v2
  4
A3
  6

 40
3.174999952316284
 41
3.174999952316284
 42
3.17498779296875
 43
3.17498779296875
 44
297.0530090332031
 45
420.1583251953125
 46
0.0
 47
0.0
 48
0.0
 49
0.0
140
0.0
141
0.0
142
1.0
143
1.0
 70
 11952
 72
     1
 73
     1
 74
     2
  7
C:\Users\ck\AppData\Roaming\Autodesk\AutoCAD 2005\R16.1\jpn\Plot Styles\black.ctb
 75
    16
147
1.0
148
423.0
149
2.0
100
AcDbLayout
  1
Model
 70
     1
 71
     0
 10
0.0
 20
0.0
 11
12.0
 21
9.0
 12
0.0
 22
0.0
 32
0.0
 14
0.0
 24
0.0
 34
0.0
 15
0.0
 25
0.0
 35
0.0
146
0.0
 13
0.0
 23
0.0
 33
0.0
 16
1.0
 26
0.0
 36
0.0
 17
0.0
 27
1.0
 37
0.0
 76
     0
330
22
1001
ACAD_PSEXT
1000
PDF reDirect v2
1000
PDF reDirect Pro
1000
PDF_REDIRECT_PORT:
1000
PDF reDirect provided by EXP Systems
1070
     0
  0
LAYOUT
  5
21
102
{ACAD_XDICTIONARY
360
1B9
102
}
102
{ACAD_REACTORS
330
19
102
}
330
19
100
AcDbPlotSettings
  1

  2
PDF reDirect v2
  4

  6

 40
0.0
 41
0.0
 42
0.0
 43
0.0
 44
0.0
 45
0.0
 46
0.0
 47
0.0
 48
0.0
 49
0.0
140
0.0
141
0.0
142
1.0
143
1.0
 70
   688
 72
     0
 73
     0
 74
     5
  7
C:\Users\ck\AppData\Roaming\Autodesk\AutoCAD 2005\R16.1\jpn\Plot Styles\black.ctb
 75
    16
147
1.0
148
0.0
149
0.0
100
AcDbLayout
  1
レイアウト1
 70
     1
 71
     1
 10
-423.0
 20
-2.0
 11
-5.0
 21
293.0
 12
0.0
 22
0.0
 32
0.0
 14
1.000000000000000E+20
 24
1.000000000000000E+20
 34
1.000000000000000E+20
 15
-1.000000000000000E+20
 25
-1.000000000000000E+20
 35
-1.000000000000000E+20
146
0.0
 13
0.0
 23
0.0
 33
0.0
 16
1.0
 26
0.0
 36
0.0
 17
0.0
 27
1.0
 37
0.0
 76
     0
330
1E
  0
MLINESTYLE
  5
17
102
{ACAD_REACTORS
330
16
102
}
330
16
100
AcDbMlineStyle
  2
STANDARD
 70
     0
  3

 62
   256
 51
90.0
 52
90.0
 71
     2
 49
0.5
 62
   256
  6
BYLAYER
 49
-0.5
 62
   256
  6
BYLAYER
  0
ACDBPLACEHOLDER
  5
F
102
{ACAD_REACTORS
330
E
102
}
330
E
  0
TABLESTYLE
  5
1D
102
{ACAD_REACTORS
330
1C
102
}
330
1C
100
AcDbTableStyle
  3
Standard
 70
     0
 71
     0
 40
0.06
 41
0.06
280
     0
281
     0
  7
STANDARD
140
0.18
170
     2
 62
     0
 63
     7
283
     0
274
    -2
284
     1
 64
     0
275
    -2
285
     1
 65
     0
276
    -2
286
     1
 66
     0
277
    -2
287
     1
 67
     0
278
    -2
288
     1
 68
     0
279
    -2
289
     1
 69
     0
  7
STANDARD
140
0.25
170
     5
 62
     0
 63
     7
283
     0
274
    -2
284
     1
 64
     0
275
    -2
285
     1
 65
     0
276
    -2
286
     1
 66
     0
277
    -2
287
     1
 67
     0
278
    -2
288
     1
 68
     0
279
    -2
289
     1
 69
     0
  7
STANDARD
140
0.18
170
     5
 62
     0
 63
     7
283
     0
274
    -2
284
     1
 64
     0
275
    -2
285
     1
 65
     0
276
    -2
286
     1
 66
     0
277
    -2
287
     1
 67
     0
278
    -2
288
     1
 68
     0
279
    -2
289
     1
 69
     0
  0
DICTIONARYVAR
  5
1B4
102
{ACAD_REACTORS
330
1B3
102
}
330
1B3
100
DictionaryVariables
280
     0
  1
STANDARD
  0
DICTIONARYVAR
  5
1B5
102
{ACAD_REACTORS
330
1B3
102
}
330
1B3
100
DictionaryVariables
280
     0
  1
1
  0
DICTIONARYVAR
  5
1B6
102
{ACAD_REACTORS
330
1B3
102
}
330
1B3
100
DictionaryVariables
280
     0
  1

  0
DICTIONARY
  5
1BB
330
25
100
AcDbDictionary
280
     1
281
     1
  3
ACAD_XREC_ROUNDTRIP
360
1BC
  0
DICTIONARY
  5
1B9
330
21
100
AcDbDictionary
280
     1
281
     1
  3
ACAD_XREC_ROUNDTRIP
360
1BA
  0
XRECORD
  5
1BC
102
{ACAD_REACTORS
330
1BB
102
}
330
1BB
100
AcDbXrecord
280
     1
102
SHADEPLOT
 70
     0
102
SHADEPLOTRESLEVEL
 70
     2
102
SHADEPLOTCUSTOMDPI
 70
   300
  0
XRECORD
  5
1BA
102
{ACAD_REACTORS
330
1B9
102
}
330
1B9
100
AcDbXrecord
280
     1
102
SHADEPLOT
 70
     0
102
SHADEPLOTRESLEVEL
 70
     2
102
SHADEPLOTCUSTOMDPI
 70
   300
  0
ENDSEC
  0
EOF
