  0
SECTION
  2
HEADER
  9
$ACADVER
  1
AC1018
  9
$ACADMAINTVER
 70
    39
  9
$DWGCODEPAGE
  3
ANSI_932
  9
$INSBASE
 10
0.0
 20
0.0
 30
0.0
  9
$EXTMIN
 10
-411.340697255382
 20
90.83119281152164
 30
-0.0015258207003583
  9
$EXTMAX
 10
-135.5803519619865
 20
275.7913672439654
 30
0.0000000349246037
  9
$LIMMIN
 10
-423.0
 20
-2.0
  9
$LIMMAX
 10
-5.0
 20
293.0
  9
$ORTHOMODE
 70
     0
  9
$REGENMODE
 70
     1
  9
$FILLMODE
 70
     1
  9
$QTEXTMODE
 70
     0
  9
$MIRRTEXT
 70
     0
  9
$LTSCALE
 40
1.0
  9
$ATTMODE
 70
     1
  9
$TEXTSIZE
 40
0.2
  9
$TRACEWID
 40
0.05
  9
$TEXTSTYLE
  7
STANDARD
  9
$CLAYER
  8
0
  9
$CELTYPE
  6
CONTINUOUS
  9
$CECOLOR
 62
   256
  9
$CELTSCALE
 40
1.0
  9
$DISPSILH
 70
     0
  9
$DIMSCALE
 40
1.0
  9
$DIMASZ
 40
1.0
  9
$DIMEXO
 40
2.54
  9
$DIMDLI
 40
0.38
  9
$DIMRND
 40
0.0
  9
$DIMDLE
 40
0.0
  9
$DIMEXE
 40
2.54
  9
$DIMTP
 40
0.0
  9
$DIMTM
 40
0.0
  9
$DIMTXT
 40
3.0
  9
$DIMCEN
 40
0.09
  9
$DIMTSZ
 40
0.0
  9
$DIMTOL
 70
     0
  9
$DIMLIM
 70
     0
  9
$DIMTIH
 70
     0
  9
$DIMTOH
 70
     0
  9
$DIMSE1
 70
     0
  9
$DIMSE2
 70
     0
  9
$DIMTAD
 70
     1
  9
$DIMZIN
 70
     0
  9
$DIMBLK
  1

  9
$DIMASO
 70
     1
  9
$DIMSHO
 70
     0
  9
$DIMPOST
  1

  9
$DIMAPOST
  1

  9
$DIMALT
 70
     0
  9
$DIMALTD
 70
     2
  9
$DIMALTF
 40
25.4
  9
$DIMLFAC
 40
1.0
  9
$DIMTOFL
 70
     0
  9
$DIMTVP
 40
1.0
  9
$DIMTIX
 70
     0
  9
$DIMSOXD
 70
     0
  9
$DIMSAH
 70
     1
  9
$DIMBLK1
  1

  9
$DIMBLK2
  1

  9
$DIMSTYLE
  2
DIMSTYLE1
  9
$DIMCLRD
 70
     0
  9
$DIMCLRE
 70
     0
  9
$DIMCLRT
 70
     0
  9
$DIMTFAC
 40
1.0
  9
$DIMGAP
 40
1.5
  9
$DIMJUST
 70
     0
  9
$DIMSD1
 70
     0
  9
$DIMSD2
 70
     0
  9
$DIMTOLJ
 70
     1
  9
$DIMTZIN
 70
     0
  9
$DIMALTZ
 70
     0
  9
$DIMALTTZ
 70
     0
  9
$DIMUPT
 70
     0
  9
$DIMDEC
 70
     4
  9
$DIMTDEC
 70
     4
  9
$DIMALTU
 70
     2
  9
$DIMALTTD
 70
     2
  9
$DIMTXSTY
  7
STANDARD
  9
$DIMAUNIT
 70
     0
  9
$DIMADEC
 70
     0
  9
$DIMALTRND
 40
0.0
  9
$DIMAZIN
 70
     0
  9
$DIMDSEP
 70
    46
  9
$DIMATFIT
 70
     3
  9
$DIMFRAC
 70
     0
  9
$DIMLDRBLK
  1

  9
$DIMLUNIT
 70
     2
  9
$DIMLWD
 70
    -2
  9
$DIMLWE
 70
    -2
  9
$DIMTMOVE
 70
     0
  9
$LUNITS
 70
     2
  9
$LUPREC
 70
     4
  9
$SKETCHINC
 40
0.1
  9
$FILLETRAD
 40
0.0
  9
$AUNITS
 70
     0
  9
$AUPREC
 70
     0
  9
$MENU
  1
.
  9
$ELEVATION
 40
0.0
  9
$PELEVATION
 40
0.0
  9
$THICKNESS
 40
0.0
  9
$LIMCHECK
 70
     0
  9
$CHAMFERA
 40
0.0
  9
$CHAMFERB
 40
0.0
  9
$CHAMFERC
 40
0.0
  9
$CHAMFERD
 40
0.0
  9
$SKPOLY
 70
     0
  9
$TDCREATE
 40
2457707.061406875
  9
$TDUCREATE
 40
2457706.686406875
  9
$TDUPDATE
 40
2457707.062001192
  9
$TDUUPDATE
 40
2457706.687001192
  9
$TDINDWG
 40
0.0005957523
  9
$TDUSRTIMER
 40
0.0005957523
  9
$USRTIMER
 70
     1
  9
$ANGBASE
 50
0.0
  9
$ANGDIR
 70
     0
  9
$PDMODE
 70
     0
  9
$PDSIZE
 40
0.0
  9
$PLINEWID
 40
0.0
  9
$SPLFRAME
 70
     0
  9
$SPLINETYPE
 70
     6
  9
$SPLINESEGS
 70
     8
  9
$HANDSEED
  5
20B
  9
$SURFTAB1
 70
     6
  9
$SURFTAB2
 70
     6
  9
$SURFTYPE
 70
     6
  9
$SURFU
 70
     6
  9
$SURFV
 70
     6
  9
$UCSBASE
  2

  9
$UCSNAME
  2

  9
$UCSORG
 10
0.0
 20
0.0
 30
0.0
  9
$UCSXDIR
 10
1.0
 20
0.0
 30
0.0
  9
$UCSYDIR
 10
0.0
 20
1.0
 30
0.0
  9
$UCSORTHOREF
  2

  9
$UCSORTHOVIEW
 70
     0
  9
$UCSORGTOP
 10
0.0
 20
0.0
 30
0.0
  9
$UCSORGBOTTOM
 10
0.0
 20
0.0
 30
0.0
  9
$UCSORGLEFT
 10
0.0
 20
0.0
 30
0.0
  9
$UCSORGRIGHT
 10
0.0
 20
0.0
 30
0.0
  9
$UCSORGFRONT
 10
0.0
 20
0.0
 30
0.0
  9
$UCSORGBACK
 10
0.0
 20
0.0
 30
0.0
  9
$PUCSBASE
  2

  9
$PUCSNAME
  2

  9
$PUCSORG
 10
0.0
 20
0.0
 30
0.0
  9
$PUCSXDIR
 10
1.0
 20
0.0
 30
0.0
  9
$PUCSYDIR
 10
0.0
 20
1.0
 30
0.0
  9
$PUCSORTHOREF
  2

  9
$PUCSORTHOVIEW
 70
     0
  9
$PUCSORGTOP
 10
0.0
 20
0.0
 30
0.0
  9
$PUCSORGBOTTOM
 10
0.0
 20
0.0
 30
0.0
  9
$PUCSORGLEFT
 10
0.0
 20
0.0
 30
0.0
  9
$PUCSORGRIGHT
 10
0.0
 20
0.0
 30
0.0
  9
$PUCSORGFRONT
 10
0.0
 20
0.0
 30
0.0
  9
$PUCSORGBACK
 10
0.0
 20
0.0
 30
0.0
  9
$USERI1
 70
     0
  9
$USERI2
 70
     0
  9
$USERI3
 70
     0
  9
$USERI4
 70
     0
  9
$USERI5
 70
     0
  9
$USERR1
 40
0.0
  9
$USERR2
 40
0.0
  9
$USERR3
 40
0.0
  9
$USERR4
 40
0.0
  9
$USERR5
 40
0.0
  9
$WORLDVIEW
 70
     1
  9
$SHADEDGE
 70
     3
  9
$SHADEDIF
 70
    70
  9
$TILEMODE
 70
     1
  9
$MAXACTVP
 70
    64
  9
$PINSBASE
 10
0.0
 20
0.0
 30
0.0
  9
$PLIMCHECK
 70
     0
  9
$PEXTMIN
 10
1.000000000000000E+20
 20
1.000000000000000E+20
 30
1.000000000000000E+20
  9
$PEXTMAX
 10
-1.000000000000000E+20
 20
-1.000000000000000E+20
 30
-1.000000000000000E+20
  9
$PLIMMIN
 10
-423.0
 20
-2.0
  9
$PLIMMAX
 10
-5.0
 20
293.0
  9
$UNITMODE
 70
     0
  9
$VISRETAIN
 70
     1
  9
$PLINEGEN
 70
     0
  9
$PSLTSCALE
 70
     1
  9
$TREEDEPTH
 70
  3020
  9
$CMLSTYLE
  2
Standard
  9
$CMLJUST
 70
     0
  9
$CMLSCALE
 40
1.0
  9
$PROXYGRAPHICS
 70
     1
  9
$MEASUREMENT
 70
     0
  9
$CELWEIGHT
370
    -1
  9
$ENDCAPS
280
     0
  9
$JOINSTYLE
280
     0
  9
$LWDISPLAY
290
     0
  9
$INSUNITS
 70
     0
  9
$HYPERLINKBASE
  1

  9
$STYLESHEET
  1

  9
$XEDIT
290
     1
  9
$CEPSNTYPE
380
     0
  9
$PSTYLEMODE
290
     1
  9
$FINGERPRINTGUID
  2
{E0194193-D72E-4E57-9846-B23488B41E87}
  9
$VERSIONGUID
  2
{F0D1CC33-B568-4A0F-852F-4B0D9A5D989D}
  9
$EXTNAMES
290
     1
  9
$PSVPSCALE
 40
0.0
  9
$OLESTARTUP
290
     0
  9
$SORTENTS
280
   127
  9
$INDEXCTL
280
     0
  9
$HIDETEXT
280
     0
  9
$XCLIPFRAME
290
     0
  9
$HALOGAP
280
     0
  9
$OBSCOLOR
 70
   257
  9
$OBSLTYPE
280
     0
  9
$INTERSECTIONDISPLAY
280
     0
  9
$INTERSECTIONCOLOR
 70
   257
  9
$DIMASSOC
280
     1
  9
$PROJECTNAME
  1

  0
ENDSEC
  0
SECTION
  2
CLASSES
  0
CLASS
  1
ACDBDICTIONARYWDFLT
  2
AcDbDictionaryWithDefault
  3
ObjectDBX Classes
 90
        0
 91
        1
280
     0
281
     0
  0
CLASS
  1
TABLESTYLE
  2
AcDbTableStyle
  3
ObjectDBX Classes
 90
     2047
 91
        1
280
     0
281
     0
  0
CLASS
  1
DICTIONARYVAR
  2
AcDbDictionaryVar
  3
ObjectDBX Classes
 90
        0
 91
        1
280
     0
281
     0
  0
ENDSEC
  0
SECTION
  2
TABLES
  0
TABLE
  2
VPORT
  5
8
330
0
100
AcDbSymbolTable
 70
     2
  0
VPORT
  5
20A
330
8
100
AcDbSymbolTableRecord
100
AcDbViewportTableRecord
  2
*Active
 70
     0
 10
0.0
 20
0.0
 11
1.0
 21
1.0
 12
-214.0
 22
145.5
 13
0.0
 23
0.0
 14
1.0
 24
1.0
 15
0.0
 25
0.0
 16
0.0
 26
0.0
 36
1.0
 17
0.0
 27
0.0
 37
0.0
 40
297.3258869908016
 41
1.555263157894736
 42
50.0
 43
0.0
 44
0.0
 50
0.0
 51
0.0
 71
     0
 72
   100
 73
     1
 74
     1
 75
     0
 76
     0
 77
     0
 78
     0
281
     0
 65
     1
110
0.0
120
0.0
130
0.0
111
1.0
121
0.0
131
0.0
112
0.0
122
1.0
132
0.0
 79
     0
146
0.0
  0
ENDTAB
  0
TABLE
  2
LTYPE
  5
5
330
0
100
AcDbSymbolTable
 70
     6
  0
LTYPE
  5
13
330
5
100
AcDbSymbolTableRecord
100
AcDbLinetypeTableRecord
  2
ByBlock
 70
     0
  3

 72
    65
 73
     0
 40
0.0
  0
LTYPE
  5
14
330
5
100
AcDbSymbolTableRecord
100
AcDbLinetypeTableRecord
  2
ByLayer
 70
     0
  3

 72
    65
 73
     0
 40
0.0
  0
LTYPE
  5
15
330
5
100
AcDbSymbolTableRecord
100
AcDbLinetypeTableRecord
  2
CONTINUOUS
 70
     0
  3
Solid line
 72
    65
 73
     0
 40
0.0
  0
LTYPE
  5
26
330
5
100
AcDbSymbolTableRecord
100
AcDbLinetypeTableRecord
  2
DASHED
 70
     0
  3
__ __ __ __ __ __ __ __ __ __ __ __ __ __ __
 72
    65
 73
     2
 40
3.5
 49
2.0
 74
     0
 49
-1.5
 74
     0
  0
LTYPE
  5
27
330
5
100
AcDbSymbolTableRecord
100
AcDbLinetypeTableRecord
  2
CENTER
 70
     0
  3
____ _ ____ _ ____ _ ____ _ ____ _ ____ _ ____
 72
    65
 73
     4
 40
17.5
 49
13.0
 74
     0
 49
-1.5
 74
     0
 49
1.5
 74
     0
 49
-1.5
 74
     0
  0
LTYPE
  5
28
330
5
100
AcDbSymbolTableRecord
100
AcDbLinetypeTableRecord
  2
PHANTOM
 70
     0
  3
_____ _ _ _____ _ _ _____ _ _ _____ _ _ ____  
 72
    65
 73
     6
 40
15.5
 49
8.0
 74
     0
 49
-1.5
 74
     0
 49
1.5
 74
     0
 49
-1.5
 74
     0
 49
1.5
 74
     0
 49
-1.5
 74
     0
  0
LTYPE
  5
29
330
5
100
AcDbSymbolTableRecord
100
AcDbLinetypeTableRecord
  2
DOT
 70
     0
  3
. . . . . . . . . . . . . . . . . . . . . . . .
 72
    65
 73
     2
 40
0.25
 49
0.0
 74
     0
 49
-0.25
 74
     0
  0
LTYPE
  5
2A
330
5
100
AcDbSymbolTableRecord
100
AcDbLinetypeTableRecord
  2
HIDDEN
 70
     0
  3
__ __ __ __ __ __ __ __ __ __ __ __ __ __ __
 72
    65
 73
     2
 40
3.5
 49
2.0
 74
     0
 49
-1.5
 74
     0
  0
ENDTAB
  0
TABLE
  2
LAYER
  5
2
330
0
100
AcDbSymbolTable
 70
     3
  0
LAYER
  5
10
330
2
100
AcDbSymbolTableRecord
100
AcDbLayerTableRecord
  2
0
 70
     0
 62
     7
  6
CONTINUOUS
370
    -3
390
F
  0
LAYER
  5
2B
330
2
100
AcDbSymbolTableRecord
100
AcDbLayerTableRecord
  2
1
 70
     0
 62
     7
  6
CONTINUOUS
370
    -3
390
F
  0
LAYER
  5
2C
330
2
100
AcDbSymbolTableRecord
100
AcDbLayerTableRecord
  2
DEFPOINTS
 70
     0
 62
     7
  6
CONTINUOUS
290
     0
370
    -3
390
F
  0
ENDTAB
  0
TABLE
  2
STYLE
  5
3
330
0
100
AcDbSymbolTable
 70
     2
  0
STYLE
  5
11
330
3
100
AcDbSymbolTableRecord
100
AcDbTextStyleTableRecord
  2
STANDARD
 70
     0
 40
0.0
 41
1.0
 50
0.0
 71
     0
 42
0.2
  3

  4

1001
ACAD
1000
MS Gothic
1071
    32817
  0
ENDTAB
  0
TABLE
  2
VIEW
  5
6
330
0
100
AcDbSymbolTable
 70
     0
  0
ENDTAB
  0
TABLE
  2
UCS
  5
7
330
0
100
AcDbSymbolTable
 70
     0
  0
ENDTAB
  0
TABLE
  2
APPID
  5
9
330
0
100
AcDbSymbolTable
 70
     2
  0
APPID
  5
12
330
9
100
AcDbSymbolTableRecord
100
AcDbRegAppTableRecord
  2
ACAD
 70
     0
  0
APPID
  5
1FF
330
9
100
AcDbSymbolTableRecord
100
AcDbRegAppTableRecord
  2
ACAD_PSEXT
 70
     0
  0
ENDTAB
  0
TABLE
  2
DIMSTYLE
  5
A
330
0
100
AcDbSymbolTable
 70
     5
100
AcDbDimStyleTable
 71
     1
340
2D
  0
DIMSTYLE
105
2D
102
{ACAD_REACTORS
330
1F8
102
}
330
A
100
AcDbSymbolTableRecord
100
AcDbDimStyleTableRecord
  2
DIMSTYLE1
 70
     0
 41
1.0
 42
2.54
 44
2.54
 73
     0
 74
     0
 77
     1
140
3.0
145
1.0
147
1.5
172
     1
173
     1
279
     2
340
11
  0
DIMSTYLE
105
2E
102
{ACAD_REACTORS
330
1F9
102
}
330
A
100
AcDbSymbolTableRecord
100
AcDbDimStyleTableRecord
  2
DIMSTYLE2
 70
     0
 41
1.0
 42
2.54
 44
2.54
 73
     0
 74
     0
 77
     1
140
3.0
145
1.0
147
1.5
172
     1
173
     1
279
     2
340
11
  0
DIMSTYLE
105
2F
102
{ACAD_REACTORS
330
1FA
102
}
330
A
100
AcDbSymbolTableRecord
100
AcDbDimStyleTableRecord
  2
DIMSTYLE3
 70
     0
 41
1.0
 42
2.54
 44
2.54
 73
     0
 74
     0
 77
     1
140
3.0
145
1.0
147
1.5
172
     1
173
     1
279
     2
340
11
  0
DIMSTYLE
105
30
102
{ACAD_REACTORS
330
1FB
102
}
330
A
100
AcDbSymbolTableRecord
100
AcDbDimStyleTableRecord
  2
DIMSTYLE4
 70
     0
 41
1.0
 42
2.54
 44
2.54
 73
     0
 74
     0
 75
     1
 76
     1
 77
     1
140
3.0
145
1.0
147
1.5
172
     1
173
     1
279
     2
340
11
  0
ENDTAB
  0
TABLE
  2
BLOCK_RECORD
  5
1
330
0
100
AcDbSymbolTable
 70
     7
  0
BLOCK_RECORD
  5
22
330
1
100
AcDbSymbolTableRecord
100
AcDbBlockTableRecord
  2
*Model_Space
340
25
  0
BLOCK_RECORD
  5
1E
330
1
100
AcDbSymbolTableRecord
100
AcDbBlockTableRecord
  2
*Paper_Space
340
21
  0
BLOCK_RECORD
  5
34
330
1
100
AcDbSymbolTableRecord
100
AcDbBlockTableRecord
  2
_OPEN30
340
0
102
{BLKREFS
331
3D
331
3E
331
49
331
4A
331
54
331
55
331
61
331
62
102
}
  0
BLOCK_RECORD
  5
3A
330
1
100
AcDbSymbolTableRecord
100
AcDbBlockTableRecord
  2
*D1
340
0
  0
BLOCK_RECORD
  5
45
330
1
100
AcDbSymbolTableRecord
100
AcDbBlockTableRecord
  2
*D2
340
0
  0
BLOCK_RECORD
  5
51
330
1
100
AcDbSymbolTableRecord
100
AcDbBlockTableRecord
  2
*D3
340
0
  0
BLOCK_RECORD
  5
5D
330
1
100
AcDbSymbolTableRecord
100
AcDbBlockTableRecord
  2
*D4
340
0
  0
BLOCK_RECORD
  5
67
330
1
100
AcDbSymbolTableRecord
100
AcDbBlockTableRecord
  2
KOZU0001
340
0
102
{BLKREFS
331
1FC
102
}
  0
ENDTAB
  0
ENDSEC
  0
SECTION
  2
BLOCKS
  0
BLOCK
  5
23
330
22
100
AcDbEntity
  8
0
100
AcDbBlockBegin
  2
*Model_Space
 70
     0
 10
0.0
 20
0.0
 30
0.0
  3
*Model_Space
  1

  0
ENDBLK
  5
24
330
22
100
AcDbEntity
  8
0
100
AcDbBlockEnd
  0
BLOCK
  5
1F
330
1E
100
AcDbEntity
 67
     1
  8
0
100
AcDbBlockBegin
  2
*Paper_Space
 70
     0
 10
0.0
 20
0.0
 30
0.0
  3
*Paper_Space
  1

  0
ENDBLK
  5
20
330
1E
100
AcDbEntity
 67
     1
  8
0
100
AcDbBlockEnd
  0
BLOCK
  5
35
330
34
100
AcDbEntity
  8
0
100
AcDbBlockBegin
  2
_OPEN30
 70
     0
 10
0.0
 20
0.0
 30
0.0
  3
_OPEN30
  1

  0
LINE
  5
36
330
34
100
AcDbEntity
  8
0
  6
ByBlock
 62
     0
100
AcDbLine
 10
0.0
 20
0.0
 30
0.0
 11
-2.999999999999993
 21
-1.000000000000017
 31
0.0
  0
LINE
  5
37
330
34
100
AcDbEntity
  8
0
  6
ByBlock
 62
     0
100
AcDbLine
 10
0.0
 20
0.0
 30
0.0
 11
-3.000000000000006
 21
0.9999999999999815
 31
0.0
  0
LINE
  5
38
330
34
100
AcDbEntity
  8
0
  6
ByBlock
 62
     0
100
AcDbLine
 10
0.0
 20
0.0
 30
0.0
 11
-3.0
 21
0.0
 31
0.0
  0
ENDBLK
  5
39
330
34
100
AcDbEntity
  8
0
100
AcDbBlockEnd
  0
BLOCK
  5
3B
330
3A
100
AcDbEntity
  8
0
100
AcDbBlockBegin
  2
*D1
 70
     1
 10
0.0
 20
0.0
 30
0.0
  3
*D1
  1

  0
LINE
  5
3C
330
3A
100
AcDbEntity
  8
0
  6
Continuous
 62
     7
100
AcDbLine
 10
-222.0483093261719
 20
261.9619750976563
 30
0.0
 11
-216.0483093261719
 21
261.9619750976563
 31
0.0
  0
INSERT
  5
3D
330
3A
100
AcDbEntity
  8
0
  6
Continuous
 62
     7
100
AcDbBlockReference
  2
_OPEN30
 10
-225.0483093261719
 20
261.9619750976563
 30
0.0
 50
180.0000000000004
  0
INSERT
  5
3E
330
3A
100
AcDbEntity
  8
0
  6
Continuous
 62
     7
100
AcDbBlockReference
  2
_OPEN30
 10
-213.0483093261719
 20
261.9619750976563
 30
0.0
  0
LINE
  5
3F
330
3A
100
AcDbEntity
  8
0
  6
Continuous
 62
     7
100
AcDbLine
 10
-213.0483093261719
 20
251.7427130126953
 30
0.0
 11
-213.0483093261719
 21
264.2479858398438
 31
0.0
  0
TEXT
  5
40
330
3A
100
AcDbEntity
  8
0
  6
Continuous
 62
     7
100
AcDbText
 10
-221.6183094382286
 20
262.7119750976563
 30
0.0
 40
3.0
  1
12
 41
1.285000026226043
100
AcDbText
  0
POINT
  5
41
330
3A
100
AcDbEntity
  8
DEFPOINTS
  6
Continuous
 62
     7
100
AcDbPoint
 10
-225.0483093261719
 20
255.6591491699219
 30
0.0
  0
POINT
  5
42
330
3A
100
AcDbEntity
  8
DEFPOINTS
  6
Continuous
 62
     7
100
AcDbPoint
 10
-213.0483093261719
 20
249.2027130126953
 30
0.0
  0
POINT
  5
43
330
3A
100
AcDbEntity
  8
DEFPOINTS
  6
Continuous
 62
     7
100
AcDbPoint
 10
-213.0483093261719
 20
261.9619750976563
 30
0.0
  0
ENDBLK
  5
44
330
3A
100
AcDbEntity
  8
0
100
AcDbBlockEnd
  0
BLOCK
  5
46
330
45
100
AcDbEntity
  8
0
100
AcDbBlockBegin
  2
*D2
 70
     1
 10
0.0
 20
0.0
 30
0.0
  3
*D2
  1

  0
LINE
  5
47
330
45
100
AcDbEntity
  8
0
  6
Continuous
 62
     7
100
AcDbLine
 10
-203.0503234863281
 20
261.9619750976563
 30
0.0
 11
-143.069091796875
 21
261.9619750976563
 31
0.0
  0
LINE
  5
48
330
45
100
AcDbEntity
  8
0
  6
Continuous
 62
     7
100
AcDbLine
 10
-210.0483093261719
 20
261.9619750976563
 30
0.0
 11
-206.0503234863281
 21
261.9619750976563
 31
0.0
  0
INSERT
  5
49
330
45
100
AcDbEntity
  8
0
  6
Continuous
 62
     7
100
AcDbBlockReference
  2
_OPEN30
 10
-213.0483093261719
 20
261.9619750976563
 30
0.0
 50
180.0000000000004
  0
INSERT
  5
4A
330
45
100
AcDbEntity
  8
0
  6
Continuous
 62
     7
100
AcDbBlockReference
  2
_OPEN30
 10
-203.0503234863281
 20
261.9619750976563
 30
0.0
  0
LINE
  5
4B
330
45
100
AcDbEntity
  8
0
  6
Continuous
 62
     7
100
AcDbLine
 10
-203.0503234863281
 20
252.2427130126953
 30
0.0
 11
-203.0503234863281
 21
264.2479858398438
 31
0.0
  0
TEXT
  5
4C
330
45
100
AcDbEntity
  8
0
  6
Continuous
 62
     7
100
AcDbText
 10
-172.2090997099876
 20
262.7119750976563
 30
0.0
 40
3.0
  1
最大挟み込み代　１０
 41
0.8443929326254473
100
AcDbText
  0
POINT
  5
4D
330
45
100
AcDbEntity
  8
DEFPOINTS
  6
Continuous
 62
     7
100
AcDbPoint
 10
-213.0483093261719
 20
255.2160339355469
 30
0.0
  0
POINT
  5
4E
330
45
100
AcDbEntity
  8
DEFPOINTS
  6
Continuous
 62
     7
100
AcDbPoint
 10
-203.0503234863281
 20
249.7027130126953
 30
0.0
  0
POINT
  5
4F
330
45
100
AcDbEntity
  8
DEFPOINTS
  6
Continuous
 62
     7
100
AcDbPoint
 10
-203.0503234863281
 20
261.9619750976563
 30
0.0
  0
ENDBLK
  5
50
330
45
100
AcDbEntity
  8
0
100
AcDbBlockEnd
  0
BLOCK
  5
52
330
51
100
AcDbEntity
  8
0
100
AcDbBlockBegin
  2
*D3
 70
     1
 10
0.0
 20
0.0
 30
0.0
  3
*D3
  1

  0
LINE
  5
53
330
51
100
AcDbEntity
  8
0
  6
Continuous
 62
     7
100
AcDbLine
 10
-222.0483093261719
 20
271.67724609375
 30
0.0
 11
-178.0483093261719
 21
271.67724609375
 31
0.0
  0
INSERT
  5
54
330
51
100
AcDbEntity
  8
0
  6
Continuous
 62
     7
100
AcDbBlockReference
  2
_OPEN30
 10
-225.0483093261719
 20
271.67724609375
 30
0.0
 50
180.0000000000004
  0
INSERT
  5
55
330
51
100
AcDbEntity
  8
0
  6
Continuous
 62
     7
100
AcDbBlockReference
  2
_OPEN30
 10
-175.0483093261719
 20
271.67724609375
 30
0.0
  0
LINE
  5
56
330
51
100
AcDbEntity
  8
0
  6
Continuous
 62
     7
100
AcDbLine
 10
-225.0483093261719
 20
243.5648870849609
 30
0.0
 11
-225.0483093261719
 21
273.9632568359375
 31
0.0
  0
LINE
  5
57
330
51
100
AcDbEntity
  8
0
  6
Continuous
 62
     7
100
AcDbLine
 10
-175.0483093261719
 20
237.2427130126953
 30
0.0
 11
-175.0483093261719
 21
273.9632568359375
 31
0.0
  0
TEXT
  5
58
330
51
100
AcDbEntity
  8
0
  6
Continuous
 62
     7
100
AcDbText
 10
-202.6183094382286
 20
272.42724609375
 30
0.0
 40
3.0
  1
50
 41
1.101428593908038
100
AcDbText
  0
POINT
  5
59
330
51
100
AcDbEntity
  8
DEFPOINTS
  6
Continuous
 62
     7
100
AcDbPoint
 10
-225.0483093261719
 20
241.0248870849609
 30
0.0
  0
POINT
  5
5A
330
51
100
AcDbEntity
  8
DEFPOINTS
  6
Continuous
 62
     7
100
AcDbPoint
 10
-175.0483093261719
 20
234.7027130126953
 30
0.0
  0
POINT
  5
5B
330
51
100
AcDbEntity
  8
DEFPOINTS
  6
Continuous
 62
     7
100
AcDbPoint
 10
-175.0483093261719
 20
271.67724609375
 30
0.0
  0
ENDBLK
  5
5C
330
51
100
AcDbEntity
  8
0
100
AcDbBlockEnd
  0
BLOCK
  5
5E
330
5D
100
AcDbEntity
  8
0
100
AcDbBlockBegin
  2
*D4
 70
     1
 10
0.0
 20
0.0
 30
0.0
  3
*D4
  1

  0
LINE
  5
5F
330
5D
100
AcDbEntity
  8
0
  6
Continuous
 62
     7
100
AcDbLine
 10
-279.8773498535156
 20
224.7668151855469
 30
0.0
 11
-269.0378723144531
 21
234.6029357910156
 31
0.0
  0
LINE
  5
60
330
5D
100
AcDbEntity
  8
0
  6
Continuous
 62
     7
100
AcDbLine
 10
-387.9976494067225
 20
126.6546223578264
 30
0.0
 11
-282.0989997631993
 21
222.7508112969587
 31
0.0
  0
INSERT
  5
61
330
5D
100
AcDbEntity
  8
0
  6
Continuous
 62
     7
100
AcDbBlockReference
  2
_OPEN30
 10
-390.2192993164063
 20
124.6386184692383
 30
0.0
 50
222.2217143407541
  0
INSERT
  5
62
330
5D
100
AcDbEntity
  8
0
  6
Continuous
 62
     7
100
AcDbBlockReference
  2
_OPEN30
 10
-279.8773498535156
 20
224.7668151855469
 30
0.0
 50
42.22171434075334
  0
TEXT
  5
63
330
5D
100
AcDbEntity
  8
0
  6
Continuous
 62
     7
100
AcDbText
 10
-277.7927919771742
 20
227.673998201668
 30
0.0
 40
3.0
  1
%%C149
 50
42.1999993529382
 41
1.053926216168795
100
AcDbText
  0
POINT
  5
64
330
5D
100
AcDbEntity
  8
DEFPOINTS
  6
Continuous
 62
     7
100
AcDbPoint
 10
-390.2192993164063
 20
124.6386184692383
 30
0.0
  0
POINT
  5
65
330
5D
100
AcDbEntity
  8
DEFPOINTS
  6
Continuous
 62
     7
100
AcDbPoint
 10
-279.8773498535156
 20
224.7668151855469
 30
0.0
  0
ENDBLK
  5
66
330
5D
100
AcDbEntity
  8
0
100
AcDbBlockEnd
  0
BLOCK
  5
68
330
67
100
AcDbEntity
  8
0
100
AcDbBlockBegin
  2
KOZU0001
 70
     0
 10
0.0
 20
0.0
 30
0.0
  3
KOZU0001
  1

  0
LINE
  5
69
330
67
100
AcDbEntity
  8
0
  6
Continuous
 62
     7
100
AcDbLine
 10
0.0
 20
0.0
 30
0.0
 11
20.47715759277344
 21
-74.12327575683594
 31
0.0
  0
LINE
  5
6A
330
67
100
AcDbEntity
  8
0
  6
Continuous
 62
     7
100
AcDbLine
 10
20.47715759277344
 20
-74.12327575683594
 30
0.0
 11
50.75282287597656
 21
-74.12327575683594
 31
0.0
  0
LINE
  5
6B
330
67
100
AcDbEntity
  8
0
  6
Continuous
 62
     7
100
AcDbLine
 10
0.0
 20
0.0
 30
0.0
 11
1.762745919814921
 21
-2.625400316556667
 31
0.0
  0
LINE
  5
6C
330
67
100
AcDbEntity
  8
0
  6
Continuous
 62
     7
100
AcDbLine
 10
0.0
 20
0.0
 30
0.0
 11
-0.1650434540820629
 21
-3.157967805134286
 31
0.0
  0
TEXT
  5
6D
330
67
100
AcDbEntity
  8
0
  6
Continuous
 62
     7
100
AcDbText
 10
22.89282155036926
 20
-73.37327575683594
 30
0.0
 40
3.0
  1
配管接続口
 41
0.8487395020950888
100
AcDbText
  0
TEXT
  5
6E
330
67
100
AcDbEntity
  8
0
  6
Continuous
 62
     7
100
AcDbText
 10
22.89282155036926
 20
-78.63827575683593
 30
0.0
 40
3.0
  1
Ｒｃ４（１００Ａ）
 41
0.8448610247221777
100
AcDbText
  0
ENDBLK
  5
6F
330
67
100
AcDbEntity
  8
0
100
AcDbBlockEnd
  0
ENDSEC
  0
SECTION
  2
ENTITIES
  0
POINT
  5
70
330
22
100
AcDbEntity
  8
0
  6
Continuous
 62
     7
100
AcDbPoint
 10
-225.0483093261719
 20
174.7027130126953
 30
0.0
  0
POINT
  5
71
330
22
100
AcDbEntity
  8
0
  6
Continuous
 62
     7
100
AcDbPoint
 10
-225.0483093261719
 20
174.7027130126953
 30
0.0
  0
POINT
  5
72
330
22
100
AcDbEntity
  8
0
  6
Continuous
 62
     7
100
AcDbPoint
 10
-335.0483093261719
 20
174.7027130126953
 30
0.0
  0
POINT
  5
73
330
22
100
AcDbEntity
  8
0
  6
Continuous
 62
     7
100
AcDbPoint
 10
-225.0483093261719
 20
174.7027130126953
 30
0.0
  0
POINT
  5
74
330
22
100
AcDbEntity
  8
0
  6
Continuous
 62
     7
100
AcDbPoint
 10
-335.0483093261719
 20
174.7027130126953
 30
0.0
  0
POINT
  5
75
330
22
100
AcDbEntity
  8
0
  6
Continuous
 62
     7
100
AcDbPoint
 10
-176.6046295166016
 20
229.6533355712891
 30
0.0
  0
POINT
  5
76
330
22
100
AcDbEntity
  8
0
  6
Continuous
 62
     7
100
AcDbPoint
 10
-199.6623687744141
 20
228.9327545166016
 30
0.0
  0
POINT
  5
77
330
22
100
AcDbEntity
  8
0
  6
Continuous
 62
     7
100
AcDbPoint
 10
-188.1334991455078
 20
229.2930450439453
 30
0.0
  0
LINE
  5
78
330
22
100
AcDbEntity
  8
0
  6
Continuous
 62
     7
100
AcDbLine
 10
-221.5483093261719
 20
225.7027130126953
 30
0.0
 11
-215.5483093261719
 21
225.7027130126953
 31
0.0
  0
LINE
  5
79
330
22
100
AcDbEntity
  8
0
  6
Continuous
 62
     7
100
AcDbLine
 10
-215.0483093261719
 20
226.2027130126953
 30
0.0
 11
-215.0483093261719
 21
229.2027130126953
 31
0.0
  0
LINE
  5
7A
330
22
100
AcDbEntity
  8
0
  6
Continuous
 62
     7
100
AcDbLine
 10
-222.0483093261719
 20
230.9527130126953
 30
0.0
 11
-222.0483093261719
 21
226.2027130126953
 31
0.0
  0
LINE
  5
7B
330
22
100
AcDbEntity
  8
0
  6
Continuous
 62
     7
100
AcDbLine
 10
-223.3037109375
 20
245.1666564941406
 30
0.0
 11
-219.2676544189453
 21
249.2027130126953
 31
0.0
  0
LINE
  5
7C
330
22
100
AcDbEntity
  8
0
  6
Continuous
 62
     7
100
AcDbLine
 10
-224.9392395019531
 20
240.7027130126953
 30
0.0
 11
-216.4392395019531
 21
249.2027130126953
 31
0.0
  0
LINE
  5
7D
330
22
100
AcDbEntity
  8
0
  6
Continuous
 62
     7
100
AcDbLine
 10
-222.1108093261719
 20
240.7027130126953
 30
0.0
 11
-216.0483093261719
 21
246.7652130126953
 31
0.0
  0
LINE
  5
7E
330
22
100
AcDbEntity
  8
0
  6
Continuous
 62
     7
100
AcDbLine
 10
-222.0483093261719
 20
237.9367828369141
 30
0.0
 11
-216.0483093261719
 21
243.9367828369141
 31
0.0
  0
LINE
  5
7F
330
22
100
AcDbEntity
  8
0
  6
Continuous
 62
     7
100
AcDbLine
 10
-222.0483093261719
 20
235.1083526611328
 30
0.0
 11
-217.0011291503906
 21
240.1555328369141
 31
0.0
  0
LINE
  5
80
330
22
100
AcDbEntity
  8
0
  6
Continuous
 62
     7
100
AcDbLine
 10
-219.3755187988281
 20
234.9527130126953
 30
0.0
 11
-216.0483093261719
 21
238.2799224853516
 31
0.0
  0
LINE
  5
81
330
22
100
AcDbEntity
  8
0
  6
Continuous
 62
     7
100
AcDbLine
 10
-218.5471038818359
 20
232.9527130126953
 30
0.0
 11
-215.7971038818359
 21
235.7027130126953
 31
0.0
  0
LINE
  5
82
330
22
100
AcDbEntity
  8
0
  6
Continuous
 62
     7
100
AcDbLine
 10
-218.7483062744141
 20
232.7514953613281
 30
0.0
 11
-218.5471038818359
 21
232.9527130126953
 31
0.0
  0
LINE
  5
83
330
22
100
AcDbEntity
  8
0
  6
Continuous
 62
     7
100
AcDbLine
 10
-222.0483093261719
 20
229.4514923095703
 30
0.0
 11
-220.5471038818359
 21
230.9527130126953
 31
0.0
  0
LINE
  5
84
330
22
100
AcDbEntity
  8
0
  6
Continuous
 62
     7
100
AcDbLine
 10
-222.0483093261719
 20
226.6230773925781
 30
0.0
 11
-212.9686737060547
 21
235.7027130126953
 31
0.0
  0
LINE
  5
85
330
22
100
AcDbEntity
  8
0
  6
Continuous
 62
     7
100
AcDbLine
 10
-220.1402435302734
 20
225.7027130126953
 30
0.0
 11
-211.0942840576172
 21
234.7486724853516
 31
0.0
  0
LINE
  5
86
330
22
100
AcDbEntity
  8
0
  6
Continuous
 62
     7
100
AcDbLine
 10
-213.3118133544922
 20
229.7027130126953
 30
0.0
 11
-208.3118133544922
 21
234.7027130126953
 31
0.0
  0
LINE
  5
87
330
22
100
AcDbEntity
  8
0
  6
Continuous
 62
     7
100
AcDbLine
 10
-217.3118133544922
 20
225.7027130126953
 30
0.0
 11
-215.0483093261719
 21
227.9662170410156
 31
0.0
  0
LINE
  5
88
330
22
100
AcDbEntity
  8
0
  6
Continuous
 62
     7
100
AcDbLine
 10
-210.4833831787109
 20
229.7027130126953
 30
0.0
 11
-205.4833831787109
 21
234.7027130126953
 31
0.0
  0
LINE
  5
89
330
22
100
AcDbEntity
  8
0
  6
Continuous
 62
     7
100
AcDbLine
 10
-207.6549682617188
 20
229.7027130126953
 30
0.0
 11
-202.6549682617188
 21
234.7027130126953
 31
0.0
  0
LINE
  5
8A
330
22
100
AcDbEntity
  8
0
  6
Continuous
 62
     7
100
AcDbLine
 10
-204.8265380859375
 20
229.7027130126953
 30
0.0
 11
-199.8265380859375
 21
234.7027130126953
 31
0.0
  0
LINE
  5
8B
330
22
100
AcDbEntity
  8
0
  6
Continuous
 62
     7
100
AcDbLine
 10
-201.9981079101563
 20
229.7027130126953
 30
0.0
 11
-196.9981079101563
 21
234.7027130126953
 31
0.0
  0
LINE
  5
8C
330
22
100
AcDbEntity
  8
0
  6
Continuous
 62
     7
100
AcDbLine
 10
-198.3922729492188
 20
230.4801330566406
 30
0.0
 11
-194.169677734375
 21
234.7027130126953
 31
0.0
  0
LINE
  5
8D
330
22
100
AcDbEntity
  8
0
  6
Continuous
 62
     7
100
AcDbLine
 10
-195.4725952148438
 20
230.5713653564453
 30
0.0
 11
-191.3412475585938
 21
234.7027130126953
 31
0.0
  0
LINE
  5
8E
330
22
100
AcDbEntity
  8
0
  6
Continuous
 62
     7
100
AcDbLine
 10
-192.5529174804688
 20
230.6626129150391
 30
0.0
 11
-188.5128326416016
 21
234.7027130126953
 31
0.0
  0
LINE
  5
8F
330
22
100
AcDbEntity
  8
0
  6
Continuous
 62
     7
100
AcDbLine
 10
-189.6332550048828
 20
230.7538604736328
 30
0.0
 11
-185.6844024658203
 21
234.7027130126953
 31
0.0
  0
LINE
  5
90
330
22
100
AcDbEntity
  8
0
  6
Continuous
 62
     7
100
AcDbLine
 10
-186.7135772705078
 20
230.8451080322266
 30
0.0
 11
-182.8559722900391
 21
234.7027130126953
 31
0.0
  0
LINE
  5
91
330
22
100
AcDbEntity
  8
0
  6
Continuous
 62
     7
100
AcDbLine
 10
-183.7939147949219
 20
230.9363555908203
 30
0.0
 11
-180.0275421142578
 21
234.7027130126953
 31
0.0
  0
LINE
  5
92
330
22
100
AcDbEntity
  8
0
  6
Continuous
 62
     7
100
AcDbLine
 10
-180.8742370605469
 20
231.027587890625
 30
0.0
 11
-177.1991119384766
 21
234.7027130126953
 31
0.0
  0
LINE
  5
93
330
22
100
AcDbEntity
  8
0
  6
Continuous
 62
     7
100
AcDbLine
 10
-177.9545593261719
 20
231.1188354492188
 30
0.0
 11
-175.0483093261719
 21
234.0250854492188
 31
0.0
  0
LINE
  5
94
330
22
100
AcDbEntity
  8
0
  6
CENTER
 62
     7
100
AcDbLine
 10
-226.7061462402344
 20
232.9527130126953
 30
0.0
 11
-216.0483093261719
 21
232.9527130126953
 31
0.0
  0
LINE
  5
95
330
22
100
AcDbEntity
  8
0
  6
Continuous
 62
     7
100
AcDbLine
 10
-219.1283111572266
 20
234.5727081298828
 30
0.0
 11
-219.1283111572266
 21
231.3327178955078
 31
0.0
  0
LINE
  5
96
330
22
100
AcDbEntity
  8
0
  6
Continuous
 62
     7
100
AcDbLine
 10
-222.0483093261719
 20
240.7027130126953
 30
0.0
 11
-222.0483093261719
 21
234.9527130126953
 31
0.0
  0
LINE
  5
97
330
22
100
AcDbEntity
  8
0
  6
Continuous
 62
     7
100
AcDbLine
 10
-225.0483093261719
 20
240.7027130126953
 30
0.0
 11
-222.0483093261719
 21
240.7027130126953
 31
0.0
  0
LINE
  5
98
330
22
100
AcDbEntity
  8
0
  6
Continuous
 62
     7
100
AcDbLine
 10
-218.7483062744141
 20
234.9527130126953
 30
0.0
 11
-219.1283111572266
 21
234.5727081298828
 31
0.0
  0
LINE
  5
99
330
22
100
AcDbEntity
  8
0
  6
Continuous
 62
     7
100
AcDbLine
 10
-218.7483062744141
 20
230.9527130126953
 30
0.0
 11
-219.1283111572266
 21
231.3327178955078
 31
0.0
  0
LINE
  5
9A
330
22
100
AcDbEntity
  8
0
  6
Continuous
 62
     7
100
AcDbLine
 10
-219.1283111572266
 20
231.3327178955078
 30
0.0
 11
-221.6683044433594
 21
231.3327178955078
 31
0.0
  0
LINE
  5
9B
330
22
100
AcDbEntity
  8
0
  6
Continuous
 62
     7
100
AcDbLine
 10
-219.1283111572266
 20
234.5727081298828
 30
0.0
 11
-221.6683044433594
 21
234.5727081298828
 31
0.0
  0
LINE
  5
9C
330
22
100
AcDbEntity
  8
0
  6
Continuous
 62
     7
100
AcDbLine
 10
-203.0483093261719
 20
235.7027130126953
 30
0.0
 11
-199.5483093261719
 21
235.7027130126953
 31
0.0
  0
LINE
  5
9D
330
22
100
AcDbEntity
  8
0
  6
Continuous
 62
     7
100
AcDbLine
 10
-200.0483093261719
 20
249.7027130126953
 30
0.0
 11
-199.0483093261719
 21
249.7027130126953
 31
0.0
  0
LINE
  5
9E
330
22
100
AcDbEntity
  8
0
  6
Continuous
 62
     7
100
AcDbLine
 10
-203.0483093261719
 20
249.7027130126953
 30
0.0
 11
-200.0483093261719
 21
249.7027130126953
 31
0.0
  0
LINE
  5
9F
330
22
100
AcDbEntity
  8
0
  6
Continuous
 62
     7
100
AcDbLine
 10
-200.0483093261719
 20
249.7027130126953
 30
0.0
 11
-200.0483093261719
 21
235.7027130126953
 31
0.0
  0
LINE
  5
A0
330
22
100
AcDbEntity
  8
0
  6
Continuous
 62
     7
100
AcDbLine
 10
-199.0483093261719
 20
249.7027130126953
 30
0.0
 11
-199.0483093261719
 21
235.7027130126953
 31
0.0
  0
LINE
  5
A1
330
22
100
AcDbEntity
  8
0
  6
Continuous
 62
     7
100
AcDbLine
 10
-199.0483093261719
 20
235.7027130126953
 30
0.0
 11
-198.0483093261719
 21
234.7027130126953
 31
0.0
  0
LINE
  5
A2
330
22
100
AcDbEntity
  8
0
  6
Continuous
 62
     7
100
AcDbLine
 10
-201.0483093261719
 20
230.3971252441406
 30
0.0
 11
-199.6623687744141
 21
228.9327545166016
 31
0.0
  0
LINE
  5
A3
330
22
100
AcDbEntity
  8
0
  6
Continuous
 62
     7
100
AcDbLine
 10
-201.0483093261719
 20
229.7027130126953
 30
0.0
 11
-214.5483093261719
 21
229.7027130126953
 31
0.0
  0
LINE
  5
A4
330
22
100
AcDbEntity
  8
0
  6
Continuous
 62
     7
100
AcDbLine
 10
-199.0483093261719
 20
249.7027130126953
 30
0.0
 11
-196.0483093261719
 21
249.7027130126953
 31
0.0
  0
LINE
  5
A5
330
22
100
AcDbEntity
  8
0
  6
Continuous
 62
     7
100
AcDbLine
 10
-199.0483093261719
 20
247.3863220214844
 30
0.0
 11
-196.7319183349609
 21
249.7027130126953
 31
0.0
  0
LINE
  5
A6
330
22
100
AcDbEntity
  8
0
  6
Continuous
 62
     7
100
AcDbLine
 10
-199.0483093261719
 20
243.1436920166016
 30
0.0
 11
-195.9892883300781
 21
246.2027130126953
 31
0.0
  0
LINE
  5
A7
330
22
100
AcDbEntity
  8
0
  6
Continuous
 62
     7
100
AcDbLine
 10
-199.0483093261719
 20
238.9010467529297
 30
0.0
 11
-191.7466430664063
 21
246.2027130126953
 31
0.0
  0
LINE
  5
A8
330
22
100
AcDbEntity
  8
0
  6
Continuous
 62
     7
100
AcDbLine
 10
-198.0039978027344
 20
235.7027130126953
 30
0.0
 11
-187.5039978027344
 21
246.2027130126953
 31
0.0
  0
LINE
  5
A9
330
22
100
AcDbEntity
  8
0
  6
Continuous
 62
     7
100
AcDbLine
 10
-193.7613677978516
 20
235.7027130126953
 30
0.0
 11
-186.1843109130859
 21
243.2797698974609
 31
0.0
  0
LINE
  5
AA
330
22
100
AcDbEntity
  8
0
  6
Continuous
 62
     7
100
AcDbLine
 10
-189.5187225341797
 20
235.7027130126953
 30
0.0
 11
-185.5577545166016
 21
239.6636810302734
 31
0.0
  0
LINE
  5
AB
330
22
100
AcDbEntity
  8
0
  6
Continuous
 62
     7
100
AcDbLine
 10
-185.2760772705078
 20
235.7027130126953
 30
0.0
 11
-185.1642608642578
 21
235.8145294189453
 31
0.0
  0
LINE
  5
AC
330
22
100
AcDbEntity
  8
0
  6
Continuous
 62
     7
100
AcDbLine
 10
-199.0483093261719
 20
249.5076446533203
 30
0.0
 11
-198.8532409667969
 21
249.7027130126953
 31
0.0
  0
LINE
  5
AD
330
22
100
AcDbEntity
  8
0
  6
Continuous
 62
     7
100
AcDbLine
 10
-199.0483093261719
 20
245.2649993896484
 30
0.0
 11
-196.0483093261719
 21
248.2649993896484
 31
0.0
  0
LINE
  5
AE
330
22
100
AcDbEntity
  8
0
  6
Continuous
 62
     7
100
AcDbLine
 10
-199.0483093261719
 20
241.0223693847656
 30
0.0
 11
-193.8679656982422
 21
246.2027130126953
 31
0.0
  0
LINE
  5
AF
330
22
100
AcDbEntity
  8
0
  6
Continuous
 62
     7
100
AcDbLine
 10
-199.0483093261719
 20
236.7797241210938
 30
0.0
 11
-189.6253204345703
 21
246.2027130126953
 31
0.0
  0
LINE
  5
B0
330
22
100
AcDbEntity
  8
0
  6
Continuous
 62
     7
100
AcDbLine
 10
-195.8826751708984
 20
235.7027130126953
 30
0.0
 11
-186.5697631835938
 21
245.0156402587891
 31
0.0
  0
LINE
  5
B1
330
22
100
AcDbEntity
  8
0
  6
Continuous
 62
     7
100
AcDbLine
 10
-191.6400451660156
 20
235.7027130126953
 30
0.0
 11
-185.8458251953125
 21
241.4969329833984
 31
0.0
  0
LINE
  5
B2
330
22
100
AcDbEntity
  8
0
  6
Continuous
 62
     7
100
AcDbLine
 10
-187.3973999023438
 20
235.7027130126953
 30
0.0
 11
-185.3327484130859
 21
237.7673645019531
 31
0.0
  0
LINE
  5
B3
330
22
100
AcDbEntity
  8
0
  6
Continuous
 62
     7
100
AcDbLine
 10
-175.0483093261719
 20
231.2096557617188
 30
0.0
 11
-201.0483093261719
 21
230.3971252441406
 31
0.0
  0
LINE
  5
B4
330
22
100
AcDbEntity
  8
0
  6
Continuous
 62
     7
100
AcDbLine
 10
-176.6046295166016
 20
229.6533355712891
 30
0.0
 11
-199.6623687744141
 21
228.9327545166016
 31
0.0
  0
LINE
  5
B5
330
22
100
AcDbEntity
  8
0
  6
Continuous
 62
     7
100
AcDbLine
 10
-176.0483093261719
 20
235.7027130126953
 30
0.0
 11
-212.0483093261719
 21
235.7027130126953
 31
0.0
  0
LINE
  5
B6
330
22
100
AcDbEntity
  8
0
  6
Continuous
 62
     7
100
AcDbLine
 10
-175.0483093261719
 20
234.7027130126953
 30
0.0
 11
-211.0483093261719
 21
234.7027130126953
 31
0.0
  0
LINE
  5
B7
330
22
100
AcDbEntity
  8
0
  6
Continuous
 62
     7
100
AcDbLine
 10
-222.8483123779297
 20
234.9527130126953
 30
0.0
 11
-222.4683074951172
 21
234.5727081298828
 31
0.0
  0
LINE
  5
B8
330
22
100
AcDbEntity
  8
0
  6
Continuous
 62
     7
100
AcDbLine
 10
-222.8483123779297
 20
234.9527130126953
 30
0.0
 11
-219.4283142089844
 21
234.9527130126953
 31
0.0
  0
LINE
  5
B9
330
22
100
AcDbEntity
  8
0
  6
Continuous
 62
     7
100
AcDbLine
 10
-222.8483123779297
 20
230.9527130126953
 30
0.0
 11
-222.4683074951172
 21
231.3327178955078
 31
0.0
  0
LINE
  5
BA
330
22
100
AcDbEntity
  8
0
  6
Continuous
 62
     7
100
AcDbLine
 10
-216.0483093261719
 20
249.2027130126953
 30
0.0
 11
-216.0483093261719
 21
235.7027130126953
 31
0.0
  0
LINE
  5
BB
330
22
100
AcDbEntity
  8
0
  6
Continuous
 62
     7
100
AcDbLine
 10
-212.0483093261719
 20
235.7027130126953
 30
0.0
 11
-216.0483093261719
 21
235.7027130126953
 31
0.0
  0
LINE
  5
BC
330
22
100
AcDbEntity
  8
0
  6
Continuous
 62
     7
100
AcDbLine
 10
-216.0483093261719
 20
249.2027130126953
 30
0.0
 11
-213.0483093261719
 21
249.2027130126953
 31
0.0
  0
LINE
  5
BD
330
22
100
AcDbEntity
  8
0
  6
Continuous
 62
     7
100
AcDbLine
 10
-213.0483093261719
 20
236.2027130126953
 30
0.0
 11
-216.0483093261719
 21
236.2027130126953
 31
0.0
  0
LINE
  5
BE
330
22
100
AcDbEntity
  8
0
  6
Continuous
 62
     7
100
AcDbLine
 10
-222.0483093261719
 20
230.9527130126953
 30
0.0
 11
-219.1283111572266
 21
230.9527130126953
 31
0.0
  0
LINE
  5
BF
330
22
100
AcDbEntity
  8
0
  6
Continuous
 62
     7
100
AcDbLine
 10
-218.7483062744141
 20
234.9527130126953
 30
0.0
 11
-218.7483062744141
 21
230.9527130126953
 31
0.0
  0
LINE
  5
C0
330
22
100
AcDbEntity
  8
0
  6
Continuous
 62
     7
100
AcDbLine
 10
-216.0483093261719
 20
249.2027130126953
 30
0.0
 11
-219.5876617431641
 21
249.2027130126953
 31
0.0
  0
LINE
  5
C1
330
22
100
AcDbEntity
  8
0
  6
Continuous
 62
     7
100
AcDbLine
 10
-221.3241577148438
 20
248.1949920654297
 30
0.0
 11
-224.3895263671875
 21
243.5055847167969
 31
0.0
  0
LINE
  5
C2
330
22
100
AcDbEntity
  8
0
  6
Continuous
 62
     7
100
AcDbLine
 10
-219.1283111572266
 20
230.9527130126953
 30
0.0
 11
-218.7483062744141
 21
230.9527130126953
 31
0.0
  0
LINE
  5
C3
330
22
100
AcDbEntity
  8
0
  6
Continuous
 62
     7
100
AcDbLine
 10
-185.0483093261719
 20
235.7027130126953
 30
0.0
 11
-186.0483093261719
 21
234.7027130126953
 31
0.0
  0
LINE
  5
C4
330
22
100
AcDbEntity
  8
0
  6
Continuous
 62
     7
100
AcDbLine
 10
-175.0483093261719
 20
234.7027130126953
 30
0.0
 11
-176.0483093261719
 21
235.7027130126953
 31
0.0
  0
LINE
  5
C5
330
22
100
AcDbEntity
  8
0
  6
Continuous
 62
     7
100
AcDbLine
 10
-219.1283111572266
 20
234.9527130126953
 30
0.0
 11
-218.7483062744141
 21
234.9527130126953
 31
0.0
  0
LINE
  5
C6
330
22
100
AcDbEntity
  8
0
  6
Continuous
 62
     7
100
AcDbLine
 10
-225.0483093261719
 20
237.1527099609375
 30
0.0
 11
-225.0483093261719
 21
228.7527160644531
 31
0.0
  0
LINE
  5
C7
330
22
100
AcDbEntity
  8
0
  6
Continuous
 62
     7
100
AcDbLine
 10
-217.0483093261719
 20
245.2027130126953
 30
0.0
 11
-216.0483093261719
 21
244.2027130126953
 31
0.0
  0
LINE
  5
C8
330
22
100
AcDbEntity
  8
0
  6
Continuous
 62
     7
100
AcDbLine
 10
-212.0483093261719
 20
235.7027130126953
 30
0.0
 11
-211.0483093261719
 21
234.7027130126953
 31
0.0
  0
LINE
  5
C9
330
22
100
AcDbEntity
  8
0
  6
Continuous
 62
     7
100
AcDbLine
 10
-217.0483093261719
 20
240.2027130126953
 30
0.0
 11
-216.0483093261719
 21
239.2027130126953
 31
0.0
  0
LINE
  5
CA
330
22
100
AcDbEntity
  8
0
  6
Continuous
 62
     7
100
AcDbLine
 10
-217.0483093261719
 20
240.2027130126953
 30
0.0
 11
-216.0483093261719
 21
241.2027130126953
 31
0.0
  0
LINE
  5
CB
330
22
100
AcDbEntity
  8
0
  6
Continuous
 62
     7
100
AcDbLine
 10
-217.0483093261719
 20
245.2027130126953
 30
0.0
 11
-216.0483093261719
 21
246.2027130126953
 31
0.0
  0
LINE
  5
CC
330
22
100
AcDbEntity
  8
0
  6
Continuous
 62
     7
100
AcDbLine
 10
-220.0483093261719
 20
100.2027130126953
 30
0.0
 11
-216.0483093261719
 21
100.2027130126953
 31
0.0
  0
LINE
  5
CD
330
22
100
AcDbEntity
  8
0
  6
Continuous
 62
     7
100
AcDbLine
 10
-199.0483093261719
 20
174.7027130126953
 30
0.0
 11
-199.0483093261719
 21
99.70271301269532
 31
0.0
  0
LINE
  5
CE
330
22
100
AcDbEntity
  8
0
  6
Continuous
 62
     7
100
AcDbLine
 10
-203.0483093261719
 20
99.70271301269532
 30
0.0
 11
-199.0483093261719
 21
99.70271301269532
 31
0.0
  0
LINE
  5
CF
330
22
100
AcDbEntity
  8
0
  6
Continuous
 62
     7
100
AcDbLine
 10
-199.0483093261719
 20
99.70271301269532
 30
0.0
 11
-196.0483093261719
 21
99.70271301269532
 31
0.0
  0
LINE
  5
D0
330
22
100
AcDbEntity
  8
0
  6
CENTER
 62
     7
100
AcDbLine
 10
-233.3152160644531
 20
174.7027130126953
 30
0.0
 11
-173.6018218994141
 21
174.7027130126953
 31
0.0
  0
LINE
  5
D1
330
22
100
AcDbEntity
  8
0
  6
Continuous
 62
     7
100
AcDbLine
 10
-200.0483093261719
 20
174.7027130126953
 30
0.0
 11
-200.0483093261719
 21
99.70271301269532
 31
0.0
  0
LINE
  5
D2
330
22
100
AcDbEntity
  8
0
  6
Continuous
 62
     7
100
AcDbLine
 10
-175.0483093261719
 20
231.2096557617188
 30
0.0
 11
-176.6046295166016
 21
229.6533355712891
 31
0.0
  0
LINE
  5
D3
330
22
100
AcDbEntity
  8
0
  6
Continuous
 62
     7
100
AcDbLine
 10
-186.8700256347656
 20
246.2027130126953
 30
0.0
 11
-196.0483093261719
 21
246.2027130126953
 31
0.0
  0
LINE
  5
D4
330
22
100
AcDbEntity
  8
0
  6
Continuous
 62
     7
100
AcDbLine
 10
-196.0483093261719
 20
249.7027130126953
 30
0.0
 11
-196.0483093261719
 21
246.2027130126953
 31
0.0
  0
LINE
  5
D5
330
22
100
AcDbEntity
  8
0
  6
Continuous
 62
     7
100
AcDbLine
 10
-203.0483093261719
 20
249.7027130126953
 30
0.0
 11
-203.0483093261719
 21
235.7027130126953
 31
0.0
  0
LINE
  5
D6
330
22
100
AcDbEntity
  8
0
  6
Continuous
 62
     7
100
AcDbLine
 10
-222.0483093261719
 20
230.7027130126953
 30
0.0
 11
-223.0983123779297
 21
230.7027130126953
 31
0.0
  0
LINE
  5
D7
330
22
100
AcDbEntity
  8
0
  6
Continuous
 62
     7
100
AcDbLine
 10
-222.8483123779297
 20
230.9527130126953
 30
0.0
 11
-219.4283142089844
 21
230.9527130126953
 31
0.0
  0
LINE
  5
D8
330
22
100
AcDbEntity
  8
0
  6
Continuous
 62
     7
100
AcDbLine
 10
-225.0483093261719
 20
237.1527099609375
 30
0.0
 11
-222.8483123779297
 21
234.9527130126953
 31
0.0
  0
LINE
  5
D9
330
22
100
AcDbEntity
  8
0
  6
Continuous
 62
     7
100
AcDbLine
 10
-213.0483093261719
 20
249.2027130126953
 30
0.0
 11
-213.0483093261719
 21
236.2027130126953
 31
0.0
  0
LINE
  5
DA
330
22
100
AcDbEntity
  8
0
  6
Continuous
 62
     7
100
AcDbLine
 10
-222.0483093261719
 20
234.9527130126953
 30
0.0
 11
-219.1283111572266
 21
234.9527130126953
 31
0.0
  0
LINE
  5
DB
330
22
100
AcDbEntity
  8
0
  6
Continuous
 62
     7
100
AcDbLine
 10
-219.0483093261719
 20
234.5727081298828
 30
0.0
 11
-219.0483093261719
 21
231.3327178955078
 31
0.0
  0
LINE
  5
DC
330
22
100
AcDbEntity
  8
0
  6
Continuous
 62
     7
100
AcDbLine
 10
-225.0483093261719
 20
228.7527160644531
 30
0.0
 11
-222.8483123779297
 21
230.9527130126953
 31
0.0
  0
LINE
  5
DD
330
22
100
AcDbEntity
  8
0
  6
Continuous
 62
     7
100
AcDbLine
 10
-219.0483093261719
 20
234.5727081298828
 30
0.0
 11
-219.4283142089844
 21
234.9527130126953
 31
0.0
  0
LINE
  5
DE
330
22
100
AcDbEntity
  8
0
  6
Continuous
 62
     7
100
AcDbLine
 10
-219.0483093261719
 20
231.3327178955078
 30
0.0
 11
-219.4283142089844
 21
230.9527130126953
 31
0.0
  0
LINE
  5
DF
330
22
100
AcDbEntity
  8
0
  6
Continuous
 62
     7
100
AcDbLine
 10
-219.0483093261719
 20
234.5727081298828
 30
0.0
 11
-222.4683074951172
 21
234.5727081298828
 31
0.0
  0
LINE
  5
E0
330
22
100
AcDbEntity
  8
0
  6
Continuous
 62
     7
100
AcDbLine
 10
-219.0483093261719
 20
231.3327178955078
 30
0.0
 11
-222.4683074951172
 21
231.3327178955078
 31
0.0
  0
LINE
  5
E1
330
22
100
AcDbEntity
  8
0
  6
Continuous
 62
     7
100
AcDbLine
 10
-216.0483093261719
 20
174.7027130126953
 30
0.0
 11
-216.0483093261719
 21
100.2027130126953
 31
0.0
  0
LINE
  5
E2
330
22
100
AcDbEntity
  8
0
  6
Continuous
 62
     7
100
AcDbLine
 10
-175.0483093261719
 20
114.7027130126953
 30
0.0
 11
-185.1000061035156
 21
114.7027130126953
 31
0.0
  0
LINE
  5
E3
330
22
100
AcDbEntity
  8
0
  6
Continuous
 62
     7
100
AcDbLine
 10
-176.0483093261719
 20
113.7027130126953
 30
0.0
 11
-185.1556396484375
 21
113.7027130126953
 31
0.0
  0
LINE
  5
E4
330
22
100
AcDbEntity
  8
0
  6
Continuous
 62
     7
100
AcDbLine
 10
-186.8700256347656
 20
147.2027130126953
 30
0.0
 11
-186.8700256347656
 21
131.2950439453125
 31
0.0
  0
LINE
  5
E5
330
22
100
AcDbEntity
  8
0
  6
Continuous
 62
     7
100
AcDbLine
 10
-185.0483093261719
 20
174.7027130126953
 30
0.0
 11
-185.0483093261719
 21
116.3455123901367
 31
0.0
  0
LINE
  5
E6
330
22
100
AcDbEntity
  8
0
  6
Continuous
 62
     7
100
AcDbLine
 10
-175.0483093261719
 20
114.7027130126953
 30
0.0
 11
-176.0483093261719
 21
113.7027130126953
 31
0.0
  0
LINE
  5
E7
330
22
100
AcDbEntity
  8
0
  6
Continuous
 62
     7
100
AcDbLine
 10
-196.0483093261719
 20
174.7027130126953
 30
0.0
 11
-196.0483093261719
 21
99.70271301269532
 31
0.0
  0
LINE
  5
E8
330
22
100
AcDbEntity
  8
0
  6
Continuous
 62
     7
100
AcDbLine
 10
-186.8700256347656
 20
103.2027130126953
 30
0.0
 11
-196.0483093261719
 21
103.2027130126953
 31
0.0
  0
LINE
  5
E9
330
22
100
AcDbEntity
  8
0
  6
Continuous
 62
     7
100
AcDbLine
 10
-186.8700256347656
 20
131.2950439453125
 30
0.0
 11
-196.0483093261719
 21
131.2950439453125
 31
0.0
  0
LINE
  5
EA
330
22
100
AcDbEntity
  8
0
  6
Continuous
 62
     7
100
AcDbLine
 10
-186.8700256347656
 20
147.2027130126953
 30
0.0
 11
-196.0483093261719
 21
147.2027130126953
 31
0.0
  0
LINE
  5
EB
330
22
100
AcDbEntity
  8
0
  6
Continuous
 62
     7
100
AcDbLine
 10
-203.0483093261719
 20
114.7027130126953
 30
0.0
 11
-211.0483093261719
 21
114.7027130126953
 31
0.0
  0
LINE
  5
EC
330
22
100
AcDbEntity
  8
0
  6
Continuous
 62
     7
100
AcDbLine
 10
-203.0483093261719
 20
113.7027130126953
 30
0.0
 11
-212.0483093261719
 21
113.7027130126953
 31
0.0
  0
LINE
  5
ED
330
22
100
AcDbEntity
  8
0
  6
Continuous
 62
     7
100
AcDbLine
 10
-203.0483093261719
 20
174.7027130126953
 30
0.0
 11
-203.0483093261719
 21
99.70271301269532
 31
0.0
  0
LINE
  5
EE
330
22
100
AcDbEntity
  8
0
  6
Continuous
 62
     7
100
AcDbLine
 10
-212.0483093261719
 20
113.7027130126953
 30
0.0
 11
-213.0483093261719
 21
113.7027130126953
 31
0.0
  0
LINE
  5
EF
330
22
100
AcDbEntity
  8
0
  6
Continuous
 62
     7
100
AcDbLine
 10
-213.0483093261719
 20
100.2027130126953
 30
0.0
 11
-213.0483093261719
 21
174.7027130126953
 31
0.0
  0
LINE
  5
F0
330
22
100
AcDbEntity
  8
0
  6
Continuous
 62
     7
100
AcDbLine
 10
-216.0483093261719
 20
100.2027130126953
 30
0.0
 11
-213.0483093261719
 21
100.2027130126953
 31
0.0
  0
LINE
  5
F1
330
22
100
AcDbEntity
  8
0
  6
Continuous
 62
     7
100
AcDbLine
 10
-221.3241577148438
 20
101.2104339599609
 30
0.0
 11
-224.3895263671875
 21
105.8998413085938
 31
0.0
  0
LINE
  5
F2
330
22
100
AcDbEntity
  8
0
  6
Continuous
 62
     7
100
AcDbLine
 10
-212.0483093261719
 20
113.7027130126953
 30
0.0
 11
-211.0483093261719
 21
114.7027130126953
 31
0.0
  0
LINE
  5
F3
330
22
100
AcDbEntity
  8
0
  6
Continuous
 62
     7
100
AcDbLine
 10
-218.7483062744141
 20
100.2027130126953
 30
0.0
 11
-219.5876617431641
 21
100.2027130126953
 31
0.0
  0
LINE
  5
F4
330
22
100
AcDbEntity
  8
0
  6
Continuous
 62
     7
100
AcDbLine
 10
-220.7483062744141
 20
102.4308013916016
 30
0.0
 11
-220.7483062744141
 21
174.7027130126953
 31
0.0
  0
LINE
  5
F5
330
22
100
AcDbEntity
  8
0
  6
Continuous
 62
     7
100
AcDbLine
 10
-211.0483093261719
 20
114.7027130126953
 30
0.0
 11
-211.0483093261719
 21
174.7027130126953
 31
0.0
  0
LINE
  5
F6
330
22
100
AcDbEntity
  8
0
  6
Continuous
 62
     7
100
AcDbLine
 10
-215.0483093261719
 20
226.2027130126953
 30
0.0
 11
-215.0483093261719
 21
174.7027130126953
 31
0.0
  0
LINE
  5
F7
330
22
100
AcDbEntity
  8
0
  6
Continuous
 62
     7
100
AcDbLine
 10
-222.0483093261719
 20
226.2027130126953
 30
0.0
 11
-222.0483093261719
 21
174.7027130126953
 31
0.0
  0
LINE
  5
F8
330
22
100
AcDbEntity
  8
0
  6
Continuous
 62
     7
100
AcDbLine
 10
-225.0483093261719
 20
241.0248870849609
 30
0.0
 11
-225.0483093261719
 21
108.3805389404297
 31
0.0
  0
LINE
  5
F9
330
22
100
AcDbEntity
  8
0
  6
Continuous
 62
     7
100
AcDbLine
 10
-176.6046295166016
 20
229.6533355712891
 30
0.0
 11
-176.6046295166016
 21
174.7027130126953
 31
0.0
  0
LINE
  5
FA
330
22
100
AcDbEntity
  8
0
  6
Continuous
 62
     7
100
AcDbLine
 10
-175.0483093261719
 20
231.2096557617188
 30
0.0
 11
-175.0483093261719
 21
174.7027130126953
 31
0.0
  0
LINE
  5
FB
330
22
100
AcDbEntity
  8
0
  6
Continuous
 62
     7
100
AcDbLine
 10
-175.0483093261719
 20
234.7027130126953
 30
0.0
 11
-175.0483093261719
 21
114.7027130126953
 31
0.0
  0
LINE
  5
FC
330
22
100
AcDbEntity
  8
0
  6
Continuous
 62
     7
100
AcDbLine
 10
-222.4533386230469
 20
240.7027130126953
 30
0.0
 11
-222.0483093261719
 21
240.2976837158203
 31
0.0
  0
LINE
  5
FD
330
22
100
AcDbEntity
  8
0
  6
Continuous
 62
     7
100
AcDbLine
 10
-223.1604461669922
 20
240.7027130126953
 30
0.0
 11
-222.0483093261719
 21
239.590576171875
 31
0.0
  0
LINE
  5
FE
330
22
100
AcDbEntity
  8
0
  6
Continuous
 62
     7
100
AcDbLine
 10
-225.0483093261719
 20
240.4692535400391
 30
0.0
 11
-222.0483093261719
 21
237.4692535400391
 31
0.0
  0
LINE
  5
FF
330
22
100
AcDbEntity
  8
0
  6
Continuous
 62
     7
100
AcDbLine
 10
-225.0483093261719
 20
239.7621459960938
 30
0.0
 11
-222.0483093261719
 21
236.7621459960938
 31
0.0
  0
LINE
  5
100
330
22
100
AcDbEntity
  8
0
  6
Continuous
 62
     7
100
AcDbLine
 10
-225.0483093261719
 20
237.6408386230469
 30
0.0
 11
-222.3601989746094
 21
234.9527130126953
 31
0.0
  0
LINE
  5
101
330
22
100
AcDbEntity
  8
0
  6
Continuous
 62
     7
100
AcDbLine
 10
-223.4326782226563
 20
230.3683471679689
 30
0.0
 11
-222.0483093261719
 21
228.9839782714844
 31
0.0
  0
LINE
  5
102
330
22
100
AcDbEntity
  8
0
  6
Continuous
 62
     7
100
AcDbLine
 10
-223.7862396240234
 20
230.0147857666016
 30
0.0
 11
-222.0483093261719
 21
228.2768707275391
 31
0.0
  0
LINE
  5
103
330
22
100
AcDbEntity
  8
0
  6
Continuous
 62
     7
100
AcDbLine
 10
-224.8468933105469
 20
228.9541320800781
 30
0.0
 11
-222.0483093261719
 21
226.1555480957031
 31
0.0
  0
LINE
  5
104
330
22
100
AcDbEntity
  8
0
  6
Continuous
 62
     7
100
AcDbLine
 10
-225.0483093261719
 20
228.4484405517578
 30
0.0
 11
-222.0483093261719
 21
225.4484405517578
 31
0.0
  0
LINE
  5
105
330
22
100
AcDbEntity
  8
0
  6
Continuous
 62
     7
100
AcDbLine
 10
-225.0483093261719
 20
226.3271179199219
 30
0.0
 11
-222.0483093261719
 21
223.3271179199219
 31
0.0
  0
LINE
  5
106
330
22
100
AcDbEntity
  8
0
  6
Continuous
 62
     7
100
AcDbLine
 10
-225.0483093261719
 20
225.6200103759766
 30
0.0
 11
-222.0483093261719
 21
222.6200103759766
 31
0.0
  0
LINE
  5
107
330
22
100
AcDbEntity
  8
0
  6
Continuous
 62
     7
100
AcDbLine
 10
-225.0483093261719
 20
223.4987030029297
 30
0.0
 11
-222.0483093261719
 21
220.4987030029297
 31
0.0
  0
LINE
  5
108
330
22
100
AcDbEntity
  8
0
  6
Continuous
 62
     7
100
AcDbLine
 10
-225.0483093261719
 20
222.7915954589844
 30
0.0
 11
-222.0483093261719
 21
219.7915954589844
 31
0.0
  0
LINE
  5
109
330
22
100
AcDbEntity
  8
0
  6
Continuous
 62
     7
100
AcDbLine
 10
-225.0483093261719
 20
220.6702728271484
 30
0.0
 11
-222.0483093261719
 21
217.6702728271484
 31
0.0
  0
LINE
  5
10A
330
22
100
AcDbEntity
  8
0
  6
Continuous
 62
     7
100
AcDbLine
 10
-225.0483093261719
 20
219.9631652832031
 30
0.0
 11
-222.0483093261719
 21
216.9631652832031
 31
0.0
  0
LINE
  5
10B
330
22
100
AcDbEntity
  8
0
  6
Continuous
 62
     7
100
AcDbLine
 10
-225.0483093261719
 20
217.8418426513672
 30
0.0
 11
-222.0483093261719
 21
214.8418426513672
 31
0.0
  0
LINE
  5
10C
330
22
100
AcDbEntity
  8
0
  6
Continuous
 62
     7
100
AcDbLine
 10
-225.0483093261719
 20
217.1347351074219
 30
0.0
 11
-222.0483093261719
 21
214.1347351074219
 31
0.0
  0
LINE
  5
10D
330
22
100
AcDbEntity
  8
0
  6
Continuous
 62
     7
100
AcDbLine
 10
-225.0483093261719
 20
215.0134124755859
 30
0.0
 11
-222.0483093261719
 21
212.0134124755859
 31
0.0
  0
LINE
  5
10E
330
22
100
AcDbEntity
  8
0
  6
Continuous
 62
     7
100
AcDbLine
 10
-225.0483093261719
 20
214.3063049316406
 30
0.0
 11
-222.0483093261719
 21
211.3063049316406
 31
0.0
  0
LINE
  5
10F
330
22
100
AcDbEntity
  8
0
  6
Continuous
 62
     7
100
AcDbLine
 10
-225.0483093261719
 20
212.1849822998047
 30
0.0
 11
-222.0483093261719
 21
209.1849822998047
 31
0.0
  0
LINE
  5
110
330
22
100
AcDbEntity
  8
0
  6
Continuous
 62
     7
100
AcDbLine
 10
-225.0483093261719
 20
211.4778747558594
 30
0.0
 11
-222.0483093261719
 21
208.4778747558594
 31
0.0
  0
LINE
  5
111
330
22
100
AcDbEntity
  8
0
  6
Continuous
 62
     7
100
AcDbLine
 10
-225.0483093261719
 20
209.3565673828125
 30
0.0
 11
-222.0483093261719
 21
206.3565673828125
 31
0.0
  0
LINE
  5
112
330
22
100
AcDbEntity
  8
0
  6
Continuous
 62
     7
100
AcDbLine
 10
-225.0483093261719
 20
208.6494598388672
 30
0.0
 11
-222.0483093261719
 21
205.6494598388672
 31
0.0
  0
LINE
  5
113
330
22
100
AcDbEntity
  8
0
  6
Continuous
 62
     7
100
AcDbLine
 10
-225.0483093261719
 20
206.5281372070313
 30
0.0
 11
-222.0483093261719
 21
203.5281372070314
 31
0.0
  0
LINE
  5
114
330
22
100
AcDbEntity
  8
0
  6
Continuous
 62
     7
100
AcDbLine
 10
-225.0483093261719
 20
205.8210296630859
 30
0.0
 11
-222.0483093261719
 21
202.8210296630859
 31
0.0
  0
LINE
  5
115
330
22
100
AcDbEntity
  8
0
  6
Continuous
 62
     7
100
AcDbLine
 10
-225.0483093261719
 20
203.69970703125
 30
0.0
 11
-222.0483093261719
 21
200.69970703125
 31
0.0
  0
LINE
  5
116
330
22
100
AcDbEntity
  8
0
  6
Continuous
 62
     7
100
AcDbLine
 10
-225.0483093261719
 20
202.9925994873047
 30
0.0
 11
-222.0483093261719
 21
199.9925994873047
 31
0.0
  0
LINE
  5
117
330
22
100
AcDbEntity
  8
0
  6
Continuous
 62
     7
100
AcDbLine
 10
-225.0483093261719
 20
200.8712768554688
 30
0.0
 11
-222.0483093261719
 21
197.8712768554688
 31
0.0
  0
LINE
  5
118
330
22
100
AcDbEntity
  8
0
  6
Continuous
 62
     7
100
AcDbLine
 10
-225.0483093261719
 20
200.1641693115234
 30
0.0
 11
-222.0483093261719
 21
197.1641693115234
 31
0.0
  0
LINE
  5
119
330
22
100
AcDbEntity
  8
0
  6
Continuous
 62
     7
100
AcDbLine
 10
-225.0483093261719
 20
198.0428466796875
 30
0.0
 11
-222.0483093261719
 21
195.0428466796875
 31
0.0
  0
LINE
  5
11A
330
22
100
AcDbEntity
  8
0
  6
Continuous
 62
     7
100
AcDbLine
 10
-225.0483093261719
 20
197.3357391357422
 30
0.0
 11
-222.0483093261719
 21
194.3357391357422
 31
0.0
  0
LINE
  5
11B
330
22
100
AcDbEntity
  8
0
  6
Continuous
 62
     7
100
AcDbLine
 10
-225.0483093261719
 20
195.2144317626953
 30
0.0
 11
-222.0483093261719
 21
192.2144317626953
 31
0.0
  0
LINE
  5
11C
330
22
100
AcDbEntity
  8
0
  6
Continuous
 62
     7
100
AcDbLine
 10
-225.0483093261719
 20
194.50732421875
 30
0.0
 11
-222.0483093261719
 21
191.50732421875
 31
0.0
  0
LINE
  5
11D
330
22
100
AcDbEntity
  8
0
  6
Continuous
 62
     7
100
AcDbLine
 10
-225.0483093261719
 20
192.3860015869141
 30
0.0
 11
-222.0483093261719
 21
189.3860015869141
 31
0.0
  0
LINE
  5
11E
330
22
100
AcDbEntity
  8
0
  6
Continuous
 62
     7
100
AcDbLine
 10
-225.0483093261719
 20
191.6788940429688
 30
0.0
 11
-222.0483093261719
 21
188.6788940429688
 31
0.0
  0
LINE
  5
11F
330
22
100
AcDbEntity
  8
0
  6
Continuous
 62
     7
100
AcDbLine
 10
-225.0483093261719
 20
189.5575714111328
 30
0.0
 11
-222.0483093261719
 21
186.5575714111328
 31
0.0
  0
LINE
  5
120
330
22
100
AcDbEntity
  8
0
  6
Continuous
 62
     7
100
AcDbLine
 10
-225.0483093261719
 20
188.8504638671875
 30
0.0
 11
-222.0483093261719
 21
185.8504638671875
 31
0.0
  0
LINE
  5
121
330
22
100
AcDbEntity
  8
0
  6
Continuous
 62
     7
100
AcDbLine
 10
-225.0483093261719
 20
186.7291412353516
 30
0.0
 11
-222.0483093261719
 21
183.7291412353516
 31
0.0
  0
LINE
  5
122
330
22
100
AcDbEntity
  8
0
  6
Continuous
 62
     7
100
AcDbLine
 10
-225.0483093261719
 20
186.0220336914063
 30
0.0
 11
-222.0483093261719
 21
183.0220336914063
 31
0.0
  0
LINE
  5
123
330
22
100
AcDbEntity
  8
0
  6
Continuous
 62
     7
100
AcDbLine
 10
-225.0483093261719
 20
183.9007110595703
 30
0.0
 11
-222.0483093261719
 21
180.9007110595703
 31
0.0
  0
LINE
  5
124
330
22
100
AcDbEntity
  8
0
  6
Continuous
 62
     7
100
AcDbLine
 10
-225.0483093261719
 20
183.193603515625
 30
0.0
 11
-222.0483093261719
 21
180.193603515625
 31
0.0
  0
LINE
  5
125
330
22
100
AcDbEntity
  8
0
  6
Continuous
 62
     7
100
AcDbLine
 10
-225.0483093261719
 20
181.0722961425781
 30
0.0
 11
-222.0483093261719
 21
178.0722961425781
 31
0.0
  0
LINE
  5
126
330
22
100
AcDbEntity
  8
0
  6
Continuous
 62
     7
100
AcDbLine
 10
-225.0483093261719
 20
180.3651885986328
 30
0.0
 11
-222.0483093261719
 21
177.3651885986328
 31
0.0
  0
LINE
  5
127
330
22
100
AcDbEntity
  8
0
  6
Continuous
 62
     7
100
AcDbLine
 10
-225.0483093261719
 20
178.2438659667969
 30
0.0
 11
-222.0483093261719
 21
175.2438659667969
 31
0.0
  0
LINE
  5
128
330
22
100
AcDbEntity
  8
0
  6
Continuous
 62
     7
100
AcDbLine
 10
-225.0483093261719
 20
177.5367584228516
 30
0.0
 11
-222.2142639160156
 21
174.7027130126953
 31
0.0
  0
LINE
  5
129
330
22
100
AcDbEntity
  8
0
  6
Continuous
 62
     7
100
AcDbLine
 10
-225.0483093261719
 20
175.4154357910156
 30
0.0
 11
-224.3355865478516
 21
174.7027130126953
 31
0.0
  0
LINE
  5
12A
330
22
100
AcDbEntity
  8
0
  6
Continuous
 62
     7
100
AcDbLine
 10
-225.0483093261719
 20
174.7083282470703
 30
0.0
 11
-225.0426940917969
 21
174.7027130126953
 31
0.0
  0
LINE
  5
12B
330
22
100
AcDbEntity
  8
0
  6
Continuous
 62
     7
100
AcDbLine
 10
-199.6623687744141
 20
228.9327545166016
 30
0.0
 11
-199.6623687744141
 21
174.7027130126953
 31
0.0
  0
LINE
  5
12C
330
22
100
AcDbEntity
  8
0
  6
Continuous
 62
     7
100
AcDbLine
 10
-201.0483093261719
 20
230.3971252441406
 30
0.0
 11
-201.0483093261719
 21
174.7027130126953
 31
0.0
  0
LINE
  5
12D
330
22
100
AcDbEntity
  8
0
  6
Continuous
 62
     7
100
AcDbLine
 10
-363.6483154296875
 20
193.2777099609375
 30
0.0
 11
-363.6483154296875
 21
214.8777008056641
 31
0.0
  0
LINE
  5
12E
330
22
100
AcDbEntity
  8
0
  6
Continuous
 62
     7
100
AcDbLine
 10
-338.4135131835938
 20
235.6686706542969
 30
0.0
 11
-335.4848937988281
 21
234.8659820556641
 31
0.0
  0
LINE
  5
12F
330
22
100
AcDbEntity
  8
0
  6
Continuous
 62
     7
100
AcDbLine
 10
-338.5771179199219
 20
235.2854309082031
 30
0.0
 11
-338.74072265625
 21
234.9021911621094
 31
0.0
  0
LINE
  5
130
330
22
100
AcDbEntity
  8
0
  6
Continuous
 62
     7
100
AcDbLine
 10
-338.74072265625
 20
234.9021911621094
 30
0.0
 11
-336.1353454589844
 21
233.3423461914063
 31
0.0
  0
LINE
  5
131
330
22
100
AcDbEntity
  8
0
  6
Continuous
 62
     7
100
AcDbLine
 10
-338.5771179199219
 20
235.2854309082031
 30
0.0
 11
-338.4135131835938
 21
235.6686706542969
 31
0.0
  0
LINE
  5
132
330
22
100
AcDbEntity
  8
0
  6
Continuous
 62
     7
100
AcDbLine
 10
-348.8482971191406
 20
195.5960388183594
 30
0.0
 11
-348.8482971191406
 21
221.196044921875
 31
0.0
  0
LINE
  5
133
330
22
100
AcDbEntity
  8
0
  6
Continuous
 62
     7
100
AcDbLine
 10
-343.4483032226563
 20
195.5960388183594
 30
0.0
 11
-343.4483032226563
 21
221.196044921875
 31
0.0
  0
LINE
  5
134
330
22
100
AcDbEntity
  8
0
  6
Continuous
 62
     7
100
AcDbLine
 10
-326.6483154296875
 20
195.5960388183594
 30
0.0
 11
-326.6483154296875
 21
221.196044921875
 31
0.0
  0
LINE
  5
135
330
22
100
AcDbEntity
  8
0
  6
Continuous
 62
     7
100
AcDbLine
 10
-321.2483215332031
 20
195.5960388183594
 30
0.0
 11
-321.2483215332031
 21
221.196044921875
 31
0.0
  0
LINE
  5
136
330
22
100
AcDbEntity
  8
0
  6
Continuous
 62
     7
100
AcDbLine
 10
-331.5195007324219
 20
232.2724456787109
 30
0.0
 11
-331.3558959960938
 21
232.6556854248047
 31
0.0
  0
LINE
  5
137
330
22
100
AcDbEntity
  8
0
  6
Continuous
 62
     7
100
AcDbLine
 10
-331.5195007324219
 20
232.2724456787109
 30
0.0
 11
-331.68310546875
 21
231.8892059326172
 31
0.0
  0
LINE
  5
138
330
22
100
AcDbEntity
  8
0
  6
Continuous
 62
     7
100
AcDbLine
 10
-331.68310546875
 20
231.8892059326172
 30
0.0
 11
-334.6117248535156
 21
232.69189453125
 31
0.0
  0
LINE
  5
139
330
22
100
AcDbEntity
  8
0
  6
Continuous
 62
     7
100
AcDbLine
 10
-331.3558959960938
 20
232.6556854248047
 30
0.0
 11
-333.9612731933594
 21
234.2155303955078
 31
0.0
  0
LINE
  5
13A
330
22
100
AcDbEntity
  8
0
  6
Continuous
 62
     7
100
AcDbLine
 10
-336.9288635253906
 20
230.4344482421875
 30
0.0
 11
-336.5458984375
 21
230.2709655761719
 31
0.0
  0
LINE
  5
13B
330
22
100
AcDbEntity
  8
0
  6
Continuous
 62
     7
100
AcDbLine
 10
-336.1629638671875
 20
230.1074829101563
 30
0.0
 11
-334.6117248535156
 21
232.69189453125
 31
0.0
  0
LINE
  5
13C
330
22
100
AcDbEntity
  8
0
  6
Continuous
 62
     7
100
AcDbLine
 10
-333.1677551269531
 20
237.1234130859375
 30
0.0
 11
-333.5507202148438
 21
237.2869110107422
 31
0.0
  0
LINE
  5
13D
330
22
100
AcDbEntity
  8
0
  6
Continuous
 62
     7
100
AcDbLine
 10
-336.9288635253906
 20
230.4344482421875
 30
0.0
 11
-336.1353454589844
 21
233.3423461914063
 31
0.0
  0
LINE
  5
13E
330
22
100
AcDbEntity
  8
0
  6
Continuous
 62
     7
100
AcDbLine
 10
-291.6483154296875
 20
199.7696228027344
 30
0.0
 11
-291.6483154296875
 21
188.1696166992188
 31
0.0
  0
LINE
  5
13F
330
22
100
AcDbEntity
  8
0
  6
Continuous
 62
     7
100
AcDbLine
 10
-373.0483093261719
 20
199.7696228027344
 30
0.0
 11
-373.0483093261719
 21
188.1696166992188
 31
0.0
  0
LINE
  5
140
330
22
100
AcDbEntity
  8
0
  6
Continuous
 62
     7
100
AcDbLine
 10
-297.0483093261719
 20
199.7696228027344
 30
0.0
 11
-297.0483093261719
 21
188.1696166992188
 31
0.0
  0
LINE
  5
141
330
22
100
AcDbEntity
  8
0
  6
Continuous
 62
     7
100
AcDbLine
 10
-311.8482971191406
 20
193.2777099609375
 30
0.0
 11
-311.8482971191406
 21
214.8777008056641
 31
0.0
  0
LINE
  5
142
330
22
100
AcDbEntity
  8
0
  6
Continuous
 62
     7
100
AcDbLine
 10
-306.4483032226563
 20
193.2777099609375
 30
0.0
 11
-306.4483032226563
 21
214.8777008056641
 31
0.0
  0
LINE
  5
143
330
22
100
AcDbEntity
  8
0
  6
Continuous
 62
     7
100
AcDbLine
 10
-358.2483215332031
 20
193.2777099609375
 30
0.0
 11
-358.2483215332031
 21
214.8777008056641
 31
0.0
  0
LINE
  5
144
330
22
100
AcDbEntity
  8
0
  6
Continuous
 62
     7
100
AcDbLine
 10
-378.4483032226563
 20
199.7696228027344
 30
0.0
 11
-378.4483032226563
 21
188.1696166992188
 31
0.0
  0
LINE
  5
145
330
22
100
AcDbEntity
  8
0
  6
Continuous
 62
     7
100
AcDbLine
 10
-385.7502746582031
 20
141.3554229736328
 30
0.0
 11
-385.3365478515625
 21
141.4053497314453
 31
0.0
  0
LINE
  5
146
330
22
100
AcDbEntity
  8
0
  6
Continuous
 62
     7
100
AcDbLine
 10
-386.2560424804688
 20
149.02392578125
 30
0.0
 11
-385.4868774414063
 21
146.0863342285156
 31
0.0
  0
LINE
  5
147
330
22
100
AcDbEntity
  8
0
  6
Continuous
 62
     7
100
AcDbLine
 10
-382.3733215332031
 20
145.2083587646484
 30
0.0
 11
-382.4232177734375
 21
145.6217346191406
 31
0.0
  0
LINE
  5
148
330
22
100
AcDbEntity
  8
0
  6
Continuous
 62
     7
100
AcDbLine
 10
-358.2483215332031
 20
156.1277160644531
 30
0.0
 11
-358.2483215332031
 21
134.5277252197266
 31
0.0
  0
LINE
  5
149
330
22
100
AcDbEntity
  8
0
  6
Continuous
 62
     7
100
AcDbLine
 10
-343.4483032226563
 20
153.8093872070313
 30
0.0
 11
-343.4483032226563
 21
128.2093811035156
 31
0.0
  0
LINE
  5
14A
330
22
100
AcDbEntity
  8
0
  6
Continuous
 62
     7
100
AcDbLine
 10
-341.4483032226563
 20
168.6542358398438
 30
0.0
 11
-341.4483032226563
 21
127.0542297363281
 31
0.0
  0
LINE
  5
14B
330
22
100
AcDbEntity
  8
0
  6
CENTER
 62
     7
100
AcDbLine
 10
-411.3255004882812
 20
174.7027130126953
 30
0.0
 11
-254.8629608154297
 21
174.7027130126953
 31
0.0
  0
LINE
  5
14C
330
22
100
AcDbEntity
  8
0
  6
Continuous
 62
     7
100
AcDbLine
 10
-336.1629638671875
 20
230.1074829101563
 30
0.0
 11
-336.5458984375
 21
230.2709655761719
 31
0.0
  0
LINE
  5
14D
330
22
100
AcDbEntity
  8
0
  6
Continuous
 62
     7
100
AcDbLine
 10
-333.1677551269531
 20
237.1234130859375
 30
0.0
 11
-333.9612731933594
 21
234.2155303955078
 31
0.0
  0
LINE
  5
14E
330
22
100
AcDbEntity
  8
0
  6
Continuous
 62
     7
100
AcDbLine
 10
-333.9336547851563
 20
237.4503936767578
 30
0.0
 11
-335.4848937988281
 21
234.8659820556641
 31
0.0
  0
LINE
  5
14F
330
22
100
AcDbEntity
  8
0
  6
Continuous
 62
     7
100
AcDbLine
 10
-333.9336547851563
 20
237.4503936767578
 30
0.0
 11
-333.5507202148438
 21
237.2869110107422
 31
0.0
  0
LINE
  5
150
330
22
100
AcDbEntity
  8
0
  6
Continuous
 62
     7
100
AcDbLine
 10
-386.6697387695313
 20
148.9739990234375
 30
0.0
 11
-386.2560424804688
 21
149.02392578125
 31
0.0
  0
LINE
  5
151
330
22
100
AcDbEntity
  8
0
  6
Continuous
 62
     7
100
AcDbLine
 10
-385.7502746582031
 20
141.3554229736328
 30
0.0
 11
-386.1639709472656
 21
141.3054962158203
 31
0.0
  0
LINE
  5
152
330
22
100
AcDbEntity
  8
0
  6
Continuous
 62
     7
100
AcDbLine
 10
-326.6483154296875
 20
153.8093872070313
 30
0.0
 11
-326.6483154296875
 21
128.2093811035156
 31
0.0
  0
LINE
  5
153
330
22
100
AcDbEntity
  8
0
  6
Continuous
 62
     7
100
AcDbLine
 10
-328.6483154296875
 20
168.6542358398438
 30
0.0
 11
-328.6483154296875
 21
127.0542297363281
 31
0.0
  0
LINE
  5
154
330
22
100
AcDbEntity
  8
0
  6
Continuous
 62
     7
100
AcDbLine
 10
-350.8482971191406
 20
170.2435913085938
 30
0.0
 11
-350.8483581542969
 21
130.6436004638672
 31
0.0
  0
LINE
  5
155
330
22
100
AcDbEntity
  8
0
  6
Continuous
 62
     7
100
AcDbLine
 10
-348.8482971191406
 20
153.8093872070313
 30
0.0
 11
-348.8482971191406
 21
128.2093811035156
 31
0.0
  0
LINE
  5
156
330
22
100
AcDbEntity
  8
0
  6
Continuous
 62
     7
100
AcDbLine
 10
-365.6483154296875
 20
140.4105834960938
 30
0.0
 11
-365.6483154296875
 21
170.5105895996094
 31
0.0
  0
LINE
  5
157
330
22
100
AcDbEntity
  8
0
  6
Continuous
 62
     7
100
AcDbLine
 10
-356.2483215332031
 20
170.2435913085938
 30
0.0
 11
-356.2483215332031
 21
130.6436004638672
 31
0.0
  0
LINE
  5
158
330
22
100
AcDbEntity
  8
0
  6
Continuous
 62
     7
100
AcDbLine
 10
-363.6483154296875
 20
156.1277160644531
 30
0.0
 11
-363.6483154296875
 21
134.5277252197266
 31
0.0
  0
LINE
  5
159
330
22
100
AcDbEntity
  8
0
  6
Continuous
 62
     7
100
AcDbLine
 10
-390.0466918945313
 20
145.1210632324219
 30
0.0
 11
-389.9967956542969
 21
144.7076721191406
 31
0.0
  0
LINE
  5
15A
330
22
100
AcDbEntity
  8
0
  6
Continuous
 62
     7
100
AcDbLine
 10
-389.9468994140625
 20
144.2942962646484
 30
0.0
 11
-386.9331359863281
 21
144.2430877685547
 31
0.0
  0
LINE
  5
15B
330
22
100
AcDbEntity
  8
0
  6
Continuous
 62
     7
100
AcDbLine
 10
-386.6697387695313
 20
148.9739990234375
 30
0.0
 11
-387.0834350585938
 21
148.9240570068359
 31
0.0
  0
LINE
  5
15C
330
22
100
AcDbEntity
  8
0
  6
Continuous
 62
     7
100
AcDbLine
 10
-387.0834350585938
 20
148.9240570068359
 30
0.0
 11
-387.1316223144532
 21
145.8878173828125
 31
0.0
  0
LINE
  5
15D
330
22
100
AcDbEntity
  8
0
  6
Continuous
 62
     7
100
AcDbLine
 10
-389.9468994140625
 20
144.2942962646484
 30
0.0
 11
-389.9967956542969
 21
144.7076721191406
 31
0.0
  0
LINE
  5
15E
330
22
100
AcDbEntity
  8
0
  6
Continuous
 62
     7
100
AcDbLine
 10
-390.0466918945313
 20
145.1210632324219
 30
0.0
 11
-387.1316223144532
 21
145.8878173828125
 31
0.0
  0
LINE
  5
15F
330
22
100
AcDbEntity
  8
0
  6
Continuous
 62
     7
100
AcDbLine
 10
-378.4483032226563
 20
149.6358032226563
 30
0.0
 11
-378.4483032226563
 21
161.2358093261719
 31
0.0
  0
LINE
  5
160
330
22
100
AcDbEntity
  8
0
  6
Continuous
 62
     7
100
AcDbLine
 10
-382.4731140136719
 20
146.0351257324219
 30
0.0
 11
-382.4232177734375
 21
145.6217346191406
 31
0.0
  0
LINE
  5
161
330
22
100
AcDbEntity
  8
0
  6
Continuous
 62
     7
100
AcDbLine
 10
-385.3365478515625
 20
141.4053497314453
 30
0.0
 11
-385.2883911132813
 21
144.4415893554688
 31
0.0
  0
LINE
  5
162
330
22
100
AcDbEntity
  8
0
  6
Continuous
 62
     7
100
AcDbLine
 10
-281.0680236816406
 20
147.8005981445313
 30
0.0
 11
-283.7215576171875
 21
146.3242034912109
 31
0.0
  0
LINE
  5
163
330
22
100
AcDbEntity
  8
0
  6
Continuous
 62
     7
100
AcDbLine
 10
-280.5678405761719
 20
147.1339874267578
 30
0.0
 11
-282.727294921875
 21
144.9990692138672
 31
0.0
  0
LINE
  5
164
330
22
100
AcDbEntity
  8
0
  6
Continuous
 62
     7
100
AcDbLine
 10
-281.2647399902344
 20
142.3634643554688
 30
0.0
 11
-282.727294921875
 21
144.9990692138672
 31
0.0
  0
LINE
  5
165
330
22
100
AcDbEntity
  8
0
  6
Continuous
 62
     7
100
AcDbLine
 10
-280.8179321289063
 20
147.46728515625
 30
0.0
 11
-280.5678405761719
 21
147.1339874267578
 31
0.0
  0
LINE
  5
166
330
22
100
AcDbEntity
  8
0
  6
Continuous
 62
     7
100
AcDbLine
 10
-311.8482971191406
 20
156.1277160644531
 30
0.0
 11
-311.8482971191406
 21
134.5277252197266
 31
0.0
  0
LINE
  5
167
330
22
100
AcDbEntity
  8
0
  6
Continuous
 62
     7
100
AcDbLine
 10
-297.0483093261719
 20
149.6358032226563
 30
0.0
 11
-297.0483093261719
 21
161.2358093261719
 31
0.0
  0
LINE
  5
168
330
22
100
AcDbEntity
  8
0
  6
Continuous
 62
     7
100
AcDbLine
 10
-299.0483093261719
 20
140.4105834960938
 30
0.0
 11
-299.0483093261719
 21
170.5105895996094
 31
0.0
  0
LINE
  5
169
330
22
100
AcDbEntity
  8
0
  6
Continuous
 62
     7
100
AcDbLine
 10
-373.0483093261719
 20
149.6358032226563
 30
0.0
 11
-373.0483093261719
 21
161.2358093261719
 31
0.0
  0
LINE
  5
16A
330
22
100
AcDbEntity
  8
0
  6
Continuous
 62
     7
100
AcDbLine
 10
-371.0483093261719
 20
140.4105834960938
 30
0.0
 11
-371.0483093261719
 21
170.5105895996094
 31
0.0
  0
LINE
  5
16B
330
22
100
AcDbEntity
  8
0
  6
Continuous
 62
     7
100
AcDbLine
 10
-313.8482971191406
 20
170.2435913085938
 30
0.0
 11
-313.8482971191406
 21
130.6436004638672
 31
0.0
  0
LINE
  5
16C
330
22
100
AcDbEntity
  8
0
  6
Continuous
 62
     7
100
AcDbLine
 10
-306.4483032226563
 20
156.1277160644531
 30
0.0
 11
-306.4483032226563
 21
134.5277252197266
 31
0.0
  0
LINE
  5
16D
330
22
100
AcDbEntity
  8
0
  6
Continuous
 62
     7
100
AcDbLine
 10
-336.0483093261719
 20
168.6542358398438
 30
0.0
 11
-336.0483093261719
 21
127.0461273193359
 31
0.0
  0
LINE
  5
16E
330
22
100
AcDbEntity
  8
0
  6
Continuous
 62
     7
100
AcDbLine
 10
-334.0483093261719
 20
168.6542358398438
 30
0.0
 11
-334.0483093261719
 21
127.0461273193359
 31
0.0
  0
LINE
  5
16F
330
22
100
AcDbEntity
  8
0
  6
Continuous
 62
     7
100
AcDbLine
 10
-291.6483154296875
 20
149.6358032226563
 30
0.0
 11
-291.6483154296875
 21
161.2358093261719
 31
0.0
  0
LINE
  5
170
330
22
100
AcDbEntity
  8
0
  6
Continuous
 62
     7
100
AcDbLine
 10
-382.3733215332031
 20
145.2083587646484
 30
0.0
 11
-385.2883911132813
 21
144.4415893554688
 31
0.0
  0
LINE
  5
171
330
22
100
AcDbEntity
  8
0
  6
Continuous
 62
     7
100
AcDbLine
 10
-382.4731140136719
 20
146.0351257324219
 30
0.0
 11
-385.4868774414063
 21
146.0863342285156
 31
0.0
  0
LINE
  5
172
330
22
100
AcDbEntity
  8
0
  6
Continuous
 62
     7
100
AcDbLine
 10
-386.1639709472656
 20
141.3054962158203
 30
0.0
 11
-386.9331359863281
 21
144.2430877685547
 31
0.0
  0
LINE
  5
173
330
22
100
AcDbEntity
  8
0
  6
Continuous
 62
     7
100
AcDbLine
 10
-281.9308471679688
 20
141.8636627197266
 30
0.0
 11
-284.0524291992188
 21
144.0047912597656
 31
0.0
  0
LINE
  5
174
330
22
100
AcDbEntity
  8
0
  6
Continuous
 62
     7
100
AcDbLine
 10
-281.9308471679688
 20
141.8636627197266
 30
0.0
 11
-281.5978088378906
 21
142.1135559082031
 31
0.0
  0
LINE
  5
175
330
22
100
AcDbEntity
  8
0
  6
Continuous
 62
     7
100
AcDbLine
 10
-281.2647399902344
 20
142.3634643554688
 30
0.0
 11
-281.5978088378906
 21
142.1135559082031
 31
0.0
  0
LINE
  5
176
330
22
100
AcDbEntity
  8
0
  6
Continuous
 62
     7
100
AcDbLine
 10
-319.2483215332031
 20
170.2435913085938
 30
0.0
 11
-319.2482604980469
 21
130.6436004638672
 31
0.0
  0
LINE
  5
177
330
22
100
AcDbEntity
  8
0
  6
Continuous
 62
     7
100
AcDbLine
 10
-321.2483215332031
 20
153.8093872070313
 30
0.0
 11
-321.2483215332031
 21
128.2093811035156
 31
0.0
  0
LINE
  5
178
330
22
100
AcDbEntity
  8
0
  6
Continuous
 62
     7
100
AcDbLine
 10
-304.4483032226563
 20
140.4105834960938
 30
0.0
 11
-304.4483032226563
 21
170.5105895996094
 31
0.0
  0
LINE
  5
179
330
22
100
AcDbEntity
  8
0
  6
Continuous
 62
     7
100
AcDbLine
 10
-287.2061462402344
 20
143.1950073242188
 30
0.0
 11
-285.0466918945313
 21
145.3299255371094
 31
0.0
  0
LINE
  5
17A
330
22
100
AcDbEntity
  8
0
  6
Continuous
 62
     7
100
AcDbLine
 10
-285.8431396484375
 20
148.46533203125
 30
0.0
 11
-286.1761779785156
 21
148.2154388427734
 31
0.0
  0
LINE
  5
17B
330
22
100
AcDbEntity
  8
0
  6
Continuous
 62
     7
100
AcDbLine
 10
-285.8431396484375
 20
148.46533203125
 30
0.0
 11
-283.7215576171875
 21
146.3242034912109
 31
0.0
  0
LINE
  5
17C
330
22
100
AcDbEntity
  8
0
  6
Continuous
 62
     7
100
AcDbLine
 10
-286.5092468261719
 20
147.9655303955078
 30
0.0
 11
-285.0466918945313
 21
145.3299255371094
 31
0.0
  0
LINE
  5
17D
330
22
100
AcDbEntity
  8
0
  6
Continuous
 62
     7
100
AcDbLine
 10
-286.9560546875
 20
142.8616943359375
 30
0.0
 11
-287.2061462402344
 21
143.1950073242188
 31
0.0
  0
LINE
  5
17E
330
22
100
AcDbEntity
  8
0
  6
Continuous
 62
     7
100
AcDbLine
 10
-286.9560546875
 20
142.8616943359375
 30
0.0
 11
-286.7059631347656
 21
142.5283966064453
 31
0.0
  0
LINE
  5
17F
330
22
100
AcDbEntity
  8
0
  6
Continuous
 62
     7
100
AcDbLine
 10
-286.5092468261719
 20
147.9655303955078
 30
0.0
 11
-286.1761779785156
 21
148.2154388427734
 31
0.0
  0
LINE
  5
180
330
22
100
AcDbEntity
  8
0
  6
Continuous
 62
     7
100
AcDbLine
 10
-286.7059631347656
 20
142.5283966064453
 30
0.0
 11
-284.0524291992188
 21
144.0047912597656
 31
0.0
  0
LINE
  5
181
330
22
100
AcDbEntity
  8
0
  6
Continuous
 62
     7
100
AcDbLine
 10
-280.8179321289063
 20
147.46728515625
 30
0.0
 11
-281.0680236816406
 21
147.8005981445313
 31
0.0
  0
LINE
  5
182
330
22
100
AcDbEntity
  8
0
  6
Continuous
 62
     7
100
AcDbLine
 10
-380.4483032226563
 20
157.4606170654297
 30
0.0
 11
-380.4483032226563
 21
191.9448089599609
 31
0.0
  0
LINE
  5
183
330
22
100
AcDbEntity
  8
0
  6
Continuous
 62
     7
100
AcDbLine
 10
-356.2483215332031
 20
179.1618347167969
 30
0.0
 11
-356.2483215332031
 21
218.7618255615234
 31
0.0
  0
LINE
  5
184
330
22
100
AcDbEntity
  8
0
  6
Continuous
 62
     7
100
AcDbLine
 10
-350.8482971191406
 20
179.1618347167969
 30
0.0
 11
-350.8483581542969
 21
218.7618255615234
 31
0.0
  0
LINE
  5
185
330
22
100
AcDbEntity
  8
0
  6
Continuous
 62
     7
100
AcDbLine
 10
-371.0483093261719
 20
208.9948425292969
 30
0.0
 11
-371.0483093261719
 21
178.8948364257813
 31
0.0
  0
LINE
  5
186
330
22
100
AcDbEntity
  8
0
  6
Continuous
 62
     7
100
AcDbLine
 10
-365.6483154296875
 20
208.9948425292969
 30
0.0
 11
-365.6483154296875
 21
178.8948364257813
 31
0.0
  0
LINE
  5
187
330
22
100
AcDbEntity
  8
0
  6
Continuous
 62
     7
100
AcDbLine
 10
-343.4483032226563
 20
187.5027160644531
 30
0.0
 11
-343.4483032226563
 21
161.9027099609375
 31
0.0
  0
LINE
  5
188
330
22
100
AcDbEntity
  8
0
  6
Continuous
 62
     7
100
AcDbLine
 10
-328.6483154296875
 20
180.7511901855469
 30
0.0
 11
-328.6483154296875
 21
222.3511962890625
 31
0.0
  0
LINE
  5
189
330
22
100
AcDbEntity
  8
0
  6
CENTER
 62
     7
100
AcDbLine
 10
-335.0483093261719
 20
256.4208374023438
 30
0.0
 11
-335.0483093261719
 21
90.85045623779295
 31
0.0
  0
LINE
  5
18A
330
22
100
AcDbEntity
  8
0
  6
Continuous
 62
     7
100
AcDbLine
 10
-334.0483093261719
 20
180.7511901855469
 30
0.0
 11
-334.0483093261719
 21
222.3592987060547
 31
0.0
  0
LINE
  5
18B
330
22
100
AcDbEntity
  8
0
  6
Continuous
 62
     7
100
AcDbLine
 10
-336.0483093261719
 20
180.7511901855469
 30
0.0
 11
-336.0483093261719
 21
222.3592987060547
 31
0.0
  0
LINE
  5
18C
330
22
100
AcDbEntity
  8
0
  6
Continuous
 62
     7
100
AcDbLine
 10
-341.4483032226563
 20
180.7511901855469
 30
0.0
 11
-341.4483032226563
 21
222.3511962890625
 31
0.0
  0
LINE
  5
18D
330
22
100
AcDbEntity
  8
0
  6
Continuous
 62
     7
100
AcDbLine
 10
-297.0483093261719
 20
180.5027160644531
 30
0.0
 11
-297.0483093261719
 21
168.9027099609375
 31
0.0
  0
LINE
  5
18E
330
22
100
AcDbEntity
  8
0
  6
Continuous
 62
     7
100
AcDbLine
 10
-311.8482971191406
 20
185.5027160644531
 30
0.0
 11
-311.8482971191406
 21
163.9027099609375
 31
0.0
  0
LINE
  5
18F
330
22
100
AcDbEntity
  8
0
  6
Continuous
 62
     7
100
AcDbLine
 10
-289.6483154296875
 20
157.4606170654297
 30
0.0
 11
-289.6483154296875
 21
191.9448089599609
 31
0.0
  0
LINE
  5
190
330
22
100
AcDbEntity
  8
0
  6
Continuous
 62
     7
100
AcDbLine
 10
-373.0483093261719
 20
180.5027160644531
 30
0.0
 11
-373.0483093261719
 21
168.9027099609375
 31
0.0
  0
LINE
  5
191
330
22
100
AcDbEntity
  8
0
  6
Continuous
 62
     7
100
AcDbLine
 10
-306.4483032226563
 20
185.5027160644531
 30
0.0
 11
-306.4483032226563
 21
163.9027099609375
 31
0.0
  0
LINE
  5
192
330
22
100
AcDbEntity
  8
0
  6
Continuous
 62
     7
100
AcDbLine
 10
-321.2483215332031
 20
187.5027160644531
 30
0.0
 11
-321.2483215332031
 21
161.9027099609375
 31
0.0
  0
LINE
  5
193
330
22
100
AcDbEntity
  8
0
  6
Continuous
 62
     7
100
AcDbLine
 10
-291.6483154296875
 20
180.5027160644531
 30
0.0
 11
-291.6483154296875
 21
168.9027099609375
 31
0.0
  0
LINE
  5
194
330
22
100
AcDbEntity
  8
0
  6
Continuous
 62
     7
100
AcDbLine
 10
-326.6483154296875
 20
187.5027160644531
 30
0.0
 11
-326.6483154296875
 21
161.9027099609375
 31
0.0
  0
LINE
  5
195
330
22
100
AcDbEntity
  8
0
  6
Continuous
 62
     7
100
AcDbLine
 10
-313.8482971191406
 20
179.1618347167969
 30
0.0
 11
-313.8482971191406
 21
218.7618255615234
 31
0.0
  0
LINE
  5
196
330
22
100
AcDbEntity
  8
0
  6
Continuous
 62
     7
100
AcDbLine
 10
-299.0483093261719
 20
208.9948425292969
 30
0.0
 11
-299.0483093261719
 21
178.8948364257813
 31
0.0
  0
LINE
  5
197
330
22
100
AcDbEntity
  8
0
  6
Continuous
 62
     7
100
AcDbLine
 10
-304.4483032226563
 20
208.9948425292969
 30
0.0
 11
-304.4483032226563
 21
178.8948364257813
 31
0.0
  0
LINE
  5
198
330
22
100
AcDbEntity
  8
0
  6
Continuous
 62
     7
100
AcDbLine
 10
-319.2483215332031
 20
179.1618347167969
 30
0.0
 11
-319.2482604980469
 21
218.7618255615234
 31
0.0
  0
LINE
  5
199
330
22
100
AcDbEntity
  8
0
  6
Continuous
 62
     7
100
AcDbLine
 10
-348.8482971191406
 20
187.5027160644531
 30
0.0
 11
-348.8482971191406
 21
161.9027099609375
 31
0.0
  0
LINE
  5
19A
330
22
100
AcDbEntity
  8
0
  6
Continuous
 62
     7
100
AcDbLine
 10
-358.2483215332031
 20
185.5027160644531
 30
0.0
 11
-358.2483215332031
 21
163.9027099609375
 31
0.0
  0
LINE
  5
19B
330
22
100
AcDbEntity
  8
0
  6
Continuous
 62
     7
100
AcDbLine
 10
-363.6483154296875
 20
185.5027160644531
 30
0.0
 11
-363.6483154296875
 21
163.9027099609375
 31
0.0
  0
LINE
  5
19C
330
22
100
AcDbEntity
  8
0
  6
Continuous
 62
     7
100
AcDbLine
 10
-378.4483032226563
 20
180.5027160644531
 30
0.0
 11
-378.4483032226563
 21
168.9027099609375
 31
0.0
  0
ARC
  5
19D
330
22
100
AcDbEntity
  8
0
  6
Continuous
 62
     7
100
AcDbCircle
 10
-215.5483093261719
 20
226.2027130126953
 30
0.0
 40
0.5
100
AcDbArc
 50
270.0000000000005
 51
0.0
  0
ARC
  5
19E
330
22
100
AcDbEntity
  8
0
  6
Continuous
 62
     7
100
AcDbCircle
 10
-221.5483093261719
 20
226.2027130126953
 30
0.0
 40
0.5
100
AcDbArc
 50
180.0000000000004
 51
270.0000000000005
  0
ARC
  5
19F
330
22
100
AcDbEntity
  8
0
  6
Continuous
 62
     7
100
AcDbCircle
 10
-219.5876617431641
 20
247.2027130126953
 30
0.0
 40
2.0
100
AcDbArc
 50
90.00000000000019
 51
150.2552271416998
  0
ARC
  5
1A0
330
22
100
AcDbEntity
  8
0
  6
Continuous
 62
     7
100
AcDbCircle
 10
-239.8860015869141
 20
232.1565551757813
 30
0.0
 40
54.84513473510742
100
AcDbArc
 50
3.707197556728705
 51
14.83912104142565
  0
ARC
  5
1A1
330
22
100
AcDbEntity
  8
0
  6
Continuous
 62
     7
100
AcDbCircle
 10
-220.0483093261719
 20
241.0248870849609
 30
0.0
 40
5.0
100
AcDbArc
 50
150.2550970152432
 51
180.0000000000004
  0
ARC
  5
1A2
330
22
100
AcDbEntity
  8
0
  6
Continuous
 62
     7
100
AcDbCircle
 10
-214.5483093261719
 20
229.2027130126953
 30
0.0
 40
0.5
100
AcDbArc
 50
90.00000000000019
 51
180.0000000000004
  0
ARC
  5
1A3
330
22
100
AcDbEntity
  8
0
  6
Continuous
 62
     7
100
AcDbCircle
 10
-239.8860015869141
 20
117.2488784790039
 30
0.0
 40
54.84513473510742
100
AcDbArc
 50
0.9437659359883394
 51
14.83912874590534
  0
ARC
  5
1A4
330
22
100
AcDbEntity
  8
0
  6
Continuous
 62
     7
100
AcDbCircle
 10
-239.8860626220703
 20
117.2488708496094
 30
0.0
 40
54.8451919555664
100
AcDbArc
 50
0.9373799729948258
 51
0.9437728549631014
  0
ARC
  5
1A5
330
22
100
AcDbEntity
  8
0
  6
Continuous
 62
     7
100
AcDbCircle
 10
-864.035888671875
 20
205.871337890625
 30
0.0
 40
679.7026367187499
100
AcDbArc
 50
355.0483451444104
 51
357.3717076538688
  0
ARC
  5
1A6
330
22
100
AcDbEntity
  8
0
  6
Continuous
 62
     7
100
AcDbCircle
 10
-219.5876617431641
 20
102.2027130126953
 30
0.0
 40
2.0
100
AcDbArc
 50
209.7447728583009
 51
270.0000000000005
  0
ARC
  5
1A7
330
22
100
AcDbEntity
  8
0
  6
Continuous
 62
     7
100
AcDbCircle
 10
-220.0483093261719
 20
108.3805389404297
 30
0.0
 40
5.0
100
AcDbArc
 50
180.0000000000004
 51
209.7449029847575
  0
ARC
  5
1A8
330
22
100
AcDbEntity
  8
0
  6
Continuous
 62
     7
100
AcDbCircle
 10
-239.8860015869141
 20
117.2488784790039
 30
0.0
 40
54.84513473510742
100
AcDbArc
 50
345.1608712540954
 51
0.9437659359883394
  0
ARC
  5
1A9
330
22
100
AcDbEntity
  8
0
  6
Continuous
 62
     7
100
AcDbCircle
 10
-368.3482971191406
 20
208.9948425292969
 30
0.0
 40
2.700000047683715
100
AcDbArc
 50
0.0
 51
180.0000000000004
  0
ARC
  5
1AA
330
22
100
AcDbEntity
  8
0
  6
Continuous
 62
     7
100
AcDbCircle
 10
-360.9483032226563
 20
214.8777008056641
 30
0.0
 40
2.700000047683715
100
AcDbArc
 50
0.0
 51
180.0000000000004
  0
ARC
  5
1AB
330
22
100
AcDbEntity
  8
0
  6
Continuous
 62
     7
100
AcDbCircle
 10
-360.9483032226563
 20
185.5027160644531
 30
0.0
 40
2.700000047683715
100
AcDbArc
 50
0.0
 51
180.0000000000004
  0
ARC
  5
1AC
330
22
100
AcDbEntity
  8
0
  6
Continuous
 62
     7
100
AcDbCircle
 10
-360.9483032226563
 20
193.2777099609375
 30
0.0
 40
2.700000047683715
100
AcDbArc
 50
180.0000000000004
 51
0.0
  0
ARC
  5
1AD
330
22
100
AcDbEntity
  8
0
  6
Continuous
 62
     7
100
AcDbCircle
 10
-346.1483154296875
 20
195.5960388183594
 30
0.0
 40
2.700000047683715
100
AcDbArc
 50
180.0000000000004
 51
0.0
  0
ARC
  5
1AE
330
22
100
AcDbEntity
  8
0
  6
Continuous
 62
     7
100
AcDbCircle
 10
-346.1483154296875
 20
187.5027160644531
 30
0.0
 40
2.700000047683715
100
AcDbArc
 50
0.0
 51
180.0000000000004
  0
CIRCLE
  5
1AF
330
22
100
AcDbEntity
  8
0
  6
Continuous
 62
     7
100
AcDbCircle
 10
-335.0483093261719
 20
233.7789306640625
 30
0.0
 40
4.5
  0
ARC
  5
1B0
330
22
100
AcDbEntity
  8
0
  6
Continuous
 62
     7
100
AcDbCircle
 10
-316.5483093261719
 20
218.7775421142578
 30
0.0
 40
2.700000047683715
100
AcDbArc
 50
0.0
 51
180.3335178720324
  0
ARC
  5
1B1
330
22
100
AcDbEntity
  8
0
  6
Continuous
 62
     7
100
AcDbCircle
 10
-338.7483215332031
 20
222.3592987060547
 30
0.0
 40
2.700000047683715
100
AcDbArc
 50
359.7937378980881
 51
180.1719392786171
  0
ARC
  5
1B2
330
22
100
AcDbEntity
  8
0
  6
Continuous
 62
     7
100
AcDbCircle
 10
-346.1483154296875
 20
221.196044921875
 30
0.0
 40
2.700000047683715
100
AcDbArc
 50
0.0
 51
180.0000000000004
  0
ARC
  5
1B3
330
22
100
AcDbEntity
  8
0
  6
Continuous
 62
     7
100
AcDbCircle
 10
-331.3482971191406
 20
222.3592987060547
 30
0.0
 40
2.700000047683715
100
AcDbArc
 50
359.8280607213844
 51
180.2062597706033
  0
ARC
  5
1B4
330
22
100
AcDbEntity
  8
0
  6
Continuous
 62
     7
100
AcDbCircle
 10
-323.9483032226563
 20
221.196044921875
 30
0.0
 40
2.700000047683715
100
AcDbArc
 50
0.0
 51
180.0000000000004
  0
ARC
  5
1B5
330
22
100
AcDbEntity
  8
0
  6
Continuous
 62
     7
100
AcDbCircle
 10
-353.5483093261719
 20
218.7775421142578
 30
0.0
 40
2.700000047683715
100
AcDbArc
 50
359.6664821279691
 51
180.0000000000004
  0
ARC
  5
1B6
330
22
100
AcDbEntity
  8
0
  6
Continuous
 62
     7
100
AcDbCircle
 10
-294.3482971191406
 20
188.1696166992188
 30
0.0
 40
2.700000047683715
100
AcDbArc
 50
180.0000000000004
 51
0.0
  0
ARC
  5
1B7
330
22
100
AcDbEntity
  8
0
  6
Continuous
 62
     7
100
AcDbCircle
 10
-323.9483032226563
 20
187.5027160644531
 30
0.0
 40
2.700000047683715
100
AcDbArc
 50
0.0
 51
180.0000000000004
  0
ARC
  5
1B8
330
22
100
AcDbEntity
  8
0
  6
Continuous
 62
     7
100
AcDbCircle
 10
-309.1483154296875
 20
193.2777099609375
 30
0.0
 40
2.700000047683715
100
AcDbArc
 50
180.0000000000004
 51
0.0
  0
ARC
  5
1B9
330
22
100
AcDbEntity
  8
0
  6
Continuous
 62
     7
100
AcDbCircle
 10
-309.1483154296875
 20
185.5027160644531
 30
0.0
 40
2.700000047683715
100
AcDbArc
 50
0.0
 51
180.0000000000004
  0
ARC
  5
1BA
330
22
100
AcDbEntity
  8
0
  6
Continuous
 62
     7
100
AcDbCircle
 10
-294.3482971191406
 20
199.7696228027344
 30
0.0
 40
2.700000047683715
100
AcDbArc
 50
0.0
 51
180.0000000000004
  0
ARC
  5
1BB
330
22
100
AcDbEntity
  8
0
  6
Continuous
 62
     7
100
AcDbCircle
 10
-323.9483032226563
 20
195.5960388183594
 30
0.0
 40
2.700000047683715
100
AcDbArc
 50
180.0000000000004
 51
0.0
  0
ARC
  5
1BC
330
22
100
AcDbEntity
  8
0
  6
Continuous
 62
     7
100
AcDbCircle
 10
-301.7483215332031
 20
208.9948425292969
 30
0.0
 40
2.700000047683715
100
AcDbArc
 50
0.0
 51
180.0000000000004
  0
ARC
  5
1BD
330
22
100
AcDbEntity
  8
0
  6
Continuous
 62
     7
100
AcDbCircle
 10
-381.4483032226563
 20
191.9448089599609
 30
0.0
 40
1.0
100
AcDbArc
 50
0.0
 51
159.6150414300957
  0
ARC
  5
1BE
330
22
100
AcDbEntity
  8
0
  6
Continuous
 62
     7
100
AcDbCircle
 10
-375.7483215332031
 20
188.1696166992188
 30
0.0
 40
2.700000047683715
100
AcDbArc
 50
180.0000000000004
 51
0.0
  0
ARC
  5
1BF
330
22
100
AcDbEntity
  8
0
  6
Continuous
 62
     7
100
AcDbCircle
 10
-375.7483215332031
 20
199.7696228027344
 30
0.0
 40
2.700000047683715
100
AcDbArc
 50
0.0
 51
180.0000000000004
  0
ARC
  5
1C0
330
22
100
AcDbEntity
  8
0
  6
Continuous
 62
     7
100
AcDbCircle
 10
-381.4483032226563
 20
157.4606170654297
 30
0.0
 40
1.0
100
AcDbArc
 50
200.384958569905
 51
0.0
  0
ARC
  5
1C1
330
22
100
AcDbEntity
  8
0
  6
Continuous
 62
     7
100
AcDbCircle
 10
-375.7483215332031
 20
161.2358093261719
 30
0.0
 40
2.700000047683715
100
AcDbArc
 50
0.0
 51
180.0000000000004
  0
ARC
  5
1C2
330
22
100
AcDbEntity
  8
0
  6
Continuous
 62
     7
100
AcDbCircle
 10
-375.7483215332031
 20
168.9027099609375
 30
0.0
 40
2.700000047683715
100
AcDbArc
 50
180.0000000000004
 51
0.0
  0
ARC
  5
1C3
330
22
100
AcDbEntity
  8
0
  6
Continuous
 62
     7
100
AcDbCircle
 10
-375.7483215332031
 20
149.6358032226563
 30
0.0
 40
2.700000047683715
100
AcDbArc
 50
180.0000000000004
 51
0.0
  0
ARC
  5
1C4
330
22
100
AcDbEntity
  8
0
  6
Continuous
 62
     7
100
AcDbCircle
 10
-353.5483093261719
 20
170.2435913085938
 30
0.0
 40
2.700000047683715
100
AcDbArc
 50
0.0
 51
180.0000000000004
  0
ARC
  5
1C5
330
22
100
AcDbEntity
  8
0
  6
Continuous
 62
     7
100
AcDbCircle
 10
-360.9483032226563
 20
163.9027099609375
 30
0.0
 40
2.700000047683715
100
AcDbArc
 50
180.0000000000004
 51
0.0
  0
ARC
  5
1C6
330
22
100
AcDbEntity
  8
0
  6
Continuous
 62
     7
100
AcDbCircle
 10
-353.5483093261719
 20
130.6278839111328
 30
0.0
 40
2.700000047683715
100
AcDbArc
 50
180.0000000000004
 51
0.3335178720316551
  0
ARC
  5
1C7
330
22
100
AcDbEntity
  8
0
  6
Continuous
 62
     7
100
AcDbCircle
 10
-346.1483154296875
 20
153.8093872070313
 30
0.0
 40
2.700000047683715
100
AcDbArc
 50
0.0
 51
180.0000000000004
  0
ARC
  5
1C8
330
22
100
AcDbEntity
  8
0
  6
Continuous
 62
     7
100
AcDbCircle
 10
-338.7483215332031
 20
168.6542358398438
 30
0.0
 40
2.700000047683715
100
AcDbArc
 50
0.0
 51
180.0000000000004
  0
ARC
  5
1C9
330
22
100
AcDbEntity
  8
0
  6
Continuous
 62
     7
100
AcDbCircle
 10
-346.1483154296875
 20
128.2093811035156
 30
0.0
 40
2.700000047683715
100
AcDbArc
 50
180.0000000000004
 51
0.0
  0
ARC
  5
1CA
330
22
100
AcDbEntity
  8
0
  6
Continuous
 62
     7
100
AcDbCircle
 10
-338.7483215332031
 20
127.0461273193359
 30
0.0
 40
2.700000047683715
100
AcDbArc
 50
179.8280607213837
 51
0.2061002021307694
  0
ARC
  5
1CB
330
22
100
AcDbEntity
  8
0
  6
Continuous
 62
     7
100
AcDbCircle
 10
-346.1483154296875
 20
161.9027099609375
 30
0.0
 40
2.700000047683715
100
AcDbArc
 50
180.0000000000004
 51
0.0
  0
ARC
  5
1CC
330
22
100
AcDbEntity
  8
0
  6
Continuous
 62
     7
100
AcDbCircle
 10
-309.1483154296875
 20
214.8777008056641
 30
0.0
 40
2.700000047683715
100
AcDbArc
 50
0.0
 51
180.0000000000004
  0
ARC
  5
1CD
330
22
100
AcDbEntity
  8
0
  6
Continuous
 62
     7
100
AcDbCircle
 10
-288.6483154296875
 20
191.9448089599609
 30
0.0
 40
1.0
100
AcDbArc
 50
20.38495856990432
 51
180.0000000000004
  0
ARC
  5
1CE
330
22
100
AcDbEntity
  8
0
  6
Continuous
 62
     7
100
AcDbCircle
 10
-323.9483032226563
 20
161.9027099609375
 30
0.0
 40
2.700000047683715
100
AcDbArc
 50
180.0000000000004
 51
0.0
  0
ARC
  5
1CF
330
22
100
AcDbEntity
  8
0
  6
Continuous
 62
     7
100
AcDbCircle
 10
-323.9483032226563
 20
153.8093872070313
 30
0.0
 40
2.700000047683715
100
AcDbArc
 50
0.0
 51
180.0000000000004
  0
CIRCLE
  5
1D0
330
22
100
AcDbEntity
  8
0
  6
Continuous
 62
     7
100
AcDbCircle
 10
-283.8869934082031
 20
145.1644897460938
 30
0.0
 40
4.5
  0
ARC
  5
1D1
330
22
100
AcDbEntity
  8
0
  6
Continuous
 62
     7
100
AcDbCircle
 10
-368.3482971191406
 20
140.4105834960938
 30
0.0
 40
2.700000047683715
100
AcDbArc
 50
180.0000000000004
 51
0.0
  0
ARC
  5
1D2
330
22
100
AcDbEntity
  8
0
  6
Continuous
 62
     7
100
AcDbCircle
 10
-360.9483032226563
 20
134.5277252197266
 30
0.0
 40
2.700000047683715
100
AcDbArc
 50
180.0000000000004
 51
0.0
  0
ARC
  5
1D3
330
22
100
AcDbEntity
  8
0
  6
Continuous
 62
     7
100
AcDbCircle
 10
-360.9483032226563
 20
156.1277160644531
 30
0.0
 40
2.700000047683715
100
AcDbArc
 50
0.0
 51
180.0000000000004
  0
CIRCLE
  5
1D4
330
22
100
AcDbEntity
  8
0
  6
Continuous
 62
     7
100
AcDbCircle
 10
-386.2099914550782
 20
145.1647033691406
 30
0.0
 40
4.5
  0
ARC
  5
1D5
330
22
100
AcDbEntity
  8
0
  6
Continuous
 62
     7
100
AcDbCircle
 10
-331.3482971191406
 20
168.6542358398438
 30
0.0
 40
2.700000047683715
100
AcDbArc
 50
0.0
 51
180.0000000000004
  0
ARC
  5
1D6
330
22
100
AcDbEntity
  8
0
  6
Continuous
 62
     7
100
AcDbCircle
 10
-368.3482971191406
 20
170.5105895996094
 30
0.0
 40
2.700000047683715
100
AcDbArc
 50
0.0
 51
180.0000000000004
  0
ARC
  5
1D7
330
22
100
AcDbEntity
  8
0
  6
Continuous
 62
     7
100
AcDbCircle
 10
-316.5483093261719
 20
170.2435913085938
 30
0.0
 40
2.700000047683715
100
AcDbArc
 50
0.0
 51
180.0000000000004
  0
ARC
  5
1D8
330
22
100
AcDbEntity
  8
0
  6
Continuous
 62
     7
100
AcDbCircle
 10
-309.1483154296875
 20
163.9027099609375
 30
0.0
 40
2.700000047683715
100
AcDbArc
 50
180.0000000000004
 51
0.0
  0
ARC
  5
1D9
330
22
100
AcDbEntity
  8
0
  6
Continuous
 62
     7
100
AcDbCircle
 10
-301.7483215332031
 20
140.4105834960938
 30
0.0
 40
2.700000047683715
100
AcDbArc
 50
180.0000000000004
 51
0.0
  0
ARC
  5
1DA
330
22
100
AcDbEntity
  8
0
  6
Continuous
 62
     7
100
AcDbCircle
 10
-301.7483215332031
 20
170.5105895996094
 30
0.0
 40
2.700000047683715
100
AcDbArc
 50
0.0
 51
180.0000000000004
  0
ARC
  5
1DB
330
22
100
AcDbEntity
  8
0
  6
Continuous
 62
     7
100
AcDbCircle
 10
-309.1483154296875
 20
156.1277160644531
 30
0.0
 40
2.700000047683715
100
AcDbArc
 50
0.0
 51
180.0000000000004
  0
ARC
  5
1DC
330
22
100
AcDbEntity
  8
0
  6
Continuous
 62
     7
100
AcDbCircle
 10
-309.1483154296875
 20
134.5277252197266
 30
0.0
 40
2.700000047683715
100
AcDbArc
 50
180.0000000000004
 51
0.0
  0
ARC
  5
1DD
330
22
100
AcDbEntity
  8
0
  6
Continuous
 62
     7
100
AcDbCircle
 10
-316.5483093261719
 20
130.6278839111328
 30
0.0
 40
2.700000047683715
100
AcDbArc
 50
179.6664821279684
 51
0.0
  0
ARC
  5
1DE
330
22
100
AcDbEntity
  8
0
  6
Continuous
 62
     7
100
AcDbCircle
 10
-323.9483032226563
 20
128.2093811035156
 30
0.0
 40
2.700000047683715
100
AcDbArc
 50
180.0000000000004
 51
0.0
  0
ARC
  5
1DF
330
22
100
AcDbEntity
  8
0
  6
Continuous
 62
     7
100
AcDbCircle
 10
-331.3482971191406
 20
127.0461273193359
 30
0.0
 40
2.700000047683715
100
AcDbArc
 50
179.7939021273494
 51
0.1719392786163373
  0
ARC
  5
1E0
330
22
100
AcDbEntity
  8
0
  6
Continuous
 62
     7
100
AcDbCircle
 10
-288.6483154296875
 20
157.4606170654297
 30
0.0
 40
1.0
100
AcDbArc
 50
180.0000000000004
 51
339.6150414300964
  0
ARC
  5
1E1
330
22
100
AcDbEntity
  8
0
  6
Continuous
 62
     7
100
AcDbCircle
 10
-294.3482971191406
 20
149.6358032226563
 30
0.0
 40
2.700000047683715
100
AcDbArc
 50
180.0000000000004
 51
0.0
  0
ARC
  5
1E2
330
22
100
AcDbEntity
  8
0
  6
Continuous
 62
     7
100
AcDbCircle
 10
-294.3482971191406
 20
161.2358093261719
 30
0.0
 40
2.700000047683715
100
AcDbArc
 50
0.0
 51
180.0000000000004
  0
ARC
  5
1E3
330
22
100
AcDbEntity
  8
0
  6
Continuous
 62
     7
100
AcDbCircle
 10
-294.3482971191406
 20
168.9027099609375
 30
0.0
 40
2.700000047683715
100
AcDbArc
 50
180.0000000000004
 51
0.0
  0
ARC
  5
1E4
330
22
100
AcDbEntity
  8
0
  6
Continuous
 62
     7
100
AcDbCircle
 10
-335.0483093261719
 20
174.7027130126953
 30
0.0
 40
50.5
100
AcDbArc
 50
159.6150868299291
 51
200.3849131700716
  0
ARC
  5
1E5
330
22
100
AcDbEntity
  8
0
  6
Continuous
 62
     7
100
AcDbCircle
 10
-375.7483215332031
 20
180.5027160644531
 30
0.0
 40
2.700000047683715
100
AcDbArc
 50
0.0
 51
180.0000000000004
  0
ARC
  5
1E6
330
22
100
AcDbEntity
  8
0
  6
Continuous
 62
     7
100
AcDbCircle
 10
-353.5483093261719
 20
179.1618347167969
 30
0.0
 40
2.700000047683715
100
AcDbArc
 50
180.0000000000004
 51
0.0
  0
ARC
  5
1E7
330
22
100
AcDbEntity
  8
0
  6
Continuous
 62
     7
100
AcDbCircle
 10
-338.7483215332031
 20
180.7511901855469
 30
0.0
 40
2.700000047683715
100
AcDbArc
 50
180.0000000000004
 51
0.0
  0
CIRCLE
  5
1E8
330
22
100
AcDbEntity
  8
0
  6
Continuous
 62
     7
100
AcDbCircle
 10
-335.0483093261719
 20
174.7027130126953
 30
0.0
 40
74.5
  0
CIRCLE
  5
1E9
330
22
100
AcDbEntity
  8
0
  6
Continuous
 62
     7
100
AcDbCircle
 10
-335.0483093261719
 20
174.7027130126953
 30
0.0
 40
65.5
  0
CIRCLE
  5
1EA
330
22
100
AcDbEntity
  8
0
  6
Continuous
 62
     7
100
AcDbCircle
 10
-335.0483093261719
 20
174.7027130126953
 30
0.0
 40
66.0
  0
CIRCLE
  5
1EB
330
22
100
AcDbEntity
  8
0
  6
Continuous
 62
     7
100
AcDbCircle
 10
-335.0483093261719
 20
174.7027130126953
 30
0.0
 40
65.5
  0
ARC
  5
1EC
330
22
100
AcDbEntity
  8
0
  6
Continuous
 62
     7
100
AcDbCircle
 10
-331.3482971191406
 20
180.7511901855469
 30
0.0
 40
2.700000047683715
100
AcDbArc
 50
180.0000000000004
 51
0.0
  0
ARC
  5
1ED
330
22
100
AcDbEntity
  8
0
  6
Continuous
 62
     7
100
AcDbCircle
 10
-335.0483093261719
 20
174.7027130126953
 30
0.0
 40
50.5
100
AcDbArc
 50
339.6150868299299
 51
20.3849131700709
  0
ARC
  5
1EE
330
22
100
AcDbEntity
  8
0
  6
Continuous
 62
     7
100
AcDbCircle
 10
-301.7483215332031
 20
178.8948364257813
 30
0.0
 40
2.700000047683715
100
AcDbArc
 50
180.0000000000004
 51
0.0
  0
CIRCLE
  5
1EF
330
22
100
AcDbEntity
  8
0
  6
Continuous
 62
     7
100
AcDbCircle
 10
-335.0483093261719
 20
174.7027130126953
 30
0.0
 40
2.5
  0
ARC
  5
1F0
330
22
100
AcDbEntity
  8
0
  6
Continuous
 62
     7
100
AcDbCircle
 10
-316.5483093261719
 20
179.1618347167969
 30
0.0
 40
2.700000047683715
100
AcDbArc
 50
180.0000000000004
 51
0.0
  0
ARC
  5
1F1
330
22
100
AcDbEntity
  8
0
  6
Continuous
 62
     7
100
AcDbCircle
 10
-294.3482971191406
 20
180.5027160644531
 30
0.0
 40
2.700000047683715
100
AcDbArc
 50
0.0
 51
180.0000000000004
  0
ARC
  5
1F2
330
22
100
AcDbEntity
  8
0
  6
Continuous
 62
     7
100
AcDbCircle
 10
-368.3482971191406
 20
178.8948364257813
 30
0.0
 40
2.700000047683715
100
AcDbArc
 50
180.0000000000004
 51
0.0
  0
TEXT
  5
1F3
330
22
100
AcDbEntity
  8
0
  6
Continuous
 62
     7
100
AcDbText
 10
-333.1673212051392
 20
262.3721008300781
 30
0.0
 40
7.0
  1
DL-ULSS-100Z
 41
1.064848559243339
100
AcDbText
  0
SOLID
  5
1F4
330
22
100
AcDbEntity
  8
0
  6
Continuous
 62
     7
100
AcDbTrace
 10
-200.0483093261719
 20
235.7027130126953
 30
0.0
 11
-203.0483093261719
 21
235.7027130126953
 31
0.0
 12
-200.0483093261719
 22
249.7027130126953
 32
0.0
 13
-203.0483093261719
 23
249.7027130126953
 33
0.0
  0
SOLID
  5
1F5
330
22
100
AcDbEntity
  8
0
  6
Continuous
 62
     7
100
AcDbTrace
 10
-213.0483093261719
 20
236.2027130126953
 30
0.0
 11
-216.0483093261719
 21
236.2027130126953
 31
0.0
 12
-213.0483093261719
 22
249.2027130126953
 32
0.0
 13
-216.0483093261719
 23
249.2027130126953
 33
0.0
  0
SOLID
  5
1F6
330
22
100
AcDbEntity
  8
0
  6
Continuous
 62
     7
100
AcDbTrace
 10
-200.0483093261719
 20
99.70271301269532
 30
0.0
 11
-203.0483093261719
 21
99.70271301269532
 31
0.0
 12
-200.0483093261719
 22
174.7027130126953
 32
0.0
 13
-203.0483093261719
 23
174.7027130126953
 33
0.0
  0
SOLID
  5
1F7
330
22
100
AcDbEntity
  8
0
  6
Continuous
 62
     7
100
AcDbTrace
 10
-213.0483093261719
 20
100.2027130126953
 30
0.0
 11
-216.0483093261719
 21
100.2027130126953
 31
0.0
 12
-213.0483093261719
 22
174.7027130126953
 32
0.0
 13
-216.0483093261719
 23
174.7027130126953
 33
0.0
  0
DIMENSION
  5
1F8
330
22
100
AcDbEntity
  8
0
  6
Continuous
 62
     7
100
AcDbDimension
  2
*D1
 10
-213.0483093261719
 20
261.9619750976563
 30
0.0
 11
-219.0483093261719
 21
261.9619750976563
 31
0.0
 71
     5
 42
-1.0
  3
DIMSTYLE1
100
AcDbAlignedDimension
 13
-225.0483093261719
 23
255.6591491699219
 33
0.0
 14
-213.0483093261719
 24
249.2027130126953
 34
0.0
100
AcDbRotatedDimension
  0
DIMENSION
  5
1F9
330
22
100
AcDbEntity
  8
0
  6
Continuous
 62
     7
100
AcDbDimension
  2
*D2
 10
-203.0503234863281
 20
261.9619750976563
 30
0.0
 11
-157.6390991210938
 21
261.9619750976563
 31
0.0
 71
     5
 42
-1.0
  3
DIMSTYLE2
100
AcDbAlignedDimension
 13
-213.0483093261719
 23
255.2160339355469
 33
0.0
 14
-203.0503234863281
 24
249.7027130126953
 34
0.0
100
AcDbRotatedDimension
  0
DIMENSION
  5
1FA
330
22
100
AcDbEntity
  8
0
  6
Continuous
 62
     7
100
AcDbDimension
  2
*D3
 10
-175.0483093261719
 20
271.67724609375
 30
0.0
 11
-200.0483093261719
 21
271.67724609375
 31
0.0
 71
     5
 42
-1.0
  3
DIMSTYLE3
100
AcDbAlignedDimension
 13
-225.0483093261719
 23
241.0248870849609
 33
0.0
 14
-175.0483093261719
 24
234.7027130126953
 34
0.0
100
AcDbRotatedDimension
  0
DIMENSION
  5
1FB
330
22
100
AcDbEntity
  8
0
  6
Continuous
 62
     7
100
AcDbDimension
  2
*D4
 10
-390.2192836704955
 20
124.6386181951718
 30
0.0
 11
-273.1627197265625
 21
230.8598785400391
 31
0.0
 70
     3
 71
     5
 42
-1.0
  3
DIMSTYLE4
100
AcDbDiametricDimension
 15
-279.8773349818483
 25
224.7668078302188
 35
0.0
 40
0.0
  0
INSERT
  5
1FC
330
22
100
AcDbEntity
  8
0
  6
Continuous
 62
     7
100
AcDbBlockReference
  2
KOZU0001
 10
-188.1334991455078
 20
229.2930450439453
 30
0.0
  0
ENDSEC
  0
SECTION
  2
OBJECTS
  0
DICTIONARY
  5
C
330
0
100
AcDbDictionary
281
     1
  3
ACAD_COLOR
350
1B
  3
ACAD_GROUP
350
D
  3
ACAD_LAYOUT
350
19
  3
ACAD_MATERIAL
350
1A
  3
ACAD_MLINESTYLE
350
16
  3
ACAD_PLOTSETTINGS
350
18
  3
ACAD_PLOTSTYLENAME
350
E
  3
ACAD_TABLESTYLE
350
1C
  3
AcDbVariableDictionary
350
208
  0
DICTIONARY
  5
1B
102
{ACAD_REACTORS
330
C
102
}
330
C
100
AcDbDictionary
281
     1
  0
DICTIONARY
  5
D
102
{ACAD_REACTORS
330
C
102
}
330
C
100
AcDbDictionary
281
     1
  0
DICTIONARY
  5
19
102
{ACAD_REACTORS
330
C
102
}
330
C
100
AcDbDictionary
281
     1
  3
Model
350
25
  3
レイアウト1
350
21
  0
DICTIONARY
  5
1A
102
{ACAD_REACTORS
330
C
102
}
330
C
100
AcDbDictionary
281
     1
  0
DICTIONARY
  5
16
102
{ACAD_REACTORS
330
C
102
}
330
C
100
AcDbDictionary
281
     1
  3
Standard
350
17
  0
DICTIONARY
  5
18
102
{ACAD_REACTORS
330
C
102
}
330
C
100
AcDbDictionary
281
     1
  0
ACDBDICTIONARYWDFLT
  5
E
102
{ACAD_REACTORS
330
C
102
}
330
C
100
AcDbDictionary
281
     1
  3
Normal
350
F
100
AcDbDictionaryWithDefault
340
F
  0
DICTIONARY
  5
1C
102
{ACAD_REACTORS
330
C
102
}
330
C
100
AcDbDictionary
281
     1
  3
Standard
350
1D
  0
DICTIONARY
  5
208
102
{ACAD_REACTORS
330
C
102
}
330
C
100
AcDbDictionary
281
     1
  3
CTABLESTYLE
350
209
  0
LAYOUT
  5
25
102
{ACAD_REACTORS
330
19
102
}
330
19
100
AcDbPlotSettings
  1

  2
PDF reDirect v2
  4
A3
  6

 40
3.174999952316284
 41
3.174999952316284
 42
3.17498779296875
 43
3.17498779296875
 44
297.0530090332031
 45
420.1583251953125
 46
0.0
 47
0.0
 48
0.0
 49
0.0
140
0.0
141
0.0
142
1.0
143
1.0
 70
 11952
 72
     1
 73
     1
 74
     2
  7
C:\Users\ck\AppData\Roaming\Autodesk\AutoCAD 2005\R16.1\jpn\Plot Styles\black.ctb
 75
    16
147
1.0
 76
     0
 77
     2
 78
   300
148
423.0
149
2.0
100
AcDbLayout
  1
Model
 70
     1
 71
     0
 10
0.0
 20
0.0
 11
12.0
 21
9.0
 12
0.0
 22
0.0
 32
0.0
 14
0.0
 24
0.0
 34
0.0
 15
0.0
 25
0.0
 35
0.0
146
0.0
 13
0.0
 23
0.0
 33
0.0
 16
1.0
 26
0.0
 36
0.0
 17
0.0
 27
1.0
 37
0.0
 76
     0
330
22
1001
ACAD_PSEXT
1000
PDF reDirect v2
1000
PDF reDirect Pro
1000
PDF_REDIRECT_PORT:
1000
PDF reDirect provided by EXP Systems
1070
     0
  0
LAYOUT
  5
21
102
{ACAD_REACTORS
330
19
102
}
330
19
100
AcDbPlotSettings
  1

  2
PDF reDirect v2
  4

  6

 40
0.0
 41
0.0
 42
0.0
 43
0.0
 44
0.0
 45
0.0
 46
0.0
 47
0.0
 48
0.0
 49
0.0
140
0.0
141
0.0
142
1.0
143
1.0
 70
   688
 72
     0
 73
     0
 74
     5
  7
C:\Users\ck\AppData\Roaming\Autodesk\AutoCAD 2005\R16.1\jpn\Plot Styles\black.ctb
 75
    16
147
1.0
 76
     0
 77
     2
 78
   300
148
0.0
149
0.0
100
AcDbLayout
  1
レイアウト1
 70
     1
 71
     1
 10
-423.0
 20
-2.0
 11
-5.0
 21
293.0
 12
0.0
 22
0.0
 32
0.0
 14
1.000000000000000E+20
 24
1.000000000000000E+20
 34
1.000000000000000E+20
 15
-1.000000000000000E+20
 25
-1.000000000000000E+20
 35
-1.000000000000000E+20
146
0.0
 13
0.0
 23
0.0
 33
0.0
 16
1.0
 26
0.0
 36
0.0
 17
0.0
 27
1.0
 37
0.0
 76
     0
330
1E
  0
MLINESTYLE
  5
17
102
{ACAD_REACTORS
330
16
102
}
330
16
100
AcDbMlineStyle
  2
STANDARD
 70
     0
  3

 62
   256
 51
90.0
 52
90.0
 71
     2
 49
0.5
 62
   256
  6
BYLAYER
 49
-0.5
 62
   256
  6
BYLAYER
  0
ACDBPLACEHOLDER
  5
F
102
{ACAD_REACTORS
330
E
102
}
330
E
  0
TABLESTYLE
  5
1D
102
{ACAD_REACTORS
330
1C
102
}
330
1C
100
AcDbTableStyle
  3
Standard
 70
     0
 71
     0
 40
0.06
 41
0.06
280
     0
281
     0
  7
STANDARD
140
0.18
170
     2
 62
     0
 63
     7
283
     0
274
    -2
284
     1
 64
     0
275
    -2
285
     1
 65
     0
276
    -2
286
     1
 66
     0
277
    -2
287
     1
 67
     0
278
    -2
288
     1
 68
     0
279
    -2
289
     1
 69
     0
  7
STANDARD
140
0.25
170
     5
 62
     0
 63
     7
283
     0
274
    -2
284
     1
 64
     0
275
    -2
285
     1
 65
     0
276
    -2
286
     1
 66
     0
277
    -2
287
     1
 67
     0
278
    -2
288
     1
 68
     0
279
    -2
289
     1
 69
     0
  7
STANDARD
140
0.18
170
     5
 62
     0
 63
     7
283
     0
274
    -2
284
     1
 64
     0
275
    -2
285
     1
 65
     0
276
    -2
286
     1
 66
     0
277
    -2
287
     1
 67
     0
278
    -2
288
     1
 68
     0
279
    -2
289
     1
 69
     0
  0
DICTIONARYVAR
  5
209
102
{ACAD_REACTORS
330
208
102
}
330
208
100
DictionaryVariables
280
     0
  1
STANDARD
  0
ENDSEC
  0
EOF
