  0
SECTION
  2
HEADER
  9
$ACADVER
  1
AC1018
  9
$ACADMAINTVER
 70
    39
  9
$DWGCODEPAGE
  3
ANSI_932
  9
$INSBASE
 10
0.0
 20
0.0
 30
0.0
  9
$EXTMIN
 10
-494.5949692113731
 20
69.41366682552462
 30
-0.0015258207003583
  9
$EXTMAX
 10
-57.83959829835158
 20
334.8094796361513
 30
0.0000000349246037
  9
$LIMMIN
 10
-592.0
 20
0.0
  9
$LIMMAX
 10
0.0
 20
418.0
  9
$ORTHOMODE
 70
     0
  9
$REGENMODE
 70
     1
  9
$FILLMODE
 70
     1
  9
$QTEXTMODE
 70
     0
  9
$MIRRTEXT
 70
     0
  9
$LTSCALE
 40
1.0
  9
$ATTMODE
 70
     1
  9
$TEXTSIZE
 40
0.2
  9
$TRACEWID
 40
0.05
  9
$TEXTSTYLE
  7
STANDARD
  9
$CLAYER
  8
0
  9
$CELTYPE
  6
CONTINUOUS
  9
$CECOLOR
 62
   256
  9
$CELTSCALE
 40
1.0
  9
$DISPSILH
 70
     0
  9
$DIMSCALE
 40
1.0
  9
$DIMASZ
 40
1.0
  9
$DIMEXO
 40
2.54
  9
$DIMDLI
 40
0.38
  9
$DIMRND
 40
0.0
  9
$DIMDLE
 40
0.0
  9
$DIMEXE
 40
2.54
  9
$DIMTP
 40
0.0
  9
$DIMTM
 40
0.0
  9
$DIMTXT
 40
3.0
  9
$DIMCEN
 40
0.09
  9
$DIMTSZ
 40
0.0
  9
$DIMTOL
 70
     0
  9
$DIMLIM
 70
     0
  9
$DIMTIH
 70
     0
  9
$DIMTOH
 70
     0
  9
$DIMSE1
 70
     0
  9
$DIMSE2
 70
     0
  9
$DIMTAD
 70
     1
  9
$DIMZIN
 70
     0
  9
$DIMBLK
  1

  9
$DIMASO
 70
     1
  9
$DIMSHO
 70
     0
  9
$DIMPOST
  1

  9
$DIMAPOST
  1

  9
$DIMALT
 70
     0
  9
$DIMALTD
 70
     2
  9
$DIMALTF
 40
25.4
  9
$DIMLFAC
 40
1.0
  9
$DIMTOFL
 70
     0
  9
$DIMTVP
 40
1.0
  9
$DIMTIX
 70
     0
  9
$DIMSOXD
 70
     0
  9
$DIMSAH
 70
     1
  9
$DIMBLK1
  1

  9
$DIMBLK2
  1

  9
$DIMSTYLE
  2
DIMSTYLE1
  9
$DIMCLRD
 70
     0
  9
$DIMCLRE
 70
     0
  9
$DIMCLRT
 70
     0
  9
$DIMTFAC
 40
1.0
  9
$DIMGAP
 40
1.5
  9
$DIMJUST
 70
     0
  9
$DIMSD1
 70
     0
  9
$DIMSD2
 70
     0
  9
$DIMTOLJ
 70
     1
  9
$DIMTZIN
 70
     0
  9
$DIMALTZ
 70
     0
  9
$DIMALTTZ
 70
     0
  9
$DIMUPT
 70
     0
  9
$DIMDEC
 70
     4
  9
$DIMTDEC
 70
     4
  9
$DIMALTU
 70
     2
  9
$DIMALTTD
 70
     2
  9
$DIMTXSTY
  7
STANDARD
  9
$DIMAUNIT
 70
     0
  9
$DIMADEC
 70
     0
  9
$DIMALTRND
 40
0.0
  9
$DIMAZIN
 70
     0
  9
$DIMDSEP
 70
    46
  9
$DIMATFIT
 70
     3
  9
$DIMFRAC
 70
     0
  9
$DIMLDRBLK
  1

  9
$DIMLUNIT
 70
     2
  9
$DIMLWD
 70
    -2
  9
$DIMLWE
 70
    -2
  9
$DIMTMOVE
 70
     0
  9
$LUNITS
 70
     2
  9
$LUPREC
 70
     4
  9
$SKETCHINC
 40
0.1
  9
$FILLETRAD
 40
0.0
  9
$AUNITS
 70
     0
  9
$AUPREC
 70
     0
  9
$MENU
  1
.
  9
$ELEVATION
 40
0.0
  9
$PELEVATION
 40
0.0
  9
$THICKNESS
 40
0.0
  9
$LIMCHECK
 70
     0
  9
$CHAMFERA
 40
0.0
  9
$CHAMFERB
 40
0.0
  9
$CHAMFERC
 40
0.0
  9
$CHAMFERD
 40
0.0
  9
$SKPOLY
 70
     0
  9
$TDCREATE
 40
2457843.587468253
  9
$TDUCREATE
 40
2457843.212468253
  9
$TDUPDATE
 40
2457843.587999363
  9
$TDUUPDATE
 40
2457843.212999363
  9
$TDINDWG
 40
0.0005321528
  9
$TDUSRTIMER
 40
0.0005321528
  9
$USRTIMER
 70
     1
  9
$ANGBASE
 50
0.0
  9
$ANGDIR
 70
     0
  9
$PDMODE
 70
     0
  9
$PDSIZE
 40
0.0
  9
$PLINEWID
 40
0.0
  9
$SPLFRAME
 70
     0
  9
$SPLINETYPE
 70
     6
  9
$SPLINESEGS
 70
     8
  9
$HANDSEED
  5
20C
  9
$SURFTAB1
 70
     6
  9
$SURFTAB2
 70
     6
  9
$SURFTYPE
 70
     6
  9
$SURFU
 70
     6
  9
$SURFV
 70
     6
  9
$UCSBASE
  2

  9
$UCSNAME
  2

  9
$UCSORG
 10
0.0
 20
0.0
 30
0.0
  9
$UCSXDIR
 10
1.0
 20
0.0
 30
0.0
  9
$UCSYDIR
 10
0.0
 20
1.0
 30
0.0
  9
$UCSORTHOREF
  2

  9
$UCSORTHOVIEW
 70
     0
  9
$UCSORGTOP
 10
0.0
 20
0.0
 30
0.0
  9
$UCSORGBOTTOM
 10
0.0
 20
0.0
 30
0.0
  9
$UCSORGLEFT
 10
0.0
 20
0.0
 30
0.0
  9
$UCSORGRIGHT
 10
0.0
 20
0.0
 30
0.0
  9
$UCSORGFRONT
 10
0.0
 20
0.0
 30
0.0
  9
$UCSORGBACK
 10
0.0
 20
0.0
 30
0.0
  9
$PUCSBASE
  2

  9
$PUCSNAME
  2

  9
$PUCSORG
 10
0.0
 20
0.0
 30
0.0
  9
$PUCSXDIR
 10
1.0
 20
0.0
 30
0.0
  9
$PUCSYDIR
 10
0.0
 20
1.0
 30
0.0
  9
$PUCSORTHOREF
  2

  9
$PUCSORTHOVIEW
 70
     0
  9
$PUCSORGTOP
 10
0.0
 20
0.0
 30
0.0
  9
$PUCSORGBOTTOM
 10
0.0
 20
0.0
 30
0.0
  9
$PUCSORGLEFT
 10
0.0
 20
0.0
 30
0.0
  9
$PUCSORGRIGHT
 10
0.0
 20
0.0
 30
0.0
  9
$PUCSORGFRONT
 10
0.0
 20
0.0
 30
0.0
  9
$PUCSORGBACK
 10
0.0
 20
0.0
 30
0.0
  9
$USERI1
 70
     0
  9
$USERI2
 70
     0
  9
$USERI3
 70
     0
  9
$USERI4
 70
     0
  9
$USERI5
 70
     0
  9
$USERR1
 40
0.0
  9
$USERR2
 40
0.0
  9
$USERR3
 40
0.0
  9
$USERR4
 40
0.0
  9
$USERR5
 40
0.0
  9
$WORLDVIEW
 70
     1
  9
$SHADEDGE
 70
     3
  9
$SHADEDIF
 70
    70
  9
$TILEMODE
 70
     1
  9
$MAXACTVP
 70
    64
  9
$PINSBASE
 10
0.0
 20
0.0
 30
0.0
  9
$PLIMCHECK
 70
     0
  9
$PEXTMIN
 10
1.000000000000000E+20
 20
1.000000000000000E+20
 30
1.000000000000000E+20
  9
$PEXTMAX
 10
-1.000000000000000E+20
 20
-1.000000000000000E+20
 30
-1.000000000000000E+20
  9
$PLIMMIN
 10
-592.0
 20
0.0
  9
$PLIMMAX
 10
0.0
 20
418.0
  9
$UNITMODE
 70
     0
  9
$VISRETAIN
 70
     1
  9
$PLINEGEN
 70
     0
  9
$PSLTSCALE
 70
     1
  9
$TREEDEPTH
 70
  3020
  9
$CMLSTYLE
  2
Standard
  9
$CMLJUST
 70
     0
  9
$CMLSCALE
 40
1.0
  9
$PROXYGRAPHICS
 70
     1
  9
$MEASUREMENT
 70
     0
  9
$CELWEIGHT
370
    -1
  9
$ENDCAPS
280
     0
  9
$JOINSTYLE
280
     0
  9
$LWDISPLAY
290
     0
  9
$INSUNITS
 70
     0
  9
$HYPERLINKBASE
  1

  9
$STYLESHEET
  1

  9
$XEDIT
290
     1
  9
$CEPSNTYPE
380
     0
  9
$PSTYLEMODE
290
     1
  9
$FINGERPRINTGUID
  2
{C051B03B-9C86-426F-B263-652BA910BB8A}
  9
$VERSIONGUID
  2
{D7021030-4582-48EB-944E-850D54EB2A9A}
  9
$EXTNAMES
290
     1
  9
$PSVPSCALE
 40
0.0
  9
$OLESTARTUP
290
     0
  9
$SORTENTS
280
   127
  9
$INDEXCTL
280
     0
  9
$HIDETEXT
280
     0
  9
$XCLIPFRAME
290
     0
  9
$HALOGAP
280
     0
  9
$OBSCOLOR
 70
   257
  9
$OBSLTYPE
280
     0
  9
$INTERSECTIONDISPLAY
280
     0
  9
$INTERSECTIONCOLOR
 70
   257
  9
$DIMASSOC
280
     1
  9
$PROJECTNAME
  1

  0
ENDSEC
  0
SECTION
  2
CLASSES
  0
CLASS
  1
ACDBDICTIONARYWDFLT
  2
AcDbDictionaryWithDefault
  3
ObjectDBX Classes
 90
        0
 91
        1
280
     0
281
     0
  0
CLASS
  1
TABLESTYLE
  2
AcDbTableStyle
  3
ObjectDBX Classes
 90
     2047
 91
        1
280
     0
281
     0
  0
CLASS
  1
DICTIONARYVAR
  2
AcDbDictionaryVar
  3
ObjectDBX Classes
 90
        0
 91
        1
280
     0
281
     0
  0
ENDSEC
  0
SECTION
  2
TABLES
  0
TABLE
  2
VPORT
  5
8
330
0
100
AcDbSymbolTable
 70
     2
  0
VPORT
  5
20B
330
8
100
AcDbSymbolTableRecord
100
AcDbViewportTableRecord
  2
*Active
 70
     0
 10
0.0
 20
0.0
 11
1.0
 21
1.0
 12
-296.0
 22
209.0
 13
0.0
 23
0.0
 14
1.0
 24
1.0
 15
0.0
 25
0.0
 16
0.0
 26
0.0
 36
1.0
 17
0.0
 27
0.0
 37
0.0
 40
421.3043478260869
 41
1.707124010554089
 42
50.0
 43
0.0
 44
0.0
 50
0.0
 51
0.0
 71
     0
 72
   100
 73
     1
 74
     1
 75
     0
 76
     0
 77
     0
 78
     0
281
     0
 65
     1
110
0.0
120
0.0
130
0.0
111
1.0
121
0.0
131
0.0
112
0.0
122
1.0
132
0.0
 79
     0
146
0.0
  0
ENDTAB
  0
TABLE
  2
LTYPE
  5
5
330
0
100
AcDbSymbolTable
 70
     6
  0
LTYPE
  5
13
330
5
100
AcDbSymbolTableRecord
100
AcDbLinetypeTableRecord
  2
ByBlock
 70
     0
  3

 72
    65
 73
     0
 40
0.0
  0
LTYPE
  5
14
330
5
100
AcDbSymbolTableRecord
100
AcDbLinetypeTableRecord
  2
ByLayer
 70
     0
  3

 72
    65
 73
     0
 40
0.0
  0
LTYPE
  5
15
330
5
100
AcDbSymbolTableRecord
100
AcDbLinetypeTableRecord
  2
CONTINUOUS
 70
     0
  3
Solid line
 72
    65
 73
     0
 40
0.0
  0
LTYPE
  5
26
330
5
100
AcDbSymbolTableRecord
100
AcDbLinetypeTableRecord
  2
DASHED
 70
     0
  3
__ __ __ __ __ __ __ __ __ __ __ __ __ __ __
 72
    65
 73
     2
 40
3.5
 49
2.0
 74
     0
 49
-1.5
 74
     0
  0
LTYPE
  5
27
330
5
100
AcDbSymbolTableRecord
100
AcDbLinetypeTableRecord
  2
CENTER
 70
     0
  3
____ _ ____ _ ____ _ ____ _ ____ _ ____ _ ____
 72
    65
 73
     4
 40
17.5
 49
13.0
 74
     0
 49
-1.5
 74
     0
 49
1.5
 74
     0
 49
-1.5
 74
     0
  0
LTYPE
  5
28
330
5
100
AcDbSymbolTableRecord
100
AcDbLinetypeTableRecord
  2
PHANTOM
 70
     0
  3
_____ _ _ _____ _ _ _____ _ _ _____ _ _ ____  
 72
    65
 73
     6
 40
15.5
 49
8.0
 74
     0
 49
-1.5
 74
     0
 49
1.5
 74
     0
 49
-1.5
 74
     0
 49
1.5
 74
     0
 49
-1.5
 74
     0
  0
LTYPE
  5
29
330
5
100
AcDbSymbolTableRecord
100
AcDbLinetypeTableRecord
  2
DOT
 70
     0
  3
. . . . . . . . . . . . . . . . . . . . . . . .
 72
    65
 73
     2
 40
0.25
 49
0.0
 74
     0
 49
-0.25
 74
     0
  0
LTYPE
  5
2A
330
5
100
AcDbSymbolTableRecord
100
AcDbLinetypeTableRecord
  2
HIDDEN
 70
     0
  3
__ __ __ __ __ __ __ __ __ __ __ __ __ __ __
 72
    65
 73
     2
 40
3.5
 49
2.0
 74
     0
 49
-1.5
 74
     0
  0
ENDTAB
  0
TABLE
  2
LAYER
  5
2
330
0
100
AcDbSymbolTable
 70
     2
  0
LAYER
  5
10
330
2
100
AcDbSymbolTableRecord
100
AcDbLayerTableRecord
  2
0
 70
     0
 62
     7
  6
CONTINUOUS
370
    -3
390
F
  0
LAYER
  5
2B
330
2
100
AcDbSymbolTableRecord
100
AcDbLayerTableRecord
  2
DEFPOINTS
 70
     0
 62
     7
  6
CONTINUOUS
290
     0
370
    -3
390
F
  0
ENDTAB
  0
TABLE
  2
STYLE
  5
3
330
0
100
AcDbSymbolTable
 70
     2
  0
STYLE
  5
11
330
3
100
AcDbSymbolTableRecord
100
AcDbTextStyleTableRecord
  2
STANDARD
 70
     0
 40
0.0
 41
1.0
 50
0.0
 71
     0
 42
0.2
  3

  4

1001
ACAD
1000
MS Gothic
1071
    32817
  0
ENDTAB
  0
TABLE
  2
VIEW
  5
6
330
0
100
AcDbSymbolTable
 70
     0
  0
ENDTAB
  0
TABLE
  2
UCS
  5
7
330
0
100
AcDbSymbolTable
 70
     0
  0
ENDTAB
  0
TABLE
  2
APPID
  5
9
330
0
100
AcDbSymbolTable
 70
     2
  0
APPID
  5
12
330
9
100
AcDbSymbolTableRecord
100
AcDbRegAppTableRecord
  2
ACAD
 70
     0
  0
APPID
  5
200
330
9
100
AcDbSymbolTableRecord
100
AcDbRegAppTableRecord
  2
ACAD_PSEXT
 70
     0
  0
ENDTAB
  0
TABLE
  2
DIMSTYLE
  5
A
330
0
100
AcDbSymbolTable
 70
    12
100
AcDbDimStyleTable
 71
     1
340
2C
  0
DIMSTYLE
105
2C
102
{ACAD_REACTORS
330
1F1
102
}
330
A
100
AcDbSymbolTableRecord
100
AcDbDimStyleTableRecord
  2
DIMSTYLE1
 70
     0
 41
1.0
 42
2.54
 44
2.54
 73
     0
 74
     0
 77
     1
140
3.0
145
1.0
147
1.5
172
     1
173
     1
279
     2
340
11
  0
DIMSTYLE
105
2D
102
{ACAD_REACTORS
330
1F2
102
}
330
A
100
AcDbSymbolTableRecord
100
AcDbDimStyleTableRecord
  2
DIMSTYLE2
 70
     0
 41
1.0
 42
2.54
 44
2.54
 73
     0
 74
     0
 77
     1
140
3.0
145
1.0
147
1.5
172
     1
173
     1
279
     2
340
11
  0
DIMSTYLE
105
2E
102
{ACAD_REACTORS
330
1F3
102
}
330
A
100
AcDbSymbolTableRecord
100
AcDbDimStyleTableRecord
  2
DIMSTYLE3
 70
     0
 41
1.0
 42
2.54
 44
2.54
 73
     0
 74
     0
 77
     1
140
3.0
145
1.0
147
1.5
172
     1
173
     1
279
     2
340
11
  0
DIMSTYLE
105
2F
102
{ACAD_REACTORS
330
1F4
102
}
330
A
100
AcDbSymbolTableRecord
100
AcDbDimStyleTableRecord
  2
DIMSTYLE4
 70
     0
 41
1.0
 42
2.54
 44
2.54
 73
     0
 74
     0
 77
     1
140
3.0
145
1.0
147
1.5
172
     1
173
     1
279
     2
340
11
  0
DIMSTYLE
105
30
102
{ACAD_REACTORS
330
1F5
102
}
330
A
100
AcDbSymbolTableRecord
100
AcDbDimStyleTableRecord
  2
DIMSTYLE5
 70
     0
 41
1.0
 42
2.54
 44
2.54
 73
     0
 74
     0
 77
     1
140
3.0
145
1.0
147
1.5
172
     1
173
     1
279
     2
340
11
  0
DIMSTYLE
105
31
102
{ACAD_REACTORS
330
1F6
102
}
330
A
100
AcDbSymbolTableRecord
100
AcDbDimStyleTableRecord
  2
DIMSTYLE6
 70
     0
 41
1.0
 42
2.54
 44
2.54
 73
     0
 74
     0
 77
     1
140
3.0
145
1.0
147
1.5
172
     1
173
     1
279
     2
340
11
  0
DIMSTYLE
105
32
102
{ACAD_REACTORS
330
1F8
102
}
330
A
100
AcDbSymbolTableRecord
100
AcDbDimStyleTableRecord
  2
DIMSTYLE7
 70
     0
 41
1.0
 42
2.54
 44
2.54
 73
     0
 74
     0
 77
     1
140
3.0
145
1.0
147
1.5
172
     1
173
     1
279
     2
340
11
  0
DIMSTYLE
105
33
102
{ACAD_REACTORS
330
1F9
102
}
330
A
100
AcDbSymbolTableRecord
100
AcDbDimStyleTableRecord
  2
DIMSTYLE8
 70
     0
 41
1.0
 42
2.54
 44
2.54
 73
     0
 74
     0
 75
     1
 76
     1
 77
     1
140
3.0
145
1.0
147
1.5
172
     1
173
     1
279
     2
340
11
  0
DIMSTYLE
105
34
102
{ACAD_REACTORS
330
1FA
102
}
330
A
100
AcDbSymbolTableRecord
100
AcDbDimStyleTableRecord
  2
DIMSTYLE9
 70
     0
 41
1.0
 42
2.54
 44
2.54
 73
     0
 74
     0
 75
     1
 76
     1
 77
     1
140
3.0
145
1.0
147
1.5
172
     1
173
     1
279
     2
340
11
  0
DIMSTYLE
105
35
102
{ACAD_REACTORS
330
1FB
102
}
330
A
100
AcDbSymbolTableRecord
100
AcDbDimStyleTableRecord
  2
DIMSTYLE10
 70
     0
 41
1.0
 42
2.54
 44
2.54
 73
     0
 74
     0
 75
     1
 76
     1
 77
     1
140
3.0
145
1.0
147
1.5
172
     1
173
     1
279
     2
340
11
  0
DIMSTYLE
105
36
102
{ACAD_REACTORS
330
1FC
102
}
330
A
100
AcDbSymbolTableRecord
100
AcDbDimStyleTableRecord
  2
DIMSTYLE11
 70
     0
 41
1.0
 42
2.54
 44
2.54
 73
     0
 74
     0
 75
     1
 76
     1
 77
     1
140
3.0
145
1.0
147
1.5
172
     1
173
     1
279
     2
340
11
  0
ENDTAB
  0
TABLE
  2
BLOCK_RECORD
  5
1
330
0
100
AcDbSymbolTable
 70
    15
  0
BLOCK_RECORD
  5
22
330
1
100
AcDbSymbolTableRecord
100
AcDbBlockTableRecord
  2
*Model_Space
340
25
  0
BLOCK_RECORD
  5
1E
330
1
100
AcDbSymbolTableRecord
100
AcDbBlockTableRecord
  2
*Paper_Space
340
21
  0
BLOCK_RECORD
  5
3A
330
1
100
AcDbSymbolTableRecord
100
AcDbBlockTableRecord
  2
_OPEN30
340
0
102
{BLKREFS
331
44
331
46
331
51
331
52
331
5D
331
5E
331
68
331
69
331
74
331
75
331
7E
331
7F
331
8A
331
8B
331
96
331
97
331
A0
331
A1
331
AA
331
AB
331
B4
331
B5
102
}
  0
BLOCK_RECORD
  5
40
330
1
100
AcDbSymbolTableRecord
100
AcDbBlockTableRecord
  2
*D1
340
0
  0
BLOCK_RECORD
  5
4E
330
1
100
AcDbSymbolTableRecord
100
AcDbBlockTableRecord
  2
*D2
340
0
  0
BLOCK_RECORD
  5
5A
330
1
100
AcDbSymbolTableRecord
100
AcDbBlockTableRecord
  2
*D3
340
0
  0
BLOCK_RECORD
  5
65
330
1
100
AcDbSymbolTableRecord
100
AcDbBlockTableRecord
  2
*D4
340
0
  0
BLOCK_RECORD
  5
71
330
1
100
AcDbSymbolTableRecord
100
AcDbBlockTableRecord
  2
*D5
340
0
  0
BLOCK_RECORD
  5
7B
330
1
100
AcDbSymbolTableRecord
100
AcDbBlockTableRecord
  2
*D6
340
0
  0
BLOCK_RECORD
  5
87
330
1
100
AcDbSymbolTableRecord
100
AcDbBlockTableRecord
  2
*D7
340
0
  0
BLOCK_RECORD
  5
92
330
1
100
AcDbSymbolTableRecord
100
AcDbBlockTableRecord
  2
*D8
340
0
  0
BLOCK_RECORD
  5
9C
330
1
100
AcDbSymbolTableRecord
100
AcDbBlockTableRecord
  2
*D9
340
0
  0
BLOCK_RECORD
  5
A6
330
1
100
AcDbSymbolTableRecord
100
AcDbBlockTableRecord
  2
*D10
340
0
  0
BLOCK_RECORD
  5
B0
330
1
100
AcDbSymbolTableRecord
100
AcDbBlockTableRecord
  2
*D11
340
0
  0
BLOCK_RECORD
  5
BA
330
1
100
AcDbSymbolTableRecord
100
AcDbBlockTableRecord
  2
KOZU0001
340
0
102
{BLKREFS
331
1F7
102
}
  0
BLOCK_RECORD
  5
C3
330
1
100
AcDbSymbolTableRecord
100
AcDbBlockTableRecord
  2
KOZU0002
340
0
102
{BLKREFS
331
1FD
102
}
  0
ENDTAB
  0
ENDSEC
  0
SECTION
  2
BLOCKS
  0
BLOCK
  5
23
330
22
100
AcDbEntity
  8
0
100
AcDbBlockBegin
  2
*Model_Space
 70
     0
 10
0.0
 20
0.0
 30
0.0
  3
*Model_Space
  1

  0
ENDBLK
  5
24
330
22
100
AcDbEntity
  8
0
100
AcDbBlockEnd
  0
BLOCK
  5
1F
330
1E
100
AcDbEntity
 67
     1
  8
0
100
AcDbBlockBegin
  2
*Paper_Space
 70
     0
 10
0.0
 20
0.0
 30
0.0
  3
*Paper_Space
  1

  0
ENDBLK
  5
20
330
1E
100
AcDbEntity
 67
     1
  8
0
100
AcDbBlockEnd
  0
BLOCK
  5
3B
330
3A
100
AcDbEntity
  8
0
100
AcDbBlockBegin
  2
_OPEN30
 70
     0
 10
0.0
 20
0.0
 30
0.0
  3
_OPEN30
  1

  0
LINE
  5
3C
330
3A
100
AcDbEntity
  8
0
  6
ByBlock
 62
     0
100
AcDbLine
 10
0.0
 20
0.0
 30
0.0
 11
-2.999999999999993
 21
-1.000000000000017
 31
0.0
  0
LINE
  5
3D
330
3A
100
AcDbEntity
  8
0
  6
ByBlock
 62
     0
100
AcDbLine
 10
0.0
 20
0.0
 30
0.0
 11
-3.000000000000006
 21
0.9999999999999815
 31
0.0
  0
LINE
  5
3E
330
3A
100
AcDbEntity
  8
0
  6
ByBlock
 62
     0
100
AcDbLine
 10
0.0
 20
0.0
 30
0.0
 11
-3.0
 21
0.0
 31
0.0
  0
ENDBLK
  5
3F
330
3A
100
AcDbEntity
  8
0
100
AcDbBlockEnd
  0
BLOCK
  5
41
330
40
100
AcDbEntity
  8
0
100
AcDbBlockBegin
  2
*D1
 70
     1
 10
0.0
 20
0.0
 30
0.0
  3
*D1
  1

  0
LINE
  5
42
330
40
100
AcDbEntity
  8
0
  6
Continuous
 62
     7
100
AcDbLine
 10
-144.7904510498046
 20
330.7061157226563
 30
0.0
 11
-137.7913513183594
 21
330.7061157226563
 31
0.0
  0
LINE
  5
43
330
40
100
AcDbEntity
  8
0
  6
Continuous
 62
     7
100
AcDbLine
 10
-147.7904510498047
 20
330.7061157226563
 30
0.0
 11
-144.7904510498046
 21
330.7061157226563
 31
0.0
  0
INSERT
  5
44
330
40
100
AcDbEntity
  8
0
  6
Continuous
 62
     7
100
AcDbBlockReference
  2
_OPEN30
 10
-147.7904510498047
 20
330.7061157226563
 30
0.0
 50
0.0000000000003562
  0
LINE
  5
45
330
40
100
AcDbEntity
  8
0
  6
Continuous
 62
     7
100
AcDbLine
 10
-150.7904510498047
 20
330.7061157226563
 30
0.0
 11
-154.1404510498047
 21
330.7061157226562
 31
0.0
  0
INSERT
  5
46
330
40
100
AcDbEntity
  8
0
  6
Continuous
 62
     7
100
AcDbBlockReference
  2
_OPEN30
 10
-144.7904510498046
 20
330.7061157226563
 30
0.0
 50
180.0
  0
LINE
  5
47
330
40
100
AcDbEntity
  8
0
  6
Continuous
 62
     7
100
AcDbLine
 10
-141.7904510498047
 20
330.7061157226563
 30
0.0
 11
-138.4404510498047
 21
330.7061157226563
 31
0.0
  0
LINE
  5
48
330
40
100
AcDbEntity
  8
0
  6
Continuous
 62
     7
100
AcDbLine
 10
-144.7904510498046
 20
306.9079504394532
 30
0.0
 11
-144.7904510498046
 21
332.9921264648438
 31
0.0
  0
TEXT
  5
49
330
40
100
AcDbEntity
  8
0
  6
Continuous
 62
     7
100
AcDbText
 10
-139.9313586950302
 20
331.4561157226563
 30
0.0
 40
3.0
  1
3
100
AcDbText
  0
POINT
  5
4A
330
40
100
AcDbEntity
  8
DEFPOINTS
  6
Continuous
 62
     7
100
AcDbPoint
 10
-147.7904510498047
 20
315.9647827148438
 30
0.0
  0
POINT
  5
4B
330
40
100
AcDbEntity
  8
DEFPOINTS
  6
Continuous
 62
     7
100
AcDbPoint
 10
-144.7904510498046
 20
304.3679504394531
 30
0.0
  0
POINT
  5
4C
330
40
100
AcDbEntity
  8
DEFPOINTS
  6
Continuous
 62
     7
100
AcDbPoint
 10
-144.7904510498046
 20
330.7061157226563
 30
0.0
  0
ENDBLK
  5
4D
330
40
100
AcDbEntity
  8
0
100
AcDbBlockEnd
  0
BLOCK
  5
4F
330
4E
100
AcDbEntity
  8
0
100
AcDbBlockBegin
  2
*D2
 70
     1
 10
0.0
 20
0.0
 30
0.0
  3
*D2
  1

  0
LINE
  5
50
330
4E
100
AcDbEntity
  8
0
  6
Continuous
 62
     7
100
AcDbLine
 10
-150.7929534912109
 20
330.7061157226563
 30
0.0
 11
-204.7929534912109
 21
330.7061157226563
 31
0.0
  0
INSERT
  5
51
330
4E
100
AcDbEntity
  8
0
  6
Continuous
 62
     7
100
AcDbBlockReference
  2
_OPEN30
 10
-147.7929534912109
 20
330.7061157226563
 30
0.0
  0
INSERT
  5
52
330
4E
100
AcDbEntity
  8
0
  6
Continuous
 62
     7
100
AcDbBlockReference
  2
_OPEN30
 10
-207.7929534912109
 20
330.7061157226563
 30
0.0
 50
180.0000000000004
  0
LINE
  5
53
330
4E
100
AcDbEntity
  8
0
  6
Continuous
 62
     7
100
AcDbLine
 10
-147.7929534912109
 20
306.9079504394532
 30
0.0
 11
-147.7929534912109
 21
332.9921264648438
 31
0.0
  0
LINE
  5
54
330
4E
100
AcDbEntity
  8
0
  6
Continuous
 62
     7
100
AcDbLine
 10
-207.7929534912109
 20
279.9079504394532
 30
0.0
 11
-207.7929534912109
 21
332.9921264648438
 31
0.0
  0
TEXT
  5
55
330
4E
100
AcDbEntity
  8
0
  6
Continuous
 62
     7
100
AcDbText
 10
-192.3629540801048
 20
331.4561157226563
 30
0.0
 40
3.0
  1
６０　（５５～７０）
 41
0.8443929326254473
100
AcDbText
  0
POINT
  5
56
330
4E
100
AcDbEntity
  8
DEFPOINTS
  6
Continuous
 62
     7
100
AcDbPoint
 10
-147.7929534912109
 20
304.3679504394531
 30
0.0
  0
POINT
  5
57
330
4E
100
AcDbEntity
  8
DEFPOINTS
  6
Continuous
 62
     7
100
AcDbPoint
 10
-207.7929534912109
 20
277.3679504394531
 30
0.0
  0
POINT
  5
58
330
4E
100
AcDbEntity
  8
DEFPOINTS
  6
Continuous
 62
     7
100
AcDbPoint
 10
-207.7929534912109
 20
330.7061157226563
 30
0.0
  0
ENDBLK
  5
59
330
4E
100
AcDbEntity
  8
0
100
AcDbBlockEnd
  0
BLOCK
  5
5B
330
5A
100
AcDbEntity
  8
0
100
AcDbBlockBegin
  2
*D3
 70
     1
 10
0.0
 20
0.0
 30
0.0
  3
*D3
  1

  0
LINE
  5
5C
330
5A
100
AcDbEntity
  8
0
  6
Continuous
 62
     7
100
AcDbLine
 10
-210.7929534912109
 20
330.7061157226563
 30
0.0
 11
-214.7929534912109
 21
330.7061157226563
 31
0.0
  0
INSERT
  5
5D
330
5A
100
AcDbEntity
  8
0
  6
Continuous
 62
     7
100
AcDbBlockReference
  2
_OPEN30
 10
-207.7929534912109
 20
330.7061157226563
 30
0.0
  0
INSERT
  5
5E
330
5A
100
AcDbEntity
  8
0
  6
Continuous
 62
     7
100
AcDbBlockReference
  2
_OPEN30
 10
-217.7929534912109
 20
330.7061157226563
 30
0.0
 50
180.0000000000004
  0
LINE
  5
5F
330
5A
100
AcDbEntity
  8
0
  6
Continuous
 62
     7
100
AcDbLine
 10
-217.7929534912109
 20
268.4079504394532
 30
0.0
 11
-217.7929534912109
 21
332.9921264648438
 31
0.0
  0
TEXT
  5
60
330
5A
100
AcDbEntity
  8
0
  6
Continuous
 62
     7
100
AcDbText
 10
-215.3629536032677
 20
331.4561157226563
 30
0.0
 40
3.0
  1
10
 41
1.40181821042841
100
AcDbText
  0
POINT
  5
61
330
5A
100
AcDbEntity
  8
DEFPOINTS
  6
Continuous
 62
     7
100
AcDbPoint
 10
-207.7929534912109
 20
322.4248657226563
 30
0.0
  0
POINT
  5
62
330
5A
100
AcDbEntity
  8
DEFPOINTS
  6
Continuous
 62
     7
100
AcDbPoint
 10
-217.7929534912109
 20
265.8679504394531
 30
0.0
  0
POINT
  5
63
330
5A
100
AcDbEntity
  8
DEFPOINTS
  6
Continuous
 62
     7
100
AcDbPoint
 10
-217.7929534912109
 20
330.7061157226563
 30
0.0
  0
ENDBLK
  5
64
330
5A
100
AcDbEntity
  8
0
100
AcDbBlockEnd
  0
BLOCK
  5
66
330
65
100
AcDbEntity
  8
0
100
AcDbBlockBegin
  2
*D4
 70
     1
 10
0.0
 20
0.0
 30
0.0
  3
*D4
  1

  0
LINE
  5
67
330
65
100
AcDbEntity
  8
0
  6
Continuous
 62
     7
100
AcDbLine
 10
-174.7929534912109
 20
108.0321655273438
 30
0.0
 11
-107.7929534912109
 21
108.0321655273437
 31
0.0
  0
INSERT
  5
68
330
65
100
AcDbEntity
  8
0
  6
Continuous
 62
     7
100
AcDbBlockReference
  2
_OPEN30
 10
-177.7929534912109
 20
108.0321655273438
 30
0.0
 50
180.0000000000004
  0
INSERT
  5
69
330
65
100
AcDbEntity
  8
0
  6
Continuous
 62
     7
100
AcDbBlockReference
  2
_OPEN30
 10
-104.7929534912109
 20
108.0321655273438
 30
0.0
  0
LINE
  5
6A
330
65
100
AcDbEntity
  8
0
  6
Continuous
 62
     7
100
AcDbLine
 10
-177.7929534912109
 20
169.3279351806641
 30
0.0
 11
-177.7929534912109
 21
105.7461700439453
 31
0.0
  0
LINE
  5
6B
330
65
100
AcDbEntity
  8
0
  6
Continuous
 62
     7
100
AcDbLine
 10
-104.7929534912109
 20
169.3279351806641
 30
0.0
 11
-104.7929534912109
 21
105.7461700439453
 31
0.0
  0
TEXT
  5
6C
330
65
100
AcDbEntity
  8
0
  6
Continuous
 62
     7
100
AcDbText
 10
-143.8629536032677
 20
108.7821655273438
 30
0.0
 40
3.0
  1
73
 41
1.028000020980834
100
AcDbText
  0
POINT
  5
6D
330
65
100
AcDbEntity
  8
DEFPOINTS
  6
Continuous
 62
     7
100
AcDbPoint
 10
-177.7929534912109
 20
171.8679351806641
 30
0.0
  0
POINT
  5
6E
330
65
100
AcDbEntity
  8
DEFPOINTS
  6
Continuous
 62
     7
100
AcDbPoint
 10
-104.7929534912109
 20
171.8679351806641
 30
0.0
  0
POINT
  5
6F
330
65
100
AcDbEntity
  8
DEFPOINTS
  6
Continuous
 62
     7
100
AcDbPoint
 10
-104.7929534912109
 20
108.0321655273438
 30
0.0
  0
ENDBLK
  5
70
330
65
100
AcDbEntity
  8
0
100
AcDbBlockEnd
  0
BLOCK
  5
72
330
71
100
AcDbEntity
  8
0
100
AcDbBlockBegin
  2
*D5
 70
     1
 10
0.0
 20
0.0
 30
0.0
  3
*D5
  1

  0
LINE
  5
73
330
71
100
AcDbEntity
  8
0
  6
Continuous
 62
     7
100
AcDbLine
 10
-214.7929534912109
 20
224.7911376953125
 30
0.0
 11
-160.7929534912109
 21
224.7911376953125
 31
0.0
  0
INSERT
  5
74
330
71
100
AcDbEntity
  8
0
  6
Continuous
 62
     7
100
AcDbBlockReference
  2
_OPEN30
 10
-217.7929534912109
 20
224.7911376953125
 30
0.0
 50
180.0000000000004
  0
INSERT
  5
75
330
71
100
AcDbEntity
  8
0
  6
Continuous
 62
     7
100
AcDbBlockReference
  2
_OPEN30
 10
-157.7929534912109
 20
224.7911376953125
 30
0.0
  0
TEXT
  5
76
330
71
100
AcDbEntity
  8
0
  6
Continuous
 62
     7
100
AcDbText
 10
-190.3629536032676
 20
225.5411376953125
 30
0.0
 40
3.0
  1
60
 41
1.101428593908038
100
AcDbText
  0
POINT
  5
77
330
71
100
AcDbEntity
  8
DEFPOINTS
  6
Continuous
 62
     7
100
AcDbPoint
 10
-217.7929534912109
 20
265.1874694824219
 30
0.0
  0
POINT
  5
78
330
71
100
AcDbEntity
  8
DEFPOINTS
  6
Continuous
 62
     7
100
AcDbPoint
 10
-157.7929534912109
 20
213.3679351806641
 30
0.0
  0
POINT
  5
79
330
71
100
AcDbEntity
  8
DEFPOINTS
  6
Continuous
 62
     7
100
AcDbPoint
 10
-157.7929534912109
 20
224.7911376953125
 30
0.0
  0
ENDBLK
  5
7A
330
71
100
AcDbEntity
  8
0
100
AcDbBlockEnd
  0
BLOCK
  5
7C
330
7B
100
AcDbEntity
  8
0
100
AcDbBlockBegin
  2
*D6
 70
     1
 10
0.0
 20
0.0
 30
0.0
  3
*D6
  1

  0
LINE
  5
7D
330
7B
100
AcDbEntity
  8
0
  6
Continuous
 62
     7
100
AcDbLine
 10
-81.71997070312501
 20
174.8679351806641
 30
0.0
 11
-81.71997070312498
 21
251.8679351806641
 31
0.0
  0
INSERT
  5
7E
330
7B
100
AcDbEntity
  8
0
  6
Continuous
 62
     7
100
AcDbBlockReference
  2
_OPEN30
 10
-81.719970703125
 20
171.8679351806641
 30
0.0
 50
270.0000000000005
  0
INSERT
  5
7F
330
7B
100
AcDbEntity
  8
0
  6
Continuous
 62
     7
100
AcDbBlockReference
  2
_OPEN30
 10
-81.719970703125
 20
254.8679351806641
 30
0.0
 50
90.00000000000019
  0
LINE
  5
80
330
7B
100
AcDbEntity
  8
0
  6
Continuous
 62
     7
100
AcDbLine
 10
-102.2529534912109
 20
171.8679351806641
 30
0.0
 11
-79.43397521972656
 21
171.8679351806641
 31
0.0
  0
LINE
  5
81
330
7B
100
AcDbEntity
  8
0
  6
Continuous
 62
     7
100
AcDbLine
 10
-102.2529534912109
 20
254.8679351806641
 30
0.0
 11
-79.43397521972656
 21
254.8679351806641
 31
0.0
  0
TEXT
  5
82
330
7B
100
AcDbEntity
  8
0
  6
Continuous
 62
     7
100
AcDbText
 10
-82.46997052521964
 20
209.2979349762192
 30
0.0
 40
3.0
  1
%%C83
 50
90.00000250447815
 41
0.9498249830693319
100
AcDbText
  0
POINT
  5
83
330
7B
100
AcDbEntity
  8
DEFPOINTS
  6
Continuous
 62
     7
100
AcDbPoint
 10
-104.7929534912109
 20
171.8679351806641
 30
0.0
  0
POINT
  5
84
330
7B
100
AcDbEntity
  8
DEFPOINTS
  6
Continuous
 62
     7
100
AcDbPoint
 10
-104.7929534912109
 20
254.8679351806641
 30
0.0
  0
POINT
  5
85
330
7B
100
AcDbEntity
  8
DEFPOINTS
  6
Continuous
 62
     7
100
AcDbPoint
 10
-81.719970703125
 20
254.8679351806641
 30
0.0
  0
ENDBLK
  5
86
330
7B
100
AcDbEntity
  8
0
100
AcDbBlockEnd
  0
BLOCK
  5
88
330
87
100
AcDbEntity
  8
0
100
AcDbBlockBegin
  2
*D7
 70
     1
 10
0.0
 20
0.0
 30
0.0
  3
*D7
  1

  0
LINE
  5
89
330
87
100
AcDbEntity
  8
0
  6
Continuous
 62
     7
100
AcDbLine
 10
-150.7929534912109
 20
320.8260498046875
 30
0.0
 11
-174.7929534912109
 21
320.8260498046875
 31
0.0
  0
INSERT
  5
8A
330
87
100
AcDbEntity
  8
0
  6
Continuous
 62
     7
100
AcDbBlockReference
  2
_OPEN30
 10
-147.7929534912109
 20
320.8260498046875
 30
0.0
  0
INSERT
  5
8B
330
87
100
AcDbEntity
  8
0
  6
Continuous
 62
     7
100
AcDbBlockReference
  2
_OPEN30
 10
-177.7929534912109
 20
320.8260498046875
 30
0.0
 50
180.0000000000004
  0
LINE
  5
8C
330
87
100
AcDbEntity
  8
0
  6
Continuous
 62
     7
100
AcDbLine
 10
-177.7929534912109
 20
257.4079351806641
 30
0.0
 11
-177.7929534912109
 21
323.112060546875
 31
0.0
  0
TEXT
  5
8D
330
87
100
AcDbEntity
  8
0
  6
Continuous
 62
     7
100
AcDbText
 10
-165.3629536032677
 20
321.5760498046875
 30
0.0
 40
3.0
  1
30
 41
1.101428593908038
100
AcDbText
  0
POINT
  5
8E
330
87
100
AcDbEntity
  8
DEFPOINTS
  6
Continuous
 62
     7
100
AcDbPoint
 10
-147.7929534912109
 20
332.9921264648438
 30
0.0
  0
POINT
  5
8F
330
87
100
AcDbEntity
  8
DEFPOINTS
  6
Continuous
 62
     7
100
AcDbPoint
 10
-177.7929534912109
 20
254.8679351806641
 30
0.0
  0
POINT
  5
90
330
87
100
AcDbEntity
  8
DEFPOINTS
  6
Continuous
 62
     7
100
AcDbPoint
 10
-177.7929534912109
 20
320.8260498046875
 30
0.0
  0
ENDBLK
  5
91
330
87
100
AcDbEntity
  8
0
100
AcDbBlockEnd
  0
BLOCK
  5
93
330
92
100
AcDbEntity
  8
0
100
AcDbBlockBegin
  2
*D8
 70
     1
 10
0.0
 20
0.0
 30
0.0
  3
*D8
  1

  0
LINE
  5
94
330
92
100
AcDbEntity
  8
0
  6
Continuous
 62
     7
100
AcDbLine
 10
-356.781982421875
 20
296.9951477050781
 30
0.0
 11
-342.777587890625
 21
329.6343078613281
 31
0.0
  0
LINE
  5
95
330
92
100
AcDbEntity
  8
0
  6
Continuous
 62
     7
100
AcDbLine
 10
-427.3623164406338
 20
132.497678699387
 30
0.0
 11
-357.9648930320223
 21
294.2382069207302
 31
0.0
  0
INSERT
  5
96
330
92
100
AcDbEntity
  8
0
  6
Continuous
 62
     7
100
AcDbBlockReference
  2
_OPEN30
 10
-428.5452270507812
 20
129.7407379150391
 30
0.0
 50
246.777455490031
  0
INSERT
  5
97
330
92
100
AcDbEntity
  8
0
  6
Continuous
 62
     7
100
AcDbBlockReference
  2
_OPEN30
 10
-356.781982421875
 20
296.9951477050781
 30
0.0
 50
66.77745549003034
  0
TEXT
  5
98
330
92
100
AcDbEntity
  8
0
  6
Continuous
 62
     7
100
AcDbText
 10
-356.1340725994852
 20
300.3912532525742
 30
0.0
 40
3.0
  1
%%C１８２（防水皿外径）
 50
66.80000140353341
 41
0.8440126077968535
100
AcDbText
  0
POINT
  5
99
330
92
100
AcDbEntity
  8
DEFPOINTS
  6
Continuous
 62
     7
100
AcDbPoint
 10
-428.5452270507812
 20
129.7407379150391
 30
0.0
  0
POINT
  5
9A
330
92
100
AcDbEntity
  8
DEFPOINTS
  6
Continuous
 62
     7
100
AcDbPoint
 10
-356.781982421875
 20
296.9951477050781
 30
0.0
  0
ENDBLK
  5
9B
330
92
100
AcDbEntity
  8
0
100
AcDbBlockEnd
  0
BLOCK
  5
9D
330
9C
100
AcDbEntity
  8
0
100
AcDbBlockBegin
  2
*D9
 70
     1
 10
0.0
 20
0.0
 30
0.0
  3
*D9
  1

  0
LINE
  5
9E
330
9C
100
AcDbEntity
  8
0
  6
Continuous
 62
     7
100
AcDbLine
 10
-353.4770202636719
 20
263.9684448242188
 30
0.0
 11
-312.8507995605469
 21
316.4279174804688
 31
0.0
  0
LINE
  5
9F
330
9C
100
AcDbEntity
  8
0
  6
Continuous
 62
     7
100
AcDbLine
 10
-430.0133180570794
 20
165.1393244327834
 30
0.0
 11
-355.3138914155767
 21
261.5965459285447
 31
0.0
  0
INSERT
  5
A0
330
9C
100
AcDbEntity
  8
0
  6
Continuous
 62
     7
100
AcDbBlockReference
  2
_OPEN30
 10
-431.8501892089844
 20
162.7674255371094
 30
0.0
 50
232.2447024762269
  0
INSERT
  5
A1
330
9C
100
AcDbEntity
  8
0
  6
Continuous
 62
     7
100
AcDbBlockReference
  2
_OPEN30
 10
-353.4770202636719
 20
263.9684448242188
 30
0.0
 50
52.2447024762263
  0
TEXT
  5
A2
330
9C
100
AcDbEntity
  8
0
  6
Continuous
 62
     7
100
AcDbText
 10
-334.9701275765274
 20
289.1131550341225
 30
0.0
 40
3.0
  1
%%C１２８（ノズル部外径）
 50
52.20000076957841
 41
0.8436974815103043
100
AcDbText
  0
POINT
  5
A3
330
9C
100
AcDbEntity
  8
DEFPOINTS
  6
Continuous
 62
     7
100
AcDbPoint
 10
-431.8501892089844
 20
162.7674255371094
 30
0.0
  0
POINT
  5
A4
330
9C
100
AcDbEntity
  8
DEFPOINTS
  6
Continuous
 62
     7
100
AcDbPoint
 10
-353.4770202636719
 20
263.9684448242188
 30
0.0
  0
ENDBLK
  5
A5
330
9C
100
AcDbEntity
  8
0
100
AcDbBlockEnd
  0
BLOCK
  5
A7
330
A6
100
AcDbEntity
  8
0
100
AcDbBlockBegin
  2
*D10
 70
     1
 10
0.0
 20
0.0
 30
0.0
  3
*D10
  1

  0
LINE
  5
A8
330
A6
100
AcDbEntity
  8
0
  6
Continuous
 62
     7
100
AcDbLine
 10
-350.6474914550781
 20
238.5799560546875
 30
0.0
 11
-285.5654907226563
 21
277.6328125
 31
0.0
  0
LINE
  5
A9
330
A6
100
AcDbEntity
  8
0
  6
Continuous
 62
     7
100
AcDbLine
 10
-432.1073027964882
 20
189.6995074947264
 30
0.0
 11
-353.2199066761681
 21
237.0363628666017
 31
0.0
  0
INSERT
  5
AA
330
A6
100
AcDbEntity
  8
0
  6
Continuous
 62
     7
100
AcDbBlockReference
  2
_OPEN30
 10
-434.6797180175781
 20
188.1559143066406
 30
0.0
 50
210.9661157147047
  0
INSERT
  5
AB
330
A6
100
AcDbEntity
  8
0
  6
Continuous
 62
     7
100
AcDbBlockReference
  2
_OPEN30
 10
-350.6474914550781
 20
238.5799560546875
 30
0.0
 50
30.96611571470396
  0
TEXT
  5
AC
330
A6
100
AcDbEntity
  8
0
  6
Continuous
 62
     7
100
AcDbText
 10
-308.3620998232875
 20
264.8192257990979
 30
0.0
 40
3.0
  1
%%C９８（目皿外径）
 50
30.99999858592387
 41
0.8448610247221777
100
AcDbText
  0
POINT
  5
AD
330
A6
100
AcDbEntity
  8
DEFPOINTS
  6
Continuous
 62
     7
100
AcDbPoint
 10
-434.6797180175781
 20
188.1559143066406
 30
0.0
  0
POINT
  5
AE
330
A6
100
AcDbEntity
  8
DEFPOINTS
  6
Continuous
 62
     7
100
AcDbPoint
 10
-350.6474914550781
 20
238.5799560546875
 30
0.0
  0
ENDBLK
  5
AF
330
A6
100
AcDbEntity
  8
0
100
AcDbBlockEnd
  0
BLOCK
  5
B1
330
B0
100
AcDbEntity
  8
0
100
AcDbBlockBegin
  2
*D11
 70
     1
 10
0.0
 20
0.0
 30
0.0
  3
*D11
  1

  0
LINE
  5
B2
330
B0
100
AcDbEntity
  8
0
  6
Continuous
 62
     7
100
AcDbLine
 10
-454.1829223632813
 20
266.0592346191406
 30
0.0
 11
-485.1402282714843
 21
292.5741882324219
 31
0.0
  0
LINE
  5
B3
330
B0
100
AcDbEntity
  8
0
  6
Continuous
 62
     7
100
AcDbLine
 10
-333.4227803058851
 20
162.6281503328902
 30
0.0
 11
-451.9044291667711
 21
264.1077047696489
 31
0.0
  0
INSERT
  5
B4
330
B0
100
AcDbEntity
  8
0
  6
Continuous
 62
     7
100
AcDbBlockReference
  2
_OPEN30
 10
-331.144287109375
 20
160.6766204833984
 30
0.0
 50
319.419939053479
  0
INSERT
  5
B5
330
B0
100
AcDbEntity
  8
0
  6
Continuous
 62
     7
100
AcDbBlockReference
  2
_OPEN30
 10
-454.1829223632813
 20
266.0592346191406
 30
0.0
 50
139.4199390534783
  0
TEXT
  5
B6
330
B0
100
AcDbEntity
  8
0
  6
Continuous
 62
     7
100
AcDbText
 10
-484.6502223397611
 20
293.1459173868479
 30
0.0
 40
3.0
  1
PCD162
 50
319.399999780894
 41
1.07125000655651
100
AcDbText
  0
POINT
  5
B7
330
B0
100
AcDbEntity
  8
DEFPOINTS
  6
Continuous
 62
     7
100
AcDbPoint
 10
-331.144287109375
 20
160.6766204833984
 30
0.0
  0
POINT
  5
B8
330
B0
100
AcDbEntity
  8
DEFPOINTS
  6
Continuous
 62
     7
100
AcDbPoint
 10
-454.1829223632813
 20
266.0592346191406
 30
0.0
  0
ENDBLK
  5
B9
330
B0
100
AcDbEntity
  8
0
100
AcDbBlockEnd
  0
BLOCK
  5
BB
330
BA
100
AcDbEntity
  8
0
100
AcDbBlockBegin
  2
KOZU0001
 70
     0
 10
0.0
 20
0.0
 30
0.0
  3
KOZU0001
  1

  0
LINE
  5
BC
330
BA
100
AcDbEntity
  8
0
  6
Continuous
 62
     7
100
AcDbLine
 10
0.0
 20
0.0
 30
0.0
 11
16.28384399414063
 21
24.01771545410156
 31
0.0
  0
LINE
  5
BD
330
BA
100
AcDbEntity
  8
0
  6
Continuous
 62
     7
100
AcDbLine
 10
16.28384399414063
 20
24.01771545410156
 30
0.0
 11
54.00494766235352
 21
24.01771545410156
 31
0.0
  0
LINE
  5
BE
330
BA
100
AcDbEntity
  8
0
  6
Continuous
 62
     7
100
AcDbLine
 10
0.0
 20
0.0
 30
0.0
 11
0.8558226031444483
 21
3.044268002648101
 31
0.0
  0
LINE
  5
BF
330
BA
100
AcDbEntity
  8
0
  6
Continuous
 62
     7
100
AcDbLine
 10
0.0
 20
0.0
 30
0.0
 11
2.511218884104419
 21
1.921920840231811
 31
0.0
  0
TEXT
  5
C0
330
BA
100
AcDbEntity
  8
0
  6
Continuous
 62
     7
100
AcDbText
 10
17.34164357185364
 20
24.76771545410156
 30
0.0
 40
3.0
  1
配管接続口
 41
0.8487395020950888
100
AcDbText
  0
TEXT
  5
C1
330
BA
100
AcDbEntity
  8
0
  6
Continuous
 62
     7
100
AcDbText
 10
17.34164357185364
 20
19.50271545410156
 30
0.0
 40
3.0
  1
Ｒｃ２　１／２（６５Ａ）
 41
0.8436974815103043
100
AcDbText
  0
ENDBLK
  5
C2
330
BA
100
AcDbEntity
  8
0
100
AcDbBlockEnd
  0
BLOCK
  5
C4
330
C3
100
AcDbEntity
  8
0
100
AcDbBlockBegin
  2
KOZU0002
 70
     0
 10
0.0
 20
0.0
 30
0.0
  3
KOZU0002
  1

  0
LINE
  5
C5
330
C3
100
AcDbEntity
  8
0
  6
Continuous
 62
     7
100
AcDbLine
 10
0.0
 20
0.0
 30
0.0
 11
-11.25665283203125
 21
18.80694580078125
 31
0.0
  0
LINE
  5
C6
330
C3
100
AcDbEntity
  8
0
  6
Continuous
 62
     7
100
AcDbLine
 10
-11.25665283203125
 20
18.80694580078125
 30
0.0
 11
-34.15188598632813
 21
18.80694580078125
 31
0.0
  0
LINE
  5
C7
330
C3
100
AcDbEntity
  8
0
  6
Continuous
 62
     7
100
AcDbLine
 10
0.0
 20
0.0
 30
0.0
 11
-2.398763520472904
 21
2.060566323331632
 31
0.0
  0
LINE
  5
C8
330
C3
100
AcDbEntity
  8
0
  6
Continuous
 62
     7
100
AcDbLine
 10
0.0
 20
0.0
 30
0.0
 11
-0.6826710223793434
 21
3.087711170949048
 31
0.0
  0
TEXT
  5
C9
330
C3
100
AcDbEntity
  8
0
  6
Continuous
 62
     7
100
AcDbText
 10
-32.43188536167145
 20
19.55694580078125
 30
0.0
 40
3.0
  1
３－Ｍ５皿穴
 41
0.8472565548642696
100
AcDbText
  0
ENDBLK
  5
CA
330
C3
100
AcDbEntity
  8
0
100
AcDbBlockEnd
  0
ENDSEC
  0
SECTION
  2
ENTITIES
  0
LINE
  5
CB
330
22
100
AcDbEntity
  8
0
  6
Continuous
 62
     7
100
AcDbLine
 10
-388.9715270996094
 20
253.2363128662109
 30
0.0
 11
-388.7400207519531
 21
253.6372833251953
 31
0.0
  0
LINE
  5
CC
330
22
100
AcDbEntity
  8
0
  6
Continuous
 62
     7
100
AcDbLine
 10
-374.4462280273438
 20
221.5762176513672
 30
0.0
 11
-366.2077331542969
 21
226.3327178955078
 31
0.0
  0
LINE
  5
CD
330
22
100
AcDbEntity
  8
0
  6
Continuous
 62
     7
100
AcDbLine
 10
-376.4461669921875
 20
225.0403442382813
 30
0.0
 11
-368.2076721191406
 21
229.7968292236328
 31
0.0
  0
LINE
  5
CE
330
22
100
AcDbEntity
  8
0
  6
Continuous
 62
     7
100
AcDbLine
 10
-390.9452514648438
 20
259.26953125
 30
0.0
 11
-393.00048828125
 21
256.6251831054688
 31
0.0
  0
LINE
  5
CF
330
22
100
AcDbEntity
  8
0
  6
Continuous
 62
     7
100
AcDbLine
 10
-394.3819885253906
 20
251.4663238525391
 30
0.0
 11
-392.3267211914063
 21
254.1106872558594
 31
0.0
  0
LINE
  5
D0
330
22
100
AcDbEntity
  8
0
  6
Continuous
 62
     7
100
AcDbLine
 10
-394.3819885253906
 20
251.4663238525391
 30
0.0
 11
-394.7826538085938
 21
251.6976623535156
 31
0.0
  0
LINE
  5
D1
330
22
100
AcDbEntity
  8
0
  6
Continuous
 62
     7
100
AcDbLine
 10
-396.3556823730469
 20
257.4995727539063
 30
0.0
 11
-396.5871887207031
 21
257.0986022949219
 31
0.0
  0
LINE
  5
D2
330
22
100
AcDbEntity
  8
0
  6
Continuous
 62
     7
100
AcDbLine
 10
-395.1833190917969
 20
251.9289855957031
 30
0.0
 11
-394.7826538085938
 21
251.6976623535156
 31
0.0
  0
LINE
  5
D3
330
22
100
AcDbEntity
  8
0
  6
Continuous
 62
     7
100
AcDbLine
 10
-396.3556823730469
 20
257.4995727539063
 30
0.0
 11
-396.1242065429688
 21
257.9005432128905
 31
0.0
  0
LINE
  5
D4
330
22
100
AcDbEntity
  8
0
  6
Continuous
 62
     7
100
AcDbLine
 10
-388.9715270996094
 20
253.2363128662109
 30
0.0
 11
-389.2030334472656
 21
252.8353424072266
 31
0.0
  0
LINE
  5
D5
330
22
100
AcDbEntity
  8
0
  6
Continuous
 62
     7
100
AcDbLine
 10
-389.2030334472656
 20
252.8353424072266
 30
0.0
 11
-392.3267211914063
 21
254.1106872558594
 31
0.0
  0
LINE
  5
D6
330
22
100
AcDbEntity
  8
0
  6
Continuous
 62
     7
100
AcDbLine
 10
-394.3819885253906
 20
167.4663238525391
 30
0.0
 11
-392.3267211914063
 21
170.1106872558594
 31
0.0
  0
LINE
  5
D7
330
22
100
AcDbEntity
  8
0
  6
Continuous
 62
     7
100
AcDbLine
 10
-388.9715270996094
 20
169.2363128662109
 30
0.0
 11
-388.7400207519531
 21
169.6372833251953
 31
0.0
  0
LINE
  5
D8
330
22
100
AcDbEntity
  8
0
  6
Continuous
 62
     7
100
AcDbLine
 10
-388.9715270996094
 20
169.2363128662109
 30
0.0
 11
-389.2030334472656
 21
168.8353424072266
 31
0.0
  0
LINE
  5
D9
330
22
100
AcDbEntity
  8
0
  6
Continuous
 62
     7
100
AcDbLine
 10
-396.1242065429688
 20
173.9005279541016
 30
0.0
 11
-393.00048828125
 21
172.6251831054688
 31
0.0
  0
LINE
  5
DA
330
22
100
AcDbEntity
  8
0
  6
Continuous
 62
     7
100
AcDbLine
 10
-396.3556823730469
 20
173.4995574951172
 30
0.0
 11
-396.1242065429688
 21
173.9005279541016
 31
0.0
  0
LINE
  5
DB
330
22
100
AcDbEntity
  8
0
  6
Continuous
 62
     7
100
AcDbLine
 10
-396.3556823730469
 20
173.4995574951172
 30
0.0
 11
-396.5871887207031
 21
173.0985870361328
 31
0.0
  0
LINE
  5
DC
330
22
100
AcDbEntity
  8
0
  6
Continuous
 62
     7
100
AcDbLine
 10
-396.5871887207031
 20
173.0985870361328
 30
0.0
 11
-393.9208679199219
 21
171.0310516357422
 31
0.0
  0
LINE
  5
DD
330
22
100
AcDbEntity
  8
0
  6
Continuous
 62
     7
100
AcDbLine
 10
-388.7400207519531
 20
169.6372833251953
 30
0.0
 11
-391.4063415527344
 21
171.7048187255859
 31
0.0
  0
LINE
  5
DE
330
22
100
AcDbEntity
  8
0
  6
CENTER
 62
     7
100
AcDbLine
 10
-494.551025390625
 20
213.3679351806641
 30
0.0
 11
-294.5285034179688
 21
213.3679351806641
 31
0.0
  0
LINE
  5
DF
330
22
100
AcDbEntity
  8
0
  6
Continuous
 62
     7
100
AcDbLine
 10
-408.8808898925781
 20
225.04052734375
 30
0.0
 11
-417.1193847656249
 21
229.7970123291016
 31
0.0
  0
LINE
  5
E0
330
22
100
AcDbEntity
  8
0
  6
Continuous
 62
     7
100
AcDbLine
 10
-410.8809204101563
 20
221.5764465332031
 30
0.0
 11
-419.119415283203
 21
226.3329315185547
 31
0.0
  0
LINE
  5
E1
330
22
100
AcDbEntity
  8
0
  6
Continuous
 62
     7
100
AcDbLine
 10
-390.1438903808594
 20
258.806884765625
 30
0.0
 11
-390.5445556640625
 21
259.0382080078125
 31
0.0
  0
LINE
  5
E2
330
22
100
AcDbEntity
  8
0
  6
Continuous
 62
     7
100
AcDbLine
 10
-390.1438903808594
 20
258.806884765625
 30
0.0
 11
-391.4063415527344
 21
255.7048187255859
 31
0.0
  0
LINE
  5
E3
330
22
100
AcDbEntity
  8
0
  6
Continuous
 62
     7
100
AcDbLine
 10
-396.5871887207031
 20
257.0986022949219
 30
0.0
 11
-393.9208679199219
 21
255.0310516357422
 31
0.0
  0
LINE
  5
E4
330
22
100
AcDbEntity
  8
0
  6
Continuous
 62
     7
100
AcDbLine
 10
-396.1242065429688
 20
257.9005432128905
 30
0.0
 11
-393.00048828125
 21
256.6251831054688
 31
0.0
  0
LINE
  5
E5
330
22
100
AcDbEntity
  8
0
  6
Continuous
 62
     7
100
AcDbLine
 10
-395.1833190917969
 20
251.9289855957031
 30
0.0
 11
-393.9208679199219
 21
255.0310516357422
 31
0.0
  0
LINE
  5
E6
330
22
100
AcDbEntity
  8
0
  6
Continuous
 62
     7
100
AcDbLine
 10
-390.9452514648438
 20
259.26953125
 30
0.0
 11
-390.5445556640625
 21
259.0382080078125
 31
0.0
  0
LINE
  5
E7
330
22
100
AcDbEntity
  8
0
  6
Continuous
 62
     7
100
AcDbLine
 10
-388.7400207519531
 20
253.6372833251953
 30
0.0
 11
-391.4063415527344
 21
255.7048187255859
 31
0.0
  0
LINE
  5
E8
330
22
100
AcDbEntity
  8
0
  6
Continuous
 62
     7
100
AcDbLine
 10
-394.6636047363281
 20
193.4870452880859
 30
0.0
 11
-394.6636047363281
 21
183.9740600585938
 31
0.0
  0
LINE
  5
E9
330
22
100
AcDbEntity
  8
0
  6
Continuous
 62
     7
100
AcDbLine
 10
-390.6636047363281
 20
193.4870452880859
 30
0.0
 11
-390.6636047363281
 21
183.9740600585938
 31
0.0
  0
LINE
  5
EA
330
22
100
AcDbEntity
  8
0
  6
Continuous
 62
     7
100
AcDbLine
 10
-390.9452514648438
 20
175.2695465087891
 30
0.0
 11
-393.00048828125
 21
172.6251831054688
 31
0.0
  0
LINE
  5
EB
330
22
100
AcDbEntity
  8
0
  6
Continuous
 62
     7
100
AcDbLine
 10
-390.9452514648438
 20
175.2695465087891
 30
0.0
 11
-390.5445556640625
 21
175.0382232666016
 31
0.0
  0
LINE
  5
EC
330
22
100
AcDbEntity
  8
0
  6
Continuous
 62
     7
100
AcDbLine
 10
-390.1438903808594
 20
174.806884765625
 30
0.0
 11
-391.4063415527344
 21
171.7048187255859
 31
0.0
  0
LINE
  5
ED
330
22
100
AcDbEntity
  8
0
  6
Continuous
 62
     7
100
AcDbLine
 10
-390.1438903808594
 20
174.806884765625
 30
0.0
 11
-390.5445556640625
 21
175.0382232666016
 31
0.0
  0
LINE
  5
EE
330
22
100
AcDbEntity
  8
0
  6
Continuous
 62
     7
100
AcDbLine
 10
-395.1833190917969
 20
167.9289855957031
 30
0.0
 11
-393.9208679199219
 21
171.0310516357422
 31
0.0
  0
LINE
  5
EF
330
22
100
AcDbEntity
  8
0
  6
Continuous
 62
     7
100
AcDbLine
 10
-395.1833190917969
 20
167.9289855957031
 30
0.0
 11
-394.7826538085938
 21
167.6976623535156
 31
0.0
  0
LINE
  5
F0
330
22
100
AcDbEntity
  8
0
  6
Continuous
 62
     7
100
AcDbLine
 10
-389.2030334472656
 20
168.8353424072266
 30
0.0
 11
-392.3267211914063
 21
170.1106872558594
 31
0.0
  0
LINE
  5
F1
330
22
100
AcDbEntity
  8
0
  6
Continuous
 62
     7
100
AcDbLine
 10
-394.3819885253906
 20
167.4663238525391
 30
0.0
 11
-394.7826538085938
 21
167.6976623535156
 31
0.0
  0
LINE
  5
F2
330
22
100
AcDbEntity
  8
0
  6
CENTER
 62
     7
100
AcDbLine
 10
-392.6636047363281
 20
310.4667663574219
 30
0.0
 11
-392.6636047363281
 21
114.2064437866211
 31
0.0
  0
LINE
  5
F3
330
22
100
AcDbEntity
  8
0
  6
Continuous
 62
     7
100
AcDbLine
 10
-189.2929534912109
 20
250.9679412841797
 30
0.0
 11
-187.7929534912109
 21
249.4679412841797
 31
0.0
  0
LINE
  5
F4
330
22
100
AcDbEntity
  8
0
  6
Continuous
 62
     7
100
AcDbLine
 10
-177.7929534912109
 20
254.8632507324219
 30
0.0
 11
-177.7882690429688
 21
254.8679351806641
 31
0.0
  0
LINE
  5
F5
330
22
100
AcDbEntity
  8
0
  6
Continuous
 62
     7
100
AcDbLine
 10
-177.7929534912109
 20
252.0348205566406
 30
0.0
 11
-174.9598388671875
 21
254.8679351806641
 31
0.0
  0
LINE
  5
F6
330
22
100
AcDbEntity
  8
0
  6
Continuous
 62
     7
100
AcDbLine
 10
-175.4970092773438
 20
251.5023498535156
 30
0.0
 11
-172.1314086914063
 21
254.8679351806641
 31
0.0
  0
LINE
  5
F7
330
22
100
AcDbEntity
  8
0
  6
Continuous
 62
     7
100
AcDbLine
 10
-172.6685791015625
 20
251.5023498535156
 30
0.0
 11
-169.302978515625
 21
254.8679351806641
 31
0.0
  0
LINE
  5
F8
330
22
100
AcDbEntity
  8
0
  6
Continuous
 62
     7
100
AcDbLine
 10
-169.8401489257813
 20
251.5023498535156
 30
0.0
 11
-166.4745483398438
 21
254.8679351806641
 31
0.0
  0
LINE
  5
F9
330
22
100
AcDbEntity
  8
0
  6
Continuous
 62
     7
100
AcDbLine
 10
-167.01171875
 20
251.5023498535156
 30
0.0
 11
-163.6461334228516
 21
254.8679351806641
 31
0.0
  0
LINE
  5
FA
330
22
100
AcDbEntity
  8
0
  6
Continuous
 62
     7
100
AcDbLine
 10
-164.1832885742188
 20
251.5023498535156
 30
0.0
 11
-160.8177032470703
 21
254.8679351806641
 31
0.0
  0
LINE
  5
FB
330
22
100
AcDbEntity
  8
0
  6
Continuous
 62
     7
100
AcDbLine
 10
-161.3548736572266
 20
251.5023498535156
 30
0.0
 11
-157.9892730712891
 21
254.8679351806641
 31
0.0
  0
LINE
  5
FC
330
22
100
AcDbEntity
  8
0
  6
Continuous
 62
     7
100
AcDbLine
 10
-158.5264434814453
 20
251.5023498535156
 30
0.0
 11
-155.1608428955078
 21
254.8679351806641
 31
0.0
  0
LINE
  5
FD
330
22
100
AcDbEntity
  8
0
  6
Continuous
 62
     7
100
AcDbLine
 10
-155.6980133056641
 20
251.5023498535156
 30
0.0
 11
-152.3324127197266
 21
254.8679351806641
 31
0.0
  0
LINE
  5
FE
330
22
100
AcDbEntity
  8
0
  6
Continuous
 62
     7
100
AcDbLine
 10
-152.8695831298828
 20
251.5023498535156
 30
0.0
 11
-149.5039978027344
 21
254.8679351806641
 31
0.0
  0
LINE
  5
FF
330
22
100
AcDbEntity
  8
0
  6
Continuous
 62
     7
100
AcDbLine
 10
-150.0411529541016
 20
251.5023498535156
 30
0.0
 11
-146.6755676269531
 21
254.8679351806641
 31
0.0
  0
LINE
  5
100
330
22
100
AcDbEntity
  8
0
  6
Continuous
 62
     7
100
AcDbLine
 10
-147.2127380371094
 20
251.5023498535156
 30
0.0
 11
-143.8471374511719
 21
254.8679351806641
 31
0.0
  0
LINE
  5
101
330
22
100
AcDbEntity
  8
0
  6
Continuous
 62
     7
100
AcDbLine
 10
-144.5386199951172
 20
251.3480224609375
 30
0.0
 11
-141.0187072753906
 21
254.8679351806641
 31
0.0
  0
LINE
  5
102
330
22
100
AcDbEntity
  8
0
  6
Continuous
 62
     7
100
AcDbLine
 10
-143.1244201660156
 20
249.9338073730469
 30
0.0
 11
-138.1902770996094
 21
254.8679351806641
 31
0.0
  0
LINE
  5
103
330
22
100
AcDbEntity
  8
0
  6
Continuous
 62
     7
100
AcDbLine
 10
-141.4627990722656
 20
248.7669982910156
 30
0.0
 11
-135.3618621826172
 21
254.8679351806641
 31
0.0
  0
LINE
  5
104
330
22
100
AcDbEntity
  8
0
  6
Continuous
 62
     7
100
AcDbLine
 10
-138.6343688964844
 20
248.7669982910156
 30
0.0
 11
-132.5334320068359
 21
254.8679351806641
 31
0.0
  0
LINE
  5
105
330
22
100
AcDbEntity
  8
0
  6
Continuous
 62
     7
100
AcDbLine
 10
-135.8059387207031
 20
248.7669982910156
 30
0.0
 11
-129.7050018310547
 21
254.8679351806641
 31
0.0
  0
LINE
  5
106
330
22
100
AcDbEntity
  8
0
  6
Continuous
 62
     7
100
AcDbLine
 10
-132.9775085449219
 20
248.7669982910156
 30
0.0
 11
-126.876579284668
 21
254.8679351806641
 31
0.0
  0
LINE
  5
107
330
22
100
AcDbEntity
  8
0
  6
Continuous
 62
     7
100
AcDbLine
 10
-128.1434783935547
 20
250.7725982666016
 30
0.0
 11
-124.0481491088867
 21
254.8679351806641
 31
0.0
  0
LINE
  5
108
330
22
100
AcDbEntity
  8
0
  6
Continuous
 62
     7
100
AcDbLine
 10
-125.2238082885742
 20
250.8638458251953
 30
0.0
 11
-121.2197189331055
 21
254.8679351806641
 31
0.0
  0
LINE
  5
109
330
22
100
AcDbEntity
  8
0
  6
Continuous
 62
     7
100
AcDbLine
 10
-122.3041381835938
 20
250.9550933837891
 30
0.0
 11
-118.3912963867188
 21
254.8679351806641
 31
0.0
  0
LINE
  5
10A
330
22
100
AcDbEntity
  8
0
  6
Continuous
 62
     7
100
AcDbLine
 10
-119.3844680786133
 20
251.0463409423828
 30
0.0
 11
-115.5628662109375
 21
254.8679351806641
 31
0.0
  0
LINE
  5
10B
330
22
100
AcDbEntity
  8
0
  6
Continuous
 62
     7
100
AcDbLine
 10
-116.4647979736328
 20
251.1375885009766
 30
0.0
 11
-112.7344436645508
 21
254.8679351806641
 31
0.0
  0
LINE
  5
10C
330
22
100
AcDbEntity
  8
0
  6
Continuous
 62
     7
100
AcDbLine
 10
-113.5451278686523
 20
251.2288208007813
 30
0.0
 11
-109.9060134887695
 21
254.8679351806641
 31
0.0
  0
LINE
  5
10D
330
22
100
AcDbEntity
  8
0
  6
Continuous
 62
     7
100
AcDbLine
 10
-110.6254501342773
 20
251.320068359375
 30
0.0
 11
-107.0775833129883
 21
254.8679351806641
 31
0.0
  0
LINE
  5
10E
330
22
100
AcDbEntity
  8
0
  6
Continuous
 62
     7
100
AcDbLine
 10
-107.7057800292969
 20
251.4113159179689
 30
0.0
 11
-104.7929534912109
 21
254.3241424560547
 31
0.0
  0
LINE
  5
10F
330
22
100
AcDbEntity
  8
0
  6
Continuous
 62
     7
100
AcDbLine
 10
-145.6644897460938
 20
304.3679504394531
 30
0.0
 11
-144.7929534912109
 21
303.4963989257813
 31
0.0
  0
LINE
  5
110
330
22
100
AcDbEntity
  8
0
  6
Continuous
 62
     7
100
AcDbLine
 10
-146.3715972900391
 20
304.3679504394531
 30
0.0
 11
-144.7929534912109
 21
302.789306640625
 31
0.0
  0
LINE
  5
111
330
22
100
AcDbEntity
  8
0
  6
Continuous
 62
     7
100
AcDbLine
 10
-147.7929534912109
 20
303.66796875
 30
0.0
 11
-144.7929534912109
 21
300.66796875
 31
0.0
  0
LINE
  5
112
330
22
100
AcDbEntity
  8
0
  6
Continuous
 62
     7
100
AcDbLine
 10
-147.7929534912109
 20
302.9608764648438
 30
0.0
 11
-144.7929534912109
 21
299.9608764648438
 31
0.0
  0
LINE
  5
113
330
22
100
AcDbEntity
  8
0
  6
Continuous
 62
     7
100
AcDbLine
 10
-147.7929534912109
 20
300.8395385742188
 30
0.0
 11
-144.7929534912109
 21
297.8395385742188
 31
0.0
  0
LINE
  5
114
330
22
100
AcDbEntity
  8
0
  6
Continuous
 62
     7
100
AcDbLine
 10
-147.7929534912109
 20
300.1324462890625
 30
0.0
 11
-144.8948974609375
 21
297.234375
 31
0.0
  0
LINE
  5
115
330
22
100
AcDbEntity
  8
0
  6
Continuous
 62
     7
100
AcDbLine
 10
-146.3000335693359
 20
290.8613586425781
 30
0.0
 11
-144.7929534912109
 21
289.3542785644531
 31
0.0
  0
LINE
  5
116
330
22
100
AcDbEntity
  8
0
  6
Continuous
 62
     7
100
AcDbLine
 10
-146.6535949707031
 20
290.5078125
 30
0.0
 11
-144.7929534912109
 21
288.6471557617188
 31
0.0
  0
LINE
  5
117
330
22
100
AcDbEntity
  8
0
  6
Continuous
 62
     7
100
AcDbLine
 10
-147.7142486572266
 20
289.4471435546875
 30
0.0
 11
-144.7929534912109
 21
286.5258483886719
 31
0.0
  0
LINE
  5
118
330
22
100
AcDbEntity
  8
0
  6
Continuous
 62
     7
100
AcDbLine
 10
-147.7929534912109
 20
288.8187255859375
 30
0.0
 11
-144.7929534912109
 21
285.8187255859375
 31
0.0
  0
LINE
  5
119
330
22
100
AcDbEntity
  8
0
  6
Continuous
 62
     7
100
AcDbLine
 10
-147.7704162597656
 20
286.6748657226563
 30
0.0
 11
-144.7929534912109
 21
283.6974182128906
 31
0.0
  0
LINE
  5
11A
330
22
100
AcDbEntity
  8
0
  6
Continuous
 62
     7
100
AcDbLine
 10
-147.7929534912109
 20
285.9902954101563
 30
0.0
 11
-144.7929534912109
 21
282.9902954101563
 31
0.0
  0
LINE
  5
11B
330
22
100
AcDbEntity
  8
0
  6
Continuous
 62
     7
100
AcDbLine
 10
-147.7929534912109
 20
283.8689880371094
 30
0.0
 11
-144.7929534912109
 21
280.8689880371094
 31
0.0
  0
LINE
  5
11C
330
22
100
AcDbEntity
  8
0
  6
Continuous
 62
     7
100
AcDbLine
 10
-147.7929534912109
 20
283.161865234375
 30
0.0
 11
-144.7929534912109
 21
280.161865234375
 31
0.0
  0
LINE
  5
11D
330
22
100
AcDbEntity
  8
0
  6
Continuous
 62
     7
100
AcDbLine
 10
-147.7929534912109
 20
281.0405578613281
 30
0.0
 11
-144.7929534912109
 21
278.0405578613281
 31
0.0
  0
LINE
  5
11E
330
22
100
AcDbEntity
  8
0
  6
Continuous
 62
     7
100
AcDbLine
 10
-147.7929534912109
 20
280.333465576172
 30
0.0
 11
-144.7929534912109
 21
277.3334655761719
 31
0.0
  0
LINE
  5
11F
330
22
100
AcDbEntity
  8
0
  6
Continuous
 62
     7
100
AcDbLine
 10
-147.7929534912109
 20
278.2121276855469
 30
0.0
 11
-144.7929534912109
 21
275.2121276855469
 31
0.0
  0
LINE
  5
120
330
22
100
AcDbEntity
  8
0
  6
Continuous
 62
     7
100
AcDbLine
 10
-147.7929534912109
 20
277.5050354003905
 30
0.0
 11
-144.7929534912109
 21
274.5050354003906
 31
0.0
  0
LINE
  5
121
330
22
100
AcDbEntity
  8
0
  6
Continuous
 62
     7
100
AcDbLine
 10
-147.7929534912109
 20
275.3836975097656
 30
0.0
 11
-144.7929534912109
 21
272.3836975097656
 31
0.0
  0
LINE
  5
122
330
22
100
AcDbEntity
  8
0
  6
Continuous
 62
     7
100
AcDbLine
 10
-147.7929534912109
 20
274.6766052246094
 30
0.0
 11
-144.7929534912109
 21
271.6766052246094
 31
0.0
  0
LINE
  5
123
330
22
100
AcDbEntity
  8
0
  6
Continuous
 62
     7
100
AcDbLine
 10
-147.7929534912109
 20
272.5552673339844
 30
0.0
 11
-144.7929534912109
 21
269.5552673339844
 31
0.0
  0
LINE
  5
124
330
22
100
AcDbEntity
  8
0
  6
Continuous
 62
     7
100
AcDbLine
 10
-146.90283203125
 20
270.9580383300781
 30
0.0
 11
-144.7929534912109
 21
268.8481750488281
 31
0.0
  0
LINE
  5
125
330
22
100
AcDbEntity
  8
0
  6
Continuous
 62
     7
100
AcDbLine
 10
-147.7929534912109
 20
269.7268371582031
 30
0.0
 11
-144.7929534912109
 21
266.7268371582031
 31
0.0
  0
LINE
  5
126
330
22
100
AcDbEntity
  8
0
  6
Continuous
 62
     7
100
AcDbLine
 10
-147.7929534912109
 20
269.0197448730469
 30
0.0
 11
-144.7929534912109
 21
266.0197448730469
 31
0.0
  0
LINE
  5
127
330
22
100
AcDbEntity
  8
0
  6
Continuous
 62
     7
100
AcDbLine
 10
-147.7929534912109
 20
266.8984069824219
 30
0.0
 11
-144.7929534912109
 21
263.8984069824219
 31
0.0
  0
LINE
  5
128
330
22
100
AcDbEntity
  8
0
  6
Continuous
 62
     7
100
AcDbLine
 10
-147.7929534912109
 20
266.1913146972656
 30
0.0
 11
-144.7929534912109
 21
263.1913146972656
 31
0.0
  0
LINE
  5
129
330
22
100
AcDbEntity
  8
0
  6
Continuous
 62
     7
100
AcDbLine
 10
-147.7929534912109
 20
264.0700073242188
 30
0.0
 11
-144.7929534912109
 21
261.0700073242188
 31
0.0
  0
LINE
  5
12A
330
22
100
AcDbEntity
  8
0
  6
Continuous
 62
     7
100
AcDbLine
 10
-147.7929534912109
 20
263.3628845214844
 30
0.0
 11
-144.7929534912109
 21
260.3628845214844
 31
0.0
  0
LINE
  5
12B
330
22
100
AcDbEntity
  8
0
  6
Continuous
 62
     7
100
AcDbLine
 10
-147.7929534912109
 20
261.2415771484375
 30
0.0
 11
-144.7929534912109
 21
258.2415771484375
 31
0.0
  0
LINE
  5
12C
330
22
100
AcDbEntity
  8
0
  6
Continuous
 62
     7
100
AcDbLine
 10
-147.7929534912109
 20
260.5344543457031
 30
0.0
 11
-144.7929534912109
 21
257.5344543457031
 31
0.0
  0
LINE
  5
12D
330
22
100
AcDbEntity
  8
0
  6
Continuous
 62
     7
100
AcDbLine
 10
-147.7929534912109
 20
258.4131469726563
 30
0.0
 11
-144.7929534912109
 21
255.4131469726563
 31
0.0
  0
LINE
  5
12E
330
22
100
AcDbEntity
  8
0
  6
Continuous
 62
     7
100
AcDbLine
 10
-147.7929534912109
 20
257.7060241699219
 30
0.0
 11
-144.9548492431641
 21
254.8679351806641
 31
0.0
  0
LINE
  5
12F
330
22
100
AcDbEntity
  8
0
  6
Continuous
 62
     7
100
AcDbLine
 10
-147.7929534912109
 20
255.584716796875
 30
0.0
 11
-147.076171875
 21
254.8679351806641
 31
0.0
  0
LINE
  5
130
330
22
100
AcDbEntity
  8
0
  6
Continuous
 62
     7
100
AcDbLine
 10
-147.7929534912109
 20
254.8776092529297
 30
0.0
 11
-147.7832794189453
 21
254.8679351806641
 31
0.0
  0
LINE
  5
131
330
22
100
AcDbEntity
  8
0
  6
Continuous
 62
     7
100
AcDbLine
 10
-208.9649353027344
 20
277.3679504394531
 30
0.0
 11
-207.7929534912109
 21
276.1959533691406
 31
0.0
  0
LINE
  5
132
330
22
100
AcDbEntity
  8
0
  6
Continuous
 62
     7
100
AcDbLine
 10
-209.6720428466797
 20
277.3679504394531
 30
0.0
 11
-207.7929534912109
 21
275.4888610839844
 31
0.0
  0
LINE
  5
133
330
22
100
AcDbEntity
  8
0
  6
Continuous
 62
     7
100
AcDbLine
 10
-211.6769561767578
 20
277.2515258789063
 30
0.0
 11
-207.7929534912109
 21
273.3675231933594
 31
0.0
  0
LINE
  5
134
330
22
100
AcDbEntity
  8
0
  6
Continuous
 62
     7
100
AcDbLine
 10
-212.1544494628906
 20
277.0219116210938
 30
0.0
 11
-207.7929534912109
 21
272.6604309082031
 31
0.0
  0
LINE
  5
135
330
22
100
AcDbEntity
  8
0
  6
Continuous
 62
     7
100
AcDbLine
 10
-213.0464019775391
 20
275.7925415039063
 30
0.0
 11
-207.7929534912109
 21
270.5390930175781
 31
0.0
  0
LINE
  5
136
330
22
100
AcDbEntity
  8
0
  6
Continuous
 62
     7
100
AcDbLine
 10
-213.2751617431641
 20
275.314208984375
 30
0.0
 11
-207.7929534912109
 21
269.8320007324219
 31
0.0
  0
LINE
  5
137
330
22
100
AcDbEntity
  8
0
  6
Continuous
 62
     7
100
AcDbLine
 10
-213.9614715576172
 20
273.8792114257813
 30
0.0
 11
-207.7929534912109
 21
267.7106628417969
 31
0.0
  0
LINE
  5
138
330
22
100
AcDbEntity
  8
0
  6
Continuous
 62
     7
100
AcDbLine
 10
-214.1902465820313
 20
273.40087890625
 30
0.0
 11
-207.7929534912109
 21
267.0035705566406
 31
0.0
  0
LINE
  5
139
330
22
100
AcDbEntity
  8
0
  6
Continuous
 62
     7
100
AcDbLine
 10
-214.8765563964844
 20
271.9658508300781
 30
0.0
 11
-207.7929534912109
 21
264.8822326660156
 31
0.0
  0
LINE
  5
13A
330
22
100
AcDbEntity
  8
0
  6
Continuous
 62
     7
100
AcDbLine
 10
-215.1053314208984
 20
271.4875183105469
 30
0.0
 11
-207.7929534912109
 21
264.1751403808594
 31
0.0
  0
LINE
  5
13B
330
22
100
AcDbEntity
  8
0
  6
Continuous
 62
     7
100
AcDbLine
 10
-215.7916412353516
 20
270.052490234375
 30
0.0
 11
-207.7929534912109
 21
262.0538330078125
 31
0.0
  0
LINE
  5
13C
330
22
100
AcDbEntity
  8
0
  6
Continuous
 62
     7
100
AcDbLine
 10
-216.0204010009766
 20
269.5741577148438
 30
0.0
 11
-207.7929534912109
 21
261.3467102050781
 31
0.0
  0
LINE
  5
13D
330
22
100
AcDbEntity
  8
0
  6
Continuous
 62
     7
100
AcDbLine
 10
-216.7067108154297
 20
268.13916015625
 30
0.0
 11
-207.7929534912109
 21
259.2254028320313
 31
0.0
  0
LINE
  5
13E
330
22
100
AcDbEntity
  8
0
  6
Continuous
 62
     7
100
AcDbLine
 10
-216.9354858398438
 20
267.6608276367188
 30
0.0
 11
-207.7929534912109
 21
258.5182800292969
 31
0.0
  0
LINE
  5
13F
330
22
100
AcDbEntity
  8
0
  6
Continuous
 62
     7
100
AcDbLine
 10
-217.6002960205078
 20
266.2043151855469
 30
0.0
 11
-208.763916015625
 21
257.3679504394531
 31
0.0
  0
LINE
  5
140
330
22
100
AcDbEntity
  8
0
  6
Continuous
 62
     7
100
AcDbLine
 10
-214.7929534912109
 20
262.6898498535156
 30
0.0
 11
-209.4710235595703
 21
257.3679504394531
 31
0.0
  0
LINE
  5
141
330
22
100
AcDbEntity
  8
0
  6
Continuous
 62
     7
100
AcDbLine
 10
-217.7441711425781
 20
265.6410827636719
 30
0.0
 11
-214.9710235595703
 21
262.8679504394531
 31
0.0
  0
LINE
  5
142
330
22
100
AcDbEntity
  8
0
  6
Continuous
 62
     7
100
AcDbLine
 10
-214.7929534912109
 20
260.5685424804688
 30
0.0
 11
-211.5923461914063
 21
257.3679504394531
 31
0.0
  0
LINE
  5
143
330
22
100
AcDbEntity
  8
0
  6
Continuous
 62
     7
100
AcDbLine
 10
-217.7929534912109
 20
263.5685424804688
 30
0.0
 11
-217.0923461914064
 21
262.8679504394531
 31
0.0
  0
LINE
  5
144
330
22
100
AcDbEntity
  8
0
  6
Continuous
 62
     7
100
AcDbLine
 10
-208.2994537353516
 20
253.3679351806641
 30
0.0
 11
-207.7929534912109
 21
252.8614349365234
 31
0.0
  0
LINE
  5
145
330
22
100
AcDbEntity
  8
0
  6
Continuous
 62
     7
100
AcDbLine
 10
-214.7929534912109
 20
259.8614196777344
 30
0.0
 11
-212.2994537353516
 21
257.3679504394531
 31
0.0
  0
LINE
  5
146
330
22
100
AcDbEntity
  8
0
  6
Continuous
 62
     7
100
AcDbLine
 10
-210.4207763671875
 20
253.3679351806641
 30
0.0
 11
-208.4207763671875
 21
251.3679351806641
 31
0.0
  0
LINE
  5
147
330
22
100
AcDbEntity
  8
0
  6
Continuous
 62
     7
100
AcDbLine
 10
-214.7929534912109
 20
257.7401123046875
 30
0.0
 11
-214.4207763671875
 21
257.3679504394531
 31
0.0
  0
LINE
  5
148
330
22
100
AcDbEntity
  8
0
  6
Continuous
 62
     7
100
AcDbLine
 10
-211.1278839111328
 20
253.3679351806641
 30
0.0
 11
-209.1278839111328
 21
251.3679351806641
 31
0.0
  0
LINE
  5
149
330
22
100
AcDbEntity
  8
0
  6
Continuous
 62
     7
100
AcDbLine
 10
-213.2492065429688
 20
253.3679351806641
 30
0.0
 11
-211.2492065429688
 21
251.3679351806641
 31
0.0
  0
LINE
  5
14A
330
22
100
AcDbEntity
  8
0
  6
Continuous
 62
     7
100
AcDbLine
 10
-213.9563140869141
 20
253.3679351806641
 30
0.0
 11
-211.9563140869141
 21
251.3679351806641
 31
0.0
  0
LINE
  5
14B
330
22
100
AcDbEntity
  8
0
  6
Continuous
 62
     7
100
AcDbLine
 10
-214.7929534912109
 20
252.083251953125
 30
0.0
 11
-214.07763671875
 21
251.3679351806641
 31
0.0
  0
LINE
  5
14C
330
22
100
AcDbEntity
  8
0
  6
Continuous
 62
     7
100
AcDbLine
 10
-214.7929534912109
 20
251.3761444091797
 30
0.0
 11
-214.7847290039063
 21
251.3679351806641
 31
0.0
  0
LINE
  5
14D
330
22
100
AcDbEntity
  8
0
  6
Continuous
 62
     7
100
AcDbLine
 10
-214.7929534912109
 20
247.4477081298828
 30
0.0
 11
-212.3727264404297
 21
249.8679351806641
 31
0.0
  0
LINE
  5
14E
330
22
100
AcDbEntity
  8
0
  6
Continuous
 62
     7
100
AcDbLine
 10
-212.9028778076172
 20
246.3679351806641
 30
0.0
 11
-209.4028778076172
 21
249.8679351806641
 31
0.0
  0
LINE
  5
14F
330
22
100
AcDbEntity
  8
0
  6
Continuous
 62
     7
100
AcDbLine
 10
-209.9330291748047
 20
246.3679351806641
 30
0.0
 11
-204.9330291748047
 21
251.3679351806641
 31
0.0
  0
LINE
  5
150
330
22
100
AcDbEntity
  8
0
  6
Continuous
 62
     7
100
AcDbLine
 10
-206.9631805419922
 20
246.3679351806641
 30
0.0
 11
-201.9631805419922
 21
251.3679351806641
 31
0.0
  0
LINE
  5
151
330
22
100
AcDbEntity
  8
0
  6
Continuous
 62
     7
100
AcDbLine
 10
-203.9933319091797
 20
246.3679351806641
 30
0.0
 11
-198.9933319091797
 21
251.3679351806641
 31
0.0
  0
LINE
  5
152
330
22
100
AcDbEntity
  8
0
  6
Continuous
 62
     7
100
AcDbLine
 10
-201.0234832763672
 20
246.3679351806641
 30
0.0
 11
-196.0234832763672
 21
251.3679351806641
 31
0.0
  0
LINE
  5
153
330
22
100
AcDbEntity
  8
0
  6
Continuous
 62
     7
100
AcDbLine
 10
-198.0536346435547
 20
246.3679351806641
 30
0.0
 11
-193.0536346435547
 21
251.3679351806641
 31
0.0
  0
LINE
  5
154
330
22
100
AcDbEntity
  8
0
  6
Continuous
 62
     7
100
AcDbLine
 10
-195.0837860107422
 20
246.3679351806641
 30
0.0
 11
-190.0837860107422
 21
251.3679351806641
 31
0.0
  0
LINE
  5
155
330
22
100
AcDbEntity
  8
0
  6
Continuous
 62
     7
100
AcDbLine
 10
-192.1139373779297
 20
246.3679351806641
 30
0.0
 11
-188.4034423828125
 21
250.0784301757813
 31
0.0
  0
LINE
  5
156
330
22
100
AcDbEntity
  8
0
  6
Continuous
 62
     7
100
AcDbLine
 10
-189.1440887451172
 20
246.3679351806641
 30
0.0
 11
-186.0440826416016
 21
249.4679412841797
 31
0.0
  0
LINE
  5
157
330
22
100
AcDbEntity
  8
0
  6
Continuous
 62
     7
100
AcDbLine
 10
-186.1742401123047
 20
246.3679351806641
 30
0.0
 11
-183.0742340087891
 21
249.4679412841797
 31
0.0
  0
LINE
  5
158
330
22
100
AcDbEntity
  8
0
  6
Continuous
 62
     7
100
AcDbLine
 10
-183.2043914794922
 20
246.3679351806641
 30
0.0
 11
-180.1043853759766
 21
249.4679412841797
 31
0.0
  0
LINE
  5
159
330
22
100
AcDbEntity
  8
0
  6
Continuous
 62
     7
100
AcDbLine
 10
-180.2345428466797
 20
246.3679351806641
 30
0.0
 11
-177.1345367431641
 21
249.4679412841797
 31
0.0
  0
LINE
  5
15A
330
22
100
AcDbEntity
  8
0
  6
Continuous
 62
     7
100
AcDbLine
 10
-177.2646942138672
 20
246.3679351806641
 30
0.0
 11
-174.1646881103516
 21
249.4679412841797
 31
0.0
  0
LINE
  5
15B
330
22
100
AcDbEntity
  8
0
  6
Continuous
 62
     7
100
AcDbLine
 10
-174.2948455810546
 20
246.3679351806641
 30
0.0
 11
-171.1948394775391
 21
249.4679412841797
 31
0.0
  0
LINE
  5
15C
330
22
100
AcDbEntity
  8
0
  6
Continuous
 62
     7
100
AcDbLine
 10
-171.3249969482422
 20
246.3679351806641
 30
0.0
 11
-168.2249908447266
 21
249.4679412841797
 31
0.0
  0
LINE
  5
15D
330
22
100
AcDbEntity
  8
0
  6
Continuous
 62
     7
100
AcDbLine
 10
-168.3551483154297
 20
246.3679351806641
 30
0.0
 11
-165.2551422119141
 21
249.4679412841797
 31
0.0
  0
LINE
  5
15E
330
22
100
AcDbEntity
  8
0
  6
Continuous
 62
     7
100
AcDbLine
 10
-165.3852996826172
 20
246.3679351806641
 30
0.0
 11
-162.2852935791016
 21
249.4679412841797
 31
0.0
  0
LINE
  5
15F
330
22
100
AcDbEntity
  8
0
  6
Continuous
 62
     7
100
AcDbLine
 10
-162.4154510498047
 20
246.3679351806641
 30
0.0
 11
-159.3154449462891
 21
249.4679412841797
 31
0.0
  0
LINE
  5
160
330
22
100
AcDbEntity
  8
0
  6
Continuous
 62
     7
100
AcDbLine
 10
-159.4456024169922
 20
246.3679351806641
 30
0.0
 11
-157.7929534912109
 21
248.0205841064453
 31
0.0
  0
LINE
  5
161
330
22
100
AcDbEntity
  8
0
  6
Continuous
 62
     7
100
AcDbLine
 10
-214.7929534912109
 20
248.9326324462891
 30
0.0
 11
-213.8576507568359
 21
249.8679351806641
 31
0.0
  0
LINE
  5
162
330
22
100
AcDbEntity
  8
0
  6
Continuous
 62
     7
100
AcDbLine
 10
-214.3878021240234
 20
246.3679351806641
 30
0.0
 11
-210.8878021240234
 21
249.8679351806641
 31
0.0
  0
LINE
  5
163
330
22
100
AcDbEntity
  8
0
  6
Continuous
 62
     7
100
AcDbLine
 10
-207.7929534912109
 20
249.9929351806641
 30
0.0
 11
-206.4179534912109
 21
251.3679351806641
 31
0.0
  0
LINE
  5
164
330
22
100
AcDbEntity
  8
0
  6
Continuous
 62
     7
100
AcDbLine
 10
-211.4179534912109
 20
246.3679351806641
 30
0.0
 11
-207.9179534912109
 21
249.8679351806641
 31
0.0
  0
LINE
  5
165
330
22
100
AcDbEntity
  8
0
  6
Continuous
 62
     7
100
AcDbLine
 10
-208.4481048583984
 20
246.3679351806641
 30
0.0
 11
-203.4481048583984
 21
251.3679351806641
 31
0.0
  0
LINE
  5
166
330
22
100
AcDbEntity
  8
0
  6
Continuous
 62
     7
100
AcDbLine
 10
-205.4782562255859
 20
246.3679351806641
 30
0.0
 11
-200.4782562255859
 21
251.3679351806641
 31
0.0
  0
LINE
  5
167
330
22
100
AcDbEntity
  8
0
  6
Continuous
 62
     7
100
AcDbLine
 10
-202.5084075927734
 20
246.3679351806641
 30
0.0
 11
-197.5084075927734
 21
251.3679351806641
 31
0.0
  0
LINE
  5
168
330
22
100
AcDbEntity
  8
0
  6
Continuous
 62
     7
100
AcDbLine
 10
-199.5385589599609
 20
246.3679351806641
 30
0.0
 11
-194.5385589599609
 21
251.3679351806641
 31
0.0
  0
LINE
  5
169
330
22
100
AcDbEntity
  8
0
  6
Continuous
 62
     7
100
AcDbLine
 10
-196.5687103271484
 20
246.3679351806641
 30
0.0
 11
-191.5687103271484
 21
251.3679351806641
 31
0.0
  0
LINE
  5
16A
330
22
100
AcDbEntity
  8
0
  6
Continuous
 62
     7
100
AcDbLine
 10
-193.5988616943359
 20
246.3679351806641
 30
0.0
 11
-189.1459045410156
 21
250.8208923339844
 31
0.0
  0
LINE
  5
16B
330
22
100
AcDbEntity
  8
0
  6
Continuous
 62
     7
100
AcDbLine
 10
-190.6290130615234
 20
246.3679351806641
 30
0.0
 11
-187.5290069580078
 21
249.4679412841797
 31
0.0
  0
LINE
  5
16C
330
22
100
AcDbEntity
  8
0
  6
Continuous
 62
     7
100
AcDbLine
 10
-187.6591644287109
 20
246.3679351806641
 30
0.0
 11
-184.5591583251953
 21
249.4679412841797
 31
0.0
  0
LINE
  5
16D
330
22
100
AcDbEntity
  8
0
  6
Continuous
 62
     7
100
AcDbLine
 10
-184.6893157958984
 20
246.3679351806641
 30
0.0
 11
-181.5893096923828
 21
249.4679412841797
 31
0.0
  0
LINE
  5
16E
330
22
100
AcDbEntity
  8
0
  6
Continuous
 62
     7
100
AcDbLine
 10
-181.7194671630859
 20
246.3679351806641
 30
0.0
 11
-178.6194610595703
 21
249.4679412841797
 31
0.0
  0
LINE
  5
16F
330
22
100
AcDbEntity
  8
0
  6
Continuous
 62
     7
100
AcDbLine
 10
-178.7496185302734
 20
246.3679351806641
 30
0.0
 11
-175.6496124267578
 21
249.4679412841797
 31
0.0
  0
LINE
  5
170
330
22
100
AcDbEntity
  8
0
  6
Continuous
 62
     7
100
AcDbLine
 10
-175.7797698974609
 20
246.3679351806641
 30
0.0
 11
-172.6797637939453
 21
249.4679412841797
 31
0.0
  0
LINE
  5
171
330
22
100
AcDbEntity
  8
0
  6
Continuous
 62
     7
100
AcDbLine
 10
-172.8099212646484
 20
246.3679351806641
 30
0.0
 11
-169.7099151611328
 21
249.4679412841797
 31
0.0
  0
LINE
  5
172
330
22
100
AcDbEntity
  8
0
  6
Continuous
 62
     7
100
AcDbLine
 10
-169.8400726318359
 20
246.3679351806641
 30
0.0
 11
-166.7400665283203
 21
249.4679412841797
 31
0.0
  0
LINE
  5
173
330
22
100
AcDbEntity
  8
0
  6
Continuous
 62
     7
100
AcDbLine
 10
-166.8702239990234
 20
246.3679351806641
 30
0.0
 11
-163.7702178955078
 21
249.4679412841797
 31
0.0
  0
LINE
  5
174
330
22
100
AcDbEntity
  8
0
  6
Continuous
 62
     7
100
AcDbLine
 10
-163.9003753662109
 20
246.3679351806641
 30
0.0
 11
-160.8003692626953
 21
249.4679412841797
 31
0.0
  0
LINE
  5
175
330
22
100
AcDbEntity
  8
0
  6
Continuous
 62
     7
100
AcDbLine
 10
-160.9305267333984
 20
246.3679351806641
 30
0.0
 11
-157.8305206298828
 21
249.4679412841797
 31
0.0
  0
LINE
  5
176
330
22
100
AcDbEntity
  8
0
  6
Continuous
 62
     7
100
AcDbLine
 10
-157.9606781005859
 20
246.3679351806641
 30
0.0
 11
-157.7929534912109
 21
246.5356597900391
 31
0.0
  0
LINE
  5
177
330
22
100
AcDbEntity
  8
0
  6
Continuous
 62
     7
100
AcDbLine
 10
-177.7929534912109
 20
251.5023498535156
 30
0.0
 11
-144.6929473876953
 21
251.5023498535156
 31
0.0
  0
LINE
  5
178
330
22
100
AcDbEntity
  8
0
  6
Continuous
 62
     7
100
AcDbLine
 10
-175.8929443359375
 20
249.6023406982422
 30
0.0
 11
-142.7929534912109
 21
249.6023406982422
 31
0.0
  0
LINE
  5
179
330
22
100
AcDbEntity
  8
0
  6
Continuous
 62
     7
100
AcDbLine
 10
-142.7929534912109
 20
249.6023406982422
 30
0.0
 11
-144.6929473876953
 21
251.5023498535156
 31
0.0
  0
LINE
  5
17A
330
22
100
AcDbEntity
  8
0
  6
Continuous
 62
     7
100
AcDbLine
 10
-144.6929473876953
 20
251.5023498535156
 30
0.0
 11
-144.6929473876953
 21
213.3679351806641
 31
0.0
  0
LINE
  5
17B
330
22
100
AcDbEntity
  8
0
  6
Continuous
 62
     7
100
AcDbLine
 10
-142.7929534912109
 20
249.6023406982422
 30
0.0
 11
-142.7929534912109
 21
213.3679351806641
 31
0.0
  0
LINE
  5
17C
330
22
100
AcDbEntity
  8
0
  6
Continuous
 62
     7
100
AcDbLine
 10
-131.4929504394531
 20
248.7669982910156
 30
0.0
 11
-129.5307006835938
 21
250.729248046875
 31
0.0
  0
LINE
  5
17D
330
22
100
AcDbEntity
  8
0
  6
Continuous
 62
     7
100
AcDbLine
 10
-131.4929504394531
 20
248.7669982910156
 30
0.0
 11
-142.7929534912109
 21
248.7669982910156
 31
0.0
  0
LINE
  5
17E
330
22
100
AcDbEntity
  8
0
  6
Continuous
 62
     7
100
AcDbLine
 10
-129.5307006835938
 20
250.729248046875
 30
0.0
 11
-129.5307006835938
 21
213.3679351806641
 31
0.0
  0
LINE
  5
17F
330
22
100
AcDbEntity
  8
0
  6
Continuous
 62
     7
100
AcDbLine
 10
-104.7929534912109
 20
251.5023498535156
 30
0.0
 11
-106.6851806640625
 21
249.5422821044922
 31
0.0
  0
LINE
  5
180
330
22
100
AcDbEntity
  8
0
  6
Continuous
 62
     7
100
AcDbLine
 10
-146.7929534912109
 20
287.65234375
 30
0.0
 11
-147.7929534912109
 21
286.65234375
 31
0.0
  0
LINE
  5
181
330
22
100
AcDbEntity
  8
0
  6
Continuous
 62
     7
100
AcDbLine
 10
-147.7929534912109
 20
304.3679504394531
 30
0.0
 11
-144.7929534912109
 21
304.3679504394531
 31
0.0
  0
LINE
  5
182
330
22
100
AcDbEntity
  8
0
  6
Continuous
 62
     7
100
AcDbLine
 10
-144.7929534912109
 20
304.3679504394531
 30
0.0
 11
-144.7929534912109
 21
254.8679351806641
 31
0.0
  0
LINE
  5
183
330
22
100
AcDbEntity
  8
0
  6
Continuous
 62
     7
100
AcDbLine
 10
-147.7929534912109
 20
304.3679504394531
 30
0.0
 11
-147.7929534912109
 21
254.8679351806641
 31
0.0
  0
LINE
  5
184
330
22
100
AcDbEntity
  8
0
  6
Continuous
 62
     7
100
AcDbLine
 10
-147.79345703125
 20
299.3679504394531
 30
0.0
 11
-145.54345703125
 21
297.1179504394531
 31
0.0
  0
LINE
  5
185
330
22
100
AcDbEntity
  8
0
  6
Continuous
 62
     7
100
AcDbLine
 10
-177.7929534912109
 20
251.5023498535156
 30
0.0
 11
-175.8929443359375
 21
249.6023406982422
 31
0.0
  0
LINE
  5
186
330
22
100
AcDbEntity
  8
0
  6
Continuous
 62
     7
100
AcDbLine
 10
-106.6851806640625
 20
249.5422821044922
 30
0.0
 11
-106.6851806640625
 21
213.3679351806641
 31
0.0
  0
LINE
  5
187
330
22
100
AcDbEntity
  8
0
  6
Continuous
 62
     7
100
AcDbLine
 10
-129.5307006835938
 20
250.729248046875
 30
0.0
 11
-104.7929534912109
 21
251.5023498535156
 31
0.0
  0
LINE
  5
188
330
22
100
AcDbEntity
  8
0
  6
CENTER
 62
     7
100
AcDbLine
 10
-148.9757385253906
 20
294.3679504394531
 30
0.0
 11
-143.5460205078125
 21
294.3679504394531
 31
0.0
  0
LINE
  5
189
330
22
100
AcDbEntity
  8
0
  6
Continuous
 62
     7
100
AcDbLine
 10
-147.79345703125
 20
289.3679504394531
 30
0.0
 11
-145.54345703125
 21
291.6179504394531
 31
0.0
  0
LINE
  5
18A
330
22
100
AcDbEntity
  8
0
  6
Continuous
 62
     7
100
AcDbLine
 10
-144.79345703125
 20
297.1179504394531
 30
0.0
 11
-145.54345703125
 21
297.1179504394531
 31
0.0
  0
LINE
  5
18B
330
22
100
AcDbEntity
  8
0
  6
Continuous
 62
     7
100
AcDbLine
 10
-157.7929534912109
 20
249.4679412841797
 30
0.0
 11
-187.7929534912109
 21
249.4679412841797
 31
0.0
  0
LINE
  5
18C
330
22
100
AcDbEntity
  8
0
  6
Continuous
 62
     7
100
AcDbLine
 10
-159.2929534912109
 20
250.9679412841797
 30
0.0
 11
-189.2929534912109
 21
250.9679412841797
 31
0.0
  0
LINE
  5
18D
330
22
100
AcDbEntity
  8
0
  6
Continuous
 62
     7
100
AcDbLine
 10
-157.7929534912109
 20
213.3679351806641
 30
0.0
 11
-157.7929534912109
 21
249.4679412841797
 31
0.0
  0
LINE
  5
18E
330
22
100
AcDbEntity
  8
0
  6
Continuous
 62
     7
100
AcDbLine
 10
-177.7929534912109
 20
254.8679351806641
 30
0.0
 11
-177.7929534912109
 21
250.9679412841797
 31
0.0
  0
LINE
  5
18F
330
22
100
AcDbEntity
  8
0
  6
Continuous
 62
     7
100
AcDbLine
 10
-214.7929534912109
 20
249.8679351806641
 30
0.0
 11
-207.7929534912109
 21
249.8679351806641
 31
0.0
  0
LINE
  5
190
330
22
100
AcDbEntity
  8
0
  6
Continuous
 62
     7
100
AcDbLine
 10
-214.7929534912109
 20
251.3679351806641
 30
0.0
 11
-214.7929534912109
 21
249.8679351806641
 31
0.0
  0
LINE
  5
191
330
22
100
AcDbEntity
  8
0
  6
Continuous
 62
     7
100
AcDbLine
 10
-131.4929504394531
 20
248.7669982910156
 30
0.0
 11
-106.6851806640625
 21
249.5422821044922
 31
0.0
  0
LINE
  5
192
330
22
100
AcDbEntity
  8
0
  6
Continuous
 62
     7
100
AcDbLine
 10
-147.7929534912109
 20
288.65234375
 30
0.0
 11
-146.7929534912109
 21
287.65234375
 31
0.0
  0
LINE
  5
193
330
22
100
AcDbEntity
  8
0
  6
Continuous
 62
     7
100
AcDbLine
 10
-147.7929534912109
 20
272.0679321289063
 30
0.0
 11
-146.7929534912109
 21
271.0679321289063
 31
0.0
  0
LINE
  5
194
330
22
100
AcDbEntity
  8
0
  6
Continuous
 62
     7
100
AcDbLine
 10
-207.7929534912109
 20
249.8679351806641
 30
0.0
 11
-207.7929534912109
 21
251.3679351806641
 31
0.0
  0
LINE
  5
195
330
22
100
AcDbEntity
  8
0
  6
Continuous
 62
     7
100
AcDbLine
 10
-146.7929534912109
 20
271.0679321289063
 30
0.0
 11
-147.7929534912109
 21
270.0679321289063
 31
0.0
  0
LINE
  5
196
330
22
100
AcDbEntity
  8
0
  6
Continuous
 62
     7
100
AcDbLine
 10
-177.7929534912109
 20
254.8679351806641
 30
0.0
 11
-104.7929534912109
 21
254.8679351806641
 31
0.0
  0
LINE
  5
197
330
22
100
AcDbEntity
  8
0
  6
Continuous
 62
     7
100
AcDbLine
 10
-144.79345703125
 20
291.6179504394531
 30
0.0
 11
-145.54345703125
 21
291.6179504394531
 31
0.0
  0
LINE
  5
198
330
22
100
AcDbEntity
  8
0
  6
Continuous
 62
     7
100
AcDbLine
 10
-147.7929534912109
 20
304.3679504394531
 30
0.0
 11
-147.7929534912109
 21
283.0138549804688
 31
0.0
  0
LINE
  5
199
330
22
100
AcDbEntity
  8
0
  6
Continuous
 62
     7
100
AcDbLine
 10
-217.7929534912109
 20
260.3679504394531
 30
0.0
 11
-217.7929534912109
 21
250.3679351806641
 31
0.0
  0
LINE
  5
19A
330
22
100
AcDbEntity
  8
0
  6
Continuous
 62
     7
100
AcDbLine
 10
-157.7929534912109
 20
246.3679351806641
 30
0.0
 11
-214.7929534912109
 21
246.3679351806641
 31
0.0
  0
LINE
  5
19B
330
22
100
AcDbEntity
  8
0
  6
Continuous
 62
     7
100
AcDbLine
 10
-157.7929534912109
 20
231.4179382324219
 30
0.0
 11
-157.7929534912109
 21
226.3985290527344
 31
0.0
  0
LINE
  5
19C
330
22
100
AcDbEntity
  8
0
  6
Continuous
 62
     7
100
AcDbLine
 10
-217.7929534912109
 20
233.3679351806641
 30
0.0
 11
-217.7929534912109
 21
226.3985290527344
 31
0.0
  0
LINE
  5
19D
330
22
100
AcDbEntity
  8
0
  6
Continuous
 62
     7
100
AcDbLine
 10
-217.7929534912109
 20
250.3679351806641
 30
0.0
 11
-214.7929534912109
 21
253.3679351806641
 31
0.0
  0
LINE
  5
19E
330
22
100
AcDbEntity
  8
0
  6
Continuous
 62
     7
100
AcDbLine
 10
-217.7929534912109
 20
260.3679504394531
 30
0.0
 11
-214.7929534912109
 21
257.3679504394531
 31
0.0
  0
LINE
  5
19F
330
22
100
AcDbEntity
  8
0
  6
Continuous
 62
     7
100
AcDbLine
 10
-217.4993591308594
 20
266.4818115234375
 30
0.0
 11
-212.8367767333984
 21
276.2308349609375
 31
0.0
  0
LINE
  5
1A0
330
22
100
AcDbEntity
  8
0
  6
Continuous
 62
     7
100
AcDbLine
 10
-217.7929534912109
 20
262.8679504394531
 30
0.0
 11
-214.7929534912109
 21
262.8679504394531
 31
0.0
  0
LINE
  5
1A1
330
22
100
AcDbEntity
  8
0
  6
Continuous
 62
     7
100
AcDbLine
 10
-189.6929473876953
 20
251.3679351806641
 30
0.0
 11
-207.7929534912109
 21
251.3679351806641
 31
0.0
  0
LINE
  5
1A2
330
22
100
AcDbEntity
  8
0
  6
Continuous
 62
     7
100
AcDbLine
 10
-189.2929534912109
 20
250.9679412841797
 30
0.0
 11
-189.6929473876953
 21
251.3679351806641
 31
0.0
  0
LINE
  5
1A3
330
22
100
AcDbEntity
  8
0
  6
Continuous
 62
     7
100
AcDbLine
 10
-157.7929534912109
 20
249.4679412841797
 30
0.0
 11
-159.2929534912109
 21
250.9679412841797
 31
0.0
  0
LINE
  5
1A4
330
22
100
AcDbEntity
  8
0
  6
Continuous
 62
     7
100
AcDbLine
 10
-207.7929534912109
 20
251.3679351806641
 30
0.0
 11
-207.7929534912109
 21
277.3679504394531
 31
0.0
  0
LINE
  5
1A5
330
22
100
AcDbEntity
  8
0
  6
Continuous
 62
     7
100
AcDbLine
 10
-144.7929534912109
 20
171.8679351806641
 30
0.0
 11
-104.7929534912109
 21
171.8679351806641
 31
0.0
  0
LINE
  5
1A6
330
22
100
AcDbEntity
  8
0
  6
Continuous
 62
     7
100
AcDbLine
 10
-144.7929534912109
 20
122.3679351806641
 30
0.0
 11
-147.7929534912109
 21
122.3679351806641
 31
0.0
  0
LINE
  5
1A7
330
22
100
AcDbEntity
  8
0
  6
Continuous
 62
     7
100
AcDbLine
 10
-177.7929534912109
 20
171.8679351806641
 30
0.0
 11
-147.7929534912109
 21
171.8679351806641
 31
0.0
  0
LINE
  5
1A8
330
22
100
AcDbEntity
  8
0
  6
Continuous
 62
     7
100
AcDbLine
 10
-217.4993591308594
 20
160.2540588378906
 30
0.0
 11
-212.8367767333984
 21
150.5050201416016
 31
0.0
  0
LINE
  5
1A9
330
22
100
AcDbEntity
  8
0
  6
Continuous
 62
     7
100
AcDbLine
 10
-207.7929534912109
 20
149.3679351806641
 30
0.0
 11
-211.0325012207031
 21
149.3679351806641
 31
0.0
  0
LINE
  5
1AA
330
22
100
AcDbEntity
  8
0
  6
CENTER
 62
     7
100
AcDbLine
 10
-224.8452911376953
 20
213.3679351806641
 30
0.0
 11
-100.2956161499023
 21
213.3679351806641
 31
0.0
  0
LINE
  5
1AB
330
22
100
AcDbEntity
  8
0
  6
Continuous
 62
     7
100
AcDbLine
 10
-217.7929534912109
 20
262.3679504394531
 30
0.0
 11
-214.7929534912109
 21
262.3679504394531
 31
0.0
  0
LINE
  5
1AC
330
22
100
AcDbEntity
  8
0
  6
Continuous
 62
     7
100
AcDbLine
 10
-207.7929534912109
 20
277.3679504394531
 30
0.0
 11
-211.0325012207031
 21
277.3679504394531
 31
0.0
  0
LINE
  5
1AD
330
22
100
AcDbEntity
  8
0
  6
Continuous
 62
     7
100
AcDbLine
 10
-214.7929534912109
 20
257.3679504394531
 30
0.0
 11
-207.8231506347656
 21
257.3679504394531
 31
0.0
  0
LINE
  5
1AE
330
22
100
AcDbEntity
  8
0
  6
Continuous
 62
     7
100
AcDbLine
 10
-207.7929534912109
 20
251.3679351806641
 30
0.0
 11
-209.2929534912109
 21
249.8679351806641
 31
0.0
  0
LINE
  5
1AF
330
22
100
AcDbEntity
  8
0
  6
Continuous
 62
     7
100
AcDbLine
 10
-214.7929534912109
 20
251.3679351806641
 30
0.0
 11
-213.2929534912109
 21
249.8679351806641
 31
0.0
  0
LINE
  5
1B0
330
22
100
AcDbEntity
  8
0
  6
Continuous
 62
     7
100
AcDbLine
 10
-214.7929534912109
 20
262.8679504394531
 30
0.0
 11
-214.7929534912109
 21
257.3679504394531
 31
0.0
  0
LINE
  5
1B1
330
22
100
AcDbEntity
  8
0
  6
Continuous
 62
     7
100
AcDbLine
 10
-214.7929534912109
 20
253.3679351806641
 30
0.0
 11
-207.8231506347656
 21
253.3679351806641
 31
0.0
  0
LINE
  5
1B2
330
22
100
AcDbEntity
  8
0
  6
Continuous
 62
     7
100
AcDbLine
 10
-208.6020202636719
 20
256.3362731933594
 30
0.0
 11
-209.4320831298828
 21
257.3679504394531
 31
0.0
  0
LINE
  5
1B3
330
22
100
AcDbEntity
  8
0
  6
Continuous
 62
     7
100
AcDbLine
 10
-207.7929534912109
 20
251.3679351806641
 30
0.0
 11
-214.7929534912109
 21
251.3679351806641
 31
0.0
  0
LINE
  5
1B4
330
22
100
AcDbEntity
  8
0
  6
Continuous
 62
     7
100
AcDbLine
 10
-208.6020202636719
 20
256.3362731933594
 30
0.0
 11
-208.6020202636719
 21
254.3679351806641
 31
0.0
  0
LINE
  5
1B5
330
22
100
AcDbEntity
  8
0
  6
Continuous
 62
     7
100
AcDbLine
 10
-208.6020202636719
 20
254.3679351806641
 30
0.0
 11
-209.6020202636719
 21
253.3679351806641
 31
0.0
  0
LINE
  5
1B6
330
22
100
AcDbEntity
  8
0
  6
Continuous
 62
     7
100
AcDbLine
 10
-214.7929534912109
 20
253.3679351806641
 30
0.0
 11
-214.7929534912109
 21
213.3679351806641
 31
0.0
  0
LINE
  5
1B7
330
22
100
AcDbEntity
  8
0
  6
Continuous
 62
     7
100
AcDbLine
 10
-177.7929534912109
 20
177.2679443359375
 30
0.0
 11
-187.7929534912109
 21
177.2679443359375
 31
0.0
  0
LINE
  5
1B8
330
22
100
AcDbEntity
  8
0
  6
Continuous
 62
     7
100
AcDbLine
 10
-177.7929534912109
 20
175.7679443359375
 30
0.0
 11
-189.2929534912109
 21
175.7679443359375
 31
0.0
  0
LINE
  5
1B9
330
22
100
AcDbEntity
  8
0
  6
Continuous
 62
     7
100
AcDbLine
 10
-189.2929534912109
 20
175.7679443359375
 30
0.0
 11
-187.7929534912109
 21
177.2679443359375
 31
0.0
  0
LINE
  5
1BA
330
22
100
AcDbEntity
  8
0
  6
Continuous
 62
     7
100
AcDbLine
 10
-189.6929473876953
 20
175.3679351806641
 30
0.0
 11
-207.7929534912109
 21
175.3679351806641
 31
0.0
  0
LINE
  5
1BB
330
22
100
AcDbEntity
  8
0
  6
Continuous
 62
     7
100
AcDbLine
 10
-189.2929534912109
 20
175.7679443359375
 30
0.0
 11
-189.6929473876953
 21
175.3679351806641
 31
0.0
  0
LINE
  5
1BC
330
22
100
AcDbEntity
  8
0
  6
Continuous
 62
     7
100
AcDbLine
 10
-211.0325012207031
 20
151.3679351806641
 30
0.0
 11
-211.0325012207031
 21
213.3679351806641
 31
0.0
  0
LINE
  5
1BD
330
22
100
AcDbEntity
  8
0
  6
Continuous
 62
     7
100
AcDbLine
 10
-217.7929534912109
 20
161.5484161376953
 30
0.0
 11
-217.7929534912109
 21
265.1874694824219
 31
0.0
  0
LINE
  5
1BE
330
22
100
AcDbEntity
  8
0
  6
Continuous
 62
     7
100
AcDbLine
 10
-104.7929534912109
 20
254.8679351806641
 30
0.0
 11
-104.7929534912109
 21
171.8679351806641
 31
0.0
  0
LINE
  5
1BF
330
22
100
AcDbEntity
  8
0
  6
Continuous
 62
     7
100
AcDbLine
 10
-144.7929534912109
 20
213.3679351806641
 30
0.0
 11
-144.7929534912109
 21
122.3679351806641
 31
0.0
  0
LINE
  5
1C0
330
22
100
AcDbEntity
  8
0
  6
Continuous
 62
     7
100
AcDbLine
 10
-147.7929534912109
 20
213.3679351806641
 30
0.0
 11
-147.7929534912109
 21
122.3679351806641
 31
0.0
  0
LINE
  5
1C1
330
22
100
AcDbEntity
  8
0
  6
Continuous
 62
     7
100
AcDbLine
 10
-177.7929534912109
 20
213.3679351806641
 30
0.0
 11
-177.7929534912109
 21
171.8679351806641
 31
0.0
  0
LINE
  5
1C2
330
22
100
AcDbEntity
  8
0
  6
Continuous
 62
     7
100
AcDbLine
 10
-187.7929534912109
 20
177.2679443359375
 30
0.0
 11
-187.7929534912109
 21
213.3679351806641
 31
0.0
  0
LINE
  5
1C3
330
22
100
AcDbEntity
  8
0
  6
Continuous
 62
     7
100
AcDbLine
 10
-207.7929534912109
 20
149.3679351806641
 30
0.0
 11
-207.7929534912109
 21
213.3679351806641
 31
0.0
  0
CIRCLE
  5
1C4
330
22
100
AcDbEntity
  8
0
  6
Continuous
 62
     7
100
AcDbCircle
 10
-392.6636047363281
 20
294.3679504394531
 30
0.0
 40
2.75
  0
CIRCLE
  5
1C5
330
22
100
AcDbEntity
  8
0
  6
Continuous
 62
     7
100
AcDbCircle
 10
-392.6636047363281
 20
294.3679504394531
 30
0.0
 40
5.0
  0
ARC
  5
1C6
330
22
100
AcDbEntity
  8
0
  6
Continuous
 62
     7
100
AcDbCircle
 10
-370.2076721191406
 20
233.2609405517578
 30
0.0
 40
4.0
100
AcDbArc
 50
299.9999304360001
 51
41.53690361620832
  0
ARC
  5
1C7
330
22
100
AcDbEntity
  8
0
  6
Continuous
 62
     7
100
AcDbCircle
 10
-392.6636047363281
 20
213.3679351806641
 30
0.0
 40
33.5
100
AcDbArc
 50
38.03629390455191
 51
141.963257525053
  0
ARC
  5
1C8
330
22
100
AcDbEntity
  8
0
  6
Continuous
 62
     7
100
AcDbCircle
 10
-392.6636047363281
 20
213.3679351806641
 30
0.0
 40
34.0
100
AcDbArc
 50
41.5367457659228
 51
138.4627994083494
  0
ARC
  5
1C9
330
22
100
AcDbEntity
  8
0
  6
Continuous
 62
     7
100
AcDbCircle
 10
-392.6636047363281
 20
213.3679351806641
 30
0.0
 40
17.5
100
AcDbArc
 50
44.11668321158873
 51
135.8826799143222
  0
ARC
  5
1CA
330
22
100
AcDbEntity
  8
0
  6
Continuous
 62
     7
100
AcDbCircle
 10
-377.9461669921875
 20
227.638427734375
 30
0.0
 40
3.0
100
AcDbArc
 50
224.1165609482703
 51
299.9999304360001
  0
ARC
  5
1CB
330
22
100
AcDbEntity
  8
0
  6
Continuous
 62
     7
100
AcDbCircle
 10
-372.9462280273438
 20
218.9781341552734
 30
0.0
 40
3.0
100
AcDbArc
 50
119.9999304359993
 51
195.8825889878497
  0
ARC
  5
1CC
330
22
100
AcDbEntity
  8
0
  6
Continuous
 62
     7
100
AcDbCircle
 10
-412.3809204101562
 20
218.9783782958984
 30
0.0
 40
3.0
100
AcDbArc
 50
344.1164106108853
 51
59.99992385326939
  0
ARC
  5
1CD
330
22
100
AcDbEntity
  8
0
  6
Continuous
 62
     7
100
AcDbCircle
 10
-415.119384765625
 20
233.2611236572266
 30
0.0
 40
4.0
100
AcDbArc
 50
138.4626429153018
 51
240.0000695640013
  0
ARC
  5
1CE
330
22
100
AcDbEntity
  8
0
  6
Continuous
 62
     7
100
AcDbCircle
 10
-421.1194152832031
 20
222.8688354492188
 30
0.0
 40
4.0
100
AcDbArc
 50
59.99996028107254
 51
161.5367132786198
  0
ARC
  5
1CF
330
22
100
AcDbEntity
  8
0
  6
Continuous
 62
     7
100
AcDbCircle
 10
-407.3808898925781
 20
227.6385955810547
 30
0.0
 40
3.0
100
AcDbArc
 50
239.9999238532701
 51
315.8826148863632
  0
ARC
  5
1D0
330
22
100
AcDbEntity
  8
0
  6
Continuous
 62
     7
100
AcDbCircle
 10
-364.2077331542969
 20
222.8686065673828
 30
0.0
 40
4.0
100
AcDbArc
 50
18.46273365279455
 51
119.9999304359993
  0
CIRCLE
  5
1D1
330
22
100
AcDbEntity
  8
0
  6
Continuous
 62
     7
100
AcDbCircle
 10
-392.6636047363281
 20
255.3679351806641
 30
0.0
 40
5.0
  0
CIRCLE
  5
1D2
330
22
100
AcDbEntity
  8
0
  6
Continuous
 62
     7
100
AcDbCircle
 10
-392.6636047363281
 20
255.3679351806641
 30
0.0
 40
5.25
  0
ARC
  5
1D3
330
22
100
AcDbEntity
  8
0
  6
Continuous
 62
     7
100
AcDbCircle
 10
-387.6636047363281
 20
193.4870452880859
 30
0.0
 40
3.0
100
AcDbArc
 50
104.1172429320241
 51
180.0000000000004
  0
ARC
  5
1D4
330
22
100
AcDbEntity
  8
0
  6
Continuous
 62
     7
100
AcDbCircle
 10
-397.6636047363281
 20
193.4870452880859
 30
0.0
 40
3.0
100
AcDbArc
 50
0.0
 51
75.88275706797586
  0
ARC
  5
1D5
330
22
100
AcDbEntity
  8
0
  6
Continuous
 62
     7
100
AcDbCircle
 10
-398.6636047363281
 20
183.9740600585938
 30
0.0
 40
4.0
100
AcDbArc
 50
258.4632290881752
 51
0.0
  0
ARC
  5
1D6
330
22
100
AcDbEntity
  8
0
  6
Continuous
 62
     7
100
AcDbCircle
 10
-386.6636047363281
 20
183.9740600585938
 30
0.0
 40
4.0
100
AcDbArc
 50
180.0000000000004
 51
281.5367709118262
  0
CIRCLE
  5
1D7
330
22
100
AcDbEntity
  8
0
  6
Continuous
 62
     7
100
AcDbCircle
 10
-392.6636047363281
 20
171.3679351806641
 30
0.0
 40
5.25
  0
CIRCLE
  5
1D8
330
22
100
AcDbEntity
  8
0
  6
Continuous
 62
     7
100
AcDbCircle
 10
-392.6636047363281
 20
171.3679351806641
 30
0.0
 40
5.0
  0
CIRCLE
  5
1D9
330
22
100
AcDbEntity
  8
0
  6
Continuous
 62
     7
100
AcDbCircle
 10
-322.5157775878906
 20
172.8677978515625
 30
0.0
 40
5.0
  0
CIRCLE
  5
1DA
330
22
100
AcDbEntity
  8
0
  6
Continuous
 62
     7
100
AcDbCircle
 10
-322.5157775878906
 20
172.8677978515625
 30
0.0
 40
2.75
  0
CIRCLE
  5
1DB
330
22
100
AcDbEntity
  8
0
  6
Continuous
 62
     7
100
AcDbCircle
 10
-462.8118896484375
 20
172.8680725097656
 30
0.0
 40
2.75
  0
CIRCLE
  5
1DC
330
22
100
AcDbEntity
  8
0
  6
Continuous
 62
     7
100
AcDbCircle
 10
-462.8118896484375
 20
172.8680725097656
 30
0.0
 40
5.0
  0
CIRCLE
  5
1DD
330
22
100
AcDbEntity
  8
0
  6
Continuous
 62
     7
100
AcDbCircle
 10
-392.6636047363281
 20
213.3679351806641
 30
0.0
 40
74.0
  0
CIRCLE
  5
1DE
330
22
100
AcDbEntity
  8
0
  6
CENTER
 62
     7
100
AcDbCircle
 10
-392.6636047363281
 20
213.3679351806641
 30
0.0
 40
81.0
  0
CIRCLE
  5
1DF
330
22
100
AcDbEntity
  8
0
  6
Continuous
 62
     7
100
AcDbCircle
 10
-392.6636047363281
 20
213.3679351806641
 30
0.0
 40
91.0
  0
ARC
  5
1E0
330
22
100
AcDbEntity
  8
0
  6
Continuous
 62
     7
100
AcDbCircle
 10
-392.6636047363281
 20
213.3679351806641
 30
0.0
 40
33.5
100
AcDbArc
 50
278.0365163476211
 51
21.96326704359542
  0
ARC
  5
1E1
330
22
100
AcDbEntity
  8
0
  6
Continuous
 62
     7
100
AcDbCircle
 10
-392.6636047363281
 20
213.3679351806641
 30
0.0
 40
33.5
100
AcDbArc
 50
158.0362871377058
 51
261.9634836523803
  0
ARC
  5
1E2
330
22
100
AcDbEntity
  8
0
  6
Continuous
 62
     7
100
AcDbCircle
 10
-392.6636047363281
 20
213.3679351806641
 30
0.0
 40
34.0
100
AcDbArc
 50
281.5369375046561
 51
18.46280690216224
  0
ARC
  5
1E3
330
22
100
AcDbEntity
  8
0
  6
Continuous
 62
     7
100
AcDbCircle
 10
-392.6636047363281
 20
213.3679351806641
 30
0.0
 40
34.0
100
AcDbArc
 50
161.5367296057098
 51
258.4630624953454
  0
CIRCLE
  5
1E4
330
22
100
AcDbEntity
  8
0
  6
Continuous
 62
     7
100
AcDbCircle
 10
-392.6636047363281
 20
213.3679351806641
 30
0.0
 40
64.0
  0
CIRCLE
  5
1E5
330
22
100
AcDbEntity
  8
0
  6
Continuous
 62
     7
100
AcDbCircle
 10
-392.6636047363281
 20
213.3679351806641
 30
0.0
 40
49.0
  0
CIRCLE
  5
1E6
330
22
100
AcDbEntity
  8
0
  6
Continuous
 62
     7
100
AcDbCircle
 10
-392.6636047363281
 20
213.3679351806641
 30
0.0
 40
49.5
  0
CIRCLE
  5
1E7
330
22
100
AcDbEntity
  8
0
  6
Continuous
 62
     7
100
AcDbCircle
 10
-392.6636047363281
 20
213.3679351806641
 30
0.0
 40
14.5
  0
ARC
  5
1E8
330
22
100
AcDbEntity
  8
0
  6
Continuous
 62
     7
100
AcDbCircle
 10
-392.6636047363281
 20
213.3679351806641
 30
0.0
 40
17.5
100
AcDbArc
 50
284.1169399548795
 51
15.88269544304183
  0
ARC
  5
1E9
330
22
100
AcDbEntity
  8
0
  6
Continuous
 62
     7
100
AcDbCircle
 10
-392.6636047363281
 20
213.3679351806641
 30
0.0
 40
17.5
100
AcDbArc
 50
164.1166525537149
 51
255.8829631467048
  0
CIRCLE
  5
1EA
330
22
100
AcDbEntity
  8
0
  6
Continuous
 62
     7
100
AcDbCircle
 10
-350.6636047363281
 20
213.3679351806641
 30
0.0
 40
3.5
  0
CIRCLE
  5
1EB
330
22
100
AcDbEntity
  8
0
  6
Continuous
 62
     7
100
AcDbCircle
 10
-434.6636047363281
 20
213.3679351806641
 30
0.0
 40
3.5
  0
ARC
  5
1EC
330
22
100
AcDbEntity
  8
0
  6
Continuous
 62
     7
100
AcDbCircle
 10
-214.7929534912109
 20
265.1874694824219
 30
0.0
 40
3.0
100
AcDbArc
 50
154.4404806183736
 51
180.0000000000004
  0
ARC
  5
1ED
330
22
100
AcDbEntity
  8
0
  6
Continuous
 62
     7
100
AcDbCircle
 10
-214.7929534912109
 20
161.5484161376953
 30
0.0
 40
3.0
100
AcDbArc
 50
180.0000000000004
 51
205.5597822839397
  0
ARC
  5
1EE
330
22
100
AcDbEntity
  8
0
  6
Continuous
 62
     7
100
AcDbCircle
 10
-211.0325012207031
 20
151.3679351806641
 30
0.0
 40
2.0
100
AcDbArc
 50
205.5599823174868
 51
270.0000000000005
  0
ARC
  5
1EF
330
22
100
AcDbEntity
  8
0
  6
Continuous
 62
     7
100
AcDbCircle
 10
-211.0325012207031
 20
275.3679504394531
 30
0.0
 40
2.0
100
AcDbArc
 50
90.00000000000019
 51
154.4408063880563
  0
TEXT
  5
1F0
330
22
100
AcDbEntity
  8
0
  6
Continuous
 62
     7
100
AcDbText
 10
-313.029839515686
 20
70.71831512451172
 30
0.0
 40
7.0
  1
DL-TP-65
 41
1.006087027721524
100
AcDbText
  0
DIMENSION
  5
1F1
330
22
100
AcDbEntity
  8
0
  6
Continuous
 62
     7
100
AcDbDimension
  2
*D1
 10
-144.7904510498046
 20
330.7061157226563
 30
0.0
 11
-138.8613586425781
 21
330.7061157226563
 31
0.0
 71
     5
 42
-1.0
  3
DIMSTYLE1
100
AcDbAlignedDimension
 13
-147.7904510498047
 23
315.9647827148438
 33
0.0
 14
-144.7904510498046
 24
304.3679504394531
 34
0.0
100
AcDbRotatedDimension
  0
DIMENSION
  5
1F2
330
22
100
AcDbEntity
  8
0
  6
Continuous
 62
     7
100
AcDbDimension
  2
*D2
 10
-207.7929534912109
 20
330.7061157226563
 30
0.0
 11
-177.7929534912109
 21
330.7061157226563
 31
0.0
 71
     5
 42
-1.0
  3
DIMSTYLE2
100
AcDbAlignedDimension
 13
-147.7929534912109
 23
304.3679504394531
 33
0.0
 14
-207.7929534912109
 24
277.3679504394531
 34
0.0
100
AcDbRotatedDimension
  0
DIMENSION
  5
1F3
330
22
100
AcDbEntity
  8
0
  6
Continuous
 62
     7
100
AcDbDimension
  2
*D3
 10
-217.7929534912109
 20
330.7061157226563
 30
0.0
 11
-212.7929534912109
 21
330.7061157226563
 31
0.0
 71
     5
 42
-1.0
  3
DIMSTYLE3
100
AcDbAlignedDimension
 13
-207.7929534912109
 23
322.4248657226563
 33
0.0
 14
-217.7929534912109
 24
265.8679504394531
 34
0.0
100
AcDbRotatedDimension
  0
DIMENSION
  5
1F4
330
22
100
AcDbEntity
  8
0
  6
Continuous
 62
     7
100
AcDbDimension
  2
*D4
 10
-104.7929534912109
 20
108.0321655273438
 30
0.0
 11
-141.2929534912109
 21
108.0321655273438
 31
0.0
 71
     5
 42
-1.0
  3
DIMSTYLE4
100
AcDbAlignedDimension
 13
-177.7929534912109
 23
171.8679351806641
 33
0.0
 14
-104.7929534912109
 24
171.8679351806641
 34
0.0
100
AcDbRotatedDimension
  0
DIMENSION
  5
1F5
330
22
100
AcDbEntity
  8
0
  6
Continuous
 62
     7
100
AcDbDimension
  2
*D5
 10
-157.7929534912109
 20
224.7911376953125
 30
0.0
 11
-187.7929534912109
 21
224.7911376953125
 31
0.0
 71
     5
 42
-1.0
  3
DIMSTYLE5
100
AcDbAlignedDimension
 13
-217.7929534912109
 23
265.1874694824219
 33
0.0
 14
-157.7929534912109
 24
213.3679351806641
 34
0.0
100
AcDbRotatedDimension
  0
DIMENSION
  5
1F6
330
22
100
AcDbEntity
  8
0
  6
Continuous
 62
     7
100
AcDbDimension
  2
*D6
 10
-81.719970703125
 20
254.8679351806641
 30
0.0
 11
-81.719970703125
 21
213.3679351806641
 31
0.0
 71
     5
 42
-1.0
  3
DIMSTYLE6
100
AcDbAlignedDimension
 13
-104.7929534912109
 23
171.8679351806641
 33
0.0
 14
-104.7929534912109
 24
254.8679351806641
 34
0.0
 50
90.0
100
AcDbRotatedDimension
  0
INSERT
  5
1F7
330
22
100
AcDbEntity
  8
0
  6
Continuous
 62
     7
100
AcDbBlockReference
  2
KOZU0001
 10
-114.6880493164063
 20
251.1930999755859
 30
0.0
  0
DIMENSION
  5
1F8
330
22
100
AcDbEntity
  8
0
  6
Continuous
 62
     7
100
AcDbDimension
  2
*D7
 10
-177.7929534912109
 20
320.8260498046875
 30
0.0
 11
-162.7929534912109
 21
320.8260498046875
 31
0.0
 71
     5
 42
-1.0
  3
DIMSTYLE7
100
AcDbAlignedDimension
 13
-147.7929534912109
 23
332.9921264648438
 33
0.0
 14
-177.7929534912109
 24
254.8679351806641
 34
0.0
100
AcDbRotatedDimension
  0
DIMENSION
  5
1F9
330
22
100
AcDbEntity
  8
0
  6
Continuous
 62
     7
100
AcDbDimension
  2
*D8
 10
-428.5452373361534
 20
129.7407360049704
 30
0.0
 11
-349.1140747070313
 21
314.8663024902344
 31
0.0
 70
     3
 71
     5
 42
-1.0
  3
DIMSTYLE8
100
AcDbDiametricDimension
 15
-356.7819721365028
 25
296.9951343563579
 35
0.0
 40
0.0
  0
DIMENSION
  5
1FA
330
22
100
AcDbEntity
  8
0
  6
Continuous
 62
     7
100
AcDbDimension
  2
*D9
 10
-431.8501906647126
 20
162.7674264551845
 30
0.0
 11
-323.6087341308594
 21
302.5364990234375
 31
0.0
 70
     3
 71
     5
 42
-1.0
  3
DIMSTYLE9
100
AcDbDiametricDimension
 15
-353.4770188079436
 25
263.9684439061437
 35
0.0
 40
0.0
  0
DIMENSION
  5
1FB
330
22
100
AcDbEntity
  8
0
  6
Continuous
 62
     7
100
AcDbDimension
  2
*D10
 10
-434.6797177554702
 20
188.1559093445145
 30
0.0
 11
-296.7726440429688
 21
270.9078979492188
 31
0.0
 70
     3
 71
     5
 42
-1.0
  3
DIMSTYLE10
100
AcDbDiametricDimension
 15
-350.647491717186
 25
238.5799610168137
 35
0.0
 40
0.0
  0
DIMENSION
  5
1FC
330
22
100
AcDbEntity
  8
0
  6
Continuous
 62
     7
100
AcDbDimension
  2
*D11
 10
-331.1442887584401
 20
160.6766288615684
 30
0.0
 11
-478.63134765625
 21
286.9993286132813
 31
0.0
 70
     3
 71
     5
 42
-1.0
  3
DIMSTYLE11
100
AcDbDiametricDimension
 15
-454.1829207142161
 25
266.0592414997597
 35
0.0
 40
0.0
  0
INSERT
  5
1FD
330
22
100
AcDbEntity
  8
0
  6
Continuous
 62
     7
100
AcDbBlockReference
  2
KOZU0002
 10
-394.6327514648438
 20
298.9638671875
 30
0.0
  0
ENDSEC
  0
SECTION
  2
OBJECTS
  0
DICTIONARY
  5
C
330
0
100
AcDbDictionary
281
     1
  3
ACAD_COLOR
350
1B
  3
ACAD_GROUP
350
D
  3
ACAD_LAYOUT
350
19
  3
ACAD_MATERIAL
350
1A
  3
ACAD_MLINESTYLE
350
16
  3
ACAD_PLOTSETTINGS
350
18
  3
ACAD_PLOTSTYLENAME
350
E
  3
ACAD_TABLESTYLE
350
1C
  3
AcDbVariableDictionary
350
209
  0
DICTIONARY
  5
1B
102
{ACAD_REACTORS
330
C
102
}
330
C
100
AcDbDictionary
281
     1
  0
DICTIONARY
  5
D
102
{ACAD_REACTORS
330
C
102
}
330
C
100
AcDbDictionary
281
     1
  0
DICTIONARY
  5
19
102
{ACAD_REACTORS
330
C
102
}
330
C
100
AcDbDictionary
281
     1
  3
Model
350
25
  3
レイアウト1
350
21
  0
DICTIONARY
  5
1A
102
{ACAD_REACTORS
330
C
102
}
330
C
100
AcDbDictionary
281
     1
  0
DICTIONARY
  5
16
102
{ACAD_REACTORS
330
C
102
}
330
C
100
AcDbDictionary
281
     1
  3
Standard
350
17
  0
DICTIONARY
  5
18
102
{ACAD_REACTORS
330
C
102
}
330
C
100
AcDbDictionary
281
     1
  0
ACDBDICTIONARYWDFLT
  5
E
102
{ACAD_REACTORS
330
C
102
}
330
C
100
AcDbDictionary
281
     1
  3
Normal
350
F
100
AcDbDictionaryWithDefault
340
F
  0
DICTIONARY
  5
1C
102
{ACAD_REACTORS
330
C
102
}
330
C
100
AcDbDictionary
281
     1
  3
Standard
350
1D
  0
DICTIONARY
  5
209
102
{ACAD_REACTORS
330
C
102
}
330
C
100
AcDbDictionary
281
     1
  3
CTABLESTYLE
350
20A
  0
LAYOUT
  5
25
102
{ACAD_REACTORS
330
19
102
}
330
19
100
AcDbPlotSettings
  1

  2
PDF reDirect v2
  4
User66
  6

 40
3.174999952316284
 41
3.174999952316284
 42
3.17498779296875
 43
3.17498779296875
 44
420.0
 45
594.0
 46
0.0
 47
0.0
 48
0.0
 49
0.0
140
0.0
141
0.0
142
1.0
143
1.0
 70
 11952
 72
     1
 73
     1
 74
     2
  7
C:\Users\ck\AppData\Roaming\Autodesk\AutoCAD 2005\R16.1\jpn\Plot Styles\black.ctb
 75
    16
147
1.0
 76
     0
 77
     2
 78
   300
148
592.0
149
0.0
100
AcDbLayout
  1
Model
 70
     1
 71
     0
 10
0.0
 20
0.0
 11
12.0
 21
9.0
 12
0.0
 22
0.0
 32
0.0
 14
0.0
 24
0.0
 34
0.0
 15
0.0
 25
0.0
 35
0.0
146
0.0
 13
0.0
 23
0.0
 33
0.0
 16
1.0
 26
0.0
 36
0.0
 17
0.0
 27
1.0
 37
0.0
 76
     0
330
22
1001
ACAD_PSEXT
1000
PDF reDirect v2
1000
PDF reDirect Pro
1000
PDF_REDIRECT_PORT:
1000
PDF reDirect provided by EXP Systems
1070
     0
  0
LAYOUT
  5
21
102
{ACAD_REACTORS
330
19
102
}
330
19
100
AcDbPlotSettings
  1

  2
PDF reDirect v2
  4

  6

 40
0.0
 41
0.0
 42
0.0
 43
0.0
 44
0.0
 45
0.0
 46
0.0
 47
0.0
 48
0.0
 49
0.0
140
0.0
141
0.0
142
1.0
143
1.0
 70
   688
 72
     0
 73
     0
 74
     5
  7
C:\Users\ck\AppData\Roaming\Autodesk\AutoCAD 2005\R16.1\jpn\Plot Styles\black.ctb
 75
    16
147
1.0
 76
     0
 77
     2
 78
   300
148
0.0
149
0.0
100
AcDbLayout
  1
レイアウト1
 70
     1
 71
     1
 10
-592.0
 20
0.0
 11
0.0
 21
418.0
 12
0.0
 22
0.0
 32
0.0
 14
1.000000000000000E+20
 24
1.000000000000000E+20
 34
1.000000000000000E+20
 15
-1.000000000000000E+20
 25
-1.000000000000000E+20
 35
-1.000000000000000E+20
146
0.0
 13
0.0
 23
0.0
 33
0.0
 16
1.0
 26
0.0
 36
0.0
 17
0.0
 27
1.0
 37
0.0
 76
     0
330
1E
  0
MLINESTYLE
  5
17
102
{ACAD_REACTORS
330
16
102
}
330
16
100
AcDbMlineStyle
  2
STANDARD
 70
     0
  3

 62
   256
 51
90.0
 52
90.0
 71
     2
 49
0.5
 62
   256
  6
BYLAYER
 49
-0.5
 62
   256
  6
BYLAYER
  0
ACDBPLACEHOLDER
  5
F
102
{ACAD_REACTORS
330
E
102
}
330
E
  0
TABLESTYLE
  5
1D
102
{ACAD_REACTORS
330
1C
102
}
330
1C
100
AcDbTableStyle
  3
Standard
 70
     0
 71
     0
 40
0.06
 41
0.06
280
     0
281
     0
  7
STANDARD
140
0.18
170
     2
 62
     0
 63
     7
283
     0
274
    -2
284
     1
 64
     0
275
    -2
285
     1
 65
     0
276
    -2
286
     1
 66
     0
277
    -2
287
     1
 67
     0
278
    -2
288
     1
 68
     0
279
    -2
289
     1
 69
     0
  7
STANDARD
140
0.25
170
     5
 62
     0
 63
     7
283
     0
274
    -2
284
     1
 64
     0
275
    -2
285
     1
 65
     0
276
    -2
286
     1
 66
     0
277
    -2
287
     1
 67
     0
278
    -2
288
     1
 68
     0
279
    -2
289
     1
 69
     0
  7
STANDARD
140
0.18
170
     5
 62
     0
 63
     7
283
     0
274
    -2
284
     1
 64
     0
275
    -2
285
     1
 65
     0
276
    -2
286
     1
 66
     0
277
    -2
287
     1
 67
     0
278
    -2
288
     1
 68
     0
279
    -2
289
     1
 69
     0
  0
DICTIONARYVAR
  5
20A
102
{ACAD_REACTORS
330
209
102
}
330
209
100
DictionaryVariables
280
     0
  1
STANDARD
  0
ENDSEC
  0
EOF
