  0
SECTION
  2
HEADER
  9
$ACADVER
  1
AC1018
  9
$ACADMAINTVER
 70
    39
  9
$DWGCODEPAGE
  3
ANSI_932
  9
$INSBASE
 10
0.0
 20
0.0
 30
0.0
  9
$EXTMIN
 10
-379.5136098159868
 20
68.57205277096023
 30
-0.0015258207003583
  9
$EXTMAX
 10
-73.80773836468302
 20
269.8495947761107
 30
0.0000000349246037
  9
$LIMMIN
 10
-423.0
 20
-2.0
  9
$LIMMAX
 10
-5.0
 20
293.0
  9
$ORTHOMODE
 70
     0
  9
$REGENMODE
 70
     1
  9
$FILLMODE
 70
     1
  9
$QTEXTMODE
 70
     0
  9
$MIRRTEXT
 70
     0
  9
$LTSCALE
 40
1.0
  9
$ATTMODE
 70
     1
  9
$TEXTSIZE
 40
0.2
  9
$TRACEWID
 40
0.05
  9
$TEXTSTYLE
  7
STANDARD
  9
$CLAYER
  8
0
  9
$CELTYPE
  6
CONTINUOUS
  9
$CECOLOR
 62
   256
  9
$CELTSCALE
 40
1.0
  9
$DISPSILH
 70
     0
  9
$DIMSCALE
 40
1.0
  9
$DIMASZ
 40
1.0
  9
$DIMEXO
 40
2.54
  9
$DIMDLI
 40
0.38
  9
$DIMRND
 40
0.0
  9
$DIMDLE
 40
0.0
  9
$DIMEXE
 40
2.54
  9
$DIMTP
 40
0.0
  9
$DIMTM
 40
0.0
  9
$DIMTXT
 40
3.0
  9
$DIMCEN
 40
0.09
  9
$DIMTSZ
 40
0.0
  9
$DIMTOL
 70
     0
  9
$DIMLIM
 70
     0
  9
$DIMTIH
 70
     0
  9
$DIMTOH
 70
     0
  9
$DIMSE1
 70
     0
  9
$DIMSE2
 70
     0
  9
$DIMTAD
 70
     1
  9
$DIMZIN
 70
     0
  9
$DIMBLK
  1

  9
$DIMASO
 70
     1
  9
$DIMSHO
 70
     0
  9
$DIMPOST
  1

  9
$DIMAPOST
  1

  9
$DIMALT
 70
     0
  9
$DIMALTD
 70
     2
  9
$DIMALTF
 40
25.4
  9
$DIMLFAC
 40
1.0
  9
$DIMTOFL
 70
     0
  9
$DIMTVP
 40
1.0
  9
$DIMTIX
 70
     0
  9
$DIMSOXD
 70
     0
  9
$DIMSAH
 70
     1
  9
$DIMBLK1
  1

  9
$DIMBLK2
  1

  9
$DIMSTYLE
  2
DIMSTYLE1
  9
$DIMCLRD
 70
     0
  9
$DIMCLRE
 70
     0
  9
$DIMCLRT
 70
     0
  9
$DIMTFAC
 40
1.0
  9
$DIMGAP
 40
1.5
  9
$DIMJUST
 70
     0
  9
$DIMSD1
 70
     0
  9
$DIMSD2
 70
     0
  9
$DIMTOLJ
 70
     1
  9
$DIMTZIN
 70
     0
  9
$DIMALTZ
 70
     0
  9
$DIMALTTZ
 70
     0
  9
$DIMUPT
 70
     0
  9
$DIMDEC
 70
     4
  9
$DIMTDEC
 70
     4
  9
$DIMALTU
 70
     2
  9
$DIMALTTD
 70
     2
  9
$DIMTXSTY
  7
STANDARD
  9
$DIMAUNIT
 70
     0
  9
$DIMADEC
 70
     0
  9
$DIMALTRND
 40
0.0
  9
$DIMAZIN
 70
     0
  9
$DIMDSEP
 70
    46
  9
$DIMATFIT
 70
     3
  9
$DIMFRAC
 70
     0
  9
$DIMLDRBLK
  1

  9
$DIMLUNIT
 70
     2
  9
$DIMLWD
 70
    -2
  9
$DIMLWE
 70
    -2
  9
$DIMTMOVE
 70
     0
  9
$LUNITS
 70
     2
  9
$LUPREC
 70
     4
  9
$SKETCHINC
 40
0.1
  9
$FILLETRAD
 40
0.0
  9
$AUNITS
 70
     0
  9
$AUPREC
 70
     0
  9
$MENU
  1
.
  9
$ELEVATION
 40
0.0
  9
$PELEVATION
 40
0.0
  9
$THICKNESS
 40
0.0
  9
$LIMCHECK
 70
     0
  9
$CHAMFERA
 40
0.0
  9
$CHAMFERB
 40
0.0
  9
$CHAMFERC
 40
0.0
  9
$CHAMFERD
 40
0.0
  9
$SKPOLY
 70
     0
  9
$TDCREATE
 40
2457842.706449642
  9
$TDUCREATE
 40
2457842.331449642
  9
$TDUPDATE
 40
2457842.706973808
  9
$TDUUPDATE
 40
2457842.331973808
  9
$TDINDWG
 40
0.0005253241
  9
$TDUSRTIMER
 40
0.0005253241
  9
$USRTIMER
 70
     1
  9
$ANGBASE
 50
0.0
  9
$ANGDIR
 70
     0
  9
$PDMODE
 70
     0
  9
$PDSIZE
 40
0.0
  9
$PLINEWID
 40
0.0
  9
$SPLFRAME
 70
     0
  9
$SPLINETYPE
 70
     6
  9
$SPLINESEGS
 70
     8
  9
$HANDSEED
  5
12E
  9
$SURFTAB1
 70
     6
  9
$SURFTAB2
 70
     6
  9
$SURFTYPE
 70
     6
  9
$SURFU
 70
     6
  9
$SURFV
 70
     6
  9
$UCSBASE
  2

  9
$UCSNAME
  2

  9
$UCSORG
 10
0.0
 20
0.0
 30
0.0
  9
$UCSXDIR
 10
1.0
 20
0.0
 30
0.0
  9
$UCSYDIR
 10
0.0
 20
1.0
 30
0.0
  9
$UCSORTHOREF
  2

  9
$UCSORTHOVIEW
 70
     0
  9
$UCSORGTOP
 10
0.0
 20
0.0
 30
0.0
  9
$UCSORGBOTTOM
 10
0.0
 20
0.0
 30
0.0
  9
$UCSORGLEFT
 10
0.0
 20
0.0
 30
0.0
  9
$UCSORGRIGHT
 10
0.0
 20
0.0
 30
0.0
  9
$UCSORGFRONT
 10
0.0
 20
0.0
 30
0.0
  9
$UCSORGBACK
 10
0.0
 20
0.0
 30
0.0
  9
$PUCSBASE
  2

  9
$PUCSNAME
  2

  9
$PUCSORG
 10
0.0
 20
0.0
 30
0.0
  9
$PUCSXDIR
 10
1.0
 20
0.0
 30
0.0
  9
$PUCSYDIR
 10
0.0
 20
1.0
 30
0.0
  9
$PUCSORTHOREF
  2

  9
$PUCSORTHOVIEW
 70
     0
  9
$PUCSORGTOP
 10
0.0
 20
0.0
 30
0.0
  9
$PUCSORGBOTTOM
 10
0.0
 20
0.0
 30
0.0
  9
$PUCSORGLEFT
 10
0.0
 20
0.0
 30
0.0
  9
$PUCSORGRIGHT
 10
0.0
 20
0.0
 30
0.0
  9
$PUCSORGFRONT
 10
0.0
 20
0.0
 30
0.0
  9
$PUCSORGBACK
 10
0.0
 20
0.0
 30
0.0
  9
$USERI1
 70
     0
  9
$USERI2
 70
     0
  9
$USERI3
 70
     0
  9
$USERI4
 70
     0
  9
$USERI5
 70
     0
  9
$USERR1
 40
0.0
  9
$USERR2
 40
0.0
  9
$USERR3
 40
0.0
  9
$USERR4
 40
0.0
  9
$USERR5
 40
0.0
  9
$WORLDVIEW
 70
     1
  9
$SHADEDGE
 70
     3
  9
$SHADEDIF
 70
    70
  9
$TILEMODE
 70
     1
  9
$MAXACTVP
 70
    64
  9
$PINSBASE
 10
0.0
 20
0.0
 30
0.0
  9
$PLIMCHECK
 70
     0
  9
$PEXTMIN
 10
1.000000000000000E+20
 20
1.000000000000000E+20
 30
1.000000000000000E+20
  9
$PEXTMAX
 10
-1.000000000000000E+20
 20
-1.000000000000000E+20
 30
-1.000000000000000E+20
  9
$PLIMMIN
 10
-423.0
 20
-2.0
  9
$PLIMMAX
 10
-5.0
 20
293.0
  9
$UNITMODE
 70
     0
  9
$VISRETAIN
 70
     1
  9
$PLINEGEN
 70
     0
  9
$PSLTSCALE
 70
     1
  9
$TREEDEPTH
 70
  3020
  9
$CMLSTYLE
  2
Standard
  9
$CMLJUST
 70
     0
  9
$CMLSCALE
 40
1.0
  9
$PROXYGRAPHICS
 70
     1
  9
$MEASUREMENT
 70
     0
  9
$CELWEIGHT
370
    -1
  9
$ENDCAPS
280
     0
  9
$JOINSTYLE
280
     0
  9
$LWDISPLAY
290
     0
  9
$INSUNITS
 70
     0
  9
$HYPERLINKBASE
  1

  9
$STYLESHEET
  1

  9
$XEDIT
290
     1
  9
$CEPSNTYPE
380
     0
  9
$PSTYLEMODE
290
     1
  9
$FINGERPRINTGUID
  2
{9E01814E-72A6-4795-A9CF-677A448AC71E}
  9
$VERSIONGUID
  2
{CB19A2BB-7D9B-468F-8A0B-ACA41FC3214A}
  9
$EXTNAMES
290
     1
  9
$PSVPSCALE
 40
0.0
  9
$OLESTARTUP
290
     0
  9
$SORTENTS
280
   127
  9
$INDEXCTL
280
     0
  9
$HIDETEXT
280
     0
  9
$XCLIPFRAME
290
     0
  9
$HALOGAP
280
     0
  9
$OBSCOLOR
 70
   257
  9
$OBSLTYPE
280
     0
  9
$INTERSECTIONDISPLAY
280
     0
  9
$INTERSECTIONCOLOR
 70
   257
  9
$DIMASSOC
280
     1
  9
$PROJECTNAME
  1

  0
ENDSEC
  0
SECTION
  2
CLASSES
  0
CLASS
  1
ACDBDICTIONARYWDFLT
  2
AcDbDictionaryWithDefault
  3
ObjectDBX Classes
 90
        0
 91
        1
280
     0
281
     0
  0
CLASS
  1
TABLESTYLE
  2
AcDbTableStyle
  3
ObjectDBX Classes
 90
     2047
 91
        1
280
     0
281
     0
  0
CLASS
  1
DICTIONARYVAR
  2
AcDbDictionaryVar
  3
ObjectDBX Classes
 90
        0
 91
        1
280
     0
281
     0
  0
ENDSEC
  0
SECTION
  2
TABLES
  0
TABLE
  2
VPORT
  5
8
330
0
100
AcDbSymbolTable
 70
     2
  0
VPORT
  5
12D
330
8
100
AcDbSymbolTableRecord
100
AcDbViewportTableRecord
  2
*Active
 70
     0
 10
0.0
 20
0.0
 11
1.0
 21
1.0
 12
-214.0
 22
145.5
 13
0.0
 23
0.0
 14
1.0
 24
1.0
 15
0.0
 25
0.0
 16
0.0
 26
0.0
 36
1.0
 17
0.0
 27
0.0
 37
0.0
 40
297.3320158102766
 41
1.707124010554089
 42
50.0
 43
0.0
 44
0.0
 50
0.0
 51
0.0
 71
     0
 72
   100
 73
     1
 74
     1
 75
     0
 76
     0
 77
     0
 78
     0
281
     0
 65
     1
110
0.0
120
0.0
130
0.0
111
1.0
121
0.0
131
0.0
112
0.0
122
1.0
132
0.0
 79
     0
146
0.0
  0
ENDTAB
  0
TABLE
  2
LTYPE
  5
5
330
0
100
AcDbSymbolTable
 70
     6
  0
LTYPE
  5
13
330
5
100
AcDbSymbolTableRecord
100
AcDbLinetypeTableRecord
  2
ByBlock
 70
     0
  3

 72
    65
 73
     0
 40
0.0
  0
LTYPE
  5
14
330
5
100
AcDbSymbolTableRecord
100
AcDbLinetypeTableRecord
  2
ByLayer
 70
     0
  3

 72
    65
 73
     0
 40
0.0
  0
LTYPE
  5
15
330
5
100
AcDbSymbolTableRecord
100
AcDbLinetypeTableRecord
  2
CONTINUOUS
 70
     0
  3
Solid line
 72
    65
 73
     0
 40
0.0
  0
LTYPE
  5
26
330
5
100
AcDbSymbolTableRecord
100
AcDbLinetypeTableRecord
  2
DASHED
 70
     0
  3
__ __ __ __ __ __ __ __ __ __ __ __ __ __ __
 72
    65
 73
     2
 40
3.5
 49
2.0
 74
     0
 49
-1.5
 74
     0
  0
LTYPE
  5
27
330
5
100
AcDbSymbolTableRecord
100
AcDbLinetypeTableRecord
  2
CENTER
 70
     0
  3
____ _ ____ _ ____ _ ____ _ ____ _ ____ _ ____
 72
    65
 73
     4
 40
17.5
 49
13.0
 74
     0
 49
-1.5
 74
     0
 49
1.5
 74
     0
 49
-1.5
 74
     0
  0
LTYPE
  5
28
330
5
100
AcDbSymbolTableRecord
100
AcDbLinetypeTableRecord
  2
PHANTOM
 70
     0
  3
_____ _ _ _____ _ _ _____ _ _ _____ _ _ ____  
 72
    65
 73
     6
 40
15.5
 49
8.0
 74
     0
 49
-1.5
 74
     0
 49
1.5
 74
     0
 49
-1.5
 74
     0
 49
1.5
 74
     0
 49
-1.5
 74
     0
  0
LTYPE
  5
29
330
5
100
AcDbSymbolTableRecord
100
AcDbLinetypeTableRecord
  2
DOT
 70
     0
  3
. . . . . . . . . . . . . . . . . . . . . . . .
 72
    65
 73
     2
 40
0.25
 49
0.0
 74
     0
 49
-0.25
 74
     0
  0
LTYPE
  5
2A
330
5
100
AcDbSymbolTableRecord
100
AcDbLinetypeTableRecord
  2
HIDDEN
 70
     0
  3
__ __ __ __ __ __ __ __ __ __ __ __ __ __ __
 72
    65
 73
     2
 40
3.5
 49
2.0
 74
     0
 49
-1.5
 74
     0
  0
ENDTAB
  0
TABLE
  2
LAYER
  5
2
330
0
100
AcDbSymbolTable
 70
     3
  0
LAYER
  5
10
330
2
100
AcDbSymbolTableRecord
100
AcDbLayerTableRecord
  2
0
 70
     0
 62
     7
  6
CONTINUOUS
370
    -3
390
F
  0
LAYER
  5
2B
330
2
100
AcDbSymbolTableRecord
100
AcDbLayerTableRecord
  2
1
 70
     0
 62
     7
  6
CONTINUOUS
370
    -3
390
F
  0
LAYER
  5
2C
330
2
100
AcDbSymbolTableRecord
100
AcDbLayerTableRecord
  2
DEFPOINTS
 70
     0
 62
     7
  6
CONTINUOUS
290
     0
370
    -3
390
F
  0
ENDTAB
  0
TABLE
  2
STYLE
  5
3
330
0
100
AcDbSymbolTable
 70
     2
  0
STYLE
  5
11
330
3
100
AcDbSymbolTableRecord
100
AcDbTextStyleTableRecord
  2
STANDARD
 70
     0
 40
0.0
 41
1.0
 50
0.0
 71
     0
 42
0.2
  3

  4

1001
ACAD
1000
MS Gothic
1071
    32817
  0
ENDTAB
  0
TABLE
  2
VIEW
  5
6
330
0
100
AcDbSymbolTable
 70
     0
  0
ENDTAB
  0
TABLE
  2
UCS
  5
7
330
0
100
AcDbSymbolTable
 70
     0
  0
ENDTAB
  0
TABLE
  2
APPID
  5
9
330
0
100
AcDbSymbolTable
 70
     2
  0
APPID
  5
12
330
9
100
AcDbSymbolTableRecord
100
AcDbRegAppTableRecord
  2
ACAD
 70
     0
  0
APPID
  5
122
330
9
100
AcDbSymbolTableRecord
100
AcDbRegAppTableRecord
  2
ACAD_PSEXT
 70
     0
  0
ENDTAB
  0
TABLE
  2
DIMSTYLE
  5
A
330
0
100
AcDbSymbolTable
 70
     4
100
AcDbDimStyleTable
 71
     1
340
2D
  0
DIMSTYLE
105
2D
102
{ACAD_REACTORS
330
11C
102
}
330
A
100
AcDbSymbolTableRecord
100
AcDbDimStyleTableRecord
  2
DIMSTYLE1
 70
     0
 41
1.0
 42
2.54
 44
2.54
 73
     0
 74
     0
 77
     1
140
3.0
145
1.0
147
1.5
172
     1
173
     1
279
     2
340
11
  0
DIMSTYLE
105
2E
102
{ACAD_REACTORS
330
11D
102
}
330
A
100
AcDbSymbolTableRecord
100
AcDbDimStyleTableRecord
  2
DIMSTYLE2
 70
     0
 41
1.0
 42
2.54
 44
2.54
 73
     0
 74
     0
 77
     1
140
3.0
145
1.0
147
1.5
172
     1
173
     1
279
     2
340
11
  0
DIMSTYLE
105
2F
102
{ACAD_REACTORS
330
11E
102
}
330
A
100
AcDbSymbolTableRecord
100
AcDbDimStyleTableRecord
  2
DIMSTYLE3
 70
     0
 41
1.0
 42
2.54
 44
2.54
 73
     0
 74
     0
 75
     1
 76
     1
 77
     1
140
3.0
145
1.0
147
1.5
172
     1
173
     1
279
     2
340
11
  0
ENDTAB
  0
TABLE
  2
BLOCK_RECORD
  5
1
330
0
100
AcDbSymbolTable
 70
     6
  0
BLOCK_RECORD
  5
22
330
1
100
AcDbSymbolTableRecord
100
AcDbBlockTableRecord
  2
*Model_Space
340
25
  0
BLOCK_RECORD
  5
1E
330
1
100
AcDbSymbolTableRecord
100
AcDbBlockTableRecord
  2
*Paper_Space
340
21
  0
BLOCK_RECORD
  5
33
330
1
100
AcDbSymbolTableRecord
100
AcDbBlockTableRecord
  2
_OPEN30
340
0
102
{BLKREFS
331
3C
331
3D
331
49
331
4B
331
57
331
58
102
}
  0
BLOCK_RECORD
  5
39
330
1
100
AcDbSymbolTableRecord
100
AcDbBlockTableRecord
  2
*D1
340
0
  0
BLOCK_RECORD
  5
45
330
1
100
AcDbSymbolTableRecord
100
AcDbBlockTableRecord
  2
*D2
340
0
  0
BLOCK_RECORD
  5
53
330
1
100
AcDbSymbolTableRecord
100
AcDbBlockTableRecord
  2
*D3
340
0
  0
BLOCK_RECORD
  5
5D
330
1
100
AcDbSymbolTableRecord
100
AcDbBlockTableRecord
  2
KOZU0001
340
0
102
{BLKREFS
331
11F
102
}
  0
ENDTAB
  0
ENDSEC
  0
SECTION
  2
BLOCKS
  0
BLOCK
  5
23
330
22
100
AcDbEntity
  8
0
100
AcDbBlockBegin
  2
*Model_Space
 70
     0
 10
0.0
 20
0.0
 30
0.0
  3
*Model_Space
  1

  0
ENDBLK
  5
24
330
22
100
AcDbEntity
  8
0
100
AcDbBlockEnd
  0
BLOCK
  5
1F
330
1E
100
AcDbEntity
 67
     1
  8
0
100
AcDbBlockBegin
  2
*Paper_Space
 70
     0
 10
0.0
 20
0.0
 30
0.0
  3
*Paper_Space
  1

  0
ENDBLK
  5
20
330
1E
100
AcDbEntity
 67
     1
  8
0
100
AcDbBlockEnd
  0
BLOCK
  5
34
330
33
100
AcDbEntity
  8
0
100
AcDbBlockBegin
  2
_OPEN30
 70
     0
 10
0.0
 20
0.0
 30
0.0
  3
_OPEN30
  1

  0
LINE
  5
35
330
33
100
AcDbEntity
  8
0
  6
ByBlock
 62
     0
100
AcDbLine
 10
0.0
 20
0.0
 30
0.0
 11
-2.999999999999993
 21
-1.000000000000017
 31
0.0
  0
LINE
  5
36
330
33
100
AcDbEntity
  8
0
  6
ByBlock
 62
     0
100
AcDbLine
 10
0.0
 20
0.0
 30
0.0
 11
-3.000000000000006
 21
0.9999999999999815
 31
0.0
  0
LINE
  5
37
330
33
100
AcDbEntity
  8
0
  6
ByBlock
 62
     0
100
AcDbLine
 10
0.0
 20
0.0
 30
0.0
 11
-3.0
 21
0.0
 31
0.0
  0
ENDBLK
  5
38
330
33
100
AcDbEntity
  8
0
100
AcDbBlockEnd
  0
BLOCK
  5
3A
330
39
100
AcDbEntity
  8
0
100
AcDbBlockBegin
  2
*D1
 70
     1
 10
0.0
 20
0.0
 30
0.0
  3
*D1
  1

  0
LINE
  5
3B
330
39
100
AcDbEntity
  8
0
  6
Continuous
 62
     7
100
AcDbLine
 10
-169.778076171875
 20
265.7361450195313
 30
0.0
 11
-125.778076171875
 21
265.7361450195313
 31
0.0
  0
INSERT
  5
3C
330
39
100
AcDbEntity
  8
0
  6
Continuous
 62
     7
100
AcDbBlockReference
  2
_OPEN30
 10
-172.778076171875
 20
265.7361450195313
 30
0.0
 50
180.0000000000004
  0
INSERT
  5
3D
330
39
100
AcDbEntity
  8
0
  6
Continuous
 62
     7
100
AcDbBlockReference
  2
_OPEN30
 10
-122.778076171875
 20
265.7361450195313
 30
0.0
  0
LINE
  5
3E
330
39
100
AcDbEntity
  8
0
  6
Continuous
 62
     7
100
AcDbLine
 10
-172.778076171875
 20
233.9872961425781
 30
0.0
 11
-172.778076171875
 21
268.0221557617188
 31
0.0
  0
LINE
  5
3F
330
39
100
AcDbEntity
  8
0
  6
Continuous
 62
     7
100
AcDbLine
 10
-122.778076171875
 20
212.3172979736328
 30
0.0
 11
-122.778076171875
 21
268.0221557617188
 31
0.0
  0
TEXT
  5
40
330
39
100
AcDbEntity
  8
0
  6
Continuous
 62
     7
100
AcDbText
 10
-150.3480762839317
 20
266.4861450195313
 30
0.0
 40
3.0
  1
50
 41
1.101428593908038
100
AcDbText
  0
POINT
  5
41
330
39
100
AcDbEntity
  8
DEFPOINTS
  6
Continuous
 62
     7
100
AcDbPoint
 10
-172.778076171875
 20
231.4472961425781
 30
0.0
  0
POINT
  5
42
330
39
100
AcDbEntity
  8
DEFPOINTS
  6
Continuous
 62
     7
100
AcDbPoint
 10
-122.778076171875
 20
209.7772979736328
 30
0.0
  0
POINT
  5
43
330
39
100
AcDbEntity
  8
DEFPOINTS
  6
Continuous
 62
     7
100
AcDbPoint
 10
-122.778076171875
 20
265.7361450195313
 30
0.0
  0
ENDBLK
  5
44
330
39
100
AcDbEntity
  8
0
100
AcDbBlockEnd
  0
BLOCK
  5
46
330
45
100
AcDbEntity
  8
0
100
AcDbBlockBegin
  2
*D2
 70
     1
 10
0.0
 20
0.0
 30
0.0
  3
*D2
  1

  0
LINE
  5
47
330
45
100
AcDbEntity
  8
0
  6
Continuous
 62
     7
100
AcDbLine
 10
-178.778076171875
 20
265.7361450195313
 30
0.0
 11
-185.9009857177734
 21
265.7361450195313
 31
0.0
  0
LINE
  5
48
330
45
100
AcDbEntity
  8
0
  6
Continuous
 62
     7
100
AcDbLine
 10
-172.778076171875
 20
265.7361450195313
 30
0.0
 11
-178.778076171875
 21
265.7361450195313
 31
0.0
  0
INSERT
  5
49
330
45
100
AcDbEntity
  8
0
  6
Continuous
 62
     7
100
AcDbBlockReference
  2
_OPEN30
 10
-172.778076171875
 20
265.7361450195313
 30
0.0
 50
180.0
  0
LINE
  5
4A
330
45
100
AcDbEntity
  8
0
  6
Continuous
 62
     7
100
AcDbLine
 10
-169.778076171875
 20
265.7361450195313
 30
0.0
 11
-166.428076171875
 21
265.7361450195313
 31
0.0
  0
INSERT
  5
4B
330
45
100
AcDbEntity
  8
0
  6
Continuous
 62
     7
100
AcDbBlockReference
  2
_OPEN30
 10
-178.778076171875
 20
265.7361450195313
 30
0.0
 50
0.0000000000003562
  0
LINE
  5
4C
330
45
100
AcDbEntity
  8
0
  6
Continuous
 62
     7
100
AcDbLine
 10
-181.778076171875
 20
265.7361450195313
 30
0.0
 11
-185.128076171875
 21
265.7361450195312
 31
0.0
  0
LINE
  5
4D
330
45
100
AcDbEntity
  8
0
  6
Continuous
 62
     7
100
AcDbLine
 10
-178.778076171875
 20
226.9872961425781
 30
0.0
 11
-178.778076171875
 21
268.0221557617188
 31
0.0
  0
TEXT
  5
4E
330
45
100
AcDbEntity
  8
0
  6
Continuous
 62
     7
100
AcDbText
 10
-185.9009937047958
 20
266.4861450195313
 30
0.0
 40
3.0
  1
6
100
AcDbText
  0
POINT
  5
4F
330
45
100
AcDbEntity
  8
DEFPOINTS
  6
Continuous
 62
     7
100
AcDbPoint
 10
-172.778076171875
 20
268.0221557617188
 30
0.0
  0
POINT
  5
50
330
45
100
AcDbEntity
  8
DEFPOINTS
  6
Continuous
 62
     7
100
AcDbPoint
 10
-178.778076171875
 20
224.4472961425781
 30
0.0
  0
POINT
  5
51
330
45
100
AcDbEntity
  8
DEFPOINTS
  6
Continuous
 62
     7
100
AcDbPoint
 10
-178.778076171875
 20
265.7361450195313
 30
0.0
  0
ENDBLK
  5
52
330
45
100
AcDbEntity
  8
0
100
AcDbBlockEnd
  0
BLOCK
  5
54
330
53
100
AcDbEntity
  8
0
100
AcDbBlockBegin
  2
*D3
 70
     1
 10
0.0
 20
0.0
 30
0.0
  3
*D3
  1

  0
LINE
  5
55
330
53
100
AcDbEntity
  8
0
  6
Continuous
 62
     7
100
AcDbLine
 10
-269.0919799804688
 20
209.5221252441406
 30
0.0
 11
-236.9583435058594
 21
235.0465393066406
 31
0.0
  0
LINE
  5
56
330
53
100
AcDbEntity
  8
0
  6
Continuous
 62
     7
100
AcDbLine
 10
-357.5747284133989
 20
139.2384066287183
 30
0.0
 11
-271.4410796920698
 21
207.656185656438
 31
0.0
  0
INSERT
  5
57
330
53
100
AcDbEntity
  8
0
  6
Continuous
 62
     7
100
AcDbBlockReference
  2
_OPEN30
 10
-359.923828125
 20
137.3724670410156
 30
0.0
 50
218.460859113546
  0
INSERT
  5
58
330
53
100
AcDbEntity
  8
0
  6
Continuous
 62
     7
100
AcDbBlockReference
  2
_OPEN30
 10
-269.0919799804688
 20
209.5221252441406
 30
0.0
 50
38.4608591135453
  0
TEXT
  5
59
330
53
100
AcDbEntity
  8
0
  6
Continuous
 62
     7
100
AcDbText
 10
-264.9335440566275
 20
213.7677205544707
 30
0.0
 40
3.0
  1
%%C１１６（ノズル部外径）
 50
38.50000050217768
 41
0.8436974815103043
100
AcDbText
  0
POINT
  5
5A
330
53
100
AcDbEntity
  8
DEFPOINTS
  6
Continuous
 62
     7
100
AcDbPoint
 10
-359.923828125
 20
137.3724670410156
 30
0.0
  0
POINT
  5
5B
330
53
100
AcDbEntity
  8
DEFPOINTS
  6
Continuous
 62
     7
100
AcDbPoint
 10
-269.0919799804688
 20
209.5221252441406
 30
0.0
  0
ENDBLK
  5
5C
330
53
100
AcDbEntity
  8
0
100
AcDbBlockEnd
  0
BLOCK
  5
5E
330
5D
100
AcDbEntity
  8
0
100
AcDbBlockBegin
  2
KOZU0001
 70
     0
 10
0.0
 20
0.0
 30
0.0
  3
KOZU0001
  1

  0
LINE
  5
5F
330
5D
100
AcDbEntity
  8
0
  6
Continuous
 62
     7
100
AcDbLine
 10
0.0
 20
0.0
 30
0.0
 11
25.98853302001953
 21
-28.00959777832031
 31
0.0
  0
LINE
  5
60
330
5D
100
AcDbEntity
  8
0
  6
Continuous
 62
     7
100
AcDbLine
 10
25.98853302001953
 20
-28.00959777832031
 30
0.0
 11
66.125732421875
 21
-28.00959777832031
 31
0.0
  0
LINE
  5
61
330
5D
100
AcDbEntity
  8
0
  6
Continuous
 62
     7
100
AcDbLine
 10
0.0
 20
0.0
 30
0.0
 11
2.773553307492855
 21
-1.519013512282048
 31
0.0
  0
LINE
  5
62
330
5D
100
AcDbEntity
  8
0
  6
Continuous
 62
     7
100
AcDbLine
 10
0.0
 20
0.0
 30
0.0
 11
1.307434538625054
 21
-2.879342794321352
 31
0.0
  0
TEXT
  5
63
330
5D
100
AcDbEntity
  8
0
  6
Continuous
 62
     7
100
AcDbText
 10
32.2657310962677
 20
-27.25959777832031
 30
0.0
 40
3.0
  1
配管接続口
 41
0.8487395020950888
100
AcDbText
  0
TEXT
  5
64
330
5D
100
AcDbEntity
  8
0
  6
Continuous
 62
     7
100
AcDbText
 10
32.2657310962677
 20
-32.52459777832031
 30
0.0
 40
3.0
  1
Ｇ２　１／２（６５Ａ）
 41
0.8440126077968535
100
AcDbText
  0
ENDBLK
  5
65
330
5D
100
AcDbEntity
  8
0
100
AcDbBlockEnd
  0
ENDSEC
  0
SECTION
  2
ENTITIES
  0
LINE
  5
66
330
22
100
AcDbEntity
  8
0
  6
Continuous
 62
     7
100
AcDbLine
 10
-122.778076171875
 20
137.1172943115234
 30
0.0
 11
-170.778076171875
 21
137.1172943115234
 31
0.0
  0
LINE
  5
67
330
22
100
AcDbEntity
  8
0
  6
Continuous
 62
     7
100
AcDbLine
 10
-351.7549133300781
 20
156.2069396972656
 30
0.0
 11
-351.8031005859375
 21
153.1707000732422
 31
0.0
  0
LINE
  5
68
330
22
100
AcDbEntity
  8
0
  6
Continuous
 62
     7
100
AcDbLine
 10
-351.3412170410156
 20
156.2568664550781
 30
0.0
 11
-350.9275207519531
 21
156.3067932128906
 31
0.0
  0
LINE
  5
69
330
22
100
AcDbEntity
  8
0
  6
Continuous
 62
     7
100
AcDbLine
 10
-350.9275207519531
 20
156.3067932128906
 30
0.0
 11
-350.1583557128906
 21
153.3692016601563
 31
0.0
  0
LINE
  5
6A
330
22
100
AcDbEntity
  8
0
  6
Continuous
 62
     7
100
AcDbLine
 10
-275.5130920410156
 20
149.6459808349609
 30
0.0
 11
-275.8461303710938
 21
149.3960723876953
 31
0.0
  0
LINE
  5
6B
330
22
100
AcDbEntity
  8
0
  6
Continuous
 62
     7
100
AcDbLine
 10
-276.17919921875
 20
149.1461791992188
 30
0.0
 11
-278.3007507324219
 21
151.2873077392578
 31
0.0
  0
LINE
  5
6C
330
22
100
AcDbEntity
  8
0
  6
Continuous
 62
     7
100
AcDbLine
 10
-280.9543151855469
 20
149.8109130859375
 30
0.0
 11
-278.3007507324219
 21
151.2873077392578
 31
0.0
  0
LINE
  5
6D
330
22
100
AcDbEntity
  8
0
  6
Continuous
 62
     7
100
AcDbLine
 10
-281.2044067382813
 20
150.1442260742188
 30
0.0
 11
-281.4544982910156
 21
150.4775238037109
 31
0.0
  0
LINE
  5
6E
330
22
100
AcDbEntity
  8
0
  6
Continuous
 62
     7
100
AcDbLine
 10
-281.4544982910156
 20
150.4775238037109
 30
0.0
 11
-279.2950439453125
 21
152.6124420166016
 31
0.0
  0
LINE
  5
6F
330
22
100
AcDbEntity
  8
0
  6
Continuous
 62
     7
100
AcDbLine
 10
-275.316375732422
 20
155.0831146240234
 30
0.0
 11
-277.9699096679688
 21
153.6067199707031
 31
0.0
  0
LINE
  5
70
330
22
100
AcDbEntity
  8
0
  6
Continuous
 62
     7
100
AcDbLine
 10
-275.0662841796875
 20
154.7498016357422
 30
0.0
 11
-274.8161926269531
 21
154.41650390625
 31
0.0
  0
LINE
  5
71
330
22
100
AcDbEntity
  8
0
  6
Continuous
 62
     7
100
AcDbLine
 10
-276.17919921875
 20
149.1461791992188
 30
0.0
 11
-275.8461303710938
 21
149.3960723876953
 31
0.0
  0
LINE
  5
72
330
22
100
AcDbEntity
  8
0
  6
Continuous
 62
     7
100
AcDbLine
 10
-275.0662841796875
 20
154.7498016357422
 30
0.0
 11
-275.316375732422
 21
155.0831146240234
 31
0.0
  0
LINE
  5
73
330
22
100
AcDbEntity
  8
0
  6
Continuous
 62
     7
100
AcDbLine
 10
-274.8161926269531
 20
154.41650390625
 30
0.0
 11
-276.9756469726563
 21
152.2815856933594
 31
0.0
  0
LINE
  5
74
330
22
100
AcDbEntity
  8
0
  6
Continuous
 62
     7
100
AcDbLine
 10
-280.0914611816406
 20
155.7478485107422
 30
0.0
 11
-280.4245300292969
 21
155.4979553222656
 31
0.0
  0
LINE
  5
75
330
22
100
AcDbEntity
  8
0
  6
Continuous
 62
     7
100
AcDbLine
 10
-280.0914611816406
 20
155.7478485107422
 30
0.0
 11
-277.9699096679688
 21
153.6067199707031
 31
0.0
  0
LINE
  5
76
330
22
100
AcDbEntity
  8
0
  6
Continuous
 62
     7
100
AcDbLine
 10
-317.1853942871094
 20
154.6706237792969
 30
0.0
 11
-317.1853942871094
 21
151.4102325439453
 31
0.0
  0
LINE
  5
77
330
22
100
AcDbEntity
  8
0
  6
Continuous
 62
     7
100
AcDbLine
 10
-347.1445617675781
 20
153.3179931640625
 30
0.0
 11
-347.0946960449219
 21
152.9046173095703
 31
0.0
  0
LINE
  5
78
330
22
100
AcDbEntity
  8
0
  6
Continuous
 62
     7
100
AcDbLine
 10
-354.7181396484375
 20
152.4039459228516
 30
0.0
 11
-354.6682434082031
 21
151.9905548095703
 31
0.0
  0
LINE
  5
79
330
22
100
AcDbEntity
  8
0
  6
Continuous
 62
     7
100
AcDbLine
 10
-354.6183776855469
 20
151.5771636962891
 30
0.0
 11
-351.6045837402344
 21
151.5259704589844
 31
0.0
  0
LINE
  5
7A
330
22
100
AcDbEntity
  8
0
  6
Continuous
 62
     7
100
AcDbLine
 10
-347.0447998046875
 20
152.4912261962891
 30
0.0
 11
-347.0946960449219
 21
152.9046173095703
 31
0.0
  0
LINE
  5
7B
330
22
100
AcDbEntity
  8
0
  6
Continuous
 62
     7
100
AcDbLine
 10
-347.1445617675781
 20
153.3179931640625
 30
0.0
 11
-350.1583557128906
 21
153.3692016601563
 31
0.0
  0
LINE
  5
7C
330
22
100
AcDbEntity
  8
0
  6
Continuous
 62
     7
100
AcDbLine
 10
-354.7181396484375
 20
152.4039459228516
 30
0.0
 11
-351.8031005859375
 21
153.1707000732422
 31
0.0
  0
LINE
  5
7D
330
22
100
AcDbEntity
  8
0
  6
CENTER
 62
     7
100
AcDbLine
 10
-314.5079040527344
 20
109.1482315063477
 30
0.0
 11
-314.5079040527344
 21
235.6107788085938
 31
0.0
  0
LINE
  5
7E
330
22
100
AcDbEntity
  8
0
  6
Continuous
 62
     7
100
AcDbLine
 10
-347.0447998046875
 20
152.4912261962891
 30
0.0
 11
-349.9598388671875
 21
151.7244720458984
 31
0.0
  0
LINE
  5
7F
330
22
100
AcDbEntity
  8
0
  6
Continuous
 62
     7
100
AcDbLine
 10
-350.4217224121094
 20
148.6383056640625
 30
0.0
 11
-350.0080261230469
 21
148.688232421875
 31
0.0
  0
LINE
  5
80
330
22
100
AcDbEntity
  8
0
  6
Continuous
 62
     7
100
AcDbLine
 10
-317.1853942871094
 20
144.4813079833984
 30
0.0
 11
-317.1853942871094
 21
141.2866821289063
 31
0.0
  0
LINE
  5
81
330
22
100
AcDbEntity
  8
0
  6
Continuous
 62
     7
100
AcDbLine
 10
-312.1853942871094
 20
144.4813079833984
 30
0.0
 11
-312.1853942871094
 21
141.2866821289063
 31
0.0
  0
LINE
  5
82
330
22
100
AcDbEntity
  8
0
  6
Continuous
 62
     7
100
AcDbLine
 10
-312.1853942871094
 20
154.6706237792969
 30
0.0
 11
-312.1853942871094
 21
151.4102325439453
 31
0.0
  0
LINE
  5
83
330
22
100
AcDbEntity
  8
0
  6
Continuous
 62
     7
100
AcDbLine
 10
-350.0080261230469
 20
148.688232421875
 30
0.0
 11
-349.9598388671875
 21
151.7244720458984
 31
0.0
  0
LINE
  5
84
330
22
100
AcDbEntity
  8
0
  6
Continuous
 62
     7
100
AcDbLine
 10
-350.8354187011719
 20
148.5883636474609
 30
0.0
 11
-351.6045837402344
 21
151.5259704589844
 31
0.0
  0
LINE
  5
85
330
22
100
AcDbEntity
  8
0
  6
Continuous
 62
     7
100
AcDbLine
 10
-350.4217224121094
 20
148.6383056640625
 30
0.0
 11
-350.8354187011719
 21
148.5883636474609
 31
0.0
  0
LINE
  5
86
330
22
100
AcDbEntity
  8
0
  6
Continuous
 62
     7
100
AcDbLine
 10
-281.2044067382813
 20
150.1442260742188
 30
0.0
 11
-280.9543151855469
 21
149.8109130859375
 31
0.0
  0
LINE
  5
87
330
22
100
AcDbEntity
  8
0
  6
Continuous
 62
     7
100
AcDbLine
 10
-280.7575988769531
 20
155.248046875
 30
0.0
 11
-280.4245300292969
 21
155.4979553222656
 31
0.0
  0
LINE
  5
88
330
22
100
AcDbEntity
  8
0
  6
Continuous
 62
     7
100
AcDbLine
 10
-280.7575988769531
 20
155.248046875
 30
0.0
 11
-279.2950439453125
 21
152.6124420166016
 31
0.0
  0
LINE
  5
89
330
22
100
AcDbEntity
  8
0
  6
Continuous
 62
     7
100
AcDbLine
 10
-275.5130920410156
 20
149.6459808349609
 30
0.0
 11
-276.9756469726563
 21
152.2815856933594
 31
0.0
  0
LINE
  5
8A
330
22
100
AcDbEntity
  8
0
  6
Continuous
 62
     7
100
AcDbLine
 10
-322.6850891113281
 20
174.8622741699219
 30
0.0
 11
-325.8755493164063
 21
176.7042846679688
 31
0.0
  0
LINE
  5
8B
330
22
100
AcDbEntity
  8
0
  6
Continuous
 62
     7
100
AcDbLine
 10
-309.1850891113281
 20
179.1920318603516
 30
0.0
 11
-305.99462890625
 21
181.0340423583984
 31
0.0
  0
LINE
  5
8C
330
22
100
AcDbEntity
  8
0
  6
Continuous
 62
     7
100
AcDbLine
 10
-306.6850891113281
 20
174.8619079589844
 30
0.0
 11
-303.49462890625
 21
176.7039184570313
 31
0.0
  0
LINE
  5
8D
330
22
100
AcDbEntity
  8
0
  6
Continuous
 62
     7
100
AcDbLine
 10
-288.6245422363281
 20
185.2891693115234
 30
0.0
 11
-285.85791015625
 21
186.886474609375
 31
0.0
  0
LINE
  5
8E
330
22
100
AcDbEntity
  8
0
  6
Continuous
 62
     7
100
AcDbLine
 10
-316.3884582519531
 20
212.1028137207031
 30
0.0
 11
-316.0054931640625
 21
211.9393310546875
 31
0.0
  0
LINE
  5
8F
330
22
100
AcDbEntity
  8
0
  6
Continuous
 62
     7
100
AcDbLine
 10
-315.62255859375
 20
211.7758483886719
 30
0.0
 11
-316.0054931640625
 21
211.9393310546875
 31
0.0
  0
LINE
  5
90
330
22
100
AcDbEntity
  8
0
  6
Continuous
 62
     7
100
AcDbLine
 10
-315.62255859375
 20
211.7758483886719
 30
0.0
 11
-314.0713195800781
 21
214.3602600097656
 31
0.0
  0
LINE
  5
91
330
22
100
AcDbEntity
  8
0
  6
Continuous
 62
     7
100
AcDbLine
 10
-312.6273803710938
 20
218.7917785644531
 30
0.0
 11
-313.0103149414063
 21
218.9552612304688
 31
0.0
  0
LINE
  5
92
330
22
100
AcDbEntity
  8
0
  6
Continuous
 62
     7
100
AcDbLine
 10
-312.6273803710938
 20
218.7917785644531
 30
0.0
 11
-313.4208679199219
 21
215.8838806152344
 31
0.0
  0
LINE
  5
93
330
22
100
AcDbEntity
  8
0
  6
Continuous
 62
     7
100
AcDbLine
 10
-316.3884582519531
 20
212.1028137207031
 30
0.0
 11
-315.5949401855469
 21
215.0107116699219
 31
0.0
  0
LINE
  5
94
330
22
100
AcDbEntity
  8
0
  6
Continuous
 62
     7
100
AcDbLine
 10
-318.0367126464844
 20
216.9537811279297
 30
0.0
 11
-317.8731079101563
 21
217.3370208740234
 31
0.0
  0
LINE
  5
95
330
22
100
AcDbEntity
  8
0
  6
Continuous
 62
     7
100
AcDbLine
 10
-318.0367126464844
 20
216.9537811279297
 30
0.0
 11
-318.2003173828125
 21
216.570556640625
 31
0.0
  0
LINE
  5
96
330
22
100
AcDbEntity
  8
0
  6
Continuous
 62
     7
100
AcDbLine
 10
-354.6183776855469
 20
151.5771636962891
 30
0.0
 11
-354.6682434082031
 21
151.9905548095703
 31
0.0
  0
LINE
  5
97
330
22
100
AcDbEntity
  8
0
  6
Continuous
 62
     7
100
AcDbLine
 10
-331.9214172363281
 20
180.1948699951172
 30
0.0
 11
-334.7449951171875
 21
181.8250579833984
 31
0.0
  0
LINE
  5
98
330
22
100
AcDbEntity
  8
0
  6
Continuous
 62
     7
100
AcDbLine
 10
-329.4214172363281
 20
184.5249938964844
 30
0.0
 11
-332.2449951171875
 21
186.1551971435547
 31
0.0
  0
LINE
  5
99
330
22
100
AcDbEntity
  8
0
  6
Continuous
 62
     7
100
AcDbLine
 10
-320.1850891113281
 20
179.1923980712891
 30
0.0
 11
-323.3755493164063
 21
181.0344085693359
 31
0.0
  0
LINE
  5
9A
330
22
100
AcDbEntity
  8
0
  6
Continuous
 62
     7
100
AcDbLine
 10
-312.1853942871094
 20
165.3358154296875
 30
0.0
 11
-312.1853942871094
 21
161.6518096923828
 31
0.0
  0
LINE
  5
9B
330
22
100
AcDbEntity
  8
0
  6
Continuous
 62
     7
100
AcDbLine
 10
-310.9790954589844
 20
213.9408111572266
 30
0.0
 11
-310.8154907226563
 21
214.3240509033203
 31
0.0
  0
LINE
  5
9C
330
22
100
AcDbEntity
  8
0
  6
Continuous
 62
     7
100
AcDbLine
 10
-313.3932495117188
 20
219.1187591552734
 30
0.0
 11
-314.9444885253906
 21
216.5343475341797
 31
0.0
  0
LINE
  5
9D
330
22
100
AcDbEntity
  8
0
  6
Continuous
 62
     7
100
AcDbLine
 10
-313.3932495117188
 20
219.1187591552734
 30
0.0
 11
-313.0103149414063
 21
218.9552612304688
 31
0.0
  0
LINE
  5
9E
330
22
100
AcDbEntity
  8
0
  6
Continuous
 62
     7
100
AcDbLine
 10
-317.8731079101563
 20
217.3370208740234
 30
0.0
 11
-314.9444885253906
 21
216.5343475341797
 31
0.0
  0
LINE
  5
9F
330
22
100
AcDbEntity
  8
0
  6
Continuous
 62
     7
100
AcDbLine
 10
-318.2003173828125
 20
216.570556640625
 30
0.0
 11
-315.5949401855469
 21
215.0107116699219
 31
0.0
  0
LINE
  5
A0
330
22
100
AcDbEntity
  8
0
  6
Continuous
 62
     7
100
AcDbLine
 10
-291.1245422363281
 20
189.6192932128906
 30
0.0
 11
-288.35791015625
 21
191.2166137695313
 31
0.0
  0
LINE
  5
A1
330
22
100
AcDbEntity
  8
0
  6
Continuous
 62
     7
100
AcDbLine
 10
-317.1853942871094
 20
165.3358154296875
 30
0.0
 11
-317.1853942871094
 21
161.6517944335938
 31
0.0
  0
LINE
  5
A2
330
22
100
AcDbEntity
  8
0
  6
Continuous
 62
     7
100
AcDbLine
 10
-338.24560546875
 20
189.6196594238281
 30
0.0
 11
-341.0122375488281
 21
191.2169647216797
 31
0.0
  0
LINE
  5
A3
330
22
100
AcDbEntity
  8
0
  6
Continuous
 62
     7
100
AcDbLine
 10
-299.9487609863281
 20
184.5246276855469
 30
0.0
 11
-297.1251831054688
 21
186.1548309326172
 31
0.0
  0
LINE
  5
A4
330
22
100
AcDbEntity
  8
0
  6
Continuous
 62
     7
100
AcDbLine
 10
-297.4487609863281
 20
180.1945037841797
 30
0.0
 11
-294.6251831054688
 21
181.82470703125
 31
0.0
  0
LINE
  5
A5
330
22
100
AcDbEntity
  8
0
  6
Continuous
 62
     7
100
AcDbLine
 10
-311.1427001953125
 20
213.5575714111328
 30
0.0
 11
-314.0713195800781
 21
214.3602600097656
 31
0.0
  0
LINE
  5
A6
330
22
100
AcDbEntity
  8
0
  6
Continuous
 62
     7
100
AcDbLine
 10
-310.9790954589844
 20
213.9408111572266
 30
0.0
 11
-311.1427001953125
 21
213.5575714111328
 31
0.0
  0
LINE
  5
A7
330
22
100
AcDbEntity
  8
0
  6
Continuous
 62
     7
100
AcDbLine
 10
-310.8154907226563
 20
214.3240509033203
 30
0.0
 11
-313.4208679199219
 21
215.8838806152344
 31
0.0
  0
LINE
  5
A8
330
22
100
AcDbEntity
  8
0
  6
CENTER
 62
     7
100
AcDbLine
 10
-250.2722320556641
 20
173.4472961425781
 30
0.0
 11
-379.5080871582031
 21
173.4472961425781
 31
0.0
  0
LINE
  5
A9
330
22
100
AcDbEntity
  8
0
  6
Continuous
 62
     7
100
AcDbLine
 10
-174.778076171875
 20
117.6753845214844
 30
0.0
 11
-174.778076171875
 21
173.4472961425781
 31
0.0
  0
LINE
  5
AA
330
22
100
AcDbEntity
  8
0
  6
Continuous
 62
     7
100
AcDbLine
 10
-178.778076171875
 20
224.4472961425781
 30
0.0
 11
-178.778076171875
 21
122.447296142578
 31
0.0
  0
LINE
  5
AB
330
22
100
AcDbEntity
  8
0
  6
Continuous
 62
     7
100
AcDbLine
 10
-170.778076171875
 20
137.1172943115234
 30
0.0
 11
-170.778076171875
 21
173.4472961425781
 31
0.0
  0
LINE
  5
AC
330
22
100
AcDbEntity
  8
0
  6
Continuous
 62
     7
100
AcDbLine
 10
-172.778076171875
 20
173.4472961425781
 30
0.0
 11
-172.778076171875
 21
115.4472961425781
 31
0.0
  0
LINE
  5
AD
330
22
100
AcDbEntity
  8
0
  6
Continuous
 62
     7
100
AcDbLine
 10
-172.778076171875
 20
137.1172943115234
 30
0.0
 11
-170.778076171875
 21
137.1172943115234
 31
0.0
  0
LINE
  5
AE
330
22
100
AcDbEntity
  8
0
  6
Continuous
 62
     7
100
AcDbLine
 10
-172.778076171875
 20
115.4472961425781
 30
0.0
 11
-174.778076171875
 21
115.4472961425781
 31
0.0
  0
LINE
  5
AF
330
22
100
AcDbEntity
  8
0
  6
Continuous
 62
     7
100
AcDbLine
 10
-174.778076171875
 20
115.4472961425781
 30
0.0
 11
-178.778076171875
 21
122.447296142578
 31
0.0
  0
LINE
  5
B0
330
22
100
AcDbEntity
  8
0
  6
Continuous
 62
     7
100
AcDbLine
 10
-170.778076171875
 20
137.1172943115234
 30
0.0
 11
-169.3080749511719
 21
135.6472930908203
 31
0.0
  0
LINE
  5
B1
330
22
100
AcDbEntity
  8
0
  6
CENTER
 62
     7
100
AcDbLine
 10
-115.1442947387695
 20
173.4472961425781
 30
0.0
 11
-184.7190246582031
 21
173.4472961425781
 31
0.0
  0
LINE
  5
B2
330
22
100
AcDbEntity
  8
0
  6
Continuous
 62
     7
100
AcDbLine
 10
-173.1580657958984
 20
213.1972961425781
 30
0.0
 11
-172.778076171875
 21
213.1972961425781
 31
0.0
  0
LINE
  5
B3
330
22
100
AcDbEntity
  8
0
  6
CENTER
 62
     7
100
AcDbLine
 10
-184.3737030029297
 20
215.1972961425781
 30
0.0
 11
-167.4403686523438
 21
215.1972961425781
 31
0.0
  0
LINE
  5
B4
330
22
100
AcDbEntity
  8
0
  6
Continuous
 62
     7
100
AcDbLine
 10
-176.5780792236328
 20
217.1972961425781
 30
0.0
 11
-173.1580657958984
 21
217.1972961425781
 31
0.0
  0
LINE
  5
B5
330
22
100
AcDbEntity
  8
0
  6
Continuous
 62
     7
100
AcDbLine
 10
-172.778076171875
 20
216.8172912597656
 30
0.0
 11
-176.1980743408203
 21
216.8172912597656
 31
0.0
  0
LINE
  5
B6
330
22
100
AcDbEntity
  8
0
  6
Continuous
 62
     7
100
AcDbLine
 10
-172.778076171875
 20
216.8172912597656
 30
0.0
 11
-173.1580657958984
 21
217.1972961425781
 31
0.0
  0
LINE
  5
B7
330
22
100
AcDbEntity
  8
0
  6
Continuous
 62
     7
100
AcDbLine
 10
-176.5780792236328
 20
217.1972961425781
 30
0.0
 11
-176.1980743408203
 21
216.8172912597656
 31
0.0
  0
LINE
  5
B8
330
22
100
AcDbEntity
  8
0
  6
Continuous
 62
     7
100
AcDbLine
 10
-178.778076171875
 20
210.9972991943359
 30
0.0
 11
-176.5780792236328
 21
213.1972961425781
 31
0.0
  0
LINE
  5
B9
330
22
100
AcDbEntity
  8
0
  6
Continuous
 62
     7
100
AcDbLine
 10
-178.778076171875
 20
219.3972930908203
 30
0.0
 11
-178.778076171875
 21
210.9972991943359
 31
0.0
  0
LINE
  5
BA
330
22
100
AcDbEntity
  8
0
  6
Continuous
 62
     7
100
AcDbLine
 10
-175.778076171875
 20
212.9472961425781
 30
0.0
 11
-176.8280792236328
 21
212.9472961425781
 31
0.0
  0
LINE
  5
BB
330
22
100
AcDbEntity
  8
0
  6
Continuous
 62
     7
100
AcDbLine
 10
-172.778076171875
 20
209.7772979736328
 30
0.0
 11
-170.778076171875
 21
209.7772979736328
 31
0.0
  0
LINE
  5
BC
330
22
100
AcDbEntity
  8
0
  6
Continuous
 62
     7
100
AcDbLine
 10
-172.778076171875
 20
216.8172912597656
 30
0.0
 11
-172.778076171875
 21
213.5773010253906
 31
0.0
  0
LINE
  5
BD
330
22
100
AcDbEntity
  8
0
  6
Continuous
 62
     7
100
AcDbLine
 10
-172.778076171875
 20
213.5773010253906
 30
0.0
 11
-176.1980743408203
 21
213.5773010253906
 31
0.0
  0
LINE
  5
BE
330
22
100
AcDbEntity
  8
0
  6
Continuous
 62
     7
100
AcDbLine
 10
-178.778076171875
 20
222.9472961425781
 30
0.0
 11
-175.778076171875
 21
222.9472961425781
 31
0.0
  0
LINE
  5
BF
330
22
100
AcDbEntity
  8
0
  6
Continuous
 62
     7
100
AcDbLine
 10
-178.778076171875
 20
222.4472961425781
 30
0.0
 11
-175.778076171875
 21
222.4472961425781
 31
0.0
  0
LINE
  5
C0
330
22
100
AcDbEntity
  8
0
  6
Continuous
 62
     7
100
AcDbLine
 10
-175.778076171875
 20
222.9472961425781
 30
0.0
 11
-175.778076171875
 21
217.1972961425781
 31
0.0
  0
LINE
  5
C1
330
22
100
AcDbEntity
  8
0
  6
Continuous
 62
     7
100
AcDbLine
 10
-122.778076171875
 20
137.1172943115234
 30
0.0
 11
-122.778076171875
 21
173.4472961425781
 31
0.0
  0
LINE
  5
C2
330
22
100
AcDbEntity
  8
0
  6
Continuous
 62
     7
100
AcDbLine
 10
-122.778076171875
 20
209.7772979736328
 30
0.0
 11
-122.778076171875
 21
173.4472961425781
 31
0.0
  0
LINE
  5
C3
330
22
100
AcDbEntity
  8
0
  6
Continuous
 62
     7
100
AcDbLine
 10
-178.778076171875
 20
188.4401550292969
 30
0.0
 11
-178.778076171875
 21
179.4330139160156
 31
0.0
  0
LINE
  5
C4
330
22
100
AcDbEntity
  8
0
  6
Continuous
 62
     7
100
AcDbLine
 10
-169.3080749511719
 20
135.6472930908203
 30
0.0
 11
-169.3080749511719
 21
173.4472961425781
 31
0.0
  0
LINE
  5
C5
330
22
100
AcDbEntity
  8
0
  6
Continuous
 62
     7
100
AcDbLine
 10
-124.2480697631836
 20
135.6472930908203
 30
0.0
 11
-124.2480697631836
 21
173.4472961425781
 31
0.0
  0
LINE
  5
C6
330
22
100
AcDbEntity
  8
0
  6
Continuous
 62
     7
100
AcDbLine
 10
-170.778076171875
 20
137.1172943115234
 30
0.0
 11
-169.3080749511719
 21
135.6472930908203
 31
0.0
  0
LINE
  5
C7
330
22
100
AcDbEntity
  8
0
  6
Continuous
 62
     7
100
AcDbLine
 10
-122.778076171875
 20
137.1172943115234
 30
0.0
 11
-124.2480697631836
 21
135.6472930908203
 31
0.0
  0
LINE
  5
C8
330
22
100
AcDbEntity
  8
0
  6
Continuous
 62
     7
100
AcDbLine
 10
-122.778076171875
 20
207.4472961425781
 30
0.0
 11
-175.778076171875
 21
207.4472961425781
 31
0.0
  0
LINE
  5
C9
330
22
100
AcDbEntity
  8
0
  6
Continuous
 62
     7
100
AcDbLine
 10
-124.2480697631836
 20
211.2472991943359
 30
0.0
 11
-169.3080749511719
 21
211.2472991943359
 31
0.0
  0
LINE
  5
CA
330
22
100
AcDbEntity
  8
0
  6
Continuous
 62
     7
100
AcDbLine
 10
-122.778076171875
 20
209.7772979736328
 30
0.0
 11
-170.778076171875
 21
209.7772979736328
 31
0.0
  0
LINE
  5
CB
330
22
100
AcDbEntity
  8
0
  6
Continuous
 62
     7
100
AcDbLine
 10
-174.778076171875
 20
231.4472961425781
 30
0.0
 11
-178.778076171875
 21
224.4472961425781
 31
0.0
  0
LINE
  5
CC
330
22
100
AcDbEntity
  8
0
  6
Continuous
 62
     7
100
AcDbLine
 10
-172.778076171875
 20
231.4472961425781
 30
0.0
 11
-172.778076171875
 21
209.7772979736328
 31
0.0
  0
LINE
  5
CD
330
22
100
AcDbEntity
  8
0
  6
Continuous
 62
     7
100
AcDbLine
 10
-172.778076171875
 20
231.4472961425781
 30
0.0
 11
-174.778076171875
 21
231.4472961425781
 31
0.0
  0
LINE
  5
CE
330
22
100
AcDbEntity
  8
0
  6
Continuous
 62
     7
100
AcDbLine
 10
-176.5780792236328
 20
213.1972961425781
 30
0.0
 11
-176.1980743408203
 21
213.5773010253906
 31
0.0
  0
LINE
  5
CF
330
22
100
AcDbEntity
  8
0
  6
Continuous
 62
     7
100
AcDbLine
 10
-175.778076171875
 20
213.1972961425781
 30
0.0
 11
-175.778076171875
 21
173.4472961425781
 31
0.0
  0
LINE
  5
D0
330
22
100
AcDbEntity
  8
0
  6
Continuous
 62
     7
100
AcDbLine
 10
-124.2480697631836
 20
135.6472930908203
 30
0.0
 11
-169.3080749511719
 21
135.6472930908203
 31
0.0
  0
LINE
  5
D1
330
22
100
AcDbEntity
  8
0
  6
Continuous
 62
     7
100
AcDbLine
 10
-122.778076171875
 20
209.7772979736328
 30
0.0
 11
-124.2480697631836
 21
211.2472991943359
 31
0.0
  0
LINE
  5
D2
330
22
100
AcDbEntity
  8
0
  6
Continuous
 62
     7
100
AcDbLine
 10
-178.778076171875
 20
176.4472961425781
 30
0.0
 11
-175.778076171875
 21
176.4472961425781
 31
0.0
  0
LINE
  5
D3
330
22
100
AcDbEntity
  8
0
  6
Continuous
 62
     7
100
AcDbLine
 10
-172.778076171875
 20
213.5773010253906
 30
0.0
 11
-173.1580657958984
 21
213.1972961425781
 31
0.0
  0
LINE
  5
D4
330
22
100
AcDbEntity
  8
0
  6
Continuous
 62
     7
100
AcDbLine
 10
-173.1580657958984
 20
217.1972961425781
 30
0.0
 11
-172.778076171875
 21
217.1972961425781
 31
0.0
  0
LINE
  5
D5
330
22
100
AcDbEntity
  8
0
  6
Continuous
 62
     7
100
AcDbLine
 10
-175.778076171875
 20
217.4472961425781
 30
0.0
 11
-176.8280792236328
 21
217.4472961425781
 31
0.0
  0
LINE
  5
D6
330
22
100
AcDbEntity
  8
0
  6
Continuous
 62
     7
100
AcDbLine
 10
-170.778076171875
 20
209.7772979736328
 30
0.0
 11
-169.3080749511719
 21
211.2472991943359
 31
0.0
  0
LINE
  5
D7
330
22
100
AcDbEntity
  8
0
  6
Continuous
 62
     7
100
AcDbLine
 10
-176.5780792236328
 20
213.1972961425781
 30
0.0
 11
-173.1580657958984
 21
213.1972961425781
 31
0.0
  0
LINE
  5
D8
330
22
100
AcDbEntity
  8
0
  6
Continuous
 62
     7
100
AcDbLine
 10
-178.778076171875
 20
219.3972930908203
 30
0.0
 11
-176.5780792236328
 21
217.1972961425781
 31
0.0
  0
LINE
  5
D9
330
22
100
AcDbEntity
  8
0
  6
Continuous
 62
     7
100
AcDbLine
 10
-340.74560546875
 20
185.2895202636719
 30
0.0
 11
-343.5122375488281
 21
186.8868408203125
 31
0.0
  0
LINE
  5
DA
330
22
100
AcDbEntity
  8
0
  6
Continuous
 62
     7
100
AcDbLine
 10
-351.3412170410156
 20
156.2568664550781
 30
0.0
 11
-351.7549133300781
 21
156.2069396972656
 31
0.0
  0
ARC
  5
DB
330
22
100
AcDbEntity
  8
0
  6
Continuous
 62
     7
100
AcDbCircle
 10
-314.6853942871094
 20
173.1300354003906
 30
0.0
 40
22.99977111816406
100
AcDbArc
 50
159.1534192990186
 51
260.8458543966989
  0
ARC
  5
DC
330
22
100
AcDbEntity
  8
0
  6
Continuous
 62
     7
100
AcDbCircle
 10
-314.6853942871094
 20
173.1300354003906
 30
0.0
 40
36.5
100
AcDbArc
 50
161.5366470726288
 51
258.4630104440664
  0
ARC
  5
DD
330
22
100
AcDbEntity
  8
0
  6
Continuous
 62
     7
100
AcDbCircle
 10
-314.6853942871094
 20
173.1300354003906
 30
0.0
 40
33.0
100
AcDbArc
 50
154.5889711205648
 51
265.4105568855683
  0
ARC
  5
DE
330
22
100
AcDbEntity
  8
0
  6
Continuous
 62
     7
100
AcDbCircle
 10
-314.6853942871094
 20
173.1300354003906
 30
0.0
 40
27.0
100
AcDbArc
 50
158.8643771640069
 51
261.0731794115463
  0
ARC
  5
DF
330
22
100
AcDbEntity
  8
0
  6
Continuous
 62
     7
100
AcDbCircle
 10
-314.6853942871094
 20
173.1300354003906
 30
0.0
 40
17.0
100
AcDbArc
 50
283.7002075092021
 51
16.29915374044726
  0
ARC
  5
E0
330
22
100
AcDbEntity
  8
0
  6
Continuous
 62
     7
100
AcDbCircle
 10
-314.6853942871094
 20
173.1300354003906
 30
0.0
 40
23.0
100
AcDbArc
 50
279.1541299486827
 51
20.89969858937529
  0
ARC
  5
E1
330
22
100
AcDbEntity
  8
0
  6
Continuous
 62
     7
100
AcDbCircle
 10
-314.6853942871094
 20
173.1300354003906
 30
0.0
 40
17.0
100
AcDbArc
 50
163.6995750100605
 51
256.2996925625676
  0
ARC
  5
E2
330
22
100
AcDbEntity
  8
0
  6
Continuous
 62
     7
100
AcDbCircle
 10
-310.1853942871094
 20
154.6706237792969
 30
0.0
 40
2.0
100
AcDbArc
 50
103.7004768427547
 51
180.0000000000004
  0
ARC
  5
E3
330
22
100
AcDbEntity
  8
0
  6
Continuous
 62
     7
100
AcDbCircle
 10
-319.1853942871094
 20
154.6706237792969
 30
0.0
 40
2.0
100
AcDbArc
 50
0.0
 51
76.30037254673718
  0
CIRCLE
  5
E4
330
22
100
AcDbEntity
  8
0
  6
Continuous
 62
     7
100
AcDbCircle
 10
-278.1353454589844
 20
152.4470062255859
 30
0.0
 40
4.5
  0
ARC
  5
E5
330
22
100
AcDbEntity
  8
0
  6
Continuous
 62
     7
100
AcDbCircle
 10
-308.1853942871094
 20
141.2866821289063
 30
0.0
 40
4.0
100
AcDbArc
 50
180.0000000000004
 51
281.5367709118262
  0
ARC
  5
E6
330
22
100
AcDbEntity
  8
0
  6
Continuous
 62
     7
100
AcDbCircle
 10
-318.1853942871094
 20
151.4102325439453
 30
0.0
 40
1.0
100
AcDbArc
 50
260.8459778304266
 51
0.0
  0
ARC
  5
E7
330
22
100
AcDbEntity
  8
0
  6
Continuous
 62
     7
100
AcDbCircle
 10
-319.1853942871094
 20
144.4813079833984
 30
0.0
 40
2.0
100
AcDbArc
 50
0.0
 51
81.07350615757278
  0
ARC
  5
E8
330
22
100
AcDbEntity
  8
0
  6
Continuous
 62
     7
100
AcDbCircle
 10
-321.1853942871094
 20
141.2866821289063
 30
0.0
 40
4.0
100
AcDbArc
 50
258.4628007886507
 51
0.0
  0
ARC
  5
E9
330
22
100
AcDbEntity
  8
0
  6
Continuous
 62
     7
100
AcDbCircle
 10
-311.1853942871094
 20
151.4102325439453
 30
0.0
 40
1.0
100
AcDbArc
 50
180.0000000000004
 51
279.1540221695749
  0
ARC
  5
EA
330
22
100
AcDbEntity
  8
0
  6
Continuous
 62
     7
100
AcDbCircle
 10
-310.1853942871094
 20
144.4813079833984
 30
0.0
 40
2.0
100
AcDbArc
 50
98.92735751893603
 51
180.0000000000004
  0
ARC
  5
EB
330
22
100
AcDbEntity
  8
0
  6
Continuous
 62
     7
100
AcDbCircle
 10
-318.1853942871094
 20
161.6518096923828
 30
0.0
 40
1.0
100
AcDbArc
 50
253.041250160246
 51
0.0
  0
ARC
  5
EC
330
22
100
AcDbEntity
  8
0
  6
Continuous
 62
     7
100
AcDbCircle
 10
-319.1853942871094
 20
165.3358154296875
 30
0.0
 40
2.0
100
AcDbArc
 50
0.0
 51
60.00006956400067
  0
ARC
  5
ED
330
22
100
AcDbEntity
  8
0
  6
Continuous
 62
     7
100
AcDbCircle
 10
-314.6853942871094
 20
173.1300354003906
 30
0.0
 40
17.0
100
AcDbArc
 50
43.69872733463757
 51
136.2989087511429
  0
ARC
  5
EE
330
22
100
AcDbEntity
  8
0
  6
Continuous
 62
     7
100
AcDbCircle
 10
-311.1853942871094
 20
161.6518096923828
 30
0.0
 40
1.0
100
AcDbArc
 50
180.0000000000004
 51
286.9570773534181
  0
CIRCLE
  5
EF
330
22
100
AcDbEntity
  8
0
  6
Continuous
 62
     7
100
AcDbCircle
 10
-314.6853942871094
 20
173.1300354003906
 30
0.0
 40
3.0
  0
ARC
  5
F0
330
22
100
AcDbEntity
  8
0
  6
Continuous
 62
     7
100
AcDbCircle
 10
-322.8755493164063
 20
181.9004364013672
 30
0.0
 40
1.0
100
AcDbArc
 50
133.0417688689462
 51
240.0000695640013
  0
ARC
  5
F1
330
22
100
AcDbEntity
  8
0
  6
Continuous
 62
     7
100
AcDbCircle
 10
-323.6850891113281
 20
173.1302185058594
 30
0.0
 40
2.0
100
AcDbArc
 50
0.0
 51
60.00006956400067
  0
ARC
  5
F2
330
22
100
AcDbEntity
  8
0
  6
Continuous
 62
     7
100
AcDbCircle
 10
-319.1850891113281
 20
180.9244537353516
 30
0.0
 40
2.0
100
AcDbArc
 50
240.0000695640013
 51
299.9999304360001
  0
ARC
  5
F3
330
22
100
AcDbEntity
  8
0
  6
Continuous
 62
     7
100
AcDbCircle
 10
-283.85791015625
 20
183.4223785400391
 30
0.0
 40
4.0
100
AcDbArc
 50
18.46307940487151
 51
120.0000397189275
  0
ARC
  5
F4
330
22
100
AcDbEntity
  8
0
  6
Continuous
 62
     7
100
AcDbCircle
 10
-290.35791015625
 20
194.6807098388672
 30
0.0
 40
4.0
100
AcDbArc
 50
300.0000397189282
 51
41.53690361620832
  0
CIRCLE
  5
F5
330
22
100
AcDbEntity
  8
0
  6
Continuous
 62
     7
100
AcDbCircle
 10
-314.5079040527344
 20
215.4472961425781
 30
0.0
 40
4.5
  0
ARC
  5
F6
330
22
100
AcDbEntity
  8
0
  6
Continuous
 62
     7
100
AcDbCircle
 10
-339.0122375488281
 20
194.6810760498047
 30
0.0
 40
4.0
100
AcDbArc
 50
138.4633862459289
 51
240.0000695640013
  0
ARC
  5
F7
330
22
100
AcDbEntity
  8
0
  6
Continuous
 62
     7
100
AcDbCircle
 10
-332.9214172363281
 20
178.4628143310547
 30
0.0
 40
2.0
100
AcDbArc
 50
343.7002786157902
 51
60.00006956400067
  0
ARC
  5
F8
330
22
100
AcDbEntity
  8
0
  6
Continuous
 62
     7
100
AcDbCircle
 10
-328.4214172363281
 20
186.2570495605469
 30
0.0
 40
2.0
100
AcDbArc
 50
240.0000695640013
 51
316.2995647947748
  0
ARC
  5
F9
330
22
100
AcDbEntity
  8
0
  6
Continuous
 62
     7
100
AcDbCircle
 10
-335.2449951171875
 20
180.9590454101563
 30
0.0
 40
1.0
100
AcDbArc
 50
59.99963242795577
 51
159.1543732509646
  0
ARC
  5
FA
330
22
100
AcDbEntity
  8
0
  6
Continuous
 62
     7
100
AcDbCircle
 10
-331.7449951171875
 20
187.0212097167969
 30
0.0
 40
1.0
100
AcDbArc
 50
140.8459217475319
 51
239.9996324279565
  0
ARC
  5
FB
330
22
100
AcDbEntity
  8
0
  6
Continuous
 62
     7
100
AcDbCircle
 10
-306.49462890625
 20
181.9000701904297
 30
0.0
 40
1.0
100
AcDbArc
 50
299.9999304360001
 51
46.95823113105386
  0
ARC
  5
FC
330
22
100
AcDbEntity
  8
0
  6
Continuous
 62
     7
100
AcDbCircle
 10
-302.99462890625
 20
175.837890625
 30
0.0
 40
1.0
100
AcDbArc
 50
13.04297804556662
 51
119.9999304359993
  0
ARC
  5
FD
330
22
100
AcDbEntity
  8
0
  6
Continuous
 62
     7
100
AcDbCircle
 10
-305.6850891113281
 20
173.1298675537109
 30
0.0
 40
2.0
100
AcDbArc
 50
120.0001490025776
 51
180.0000000000004
  0
ARC
  5
FE
330
22
100
AcDbEntity
  8
0
  6
Continuous
 62
     7
100
AcDbCircle
 10
-326.3755493164063
 20
175.8382568359375
 30
0.0
 40
1.0
100
AcDbArc
 50
60.00006956400067
 51
166.9578736830291
  0
ARC
  5
FF
330
22
100
AcDbEntity
  8
0
  6
Continuous
 62
     7
100
AcDbCircle
 10
-314.6853942871094
 20
173.1300354003906
 30
0.0
 40
7.0
100
AcDbArc
 50
180.0000000000004
 51
239.9999446691674
  0
ARC
  5
100
330
22
100
AcDbEntity
  8
0
  6
Continuous
 62
     7
100
AcDbCircle
 10
-314.6853942871094
 20
173.1300354003906
 30
0.0
 40
13.0
100
AcDbArc
 50
46.95664490050321
 51
133.0410738552765
  0
ARC
  5
101
330
22
100
AcDbEntity
  8
0
  6
Continuous
 62
     7
100
AcDbCircle
 10
-314.6853942871094
 20
173.1300354003906
 30
0.0
 40
7.0
100
AcDbArc
 50
59.99709450260927
 51
119.9970802741876
  0
ARC
  5
102
330
22
100
AcDbEntity
  8
0
  6
Continuous
 62
     7
100
AcDbCircle
 10
-314.6853942871094
 20
173.1300354003906
 30
0.0
 40
7.0
100
AcDbArc
 50
300.000055330834
 51
0.0
  0
ARC
  5
103
330
22
100
AcDbEntity
  8
0
  6
Continuous
 62
     7
100
AcDbCircle
 10
-314.6853942871094
 20
173.1300354003906
 30
0.0
 40
13.00026512145996
100
AcDbArc
 50
286.9577817792545
 51
13.04122205043156
  0
ARC
  5
104
330
22
100
AcDbEntity
  8
0
  6
Continuous
 62
     7
100
AcDbCircle
 10
-310.1853942871094
 20
165.3358154296875
 30
0.0
 40
2.0
100
AcDbArc
 50
119.9999304359993
 51
180.0000000000004
  0
ARC
  5
105
330
22
100
AcDbEntity
  8
0
  6
Continuous
 62
     7
100
AcDbCircle
 10
-310.1850891113281
 20
180.9240875244141
 30
0.0
 40
2.0
100
AcDbArc
 50
240.0000695640013
 51
299.9999304360001
  0
ARC
  5
106
330
22
100
AcDbEntity
  8
0
  6
Continuous
 62
     7
100
AcDbCircle
 10
-287.6245422363281
 20
183.5571136474609
 30
0.0
 40
2.0
100
AcDbArc
 50
119.9999304359993
 51
201.0731008397273
  0
ARC
  5
107
330
22
100
AcDbEntity
  8
0
  6
Continuous
 62
     7
100
AcDbCircle
 10
-314.6853942871094
 20
173.1300354003906
 30
0.0
 40
33.0
100
AcDbArc
 50
34.58884282441964
 51
145.4099373609299
  0
ARC
  5
108
330
22
100
AcDbEntity
  8
0
  6
Continuous
 62
     7
100
AcDbCircle
 10
-314.6853942871094
 20
173.1300354003906
 30
0.0
 40
36.5
100
AcDbArc
 50
41.53657458224964
 51
138.4623034833048
  0
ARC
  5
109
330
22
100
AcDbEntity
  8
0
  6
Continuous
 62
     7
100
AcDbCircle
 10
-314.6853942871094
 20
173.1300354003906
 30
0.0
 40
12.99973487854004
100
AcDbArc
 50
166.9566640120003
 51
253.0421945829756
  0
ARC
  5
10A
330
22
100
AcDbEntity
  8
0
  6
Continuous
 62
     7
100
AcDbCircle
 10
-337.24560546875
 20
191.3516998291015
 30
0.0
 40
2.0
100
AcDbArc
 50
239.9998509974231
 51
321.0728487910198
  0
ARC
  5
10B
330
22
100
AcDbEntity
  8
0
  6
Continuous
 62
     7
100
AcDbCircle
 10
-296.4487609863281
 20
178.4624481201172
 30
0.0
 40
2.0
100
AcDbArc
 50
119.9999304359993
 51
196.2997213842113
  0
ARC
  5
10C
330
22
100
AcDbEntity
  8
0
  6
Continuous
 62
     7
100
AcDbCircle
 10
-292.1245422363281
 20
191.3513488769531
 30
0.0
 40
2.0
100
AcDbArc
 50
218.9266018828242
 51
299.9999304360001
  0
ARC
  5
10D
330
22
100
AcDbEntity
  8
0
  6
Continuous
 62
     7
100
AcDbCircle
 10
-300.9487609863281
 20
186.2566833496094
 30
0.0
 40
2.0
100
AcDbArc
 50
223.7004352052267
 51
299.9999304360001
  0
ARC
  5
10E
330
22
100
AcDbEntity
  8
0
  6
Continuous
 62
     7
100
AcDbCircle
 10
-297.6251831054688
 20
187.0208587646484
 30
0.0
 40
1.0
100
AcDbArc
 50
299.9999304360001
 51
39.15407825246809
  0
ARC
  5
10F
330
22
100
AcDbEntity
  8
0
  6
Continuous
 62
     7
100
AcDbCircle
 10
-294.1251831054688
 20
180.9586791992188
 30
0.0
 40
1.0
100
AcDbArc
 50
20.8456267490354
 51
119.9999304359993
  0
ARC
  5
110
330
22
100
AcDbEntity
  8
0
  6
Continuous
 62
     7
100
AcDbCircle
 10
-314.6853942871094
 20
173.1300354003906
 30
0.0
 40
23.0
100
AcDbArc
 50
39.11232666649354
 51
140.8452800259591
  0
ARC
  5
111
330
22
100
AcDbEntity
  8
0
  6
Continuous
 62
     7
100
AcDbCircle
 10
-314.6853942871094
 20
173.1300354003906
 30
0.0
 40
27.0
100
AcDbArc
 50
38.92575317543432
 51
141.1193095413951
  0
ARC
  5
112
330
22
100
AcDbEntity
  8
0
  6
Continuous
 62
     7
100
AcDbCircle
 10
-345.5122375488281
 20
183.4227447509766
 30
0.0
 40
4.0
100
AcDbArc
 50
59.99996028107254
 51
161.5370590315289
  0
ARC
  5
113
330
22
100
AcDbEntity
  8
0
  6
Continuous
 62
     7
100
AcDbCircle
 10
-341.74560546875
 20
183.5574798583984
 30
0.0
 40
2.0
100
AcDbArc
 50
338.9268991602741
 51
59.99985099742237
  0
CIRCLE
  5
114
330
22
100
AcDbEntity
  8
0
  6
Continuous
 62
     7
100
AcDbCircle
 10
-314.5079040527344
 20
173.4472961425781
 30
0.0
 40
49.5
  0
CIRCLE
  5
115
330
22
100
AcDbEntity
  8
0
  6
Continuous
 62
     7
100
AcDbCircle
 10
-314.5079040527344
 20
173.4472961425781
 30
0.0
 40
49.0
  0
ARC
  5
116
330
22
100
AcDbEntity
  8
0
  6
Continuous
 62
     7
100
AcDbCircle
 10
-314.6853942871094
 20
173.1300354003906
 30
0.0
 40
33.0
100
AcDbArc
 50
274.5894431144332
 51
25.41012790070231
  0
ARC
  5
117
330
22
100
AcDbEntity
  8
0
  6
Continuous
 62
     7
100
AcDbCircle
 10
-314.6853942871094
 20
173.1300354003906
 30
0.0
 40
36.5
100
AcDbArc
 50
281.5369426189145
 51
18.46274697323911
  0
ARC
  5
118
330
22
100
AcDbEntity
  8
0
  6
Continuous
 62
     7
100
AcDbCircle
 10
-314.6853942871094
 20
173.1300354003906
 30
0.0
 40
27.0
100
AcDbArc
 50
278.9267566125523
 51
21.0728311241611
  0
CIRCLE
  5
119
330
22
100
AcDbEntity
  8
0
  6
Continuous
 62
     7
100
AcDbCircle
 10
-314.5079040527344
 20
173.4472961425781
 30
0.0
 40
58.0
  0
CIRCLE
  5
11A
330
22
100
AcDbEntity
  8
0
  6
Continuous
 62
     7
100
AcDbCircle
 10
-350.8814697265625
 20
152.4475860595703
 30
0.0
 40
4.5
  0
TEXT
  5
11B
330
22
100
AcDbEntity
  8
0
  6
Continuous
 62
     7
100
AcDbText
 10
-260.031792640686
 20
69.85478210449219
 30
0.0
 40
7.0
  1
ＤＬ－Ｔ４－６５Ｇ
 41
0.8448610808647003
100
AcDbText
  0
DIMENSION
  5
11C
330
22
100
AcDbEntity
  8
0
  6
Continuous
 62
     7
100
AcDbDimension
  2
*D1
 10
-122.778076171875
 20
265.7361450195313
 30
0.0
 11
-147.778076171875
 21
265.7361450195313
 31
0.0
 71
     5
 42
-1.0
  3
DIMSTYLE1
100
AcDbAlignedDimension
 13
-172.778076171875
 23
231.4472961425781
 33
0.0
 14
-122.778076171875
 24
209.7772979736328
 34
0.0
100
AcDbRotatedDimension
  0
DIMENSION
  5
11D
330
22
100
AcDbEntity
  8
0
  6
Continuous
 62
     7
100
AcDbDimension
  2
*D2
 10
-178.778076171875
 20
265.7361450195313
 30
0.0
 11
-184.8309936523438
 21
265.7361450195313
 31
0.0
 71
     5
 42
-1.0
  3
DIMSTYLE2
100
AcDbAlignedDimension
 13
-172.778076171875
 23
268.0221557617188
 33
0.0
 14
-178.778076171875
 24
224.4472961425781
 34
0.0
100
AcDbRotatedDimension
  0
DIMENSION
  5
11E
330
22
100
AcDbEntity
  8
0
  6
Continuous
 62
     7
100
AcDbDimension
  2
*D3
 10
-359.9238376379642
 20
137.3724714502529
 30
0.0
 11
-250.7162322998047
 21
224.1183471679689
 31
0.0
 70
     3
 71
     5
 42
-1.0
  3
DIMSTYLE3
100
AcDbDiametricDimension
 15
-269.0919704675045
 25
209.5221208349033
 35
0.0
 40
0.0
  0
INSERT
  5
11F
330
22
100
AcDbEntity
  8
0
  6
Continuous
 62
     7
100
AcDbBlockReference
  2
KOZU0001
 10
-142.2720794677734
 20
135.6472930908203
 30
0.0
  0
ENDSEC
  0
SECTION
  2
OBJECTS
  0
DICTIONARY
  5
C
330
0
100
AcDbDictionary
281
     1
  3
ACAD_COLOR
350
1B
  3
ACAD_GROUP
350
D
  3
ACAD_LAYOUT
350
19
  3
ACAD_MATERIAL
350
1A
  3
ACAD_MLINESTYLE
350
16
  3
ACAD_PLOTSETTINGS
350
18
  3
ACAD_PLOTSTYLENAME
350
E
  3
ACAD_TABLESTYLE
350
1C
  3
AcDbVariableDictionary
350
12B
  0
DICTIONARY
  5
1B
102
{ACAD_REACTORS
330
C
102
}
330
C
100
AcDbDictionary
281
     1
  0
DICTIONARY
  5
D
102
{ACAD_REACTORS
330
C
102
}
330
C
100
AcDbDictionary
281
     1
  0
DICTIONARY
  5
19
102
{ACAD_REACTORS
330
C
102
}
330
C
100
AcDbDictionary
281
     1
  3
Model
350
25
  3
レイアウト1
350
21
  0
DICTIONARY
  5
1A
102
{ACAD_REACTORS
330
C
102
}
330
C
100
AcDbDictionary
281
     1
  0
DICTIONARY
  5
16
102
{ACAD_REACTORS
330
C
102
}
330
C
100
AcDbDictionary
281
     1
  3
Standard
350
17
  0
DICTIONARY
  5
18
102
{ACAD_REACTORS
330
C
102
}
330
C
100
AcDbDictionary
281
     1
  0
ACDBDICTIONARYWDFLT
  5
E
102
{ACAD_REACTORS
330
C
102
}
330
C
100
AcDbDictionary
281
     1
  3
Normal
350
F
100
AcDbDictionaryWithDefault
340
F
  0
DICTIONARY
  5
1C
102
{ACAD_REACTORS
330
C
102
}
330
C
100
AcDbDictionary
281
     1
  3
Standard
350
1D
  0
DICTIONARY
  5
12B
102
{ACAD_REACTORS
330
C
102
}
330
C
100
AcDbDictionary
281
     1
  3
CTABLESTYLE
350
12C
  0
LAYOUT
  5
25
102
{ACAD_REACTORS
330
19
102
}
330
19
100
AcDbPlotSettings
  1

  2
PDF reDirect v2
  4
A3
  6

 40
3.174999952316284
 41
3.174999952316284
 42
3.17498779296875
 43
3.17498779296875
 44
297.0530090332031
 45
420.1583251953125
 46
0.0
 47
0.0
 48
0.0
 49
0.0
140
0.0
141
0.0
142
1.0
143
1.0
 70
 11952
 72
     1
 73
     1
 74
     2
  7
C:\Users\ck\AppData\Roaming\Autodesk\AutoCAD 2005\R16.1\jpn\Plot Styles\black.ctb
 75
    16
147
1.0
 76
     0
 77
     2
 78
   300
148
423.0
149
2.0
100
AcDbLayout
  1
Model
 70
     1
 71
     0
 10
0.0
 20
0.0
 11
12.0
 21
9.0
 12
0.0
 22
0.0
 32
0.0
 14
0.0
 24
0.0
 34
0.0
 15
0.0
 25
0.0
 35
0.0
146
0.0
 13
0.0
 23
0.0
 33
0.0
 16
1.0
 26
0.0
 36
0.0
 17
0.0
 27
1.0
 37
0.0
 76
     0
330
22
1001
ACAD_PSEXT
1000
PDF reDirect v2
1000
PDF reDirect Pro
1000
PDF_REDIRECT_PORT:
1000
PDF reDirect provided by EXP Systems
1070
     0
  0
LAYOUT
  5
21
102
{ACAD_REACTORS
330
19
102
}
330
19
100
AcDbPlotSettings
  1

  2
PDF reDirect v2
  4

  6

 40
0.0
 41
0.0
 42
0.0
 43
0.0
 44
0.0
 45
0.0
 46
0.0
 47
0.0
 48
0.0
 49
0.0
140
0.0
141
0.0
142
1.0
143
1.0
 70
   688
 72
     0
 73
     0
 74
     5
  7
C:\Users\ck\AppData\Roaming\Autodesk\AutoCAD 2005\R16.1\jpn\Plot Styles\black.ctb
 75
    16
147
1.0
 76
     0
 77
     2
 78
   300
148
0.0
149
0.0
100
AcDbLayout
  1
レイアウト1
 70
     1
 71
     1
 10
-423.0
 20
-2.0
 11
-5.0
 21
293.0
 12
0.0
 22
0.0
 32
0.0
 14
1.000000000000000E+20
 24
1.000000000000000E+20
 34
1.000000000000000E+20
 15
-1.000000000000000E+20
 25
-1.000000000000000E+20
 35
-1.000000000000000E+20
146
0.0
 13
0.0
 23
0.0
 33
0.0
 16
1.0
 26
0.0
 36
0.0
 17
0.0
 27
1.0
 37
0.0
 76
     0
330
1E
  0
MLINESTYLE
  5
17
102
{ACAD_REACTORS
330
16
102
}
330
16
100
AcDbMlineStyle
  2
STANDARD
 70
     0
  3

 62
   256
 51
90.0
 52
90.0
 71
     2
 49
0.5
 62
   256
  6
BYLAYER
 49
-0.5
 62
   256
  6
BYLAYER
  0
ACDBPLACEHOLDER
  5
F
102
{ACAD_REACTORS
330
E
102
}
330
E
  0
TABLESTYLE
  5
1D
102
{ACAD_REACTORS
330
1C
102
}
330
1C
100
AcDbTableStyle
  3
Standard
 70
     0
 71
     0
 40
0.06
 41
0.06
280
     0
281
     0
  7
STANDARD
140
0.18
170
     2
 62
     0
 63
     7
283
     0
274
    -2
284
     1
 64
     0
275
    -2
285
     1
 65
     0
276
    -2
286
     1
 66
     0
277
    -2
287
     1
 67
     0
278
    -2
288
     1
 68
     0
279
    -2
289
     1
 69
     0
  7
STANDARD
140
0.25
170
     5
 62
     0
 63
     7
283
     0
274
    -2
284
     1
 64
     0
275
    -2
285
     1
 65
     0
276
    -2
286
     1
 66
     0
277
    -2
287
     1
 67
     0
278
    -2
288
     1
 68
     0
279
    -2
289
     1
 69
     0
  7
STANDARD
140
0.18
170
     5
 62
     0
 63
     7
283
     0
274
    -2
284
     1
 64
     0
275
    -2
285
     1
 65
     0
276
    -2
286
     1
 66
     0
277
    -2
287
     1
 67
     0
278
    -2
288
     1
 68
     0
279
    -2
289
     1
 69
     0
  0
DICTIONARYVAR
  5
12C
102
{ACAD_REACTORS
330
12B
102
}
330
12B
100
DictionaryVariables
280
     0
  1
STANDARD
  0
ENDSEC
  0
EOF
