  0
SECTION
  2
HEADER
  9
$ACADVER
  1
AC1018
  9
$ACADMAINTVER
 70
    39
  9
$DWGCODEPAGE
  3
ANSI_932
  9
$INSBASE
 10
0.0
 20
0.0
 30
0.0
  9
$EXTMIN
 10
-368.6388234263737
 20
68.57205277096023
 30
-0.0015258207003583
  9
$EXTMAX
 10
-93.54818638571101
 20
267.778977097919
 30
0.0000000349246037
  9
$LIMMIN
 10
-423.0
 20
-2.0
  9
$LIMMAX
 10
-5.0
 20
293.0
  9
$ORTHOMODE
 70
     0
  9
$REGENMODE
 70
     1
  9
$FILLMODE
 70
     1
  9
$QTEXTMODE
 70
     0
  9
$MIRRTEXT
 70
     0
  9
$LTSCALE
 40
1.0
  9
$ATTMODE
 70
     1
  9
$TEXTSIZE
 40
0.2
  9
$TRACEWID
 40
0.05
  9
$TEXTSTYLE
  7
STANDARD
  9
$CLAYER
  8
0
  9
$CELTYPE
  6
CONTINUOUS
  9
$CECOLOR
 62
   256
  9
$CELTSCALE
 40
1.0
  9
$DISPSILH
 70
     0
  9
$DIMSCALE
 40
1.0
  9
$DIMASZ
 40
1.0
  9
$DIMEXO
 40
2.54
  9
$DIMDLI
 40
0.38
  9
$DIMRND
 40
0.0
  9
$DIMDLE
 40
0.0
  9
$DIMEXE
 40
2.54
  9
$DIMTP
 40
0.0
  9
$DIMTM
 40
0.0
  9
$DIMTXT
 40
3.0
  9
$DIMCEN
 40
0.09
  9
$DIMTSZ
 40
0.0
  9
$DIMTOL
 70
     0
  9
$DIMLIM
 70
     0
  9
$DIMTIH
 70
     0
  9
$DIMTOH
 70
     0
  9
$DIMSE1
 70
     0
  9
$DIMSE2
 70
     0
  9
$DIMTAD
 70
     1
  9
$DIMZIN
 70
     0
  9
$DIMBLK
  1

  9
$DIMASO
 70
     1
  9
$DIMSHO
 70
     0
  9
$DIMPOST
  1

  9
$DIMAPOST
  1

  9
$DIMALT
 70
     0
  9
$DIMALTD
 70
     2
  9
$DIMALTF
 40
25.4
  9
$DIMLFAC
 40
1.0
  9
$DIMTOFL
 70
     0
  9
$DIMTVP
 40
1.0
  9
$DIMTIX
 70
     0
  9
$DIMSOXD
 70
     0
  9
$DIMSAH
 70
     1
  9
$DIMBLK1
  1

  9
$DIMBLK2
  1

  9
$DIMSTYLE
  2
DIMSTYLE1
  9
$DIMCLRD
 70
     0
  9
$DIMCLRE
 70
     0
  9
$DIMCLRT
 70
     0
  9
$DIMTFAC
 40
1.0
  9
$DIMGAP
 40
1.5
  9
$DIMJUST
 70
     0
  9
$DIMSD1
 70
     0
  9
$DIMSD2
 70
     0
  9
$DIMTOLJ
 70
     1
  9
$DIMTZIN
 70
     0
  9
$DIMALTZ
 70
     0
  9
$DIMALTTZ
 70
     0
  9
$DIMUPT
 70
     0
  9
$DIMDEC
 70
     4
  9
$DIMTDEC
 70
     4
  9
$DIMALTU
 70
     2
  9
$DIMALTTD
 70
     2
  9
$DIMTXSTY
  7
STANDARD
  9
$DIMAUNIT
 70
     0
  9
$DIMADEC
 70
     0
  9
$DIMALTRND
 40
0.0
  9
$DIMAZIN
 70
     0
  9
$DIMDSEP
 70
    46
  9
$DIMATFIT
 70
     3
  9
$DIMFRAC
 70
     0
  9
$DIMLDRBLK
  1

  9
$DIMLUNIT
 70
     2
  9
$DIMLWD
 70
    -2
  9
$DIMLWE
 70
    -2
  9
$DIMTMOVE
 70
     0
  9
$LUNITS
 70
     2
  9
$LUPREC
 70
     4
  9
$SKETCHINC
 40
0.1
  9
$FILLETRAD
 40
0.0
  9
$AUNITS
 70
     0
  9
$AUPREC
 70
     0
  9
$MENU
  1
.
  9
$ELEVATION
 40
0.0
  9
$PELEVATION
 40
0.0
  9
$THICKNESS
 40
0.0
  9
$LIMCHECK
 70
     0
  9
$CHAMFERA
 40
0.0
  9
$CHAMFERB
 40
0.0
  9
$CHAMFERC
 40
0.0
  9
$CHAMFERD
 40
0.0
  9
$SKPOLY
 70
     0
  9
$TDCREATE
 40
2457842.679112674
  9
$TDUCREATE
 40
2457842.304112674
  9
$TDUPDATE
 40
2457842.679616377
  9
$TDUUPDATE
 40
2457842.304616377
  9
$TDINDWG
 40
0.0005049769
  9
$TDUSRTIMER
 40
0.0005049769
  9
$USRTIMER
 70
     1
  9
$ANGBASE
 50
0.0
  9
$ANGDIR
 70
     0
  9
$PDMODE
 70
     0
  9
$PDSIZE
 40
0.0
  9
$PLINEWID
 40
0.0
  9
$SPLFRAME
 70
     0
  9
$SPLINETYPE
 70
     6
  9
$SPLINESEGS
 70
     8
  9
$HANDSEED
  5
133
  9
$SURFTAB1
 70
     6
  9
$SURFTAB2
 70
     6
  9
$SURFTYPE
 70
     6
  9
$SURFU
 70
     6
  9
$SURFV
 70
     6
  9
$UCSBASE
  2

  9
$UCSNAME
  2

  9
$UCSORG
 10
0.0
 20
0.0
 30
0.0
  9
$UCSXDIR
 10
1.0
 20
0.0
 30
0.0
  9
$UCSYDIR
 10
0.0
 20
1.0
 30
0.0
  9
$UCSORTHOREF
  2

  9
$UCSORTHOVIEW
 70
     0
  9
$UCSORGTOP
 10
0.0
 20
0.0
 30
0.0
  9
$UCSORGBOTTOM
 10
0.0
 20
0.0
 30
0.0
  9
$UCSORGLEFT
 10
0.0
 20
0.0
 30
0.0
  9
$UCSORGRIGHT
 10
0.0
 20
0.0
 30
0.0
  9
$UCSORGFRONT
 10
0.0
 20
0.0
 30
0.0
  9
$UCSORGBACK
 10
0.0
 20
0.0
 30
0.0
  9
$PUCSBASE
  2

  9
$PUCSNAME
  2

  9
$PUCSORG
 10
0.0
 20
0.0
 30
0.0
  9
$PUCSXDIR
 10
1.0
 20
0.0
 30
0.0
  9
$PUCSYDIR
 10
0.0
 20
1.0
 30
0.0
  9
$PUCSORTHOREF
  2

  9
$PUCSORTHOVIEW
 70
     0
  9
$PUCSORGTOP
 10
0.0
 20
0.0
 30
0.0
  9
$PUCSORGBOTTOM
 10
0.0
 20
0.0
 30
0.0
  9
$PUCSORGLEFT
 10
0.0
 20
0.0
 30
0.0
  9
$PUCSORGRIGHT
 10
0.0
 20
0.0
 30
0.0
  9
$PUCSORGFRONT
 10
0.0
 20
0.0
 30
0.0
  9
$PUCSORGBACK
 10
0.0
 20
0.0
 30
0.0
  9
$USERI1
 70
     0
  9
$USERI2
 70
     0
  9
$USERI3
 70
     0
  9
$USERI4
 70
     0
  9
$USERI5
 70
     0
  9
$USERR1
 40
0.0
  9
$USERR2
 40
0.0
  9
$USERR3
 40
0.0
  9
$USERR4
 40
0.0
  9
$USERR5
 40
0.0
  9
$WORLDVIEW
 70
     1
  9
$SHADEDGE
 70
     3
  9
$SHADEDIF
 70
    70
  9
$TILEMODE
 70
     1
  9
$MAXACTVP
 70
    64
  9
$PINSBASE
 10
0.0
 20
0.0
 30
0.0
  9
$PLIMCHECK
 70
     0
  9
$PEXTMIN
 10
1.000000000000000E+20
 20
1.000000000000000E+20
 30
1.000000000000000E+20
  9
$PEXTMAX
 10
-1.000000000000000E+20
 20
-1.000000000000000E+20
 30
-1.000000000000000E+20
  9
$PLIMMIN
 10
-423.0
 20
-2.0
  9
$PLIMMAX
 10
-5.0
 20
293.0
  9
$UNITMODE
 70
     0
  9
$VISRETAIN
 70
     1
  9
$PLINEGEN
 70
     0
  9
$PSLTSCALE
 70
     1
  9
$TREEDEPTH
 70
  3020
  9
$CMLSTYLE
  2
Standard
  9
$CMLJUST
 70
     0
  9
$CMLSCALE
 40
1.0
  9
$PROXYGRAPHICS
 70
     1
  9
$MEASUREMENT
 70
     0
  9
$CELWEIGHT
370
    -1
  9
$ENDCAPS
280
     0
  9
$JOINSTYLE
280
     0
  9
$LWDISPLAY
290
     0
  9
$INSUNITS
 70
     0
  9
$HYPERLINKBASE
  1

  9
$STYLESHEET
  1

  9
$XEDIT
290
     1
  9
$CEPSNTYPE
380
     0
  9
$PSTYLEMODE
290
     1
  9
$FINGERPRINTGUID
  2
{AAF4B2D0-5ED7-4B31-95AC-0A362FA115CD}
  9
$VERSIONGUID
  2
{D791FF40-0F61-42BC-A854-4B1183D778FC}
  9
$EXTNAMES
290
     1
  9
$PSVPSCALE
 40
0.0
  9
$OLESTARTUP
290
     0
  9
$SORTENTS
280
   127
  9
$INDEXCTL
280
     0
  9
$HIDETEXT
280
     0
  9
$XCLIPFRAME
290
     0
  9
$HALOGAP
280
     0
  9
$OBSCOLOR
 70
   257
  9
$OBSLTYPE
280
     0
  9
$INTERSECTIONDISPLAY
280
     0
  9
$INTERSECTIONCOLOR
 70
   257
  9
$DIMASSOC
280
     1
  9
$PROJECTNAME
  1

  0
ENDSEC
  0
SECTION
  2
CLASSES
  0
CLASS
  1
ACDBDICTIONARYWDFLT
  2
AcDbDictionaryWithDefault
  3
ObjectDBX Classes
 90
        0
 91
        1
280
     0
281
     0
  0
CLASS
  1
TABLESTYLE
  2
AcDbTableStyle
  3
ObjectDBX Classes
 90
     2047
 91
        1
280
     0
281
     0
  0
CLASS
  1
DICTIONARYVAR
  2
AcDbDictionaryVar
  3
ObjectDBX Classes
 90
        0
 91
        1
280
     0
281
     0
  0
ENDSEC
  0
SECTION
  2
TABLES
  0
TABLE
  2
VPORT
  5
8
330
0
100
AcDbSymbolTable
 70
     2
  0
VPORT
  5
132
330
8
100
AcDbSymbolTableRecord
100
AcDbViewportTableRecord
  2
*Active
 70
     0
 10
0.0
 20
0.0
 11
1.0
 21
1.0
 12
-214.0
 22
145.5
 13
0.0
 23
0.0
 14
1.0
 24
1.0
 15
0.0
 25
0.0
 16
0.0
 26
0.0
 36
1.0
 17
0.0
 27
0.0
 37
0.0
 40
297.3320158102766
 41
1.707124010554089
 42
50.0
 43
0.0
 44
0.0
 50
0.0
 51
0.0
 71
     0
 72
   100
 73
     1
 74
     1
 75
     0
 76
     0
 77
     0
 78
     0
281
     0
 65
     1
110
0.0
120
0.0
130
0.0
111
1.0
121
0.0
131
0.0
112
0.0
122
1.0
132
0.0
 79
     0
146
0.0
  0
ENDTAB
  0
TABLE
  2
LTYPE
  5
5
330
0
100
AcDbSymbolTable
 70
     6
  0
LTYPE
  5
13
330
5
100
AcDbSymbolTableRecord
100
AcDbLinetypeTableRecord
  2
ByBlock
 70
     0
  3

 72
    65
 73
     0
 40
0.0
  0
LTYPE
  5
14
330
5
100
AcDbSymbolTableRecord
100
AcDbLinetypeTableRecord
  2
ByLayer
 70
     0
  3

 72
    65
 73
     0
 40
0.0
  0
LTYPE
  5
15
330
5
100
AcDbSymbolTableRecord
100
AcDbLinetypeTableRecord
  2
CONTINUOUS
 70
     0
  3
Solid line
 72
    65
 73
     0
 40
0.0
  0
LTYPE
  5
26
330
5
100
AcDbSymbolTableRecord
100
AcDbLinetypeTableRecord
  2
DASHED
 70
     0
  3
__ __ __ __ __ __ __ __ __ __ __ __ __ __ __
 72
    65
 73
     2
 40
3.5
 49
2.0
 74
     0
 49
-1.5
 74
     0
  0
LTYPE
  5
27
330
5
100
AcDbSymbolTableRecord
100
AcDbLinetypeTableRecord
  2
CENTER
 70
     0
  3
____ _ ____ _ ____ _ ____ _ ____ _ ____ _ ____
 72
    65
 73
     4
 40
17.5
 49
13.0
 74
     0
 49
-1.5
 74
     0
 49
1.5
 74
     0
 49
-1.5
 74
     0
  0
LTYPE
  5
28
330
5
100
AcDbSymbolTableRecord
100
AcDbLinetypeTableRecord
  2
PHANTOM
 70
     0
  3
_____ _ _ _____ _ _ _____ _ _ _____ _ _ ____  
 72
    65
 73
     6
 40
15.5
 49
8.0
 74
     0
 49
-1.5
 74
     0
 49
1.5
 74
     0
 49
-1.5
 74
     0
 49
1.5
 74
     0
 49
-1.5
 74
     0
  0
LTYPE
  5
29
330
5
100
AcDbSymbolTableRecord
100
AcDbLinetypeTableRecord
  2
DOT
 70
     0
  3
. . . . . . . . . . . . . . . . . . . . . . . .
 72
    65
 73
     2
 40
0.25
 49
0.0
 74
     0
 49
-0.25
 74
     0
  0
LTYPE
  5
2A
330
5
100
AcDbSymbolTableRecord
100
AcDbLinetypeTableRecord
  2
HIDDEN
 70
     0
  3
__ __ __ __ __ __ __ __ __ __ __ __ __ __ __
 72
    65
 73
     2
 40
3.5
 49
2.0
 74
     0
 49
-1.5
 74
     0
  0
ENDTAB
  0
TABLE
  2
LAYER
  5
2
330
0
100
AcDbSymbolTable
 70
     3
  0
LAYER
  5
10
330
2
100
AcDbSymbolTableRecord
100
AcDbLayerTableRecord
  2
0
 70
     0
 62
     7
  6
CONTINUOUS
370
    -3
390
F
  0
LAYER
  5
2B
330
2
100
AcDbSymbolTableRecord
100
AcDbLayerTableRecord
  2
1
 70
     0
 62
     7
  6
CONTINUOUS
370
    -3
390
F
  0
LAYER
  5
2C
330
2
100
AcDbSymbolTableRecord
100
AcDbLayerTableRecord
  2
DEFPOINTS
 70
     0
 62
     7
  6
CONTINUOUS
290
     0
370
    -3
390
F
  0
ENDTAB
  0
TABLE
  2
STYLE
  5
3
330
0
100
AcDbSymbolTable
 70
     2
  0
STYLE
  5
11
330
3
100
AcDbSymbolTableRecord
100
AcDbTextStyleTableRecord
  2
STANDARD
 70
     0
 40
0.0
 41
1.0
 50
0.0
 71
     0
 42
0.2
  3

  4

1001
ACAD
1000
MS Gothic
1071
    32817
  0
ENDTAB
  0
TABLE
  2
VIEW
  5
6
330
0
100
AcDbSymbolTable
 70
     0
  0
ENDTAB
  0
TABLE
  2
UCS
  5
7
330
0
100
AcDbSymbolTable
 70
     0
  0
ENDTAB
  0
TABLE
  2
APPID
  5
9
330
0
100
AcDbSymbolTable
 70
     2
  0
APPID
  5
12
330
9
100
AcDbSymbolTableRecord
100
AcDbRegAppTableRecord
  2
ACAD
 70
     0
  0
APPID
  5
127
330
9
100
AcDbSymbolTableRecord
100
AcDbRegAppTableRecord
  2
ACAD_PSEXT
 70
     0
  0
ENDTAB
  0
TABLE
  2
DIMSTYLE
  5
A
330
0
100
AcDbSymbolTable
 70
     4
100
AcDbDimStyleTable
 71
     1
340
2D
  0
DIMSTYLE
105
2D
102
{ACAD_REACTORS
330
121
102
}
330
A
100
AcDbSymbolTableRecord
100
AcDbDimStyleTableRecord
  2
DIMSTYLE1
 70
     0
 41
1.0
 42
2.54
 44
2.54
 73
     0
 74
     0
 75
     1
 76
     1
 77
     1
140
3.0
145
1.0
147
1.5
172
     1
173
     1
279
     2
340
11
  0
DIMSTYLE
105
2E
102
{ACAD_REACTORS
330
122
102
}
330
A
100
AcDbSymbolTableRecord
100
AcDbDimStyleTableRecord
  2
DIMSTYLE2
 70
     0
 41
1.0
 42
2.54
 44
2.54
 73
     0
 74
     0
 77
     1
140
3.0
145
1.0
147
1.5
172
     1
173
     1
279
     2
340
11
  0
DIMSTYLE
105
2F
102
{ACAD_REACTORS
330
123
102
}
330
A
100
AcDbSymbolTableRecord
100
AcDbDimStyleTableRecord
  2
DIMSTYLE3
 70
     0
 41
1.0
 42
2.54
 44
2.54
 73
     0
 74
     0
 77
     1
140
3.0
145
1.0
147
1.5
172
     1
173
     1
279
     2
340
11
  0
ENDTAB
  0
TABLE
  2
BLOCK_RECORD
  5
1
330
0
100
AcDbSymbolTable
 70
     8
  0
BLOCK_RECORD
  5
22
330
1
100
AcDbSymbolTableRecord
100
AcDbBlockTableRecord
  2
*Model_Space
340
25
  0
BLOCK_RECORD
  5
1E
330
1
100
AcDbSymbolTableRecord
100
AcDbBlockTableRecord
  2
*Paper_Space
340
21
  0
BLOCK_RECORD
  5
33
330
1
100
AcDbSymbolTableRecord
100
AcDbBlockTableRecord
  2
_OPEN30
340
0
102
{BLKREFS
331
3D
331
3E
331
47
331
49
331
54
331
55
102
}
  0
BLOCK_RECORD
  5
39
330
1
100
AcDbSymbolTableRecord
100
AcDbBlockTableRecord
  2
*D1
340
0
  0
BLOCK_RECORD
  5
43
330
1
100
AcDbSymbolTableRecord
100
AcDbBlockTableRecord
  2
*D2
340
0
  0
BLOCK_RECORD
  5
51
330
1
100
AcDbSymbolTableRecord
100
AcDbBlockTableRecord
  2
*D3
340
0
  0
BLOCK_RECORD
  5
5D
330
1
100
AcDbSymbolTableRecord
100
AcDbBlockTableRecord
  2
KOZU0001
340
0
102
{BLKREFS
331
124
102
}
  0
BLOCK_RECORD
  5
66
330
1
100
AcDbSymbolTableRecord
100
AcDbBlockTableRecord
  2
KOZU0002
340
0
102
{BLKREFS
331
11F
102
}
  0
BLOCK_RECORD
  5
76
330
1
100
AcDbSymbolTableRecord
100
AcDbBlockTableRecord
  2
KOZU0003
340
0
102
{BLKREFS
331
120
102
}
  0
ENDTAB
  0
ENDSEC
  0
SECTION
  2
BLOCKS
  0
BLOCK
  5
23
330
22
100
AcDbEntity
  8
0
100
AcDbBlockBegin
  2
*Model_Space
 70
     0
 10
0.0
 20
0.0
 30
0.0
  3
*Model_Space
  1

  0
ENDBLK
  5
24
330
22
100
AcDbEntity
  8
0
100
AcDbBlockEnd
  0
BLOCK
  5
1F
330
1E
100
AcDbEntity
 67
     1
  8
0
100
AcDbBlockBegin
  2
*Paper_Space
 70
     0
 10
0.0
 20
0.0
 30
0.0
  3
*Paper_Space
  1

  0
ENDBLK
  5
20
330
1E
100
AcDbEntity
 67
     1
  8
0
100
AcDbBlockEnd
  0
BLOCK
  5
34
330
33
100
AcDbEntity
  8
0
100
AcDbBlockBegin
  2
_OPEN30
 70
     0
 10
0.0
 20
0.0
 30
0.0
  3
_OPEN30
  1

  0
LINE
  5
35
330
33
100
AcDbEntity
  8
0
  6
ByBlock
 62
     0
100
AcDbLine
 10
0.0
 20
0.0
 30
0.0
 11
-2.999999999999993
 21
-1.000000000000017
 31
0.0
  0
LINE
  5
36
330
33
100
AcDbEntity
  8
0
  6
ByBlock
 62
     0
100
AcDbLine
 10
0.0
 20
0.0
 30
0.0
 11
-3.000000000000006
 21
0.9999999999999815
 31
0.0
  0
LINE
  5
37
330
33
100
AcDbEntity
  8
0
  6
ByBlock
 62
     0
100
AcDbLine
 10
0.0
 20
0.0
 30
0.0
 11
-3.0
 21
0.0
 31
0.0
  0
ENDBLK
  5
38
330
33
100
AcDbEntity
  8
0
100
AcDbBlockEnd
  0
BLOCK
  5
3A
330
39
100
AcDbEntity
  8
0
100
AcDbBlockBegin
  2
*D1
 70
     1
 10
0.0
 20
0.0
 30
0.0
  3
*D1
  1

  0
LINE
  5
3B
330
39
100
AcDbEntity
  8
0
  6
Continuous
 62
     7
100
AcDbLine
 10
-271.8785400390625
 20
199.3190307617188
 30
0.0
 11
-236.1898803710938
 21
221.1940155029297
 31
0.0
  0
LINE
  5
3C
330
39
100
AcDbEntity
  8
0
  6
Continuous
 62
     7
100
AcDbLine
 10
-354.5795060015486
 20
148.6283163299484
 30
0.0
 11
-274.4363021039201
 21
197.7512765655593
 31
0.0
  0
INSERT
  5
3D
330
39
100
AcDbEntity
  8
0
  6
Continuous
 62
     7
100
AcDbBlockReference
  2
_OPEN30
 10
-357.1372680664063
 20
147.0605621337891
 30
0.0
 50
211.5057904586821
  0
INSERT
  5
3E
330
39
100
AcDbEntity
  8
0
  6
Continuous
 62
     7
100
AcDbBlockReference
  2
_OPEN30
 10
-271.8785400390625
 20
199.3190307617188
 30
0.0
 50
31.50579045868135
  0
TEXT
  5
3F
330
39
100
AcDbEntity
  8
0
  6
Continuous
 62
     7
100
AcDbText
 10
-266.5426079199205
 20
203.4713872254298
 30
0.0
 40
3.0
  1
%%C１００（ノズル部外径）
 50
31.49999916902007
 41
0.8436974815103043
100
AcDbText
  0
POINT
  5
40
330
39
100
AcDbEntity
  8
DEFPOINTS
  6
Continuous
 62
     7
100
AcDbPoint
 10
-357.1372680664063
 20
147.0605621337891
 30
0.0
  0
POINT
  5
41
330
39
100
AcDbEntity
  8
DEFPOINTS
  6
Continuous
 62
     7
100
AcDbPoint
 10
-271.8785400390625
 20
199.3190307617188
 30
0.0
  0
ENDBLK
  5
42
330
39
100
AcDbEntity
  8
0
100
AcDbBlockEnd
  0
BLOCK
  5
44
330
43
100
AcDbEntity
  8
0
100
AcDbBlockBegin
  2
*D2
 70
     1
 10
0.0
 20
0.0
 30
0.0
  3
*D2
  1

  0
LINE
  5
45
330
43
100
AcDbEntity
  8
0
  6
Continuous
 62
     7
100
AcDbLine
 10
-174.3079071044922
 20
248.0909118652344
 30
0.0
 11
-185.8287811279297
 21
248.0909118652344
 31
0.0
  0
LINE
  5
46
330
43
100
AcDbEntity
  8
0
  6
Continuous
 62
     7
100
AcDbLine
 10
-168.0079040527344
 20
248.0909118652344
 30
0.0
 11
-174.3079071044922
 21
248.0909118652344
 31
0.0
  0
INSERT
  5
47
330
43
100
AcDbEntity
  8
0
  6
Continuous
 62
     7
100
AcDbBlockReference
  2
_OPEN30
 10
-168.0079040527344
 20
248.0909118652344
 30
0.0
 50
180.0
  0
LINE
  5
48
330
43
100
AcDbEntity
  8
0
  6
Continuous
 62
     7
100
AcDbLine
 10
-165.0079040527344
 20
248.0909118652344
 30
0.0
 11
-161.6579040527344
 21
248.0909118652344
 31
0.0
  0
INSERT
  5
49
330
43
100
AcDbEntity
  8
0
  6
Continuous
 62
     7
100
AcDbBlockReference
  2
_OPEN30
 10
-174.3079071044922
 20
248.0909118652344
 30
0.0
 50
0.0000000000003562
  0
LINE
  5
4A
330
43
100
AcDbEntity
  8
0
  6
Continuous
 62
     7
100
AcDbLine
 10
-177.3079071044922
 20
248.0909118652344
 30
0.0
 11
-180.6579071044922
 21
248.0909118652344
 31
0.0
  0
LINE
  5
4B
330
43
100
AcDbEntity
  8
0
  6
Continuous
 62
     7
100
AcDbLine
 10
-174.3079071044922
 20
218.9872961425781
 30
0.0
 11
-174.3079071044922
 21
250.3769226074219
 31
0.0
  0
TEXT
  5
4C
330
43
100
AcDbEntity
  8
0
  6
Continuous
 62
     7
100
AcDbText
 10
-185.8287891149521
 20
248.8409118652344
 30
0.0
 40
3.0
  1
6
100
AcDbText
  0
POINT
  5
4D
330
43
100
AcDbEntity
  8
DEFPOINTS
  6
Continuous
 62
     7
100
AcDbPoint
 10
-168.0079040527344
 20
267.76318359375
 30
0.0
  0
POINT
  5
4E
330
43
100
AcDbEntity
  8
DEFPOINTS
  6
Continuous
 62
     7
100
AcDbPoint
 10
-174.3079071044922
 20
216.4472961425781
 30
0.0
  0
POINT
  5
4F
330
43
100
AcDbEntity
  8
DEFPOINTS
  6
Continuous
 62
     7
100
AcDbPoint
 10
-174.3079071044922
 20
248.0909118652344
 30
0.0
  0
ENDBLK
  5
50
330
43
100
AcDbEntity
  8
0
100
AcDbBlockEnd
  0
BLOCK
  5
52
330
51
100
AcDbEntity
  8
0
100
AcDbBlockBegin
  2
*D3
 70
     1
 10
0.0
 20
0.0
 30
0.0
  3
*D3
  1

  0
LINE
  5
53
330
51
100
AcDbEntity
  8
0
  6
Continuous
 62
     7
100
AcDbLine
 10
-165.0079040527344
 20
248.0909118652344
 30
0.0
 11
-121.0079116821289
 21
248.0909118652344
 31
0.0
  0
INSERT
  5
54
330
51
100
AcDbEntity
  8
0
  6
Continuous
 62
     7
100
AcDbBlockReference
  2
_OPEN30
 10
-168.0079040527344
 20
248.0909118652344
 30
0.0
 50
180.0000000000004
  0
INSERT
  5
55
330
51
100
AcDbEntity
  8
0
  6
Continuous
 62
     7
100
AcDbBlockReference
  2
_OPEN30
 10
-118.0079116821289
 20
248.0909118652344
 30
0.0
  0
LINE
  5
56
330
51
100
AcDbEntity
  8
0
  6
Continuous
 62
     7
100
AcDbLine
 10
-168.0079040527344
 20
225.9872961425781
 30
0.0
 11
-168.0079040527344
 21
250.3769226074219
 31
0.0
  0
LINE
  5
57
330
51
100
AcDbEntity
  8
0
  6
Continuous
 62
     7
100
AcDbLine
 10
-118.0079116821289
 20
204.3172979736328
 30
0.0
 11
-118.0079116821289
 21
250.3769226074219
 31
0.0
  0
TEXT
  5
58
330
51
100
AcDbEntity
  8
0
  6
Continuous
 62
     7
100
AcDbText
 10
-145.7279133200645
 20
248.8409118652344
 30
0.0
 40
3.0
  1
50
 41
1.101428593908038
100
AcDbText
  0
POINT
  5
59
330
51
100
AcDbEntity
  8
DEFPOINTS
  6
Continuous
 62
     7
100
AcDbPoint
 10
-168.0079040527344
 20
223.4472961425781
 30
0.0
  0
POINT
  5
5A
330
51
100
AcDbEntity
  8
DEFPOINTS
  6
Continuous
 62
     7
100
AcDbPoint
 10
-118.0079116821289
 20
201.7772979736328
 30
0.0
  0
POINT
  5
5B
330
51
100
AcDbEntity
  8
DEFPOINTS
  6
Continuous
 62
     7
100
AcDbPoint
 10
-118.0079116821289
 20
248.0909118652344
 30
0.0
  0
ENDBLK
  5
5C
330
51
100
AcDbEntity
  8
0
100
AcDbBlockEnd
  0
BLOCK
  5
5E
330
5D
100
AcDbEntity
  8
0
100
AcDbBlockBegin
  2
KOZU0001
 70
     0
 10
0.0
 20
0.0
 30
0.0
  3
KOZU0001
  1

  0
LINE
  5
5F
330
5D
100
AcDbEntity
  8
0
  6
Continuous
 62
     7
100
AcDbLine
 10
0.0
 20
0.0
 30
0.0
 11
14.87049102783203
 21
-23.30141448974609
 31
0.0
  0
LINE
  5
60
330
5D
100
AcDbEntity
  8
0
  6
Continuous
 62
     7
100
AcDbLine
 10
14.87049102783203
 20
-23.30141448974609
 30
0.0
 11
42.51497650146484
 21
-23.30141448974609
 31
0.0
  0
LINE
  5
61
330
5D
100
AcDbEntity
  8
0
  6
Continuous
 62
     7
100
AcDbLine
 10
0.0
 20
0.0
 30
0.0
 11
2.456861481946789
 21
-1.99093738186971
 31
0.0
  0
LINE
  5
62
330
5D
100
AcDbEntity
  8
0
  6
Continuous
 62
     7
100
AcDbLine
 10
0.0
 20
0.0
 30
0.0
 11
0.770926756435606
 21
-3.066866794663843
 31
0.0
  0
TEXT
  5
63
330
5D
100
AcDbEntity
  8
0
  6
Continuous
 62
     7
100
AcDbText
 10
20.65497517585754
 20
-22.55141448974609
 30
0.0
 40
3.0
  1
配管接続口
 41
0.8487395020950888
100
AcDbText
  0
TEXT
  5
64
330
5D
100
AcDbEntity
  8
0
  6
Continuous
 62
     7
100
AcDbText
 10
20.65497517585754
 20
-27.81641448974609
 30
0.0
 40
3.0
  1
Ｇ２（５０Ａ）
 41
0.8462184918026965
100
AcDbText
  0
ENDBLK
  5
65
330
5D
100
AcDbEntity
  8
0
100
AcDbBlockEnd
  0
BLOCK
  5
67
330
66
100
AcDbEntity
  8
0
100
AcDbBlockBegin
  2
KOZU0002
 70
     0
 10
0.0
 20
0.0
 30
0.0
  3
KOZU0002
  1

  0
LINE
  5
68
330
66
100
AcDbEntity
  8
0
  6
Continuous
 62
     7
100
AcDbLine
 10
-119.3570162832361
 20
199.4472974915156
 30
0.0
 11
-118.0079086313125
 21
200.7964078416574
 31
0.0
  0
LINE
  5
69
330
66
100
AcDbEntity
  8
0
  6
Continuous
 62
     7
100
AcDbLine
 10
-123.8471398536493
 20
199.4472974915156
 30
0.0
 11
-121.5171445136447
 21
201.7772974915157
 31
0.0
  0
LINE
  5
6A
330
66
100
AcDbEntity
  8
0
  6
Continuous
 62
     7
100
AcDbLine
 10
-128.3372634240626
 20
199.4472974915156
 30
0.0
 11
-126.0072680840579
 21
201.7772974915158
 31
0.0
  0
LINE
  5
6B
330
66
100
AcDbEntity
  8
0
  6
Continuous
 62
     7
100
AcDbLine
 10
-132.8273869944759
 20
199.4472974915156
 30
0.0
 11
-130.4973916544712
 21
201.7772974915158
 31
0.0
  0
LINE
  5
6C
330
66
100
AcDbEntity
  8
0
  6
Continuous
 62
     7
100
AcDbLine
 10
-137.3175105648891
 20
199.4472974915156
 30
0.0
 11
-134.9875152248845
 21
201.7772974915158
 31
0.0
  0
LINE
  5
6D
330
66
100
AcDbEntity
  8
0
  6
Continuous
 62
     7
100
AcDbLine
 10
-141.8076341353024
 20
199.4472974915156
 30
0.0
 11
-139.4776387952977
 21
201.7772974915158
 31
0.0
  0
LINE
  5
6E
330
66
100
AcDbEntity
  8
0
  6
Continuous
 62
     7
100
AcDbLine
 10
-146.2977577057156
 20
199.4472974915158
 30
0.0
 11
-143.967762365711
 21
201.7772974915158
 31
0.0
  0
LINE
  5
6F
330
66
100
AcDbEntity
  8
0
  6
Continuous
 62
     7
100
AcDbLine
 10
-150.7878812761289
 20
199.4472974915156
 30
0.0
 11
-148.4578859361242
 21
201.7772974915158
 31
0.0
  0
LINE
  5
70
330
66
100
AcDbEntity
  8
0
  6
Continuous
 62
     7
100
AcDbLine
 10
-155.2780048465422
 20
199.4472974915156
 30
0.0
 11
-152.9480095065375
 21
201.7772974915158
 31
0.0
  0
LINE
  5
71
330
66
100
AcDbEntity
  8
0
  6
Continuous
 62
     7
100
AcDbLine
 10
-159.7681284169555
 20
199.4472974915156
 30
0.0
 11
-157.4381330769508
 21
201.7772974915157
 31
0.0
  0
LINE
  5
72
330
66
100
AcDbEntity
  8
0
  6
Continuous
 62
     7
100
AcDbLine
 10
-164.2582519873687
 20
199.4472974915156
 30
0.0
 11
-161.9282566473641
 21
201.7772974915158
 31
0.0
  0
LINE
  5
73
330
66
100
AcDbEntity
  8
0
  6
Continuous
 62
     7
100
AcDbLine
 10
-168.748375557782
 20
199.4472974915156
 30
0.0
 11
-166.4183802177773
 21
201.7772974915158
 31
0.0
  0
LINE
  5
74
330
66
100
AcDbEntity
  8
0
  6
Continuous
 62
     7
100
AcDbLine
 10
-171.3079086313125
 20
201.3778918495833
 30
0.0
 11
-168.0079086313125
 21
204.67789844959
 31
0.0
  0
ENDBLK
  5
75
330
66
100
AcDbEntity
  8
0
100
AcDbBlockEnd
  0
BLOCK
  5
77
330
76
100
AcDbEntity
  8
0
100
AcDbBlockBegin
  2
KOZU0003
 70
     0
 10
0.0
 20
0.0
 30
0.0
  3
KOZU0003
  1

  0
LINE
  5
78
330
76
100
AcDbEntity
  8
0
  6
Continuous
 62
     7
100
AcDbLine
 10
-171.3079086313125
 20
210.3581569509219
 30
0.0
 11
-168.0079086313125
 21
213.6581635509285
 31
0.0
  0
LINE
  5
79
330
76
100
AcDbEntity
  8
0
  6
Continuous
 62
     7
100
AcDbLine
 10
-171.3079086313125
 20
214.8482895015913
 30
0.0
 11
-168.0079086313125
 21
218.1482961015979
 31
0.0
  0
LINE
  5
7A
330
76
100
AcDbEntity
  8
0
  6
Continuous
 62
     7
100
AcDbLine
 10
-174.3079086313124
 20
216.3384160522547
 30
0.0
 11
-168.0079086313125
 21
222.6384286522673
 31
0.0
  0
ENDBLK
  5
7B
330
76
100
AcDbEntity
  8
0
100
AcDbBlockEnd
  0
ENDSEC
  0
SECTION
  2
ENTITIES
  0
LINE
  5
7C
330
22
100
AcDbEntity
  8
0
  6
CENTER
 62
     7
100
AcDbLine
 10
-314.5079040527344
 20
115.4837112426758
 30
0.0
 11
-314.5079040527344
 21
225.8502044677734
 31
0.0
  0
LINE
  5
7D
330
22
100
AcDbEntity
  8
0
  6
CENTER
 62
     7
100
AcDbLine
 10
-257.5825805664063
 20
173.4472961425781
 30
0.0
 11
-368.6240844726563
 21
173.4472961425781
 31
0.0
  0
LINE
  5
7E
330
22
100
AcDbEntity
  8
0
  6
CENTER
 62
     7
100
AcDbLine
 10
-112.1523361206055
 20
173.4472961425781
 30
0.0
 11
-182.0732879638672
 21
173.4472961425781
 31
0.0
  0
LINE
  5
7F
330
22
100
AcDbEntity
  8
0
  6
Continuous
 62
     7
100
AcDbLine
 10
-295.8750305175781
 20
181.638427734375
 30
0.0
 11
-292.2947387695313
 21
183.7055053710938
 31
0.0
  0
LINE
  5
80
330
22
100
AcDbEntity
  8
0
  6
Continuous
 62
     7
100
AcDbLine
 10
-331.1410827636719
 20
185.1020355224609
 30
0.0
 11
-334.7212829589844
 21
187.1690521240234
 31
0.0
  0
LINE
  5
81
330
22
100
AcDbEntity
  8
0
  6
Continuous
 62
     7
100
AcDbLine
 10
-333.1407165527344
 20
181.6386260986328
 30
0.0
 11
-336.7208862304688
 21
183.7056427001953
 31
0.0
  0
LINE
  5
82
330
22
100
AcDbEntity
  8
0
  6
Continuous
 62
     7
100
AcDbLine
 10
-310.9790954589844
 20
205.4333038330078
 30
0.0
 11
-310.8154907226563
 21
205.8165435791016
 31
0.0
  0
LINE
  5
83
330
22
100
AcDbEntity
  8
0
  6
Continuous
 62
     7
100
AcDbLine
 10
-315.62255859375
 20
203.2683410644531
 30
0.0
 11
-316.0054931640625
 21
203.4318237304688
 31
0.0
  0
LINE
  5
84
330
22
100
AcDbEntity
  8
0
  6
Continuous
 62
     7
100
AcDbLine
 10
-313.3932495117188
 20
210.6112518310547
 30
0.0
 11
-313.0103149414063
 21
210.4477691650391
 31
0.0
  0
LINE
  5
85
330
22
100
AcDbEntity
  8
0
  6
Continuous
 62
     7
100
AcDbLine
 10
-310.9790954589844
 20
205.4333038330078
 30
0.0
 11
-311.1427001953125
 21
205.0500640869141
 31
0.0
  0
LINE
  5
86
330
22
100
AcDbEntity
  8
0
  6
Continuous
 62
     7
100
AcDbLine
 10
-310.8154907226563
 20
205.8165435791016
 30
0.0
 11
-313.4208679199219
 21
207.3763885498047
 31
0.0
  0
LINE
  5
87
330
22
100
AcDbEntity
  8
0
  6
Continuous
 62
     7
100
AcDbLine
 10
-317.8731079101563
 20
208.8295288085938
 30
0.0
 11
-314.9444885253906
 21
208.0268402099609
 31
0.0
  0
LINE
  5
88
330
22
100
AcDbEntity
  8
0
  6
Continuous
 62
     7
100
AcDbLine
 10
-316.3884582519531
 20
203.5953063964844
 30
0.0
 11
-315.5949401855469
 21
206.5032043457031
 31
0.0
  0
LINE
  5
89
330
22
100
AcDbEntity
  8
0
  6
Continuous
 62
     7
100
AcDbLine
 10
-315.62255859375
 20
203.2683410644531
 30
0.0
 11
-314.0713195800781
 21
205.8527526855469
 31
0.0
  0
LINE
  5
8A
330
22
100
AcDbEntity
  8
0
  6
Continuous
 62
     7
100
AcDbLine
 10
-316.3884582519531
 20
203.5953063964844
 30
0.0
 11
-316.0054931640625
 21
203.4318237304688
 31
0.0
  0
LINE
  5
8B
330
22
100
AcDbEntity
  8
0
  6
Continuous
 62
     7
100
AcDbLine
 10
-311.1427001953125
 20
205.0500640869141
 30
0.0
 11
-314.0713195800781
 21
205.8527526855469
 31
0.0
  0
LINE
  5
8C
330
22
100
AcDbEntity
  8
0
  6
Continuous
 62
     7
100
AcDbLine
 10
-297.8746032714844
 20
185.1018676757813
 30
0.0
 11
-294.2943420410156
 21
187.1689300537109
 31
0.0
  0
LINE
  5
8D
330
22
100
AcDbEntity
  8
0
  6
Continuous
 62
     7
100
AcDbLine
 10
-321.6810913085938
 20
179.6403045654297
 30
0.0
 11
-325.1290893554688
 21
181.6309967041016
 31
0.0
  0
LINE
  5
8E
330
22
100
AcDbEntity
  8
0
  6
Continuous
 62
     7
100
AcDbLine
 10
-307.3345336914063
 20
179.6401672363281
 30
0.0
 11
-303.8865966796875
 21
181.6308288574219
 31
0.0
  0
LINE
  5
8F
330
22
100
AcDbEntity
  8
0
  6
Continuous
 62
     7
100
AcDbLine
 10
-282.2109680175781
 20
158.6173095703125
 30
0.0
 11
-281.9609069824219
 21
158.2839965820313
 31
0.0
  0
LINE
  5
90
330
22
100
AcDbEntity
  8
0
  6
Continuous
 62
     7
100
AcDbLine
 10
-282.4610595703125
 20
158.9506072998046
 30
0.0
 11
-285.1146240234375
 21
157.4742126464844
 31
0.0
  0
LINE
  5
91
330
22
100
AcDbEntity
  8
0
  6
Continuous
 62
     7
100
AcDbLine
 10
-281.9609069824219
 20
158.2839965820313
 30
0.0
 11
-284.1203308105469
 21
156.1490783691406
 31
0.0
  0
LINE
  5
92
330
22
100
AcDbEntity
  8
0
  6
Continuous
 62
     7
100
AcDbLine
 10
-282.6578063964844
 20
153.5134735107422
 30
0.0
 11
-282.9908447265625
 21
153.2635650634766
 31
0.0
  0
LINE
  5
93
330
22
100
AcDbEntity
  8
0
  6
Continuous
 62
     7
100
AcDbLine
 10
-312.50830078125
 20
163.7523345947266
 30
0.0
 11
-312.50830078125
 21
159.7709655761719
 31
0.0
  0
LINE
  5
94
330
22
100
AcDbEntity
  8
0
  6
Continuous
 62
     7
100
AcDbLine
 10
-312.50830078125
 20
152.8289031982422
 30
0.0
 11
-312.50830078125
 21
148.69482421875
 31
0.0
  0
LINE
  5
95
330
22
100
AcDbEntity
  8
0
  6
Continuous
 62
     7
100
AcDbLine
 10
-316.5075073242188
 20
163.7523345947266
 30
0.0
 11
-316.5075073242188
 21
159.7709655761719
 31
0.0
  0
LINE
  5
96
330
22
100
AcDbEntity
  8
0
  6
Continuous
 62
     7
100
AcDbLine
 10
-316.5075073242188
 20
152.8289031982422
 30
0.0
 11
-316.5075073242188
 21
148.69482421875
 31
0.0
  0
LINE
  5
97
330
22
100
AcDbEntity
  8
0
  6
Continuous
 62
     7
100
AcDbLine
 10
-312.6273803710938
 20
210.2842712402344
 30
0.0
 11
-313.0103149414063
 21
210.4477691650391
 31
0.0
  0
LINE
  5
98
330
22
100
AcDbEntity
  8
0
  6
Continuous
 62
     7
100
AcDbLine
 10
-312.6273803710938
 20
210.2842712402344
 30
0.0
 11
-313.4208679199219
 21
207.3763885498047
 31
0.0
  0
LINE
  5
99
330
22
100
AcDbEntity
  8
0
  6
Continuous
 62
     7
100
AcDbLine
 10
-318.2003173828125
 20
208.0630493164064
 30
0.0
 11
-315.5949401855469
 21
206.5032043457031
 31
0.0
  0
LINE
  5
9A
330
22
100
AcDbEntity
  8
0
  6
Continuous
 62
     7
100
AcDbLine
 10
-318.0367126464844
 20
208.4462890625
 30
0.0
 11
-318.2003173828125
 21
208.0630493164064
 31
0.0
  0
LINE
  5
9B
330
22
100
AcDbEntity
  8
0
  6
Continuous
 62
     7
100
AcDbLine
 10
-313.3932495117188
 20
210.6112518310547
 30
0.0
 11
-314.9444885253906
 21
208.0268402099609
 31
0.0
  0
LINE
  5
9C
330
22
100
AcDbEntity
  8
0
  6
Continuous
 62
     7
100
AcDbLine
 10
-318.0367126464844
 20
208.4462890625
 30
0.0
 11
-317.8731079101563
 21
208.8295288085938
 31
0.0
  0
LINE
  5
9D
330
22
100
AcDbEntity
  8
0
  6
Continuous
 62
     7
100
AcDbLine
 10
-343.2770080566406
 20
152.5057983398438
 30
0.0
 11
-343.6907043457031
 21
152.4558715820313
 31
0.0
  0
LINE
  5
9E
330
22
100
AcDbEntity
  8
0
  6
Continuous
 62
     7
100
AcDbLine
 10
-287.2361755371094
 20
159.6153411865234
 30
0.0
 11
-285.1146240234375
 21
157.4742126464844
 31
0.0
  0
LINE
  5
9F
330
22
100
AcDbEntity
  8
0
  6
Continuous
 62
     7
100
AcDbLine
 10
-347.4736633300781
 20
155.4446563720703
 30
0.0
 11
-344.4598693847656
 21
155.3934631347656
 31
0.0
  0
LINE
  5
A0
330
22
100
AcDbEntity
  8
0
  6
Continuous
 62
     7
100
AcDbLine
 10
-347.5734252929688
 20
156.2714385986328
 30
0.0
 11
-344.6583862304688
 21
157.0381927490234
 31
0.0
  0
LINE
  5
A1
330
22
100
AcDbEntity
  8
0
  6
Continuous
 62
     7
100
AcDbLine
 10
-288.0990295410157
 20
153.6784057617188
 30
0.0
 11
-285.4454650878906
 21
155.1548004150391
 31
0.0
  0
LINE
  5
A2
330
22
100
AcDbEntity
  8
0
  6
Continuous
 62
     7
100
AcDbLine
 10
-288.5992126464844
 20
154.3450317382813
 30
0.0
 11
-286.4397583007813
 21
156.4799346923828
 31
0.0
  0
LINE
  5
A3
330
22
100
AcDbEntity
  8
0
  6
Continuous
 62
     7
100
AcDbLine
 10
-342.8633117675781
 20
152.5557250976563
 30
0.0
 11
-342.8151550292969
 21
155.5919647216797
 31
0.0
  0
LINE
  5
A4
330
22
100
AcDbEntity
  8
0
  6
Continuous
 62
     7
100
AcDbLine
 10
-347.4736633300781
 20
155.4446563720703
 30
0.0
 11
-347.5235595703125
 21
155.8580474853516
 31
0.0
  0
LINE
  5
A5
330
22
100
AcDbEntity
  8
0
  6
Continuous
 62
     7
100
AcDbLine
 10
-347.5734252929688
 20
156.2714385986328
 30
0.0
 11
-347.5235595703125
 21
155.8580474853516
 31
0.0
  0
LINE
  5
A6
330
22
100
AcDbEntity
  8
0
  6
Continuous
 62
     7
100
AcDbLine
 10
-339.9000854492188
 20
156.3587188720703
 30
0.0
 11
-342.8151550292969
 21
155.5919647216797
 31
0.0
  0
LINE
  5
A7
330
22
100
AcDbEntity
  8
0
  6
Continuous
 62
     7
100
AcDbLine
 10
-288.34912109375
 20
154.01171875
 30
0.0
 11
-288.0990295410157
 21
153.6784057617188
 31
0.0
  0
LINE
  5
A8
330
22
100
AcDbEntity
  8
0
  6
Continuous
 62
     7
100
AcDbLine
 10
-288.34912109375
 20
154.01171875
 30
0.0
 11
-288.5992126464844
 21
154.3450317382813
 31
0.0
  0
LINE
  5
A9
330
22
100
AcDbEntity
  8
0
  6
Continuous
 62
     7
100
AcDbLine
 10
-287.9022827148438
 20
159.1155395507813
 30
0.0
 11
-287.5692443847656
 21
159.3654479980469
 31
0.0
  0
LINE
  5
AA
330
22
100
AcDbEntity
  8
0
  6
Continuous
 62
     7
100
AcDbLine
 10
-287.9022827148438
 20
159.1155395507813
 30
0.0
 11
-286.4397583007813
 21
156.4799346923828
 31
0.0
  0
LINE
  5
AB
330
22
100
AcDbEntity
  8
0
  6
Continuous
 62
     7
100
AcDbLine
 10
-287.2361755371094
 20
159.6153411865234
 30
0.0
 11
-287.5692443847656
 21
159.3654479980469
 31
0.0
  0
LINE
  5
AC
330
22
100
AcDbEntity
  8
0
  6
Continuous
 62
     7
100
AcDbLine
 10
-339.9998779296875
 20
157.1855010986328
 30
0.0
 11
-339.9499816894531
 21
156.7721099853516
 31
0.0
  0
LINE
  5
AD
330
22
100
AcDbEntity
  8
0
  6
Continuous
 62
     7
100
AcDbLine
 10
-344.1965026855469
 20
160.1243591308594
 30
0.0
 11
-343.7828063964844
 21
160.1742858886719
 31
0.0
  0
LINE
  5
AE
330
22
100
AcDbEntity
  8
0
  6
Continuous
 62
     7
100
AcDbLine
 10
-344.1965026855469
 20
160.1243591308594
 30
0.0
 11
-344.6101989746094
 21
160.0744323730469
 31
0.0
  0
LINE
  5
AF
330
22
100
AcDbEntity
  8
0
  6
Continuous
 62
     7
100
AcDbLine
 10
-339.9000854492188
 20
156.3587188720703
 30
0.0
 11
-339.9499816894531
 21
156.7721099853516
 31
0.0
  0
LINE
  5
B0
330
22
100
AcDbEntity
  8
0
  6
Continuous
 62
     7
100
AcDbLine
 10
-283.3239135742188
 20
153.013671875
 30
0.0
 11
-285.4454650878906
 21
155.1548004150391
 31
0.0
  0
LINE
  5
B1
330
22
100
AcDbEntity
  8
0
  6
Continuous
 62
     7
100
AcDbLine
 10
-282.6578063964844
 20
153.5134735107422
 30
0.0
 11
-284.1203308105469
 21
156.1490783691406
 31
0.0
  0
LINE
  5
B2
330
22
100
AcDbEntity
  8
0
  6
Continuous
 62
     7
100
AcDbLine
 10
-283.3239135742188
 20
153.013671875
 30
0.0
 11
-282.9908447265625
 21
153.2635650634766
 31
0.0
  0
LINE
  5
B3
330
22
100
AcDbEntity
  8
0
  6
Continuous
 62
     7
100
AcDbLine
 10
-282.2109680175781
 20
158.6173095703125
 30
0.0
 11
-282.4610595703125
 21
158.9506072998046
 31
0.0
  0
LINE
  5
B4
330
22
100
AcDbEntity
  8
0
  6
Continuous
 62
     7
100
AcDbLine
 10
-344.6101989746094
 20
160.0744323730469
 30
0.0
 11
-344.6583862304688
 21
157.0381927490234
 31
0.0
  0
LINE
  5
B5
330
22
100
AcDbEntity
  8
0
  6
Continuous
 62
     7
100
AcDbLine
 10
-343.7828063964844
 20
160.1742858886719
 30
0.0
 11
-343.0136413574219
 21
157.2366943359375
 31
0.0
  0
LINE
  5
B6
330
22
100
AcDbEntity
  8
0
  6
Continuous
 62
     7
100
AcDbLine
 10
-339.9998779296875
 20
157.1855010986328
 30
0.0
 11
-343.0136413574219
 21
157.2366943359375
 31
0.0
  0
LINE
  5
B7
330
22
100
AcDbEntity
  8
0
  6
Continuous
 62
     7
100
AcDbLine
 10
-343.2770080566406
 20
152.5057983398438
 30
0.0
 11
-342.8633117675781
 21
152.5557250976563
 31
0.0
  0
LINE
  5
B8
330
22
100
AcDbEntity
  8
0
  6
Continuous
 62
     7
100
AcDbLine
 10
-343.6907043457031
 20
152.4558715820313
 30
0.0
 11
-344.4598693847656
 21
155.3934631347656
 31
0.0
  0
LINE
  5
B9
330
22
100
AcDbEntity
  8
0
  6
Continuous
 62
     7
100
AcDbLine
 10
-323.6807861328125
 20
176.1769256591797
 30
0.0
 11
-327.1287231445313
 21
178.1676025390625
 31
0.0
  0
LINE
  5
BA
330
22
100
AcDbEntity
  8
0
  6
Continuous
 62
     7
100
AcDbLine
 10
-305.3350219726563
 20
176.1766967773438
 30
0.0
 11
-301.8870239257813
 21
178.1673889160156
 31
0.0
  0
LINE
  5
BB
330
22
100
AcDbEntity
  8
0
  6
Continuous
 62
     7
100
AcDbLine
 10
-168.3879089355469
 20
209.1972961425781
 30
0.0
 11
-168.0079040527344
 21
209.1972961425781
 31
0.0
  0
LINE
  5
BC
330
22
100
AcDbEntity
  8
0
  6
Continuous
 62
     7
100
AcDbLine
 10
-174.3079071044922
 20
211.3972930908203
 30
0.0
 11
-172.10791015625
 21
209.1972961425781
 31
0.0
  0
LINE
  5
BD
330
22
100
AcDbEntity
  8
0
  6
Continuous
 62
     7
100
AcDbLine
 10
-170.3079071044922
 20
223.4472961425781
 30
0.0
 11
-174.3079071044922
 21
216.4472961425781
 31
0.0
  0
LINE
  5
BE
330
22
100
AcDbEntity
  8
0
  6
Continuous
 62
     7
100
AcDbLine
 10
-168.0079040527344
 20
201.7772979736328
 30
0.0
 11
-166.0079040527344
 21
201.7772979736328
 31
0.0
  0
LINE
  5
BF
330
22
100
AcDbEntity
  8
0
  6
Continuous
 62
     7
100
AcDbLine
 10
-119.4779052734375
 20
203.2472991943359
 30
0.0
 11
-164.0379028320313
 21
203.2472991943359
 31
0.0
  0
LINE
  5
C0
330
22
100
AcDbEntity
  8
0
  6
Continuous
 62
     7
100
AcDbLine
 10
-164.0379028320313
 20
203.2472991943359
 30
0.0
 11
-164.0379028320313
 21
201.7772979736328
 31
0.0
  0
LINE
  5
C1
330
22
100
AcDbEntity
  8
0
  6
Continuous
 62
     7
100
AcDbLine
 10
-118.0079116821289
 20
201.7772979736328
 30
0.0
 11
-166.0079040527344
 21
201.7772979736328
 31
0.0
  0
LINE
  5
C2
330
22
100
AcDbEntity
  8
0
  6
Continuous
 62
     7
100
AcDbLine
 10
-118.0079116821289
 20
199.4472961425781
 30
0.0
 11
-171.3079071044922
 21
199.4472961425781
 31
0.0
  0
LINE
  5
C3
330
22
100
AcDbEntity
  8
0
  6
CENTER
 62
     7
100
AcDbLine
 10
-179.9035339355469
 20
207.1972961425781
 30
0.0
 11
-162.6701965332031
 21
207.1972961425781
 31
0.0
  0
LINE
  5
C4
330
22
100
AcDbEntity
  8
0
  6
Continuous
 62
     7
100
AcDbLine
 10
-168.0079040527344
 20
208.8172912597656
 30
0.0
 11
-168.0079040527344
 21
205.5773010253906
 31
0.0
  0
LINE
  5
C5
330
22
100
AcDbEntity
  8
0
  6
Continuous
 62
     7
100
AcDbLine
 10
-168.0079040527344
 20
205.5773010253906
 30
0.0
 11
-171.7279052734375
 21
205.5773010253906
 31
0.0
  0
LINE
  5
C6
330
22
100
AcDbEntity
  8
0
  6
Continuous
 62
     7
100
AcDbLine
 10
-172.10791015625
 20
205.1972961425781
 30
0.0
 11
-171.7279052734375
 21
205.5773010253906
 31
0.0
  0
LINE
  5
C7
330
22
100
AcDbEntity
  8
0
  6
Continuous
 62
     7
100
AcDbLine
 10
-172.10791015625
 20
205.1972961425781
 30
0.0
 11
-168.3879089355469
 21
205.1972961425781
 31
0.0
  0
LINE
  5
C8
330
22
100
AcDbEntity
  8
0
  6
Continuous
 62
     7
100
AcDbLine
 10
-168.3079071044922
 20
208.8172912597656
 30
0.0
 11
-168.6879119873047
 21
209.1972961425781
 31
0.0
  0
LINE
  5
C9
330
22
100
AcDbEntity
  8
0
  6
Continuous
 62
     7
100
AcDbLine
 10
-171.3079071044922
 20
214.9472961425781
 30
0.0
 11
-171.3079071044922
 21
209.1972961425781
 31
0.0
  0
LINE
  5
CA
330
22
100
AcDbEntity
  8
0
  6
Continuous
 62
     7
100
AcDbLine
 10
-174.3079071044922
 20
214.4472961425781
 30
0.0
 11
-171.3079071044922
 21
214.4472961425781
 31
0.0
  0
LINE
  5
CB
330
22
100
AcDbEntity
  8
0
  6
Continuous
 62
     7
100
AcDbLine
 10
-174.3079071044922
 20
214.9472961425781
 30
0.0
 11
-171.3079071044922
 21
214.9472961425781
 31
0.0
  0
LINE
  5
CC
330
22
100
AcDbEntity
  8
0
  6
Continuous
 62
     7
100
AcDbLine
 10
-168.3079071044922
 20
208.8172912597656
 30
0.0
 11
-168.3079071044922
 21
205.5773010253906
 31
0.0
  0
LINE
  5
CD
330
22
100
AcDbEntity
  8
0
  6
Continuous
 62
     7
100
AcDbLine
 10
-168.3879089355469
 20
205.1972961425781
 30
0.0
 11
-168.0079040527344
 21
205.1972961425781
 31
0.0
  0
LINE
  5
CE
330
22
100
AcDbEntity
  8
0
  6
Continuous
 62
     7
100
AcDbLine
 10
-174.3079071044922
 20
211.3972930908203
 30
0.0
 11
-174.3079071044922
 21
202.9972991943359
 31
0.0
  0
LINE
  5
CF
330
22
100
AcDbEntity
  8
0
  6
Continuous
 62
     7
100
AcDbLine
 10
-168.0079040527344
 20
223.4472961425781
 30
0.0
 11
-168.0079040527344
 21
201.7772979736328
 31
0.0
  0
LINE
  5
D0
330
22
100
AcDbEntity
  8
0
  6
Continuous
 62
     7
100
AcDbLine
 10
-168.0079040527344
 20
223.4472961425781
 30
0.0
 11
-170.3079071044922
 21
223.4472961425781
 31
0.0
  0
LINE
  5
D1
330
22
100
AcDbEntity
  8
0
  6
Continuous
 62
     7
100
AcDbLine
 10
-174.3079071044922
 20
202.9972991943359
 30
0.0
 11
-172.10791015625
 21
205.1972961425781
 31
0.0
  0
LINE
  5
D2
330
22
100
AcDbEntity
  8
0
  6
Continuous
 62
     7
100
AcDbLine
 10
-171.3079071044922
 20
204.9472961425781
 30
0.0
 11
-172.35791015625
 21
204.9472961425781
 31
0.0
  0
LINE
  5
D3
330
22
100
AcDbEntity
  8
0
  6
Continuous
 62
     7
100
AcDbLine
 10
-168.3079071044922
 20
205.5773010253906
 30
0.0
 11
-168.6879119873047
 21
205.1972961425781
 31
0.0
  0
LINE
  5
D4
330
22
100
AcDbEntity
  8
0
  6
Continuous
 62
     7
100
AcDbLine
 10
-172.10791015625
 20
209.1972961425781
 30
0.0
 11
-171.7279052734375
 21
208.8172912597656
 31
0.0
  0
LINE
  5
D5
330
22
100
AcDbEntity
  8
0
  6
Continuous
 62
     7
100
AcDbLine
 10
-168.0079040527344
 20
208.8172912597656
 30
0.0
 11
-171.7279052734375
 21
208.8172912597656
 31
0.0
  0
LINE
  5
D6
330
22
100
AcDbEntity
  8
0
  6
Continuous
 62
     7
100
AcDbLine
 10
-172.10791015625
 20
209.1972961425781
 30
0.0
 11
-168.3879089355469
 21
209.1972961425781
 31
0.0
  0
LINE
  5
D7
330
22
100
AcDbEntity
  8
0
  6
Continuous
 62
     7
100
AcDbLine
 10
-171.3079071044922
 20
209.4472961425781
 30
0.0
 11
-172.35791015625
 21
209.4472961425781
 31
0.0
  0
LINE
  5
D8
330
22
100
AcDbEntity
  8
0
  6
Continuous
 62
     7
100
AcDbLine
 10
-164.0379028320313
 20
143.6472930908203
 30
0.0
 11
-164.0379028320313
 21
145.1172943115234
 31
0.0
  0
LINE
  5
D9
330
22
100
AcDbEntity
  8
0
  6
Continuous
 62
     7
100
AcDbLine
 10
-168.0079040527344
 20
145.1172943115234
 30
0.0
 11
-164.0379028320313
 21
145.1172943115234
 31
0.0
  0
LINE
  5
DA
330
22
100
AcDbEntity
  8
0
  6
Continuous
 62
     7
100
AcDbLine
 10
-118.0079116821289
 20
187.6123046875
 30
0.0
 11
-118.0079116821289
 21
178.8878021240234
 31
0.0
  0
LINE
  5
DB
330
22
100
AcDbEntity
  8
0
  6
Continuous
 62
     7
100
AcDbLine
 10
-174.3079071044922
 20
186.7377014160156
 30
0.0
 11
-174.3079071044922
 21
178.8878021240234
 31
0.0
  0
LINE
  5
DC
330
22
100
AcDbEntity
  8
0
  6
Continuous
 62
     7
100
AcDbLine
 10
-118.0079116821289
 20
201.7772979736328
 30
0.0
 11
-119.4779052734375
 21
203.2472991943359
 31
0.0
  0
LINE
  5
DD
330
22
100
AcDbEntity
  8
0
  6
Continuous
 62
     7
100
AcDbLine
 10
-168.0079040527344
 20
123.4472961425781
 30
0.0
 11
-170.3079071044922
 21
123.4472961425781
 31
0.0
  0
LINE
  5
DE
330
22
100
AcDbEntity
  8
0
  6
Continuous
 62
     7
100
AcDbLine
 10
-170.3079071044922
 20
123.4472961425781
 30
0.0
 11
-174.3079071044922
 21
130.4472961425781
 31
0.0
  0
LINE
  5
DF
330
22
100
AcDbEntity
  8
0
  6
Continuous
 62
     7
100
AcDbLine
 10
-118.0079116821289
 20
201.7772979736328
 30
0.0
 11
-118.0079116821289
 21
173.4472961425781
 31
0.0
  0
LINE
  5
E0
330
22
100
AcDbEntity
  8
0
  6
Continuous
 62
     7
100
AcDbLine
 10
-174.3079071044922
 20
216.4472961425781
 30
0.0
 11
-174.3079071044922
 21
130.4472961425781
 31
0.0
  0
LINE
  5
E1
330
22
100
AcDbEntity
  8
0
  6
Continuous
 62
     7
100
AcDbLine
 10
-168.0079040527344
 20
173.4472961425781
 30
0.0
 11
-168.0079040527344
 21
123.4472961425781
 31
0.0
  0
LINE
  5
E2
330
22
100
AcDbEntity
  8
0
  6
Continuous
 62
     7
100
AcDbLine
 10
-171.3079071044922
 20
205.1972961425781
 30
0.0
 11
-171.3079071044922
 21
173.4472961425781
 31
0.0
  0
LINE
  5
E3
330
22
100
AcDbEntity
  8
0
  6
Continuous
 62
     7
100
AcDbLine
 10
-170.3079071044922
 20
125.6753845214844
 30
0.0
 11
-170.3079071044922
 21
173.4472961425781
 31
0.0
  0
LINE
  5
E4
330
22
100
AcDbEntity
  8
0
  6
Continuous
 62
     7
100
AcDbLine
 10
-174.3079071044922
 20
176.4472961425781
 30
0.0
 11
-171.3079071044922
 21
176.4472961425781
 31
0.0
  0
LINE
  5
E5
330
22
100
AcDbEntity
  8
0
  6
Continuous
 62
     7
100
AcDbLine
 10
-164.0379028320313
 20
145.1172943115234
 30
0.0
 11
-164.0379028320313
 21
173.4472961425781
 31
0.0
  0
LINE
  5
E6
330
22
100
AcDbEntity
  8
0
  6
Continuous
 62
     7
100
AcDbLine
 10
-118.0079116821289
 20
145.1172943115234
 30
0.0
 11
-118.0079116821289
 21
173.4472961425781
 31
0.0
  0
LINE
  5
E7
330
22
100
AcDbEntity
  8
0
  6
Continuous
 62
     7
100
AcDbLine
 10
-118.0079116821289
 20
145.1172943115234
 30
0.0
 11
-119.4779052734375
 21
143.6472930908203
 31
0.0
  0
LINE
  5
E8
330
22
100
AcDbEntity
  8
0
  6
Continuous
 62
     7
100
AcDbLine
 10
-118.0079116821289
 20
145.1172943115234
 30
0.0
 11
-166.0079040527344
 21
145.1172943115234
 31
0.0
  0
LINE
  5
E9
330
22
100
AcDbEntity
  8
0
  6
Continuous
 62
     7
100
AcDbLine
 10
-119.4779052734375
 20
143.6472930908203
 30
0.0
 11
-164.0379028320313
 21
143.6472930908203
 31
0.0
  0
LINE
  5
EA
330
22
100
AcDbEntity
  8
0
  6
Continuous
 62
     7
100
AcDbLine
 10
-119.4779052734375
 20
143.6472930908203
 30
0.0
 11
-119.4779052734375
 21
173.4472961425781
 31
0.0
  0
LINE
  5
EB
330
22
100
AcDbEntity
  8
0
  6
Continuous
 62
     7
100
AcDbLine
 10
-174.3079071044922
 20
201.1897888183594
 30
0.0
 11
-171.3079071044922
 21
201.1897888183594
 31
0.0
  0
LINE
  5
EC
330
22
100
AcDbEntity
  8
0
  6
Continuous
 62
     7
100
AcDbLine
 10
-174.3079071044922
 20
198.4397888183594
 30
0.0
 11
-171.3079071044922
 21
198.4397888183594
 31
0.0
  0
LINE
  5
ED
330
22
100
AcDbEntity
  8
0
  6
Continuous
 62
     7
100
AcDbLine
 10
-174.3079071044922
 20
191.9397888183594
 30
0.0
 11
-171.3079071044922
 21
191.9397888183594
 31
0.0
  0
LINE
  5
EE
330
22
100
AcDbEntity
  8
0
  6
Continuous
 62
     7
100
AcDbLine
 10
-174.3079071044922
 20
187.9397888183594
 30
0.0
 11
-171.3079071044922
 21
187.9397888183594
 31
0.0
  0
LINE
  5
EF
330
22
100
AcDbEntity
  8
0
  6
Continuous
 62
     7
100
AcDbLine
 10
-174.3079071044922
 20
181.4397888183594
 30
0.0
 11
-171.3079071044922
 21
181.4397888183594
 31
0.0
  0
ARC
  5
F0
330
22
100
AcDbEntity
  8
0
  6
Continuous
 62
     7
100
AcDbCircle
 10
-295.7940063476563
 20
189.7665863037109
 30
0.0
 40
3.0
100
AcDbArc
 50
300.0000761467313
 51
41.53475010271647
  0
ARC
  5
F1
330
22
100
AcDbEntity
  8
0
  6
Continuous
 62
     7
100
AcDbCircle
 10
-294.8750305175781
 20
179.9063720703125
 30
0.0
 40
2.0
100
AcDbArc
 50
119.9999304359993
 51
198.8862832840111
  0
ARC
  5
F2
330
22
100
AcDbEntity
  8
0
  6
Continuous
 62
     7
100
AcDbCircle
 10
-330.1410827636719
 20
186.8340759277344
 30
0.0
 40
2.0
100
AcDbArc
 50
239.9998509974231
 51
318.8862029438333
  0
ARC
  5
F3
330
22
100
AcDbEntity
  8
0
  6
Continuous
 62
     7
100
AcDbCircle
 10
-334.1407165527344
 20
179.9065856933594
 30
0.0
 40
2.0
100
AcDbArc
 50
341.1130201211275
 51
59.99985099742237
  0
ARC
  5
F4
330
22
100
AcDbEntity
  8
0
  6
Continuous
 62
     7
100
AcDbCircle
 10
-304.3865966796875
 20
182.4968566894531
 30
0.0
 40
1.0
100
AcDbArc
 50
299.9999304360001
 51
42.60067319439649
  0
ARC
  5
F5
330
22
100
AcDbEntity
  8
0
  6
Continuous
 62
     7
100
AcDbCircle
 10
-314.5079040527344
 20
173.1897888183594
 30
0.0
 40
25.25
100
AcDbArc
 50
34.71297220899083
 51
145.2841174997277
  0
ARC
  5
F6
330
22
100
AcDbEntity
  8
0
  6
Continuous
 62
     7
100
AcDbCircle
 10
-314.5079040527344
 20
173.1897888183594
 30
0.0
 40
28.0
100
AcDbArc
 50
41.53458827367695
 51
138.462492017283
  0
ARC
  5
F7
330
22
100
AcDbEntity
  8
0
  6
Continuous
 62
     7
100
AcDbCircle
 10
-320.6810913085938
 20
181.3723602294922
 30
0.0
 40
2.0
100
AcDbArc
 50
240.0000695640013
 51
307.0320732243945
  0
ARC
  5
F8
330
22
100
AcDbEntity
  8
0
  6
Continuous
 62
     7
100
AcDbCircle
 10
-338.2207946777344
 20
181.1081085205078
 30
0.0
 40
3.0
100
AcDbArc
 50
59.99992385326939
 51
161.5344552904945
  0
ARC
  5
F9
330
22
100
AcDbEntity
  8
0
  6
Continuous
 62
     7
100
AcDbCircle
 10
-314.5079040527344
 20
173.1897888183594
 30
0.0
 40
18.75
100
AcDbArc
 50
41.11312071328932
 51
138.8862827120921
  0
ARC
  5
FA
330
22
100
AcDbEntity
  8
0
  6
Continuous
 62
     7
100
AcDbCircle
 10
-314.5079040527344
 20
173.1897888183594
 30
0.0
 40
8.25
100
AcDbArc
 50
52.96667319005377
 51
127.0320340851854
  0
ARC
  5
FB
330
22
100
AcDbEntity
  8
0
  6
Continuous
 62
     7
100
AcDbCircle
 10
-298.8746032714844
 20
186.8339080810547
 30
0.0
 40
2.0
100
AcDbArc
 50
221.1134677159371
 51
300.0001490025784
  0
ARC
  5
FC
330
22
100
AcDbEntity
  8
0
  6
Continuous
 62
     7
100
AcDbCircle
 10
-290.7946166992188
 20
181.1068878173828
 30
0.0
 40
3.0
100
AcDbArc
 50
18.46268773129502
 51
119.9999304359993
  0
ARC
  5
FD
330
22
100
AcDbEntity
  8
0
  6
Continuous
 62
     7
100
AcDbCircle
 10
-308.3345336914063
 20
181.3722076416016
 30
0.0
 40
2.0
100
AcDbArc
 50
232.9664390400862
 51
300.0001490025784
  0
ARC
  5
FE
330
22
100
AcDbEntity
  8
0
  6
Continuous
 62
     7
100
AcDbCircle
 10
-333.220947265625
 20
189.7675476074219
 30
0.0
 40
3.0
100
AcDbArc
 50
138.4625634897618
 51
240.0000695640013
  0
ARC
  5
FF
330
22
100
AcDbEntity
  8
0
  6
Continuous
 62
     7
100
AcDbCircle
 10
-324.6290893554688
 20
182.4970245361328
 30
0.0
 40
1.0
100
AcDbArc
 50
137.3986832713599
 51
240.0000695640013
  0
ARC
  5
100
330
22
100
AcDbEntity
  8
0
  6
Continuous
 62
     7
100
AcDbCircle
 10
-314.5079040527344
 20
173.1897888183594
 30
0.0
 40
14.75
100
AcDbArc
 50
42.60018473077646
 51
137.398970751105
  0
ARC
  5
101
330
22
100
AcDbEntity
  8
0
  6
Continuous
 62
     7
100
AcDbCircle
 10
-310.50830078125
 20
163.7523345947266
 30
0.0
 40
2.0
100
AcDbArc
 50
112.9676205715248
 51
180.0000000000004
  0
ARC
  5
102
330
22
100
AcDbEntity
  8
0
  6
Continuous
 62
     7
100
AcDbCircle
 10
-311.50830078125
 20
159.7709655761719
 30
0.0
 40
1.0
100
AcDbArc
 50
180.0000000000004
 51
282.5999289553586
  0
ARC
  5
103
330
22
100
AcDbEntity
  8
0
  6
Continuous
 62
     7
100
AcDbCircle
 10
-317.5075073242188
 20
159.7709655761719
 30
0.0
 40
1.0
100
AcDbArc
 50
257.3983646186892
 51
0.0
  0
ARC
  5
104
330
22
100
AcDbEntity
  8
0
  6
Continuous
 62
     7
100
AcDbCircle
 10
-309.50830078125
 20
148.69482421875
 30
0.0
 40
3.0
100
AcDbArc
 50
180.0000000000004
 51
281.5358560299424
  0
ARC
  5
105
330
22
100
AcDbEntity
  8
0
  6
Continuous
 62
     7
100
AcDbCircle
 10
-310.50830078125
 20
152.8289031982422
 30
0.0
 40
2.0
100
AcDbArc
 50
101.113270323008
 51
180.0000000000004
  0
ARC
  5
106
330
22
100
AcDbEntity
  8
0
  6
Continuous
 62
     7
100
AcDbCircle
 10
-318.5075073242188
 20
163.7523345947266
 30
0.0
 40
2.0
100
AcDbArc
 50
0.0
 51
67.0331843862066
  0
ARC
  5
107
330
22
100
AcDbEntity
  8
0
  6
Continuous
 62
     7
100
AcDbCircle
 10
-318.5075073242188
 20
152.8289031982422
 30
0.0
 40
2.0
100
AcDbArc
 50
0.0
 51
78.88672967699199
  0
ARC
  5
108
330
22
100
AcDbEntity
  8
0
  6
Continuous
 62
     7
100
AcDbCircle
 10
-319.5075073242188
 20
148.69482421875
 30
0.0
 40
3.0
100
AcDbArc
 50
258.464143970059
 51
0.0
  0
ARC
  5
109
330
22
100
AcDbEntity
  8
0
  6
Continuous
 62
     7
100
AcDbCircle
 10
-327.6287231445313
 20
177.3015747070313
 30
0.0
 40
1.0
100
AcDbArc
 50
60.00006956400067
 51
162.6001845615508
  0
ARC
  5
10A
330
22
100
AcDbEntity
  8
0
  6
Continuous
 62
     7
100
AcDbCircle
 10
-301.3870239257813
 20
177.3013610839844
 30
0.0
 40
1.0
100
AcDbArc
 50
17.39898118687167
 51
119.9999304359993
  0
CIRCLE
  5
10B
330
22
100
AcDbEntity
  8
0
  6
Continuous
 62
     7
100
AcDbCircle
 10
-314.5079040527344
 20
206.9397888183594
 30
0.0
 40
4.5
  0
CIRCLE
  5
10C
330
22
100
AcDbEntity
  8
0
  6
Continuous
 62
     7
100
AcDbCircle
 10
-343.7367553710938
 20
156.3150787353516
 30
0.0
 40
4.5
  0
CIRCLE
  5
10D
330
22
100
AcDbEntity
  8
0
  6
Continuous
 62
     7
100
AcDbCircle
 10
-285.2800598144531
 20
156.3145141601563
 30
0.0
 40
4.5
  0
CIRCLE
  5
10E
330
22
100
AcDbEntity
  8
0
  6
Continuous
 62
     7
100
AcDbCircle
 10
-314.5079040527344
 20
173.1897888183594
 30
0.0
 40
41.5
  0
CIRCLE
  5
10F
330
22
100
AcDbEntity
  8
0
  6
Continuous
 62
     7
100
AcDbCircle
 10
-314.5079040527344
 20
173.1897888183594
 30
0.0
 40
41.0
  0
CIRCLE
  5
110
330
22
100
AcDbEntity
  8
0
  6
Continuous
 62
     7
100
AcDbCircle
 10
-314.5079040527344
 20
173.1897888183594
 30
0.0
 40
4.25
  0
ARC
  5
111
330
22
100
AcDbEntity
  8
0
  6
Continuous
 62
     7
100
AcDbCircle
 10
-314.5079040527344
 20
173.1897888183594
 30
0.0
 40
18.75
100
AcDbArc
 50
161.1131161997521
 51
258.8865534052839
  0
ARC
  5
112
330
22
100
AcDbEntity
  8
0
  6
Continuous
 62
     7
100
AcDbCircle
 10
-314.5079040527344
 20
173.1897888183594
 30
0.0
 40
8.25
100
AcDbArc
 50
292.9672013652376
 51
7.032113392943371
  0
ARC
  5
113
330
22
100
AcDbEntity
  8
0
  6
Continuous
 62
     7
100
AcDbCircle
 10
-314.5079040527344
 20
173.1897888183594
 30
0.0
 40
18.75
100
AcDbArc
 50
281.1134465947175
 51
18.88628009233111
  0
ARC
  5
114
330
22
100
AcDbEntity
  8
0
  6
Continuous
 62
     7
100
AcDbCircle
 10
-314.5079040527344
 20
173.1897888183594
 30
0.0
 40
25.25
100
AcDbArc
 50
274.7144350605429
 51
25.28410057244126
  0
ARC
  5
115
330
22
100
AcDbEntity
  8
0
  6
Continuous
 62
     7
100
AcDbCircle
 10
-314.5079040527344
 20
173.1897888183594
 30
0.0
 40
28.0
100
AcDbArc
 50
281.5360179482699
 51
18.46251649607728
  0
ARC
  5
116
330
22
100
AcDbEntity
  8
0
  6
Continuous
 62
     7
100
AcDbCircle
 10
-314.5079040527344
 20
173.1897888183594
 30
0.0
 40
28.0
100
AcDbArc
 50
161.5345509780883
 51
258.4639820517315
  0
ARC
  5
117
330
22
100
AcDbEntity
  8
0
  6
Continuous
 62
     7
100
AcDbCircle
 10
-314.5079040527344
 20
173.1897888183594
 30
0.0
 40
8.25
100
AcDbArc
 50
172.9666245171356
 51
247.032603492847
  0
ARC
  5
118
330
22
100
AcDbEntity
  8
0
  6
Continuous
 62
     7
100
AcDbCircle
 10
-324.6807861328125
 20
174.4448852539063
 30
0.0
 40
2.0
100
AcDbArc
 50
352.966397608288
 51
59.99985099742237
  0
ARC
  5
119
330
22
100
AcDbEntity
  8
0
  6
Continuous
 62
     7
100
AcDbCircle
 10
-314.5079040527344
 20
173.1897888183594
 30
0.0
 40
25.25
100
AcDbArc
 50
154.7129563844418
 51
265.2855649394585
  0
ARC
  5
11A
330
22
100
AcDbEntity
  8
0
  6
Continuous
 62
     7
100
AcDbCircle
 10
-314.5079040527344
 20
173.1897888183594
 30
0.0
 40
14.75
100
AcDbArc
 50
162.6001221284696
 51
257.3993549591805
  0
CIRCLE
  5
11B
330
22
100
AcDbEntity
  8
0
  6
Continuous
 62
     7
100
AcDbCircle
 10
-314.5079040527344
 20
173.1897888183594
 30
0.0
 40
50.0
  0
ARC
  5
11C
330
22
100
AcDbEntity
  8
0
  6
Continuous
 62
     7
100
AcDbCircle
 10
-304.3350219726563
 20
174.4446411132813
 30
0.0
 40
2.0
100
AcDbArc
 50
119.9999304359993
 51
187.0318670204247
  0
ARC
  5
11D
330
22
100
AcDbEntity
  8
0
  6
Continuous
 62
     7
100
AcDbCircle
 10
-314.5079040527344
 20
173.1897888183594
 30
0.0
 40
14.75
100
AcDbArc
 50
282.600529351639
 51
17.39895857474835
  0
TEXT
  5
11E
330
22
100
AcDbEntity
  8
0
  6
Continuous
 62
     7
100
AcDbText
 10
-260.031792640686
 20
69.85478210449219
 30
0.0
 40
7.0
  1
ＤＬ－Ｔ４－５０Ｇ
 41
0.8448610808647003
100
AcDbText
  0
INSERT
  5
11F
330
22
100
AcDbEntity
  8
0
  6
Continuous
 62
     7
100
AcDbBlockReference
  2
KOZU0002
 10
0.0
 20
0.0
 30
0.0
  0
INSERT
  5
120
330
22
100
AcDbEntity
  8
0
  6
Continuous
 62
     7
100
AcDbBlockReference
  2
KOZU0003
 10
0.0
 20
0.0
 30
0.0
  0
DIMENSION
  5
121
330
22
100
AcDbEntity
  8
0
  6
Continuous
 62
     7
100
AcDbDimension
  2
*D1
 10
-357.137274591076
 20
147.0605567687033
 30
0.0
 11
-251.1698455810547
 21
212.01220703125
 31
0.0
 70
     3
 71
     5
 42
-1.0
  3
DIMSTYLE1
100
AcDbDiametricDimension
 15
-271.8785335143928
 25
199.3190208680154
 35
0.0
 40
0.0
  0
DIMENSION
  5
122
330
22
100
AcDbEntity
  8
0
  6
Continuous
 62
     7
100
AcDbDimension
  2
*D2
 10
-174.3079071044922
 20
248.0909118652344
 30
0.0
 11
-184.7587890625
 21
248.0909118652344
 31
0.0
 71
     5
 42
-1.0
  3
DIMSTYLE2
100
AcDbAlignedDimension
 13
-168.0079040527344
 23
267.76318359375
 33
0.0
 14
-174.3079071044922
 24
216.4472961425781
 34
0.0
100
AcDbRotatedDimension
  0
DIMENSION
  5
123
330
22
100
AcDbEntity
  8
0
  6
Continuous
 62
     7
100
AcDbDimension
  2
*D3
 10
-118.0079116821289
 20
248.0909118652344
 30
0.0
 11
-143.1579132080078
 21
248.0909118652344
 31
0.0
 71
     5
 42
-1.0
  3
DIMSTYLE3
100
AcDbAlignedDimension
 13
-168.0079040527344
 23
223.4472961425781
 33
0.0
 14
-118.0079116821289
 24
201.7772979736328
 34
0.0
100
AcDbRotatedDimension
  0
INSERT
  5
124
330
22
100
AcDbEntity
  8
0
  6
Continuous
 62
     7
100
AcDbBlockReference
  2
KOZU0001
 10
-137.3019104003906
 20
143.6472930908203
 30
0.0
  0
ENDSEC
  0
SECTION
  2
OBJECTS
  0
DICTIONARY
  5
C
330
0
100
AcDbDictionary
281
     1
  3
ACAD_COLOR
350
1B
  3
ACAD_GROUP
350
D
  3
ACAD_LAYOUT
350
19
  3
ACAD_MATERIAL
350
1A
  3
ACAD_MLINESTYLE
350
16
  3
ACAD_PLOTSETTINGS
350
18
  3
ACAD_PLOTSTYLENAME
350
E
  3
ACAD_TABLESTYLE
350
1C
  3
AcDbVariableDictionary
350
130
  0
DICTIONARY
  5
1B
102
{ACAD_REACTORS
330
C
102
}
330
C
100
AcDbDictionary
281
     1
  0
DICTIONARY
  5
D
102
{ACAD_REACTORS
330
C
102
}
330
C
100
AcDbDictionary
281
     1
  0
DICTIONARY
  5
19
102
{ACAD_REACTORS
330
C
102
}
330
C
100
AcDbDictionary
281
     1
  3
Model
350
25
  3
レイアウト1
350
21
  0
DICTIONARY
  5
1A
102
{ACAD_REACTORS
330
C
102
}
330
C
100
AcDbDictionary
281
     1
  0
DICTIONARY
  5
16
102
{ACAD_REACTORS
330
C
102
}
330
C
100
AcDbDictionary
281
     1
  3
Standard
350
17
  0
DICTIONARY
  5
18
102
{ACAD_REACTORS
330
C
102
}
330
C
100
AcDbDictionary
281
     1
  0
ACDBDICTIONARYWDFLT
  5
E
102
{ACAD_REACTORS
330
C
102
}
330
C
100
AcDbDictionary
281
     1
  3
Normal
350
F
100
AcDbDictionaryWithDefault
340
F
  0
DICTIONARY
  5
1C
102
{ACAD_REACTORS
330
C
102
}
330
C
100
AcDbDictionary
281
     1
  3
Standard
350
1D
  0
DICTIONARY
  5
130
102
{ACAD_REACTORS
330
C
102
}
330
C
100
AcDbDictionary
281
     1
  3
CTABLESTYLE
350
131
  0
LAYOUT
  5
25
102
{ACAD_REACTORS
330
19
102
}
330
19
100
AcDbPlotSettings
  1

  2
PDF reDirect v2
  4
A3
  6

 40
3.174999952316284
 41
3.174999952316284
 42
3.17498779296875
 43
3.17498779296875
 44
297.0530090332031
 45
420.1583251953125
 46
0.0
 47
0.0
 48
0.0
 49
0.0
140
0.0
141
0.0
142
1.0
143
1.0
 70
 11952
 72
     1
 73
     1
 74
     2
  7
C:\Users\ck\AppData\Roaming\Autodesk\AutoCAD 2005\R16.1\jpn\Plot Styles\black.ctb
 75
    16
147
1.0
 76
     0
 77
     2
 78
   300
148
423.0
149
2.0
100
AcDbLayout
  1
Model
 70
     1
 71
     0
 10
0.0
 20
0.0
 11
12.0
 21
9.0
 12
0.0
 22
0.0
 32
0.0
 14
0.0
 24
0.0
 34
0.0
 15
0.0
 25
0.0
 35
0.0
146
0.0
 13
0.0
 23
0.0
 33
0.0
 16
1.0
 26
0.0
 36
0.0
 17
0.0
 27
1.0
 37
0.0
 76
     0
330
22
1001
ACAD_PSEXT
1000
PDF reDirect v2
1000
PDF reDirect Pro
1000
PDF_REDIRECT_PORT:
1000
PDF reDirect provided by EXP Systems
1070
     0
  0
LAYOUT
  5
21
102
{ACAD_REACTORS
330
19
102
}
330
19
100
AcDbPlotSettings
  1

  2
PDF reDirect v2
  4

  6

 40
0.0
 41
0.0
 42
0.0
 43
0.0
 44
0.0
 45
0.0
 46
0.0
 47
0.0
 48
0.0
 49
0.0
140
0.0
141
0.0
142
1.0
143
1.0
 70
   688
 72
     0
 73
     0
 74
     5
  7
C:\Users\ck\AppData\Roaming\Autodesk\AutoCAD 2005\R16.1\jpn\Plot Styles\black.ctb
 75
    16
147
1.0
 76
     0
 77
     2
 78
   300
148
0.0
149
0.0
100
AcDbLayout
  1
レイアウト1
 70
     1
 71
     1
 10
-423.0
 20
-2.0
 11
-5.0
 21
293.0
 12
0.0
 22
0.0
 32
0.0
 14
1.000000000000000E+20
 24
1.000000000000000E+20
 34
1.000000000000000E+20
 15
-1.000000000000000E+20
 25
-1.000000000000000E+20
 35
-1.000000000000000E+20
146
0.0
 13
0.0
 23
0.0
 33
0.0
 16
1.0
 26
0.0
 36
0.0
 17
0.0
 27
1.0
 37
0.0
 76
     0
330
1E
  0
MLINESTYLE
  5
17
102
{ACAD_REACTORS
330
16
102
}
330
16
100
AcDbMlineStyle
  2
STANDARD
 70
     0
  3

 62
   256
 51
90.0
 52
90.0
 71
     2
 49
0.5
 62
   256
  6
BYLAYER
 49
-0.5
 62
   256
  6
BYLAYER
  0
ACDBPLACEHOLDER
  5
F
102
{ACAD_REACTORS
330
E
102
}
330
E
  0
TABLESTYLE
  5
1D
102
{ACAD_REACTORS
330
1C
102
}
330
1C
100
AcDbTableStyle
  3
Standard
 70
     0
 71
     0
 40
0.06
 41
0.06
280
     0
281
     0
  7
STANDARD
140
0.18
170
     2
 62
     0
 63
     7
283
     0
274
    -2
284
     1
 64
     0
275
    -2
285
     1
 65
     0
276
    -2
286
     1
 66
     0
277
    -2
287
     1
 67
     0
278
    -2
288
     1
 68
     0
279
    -2
289
     1
 69
     0
  7
STANDARD
140
0.25
170
     5
 62
     0
 63
     7
283
     0
274
    -2
284
     1
 64
     0
275
    -2
285
     1
 65
     0
276
    -2
286
     1
 66
     0
277
    -2
287
     1
 67
     0
278
    -2
288
     1
 68
     0
279
    -2
289
     1
 69
     0
  7
STANDARD
140
0.18
170
     5
 62
     0
 63
     7
283
     0
274
    -2
284
     1
 64
     0
275
    -2
285
     1
 65
     0
276
    -2
286
     1
 66
     0
277
    -2
287
     1
 67
     0
278
    -2
288
     1
 68
     0
279
    -2
289
     1
 69
     0
  0
DICTIONARYVAR
  5
131
102
{ACAD_REACTORS
330
130
102
}
330
130
100
DictionaryVariables
280
     0
  1
STANDARD
  0
ENDSEC
  0
EOF
