  0
SECTION
  2
HEADER
  9
$ACADVER
  1
AC1018
  9
$ACADMAINTVER
 70
    39
  9
$DWGCODEPAGE
  3
ANSI_932
  9
$INSBASE
 10
0.0
 20
0.0
 30
0.0
  9
$EXTMIN
 10
-357.732146167583
 20
53.13244704009548
 30
-0.0015258207003583
  9
$EXTMAX
 10
-57.98986725251871
 20
246.0825049046922
 30
0.0000000349246037
  9
$LIMMIN
 10
-423.0
 20
-2.0
  9
$LIMMAX
 10
-5.0
 20
293.0
  9
$ORTHOMODE
 70
     0
  9
$REGENMODE
 70
     1
  9
$FILLMODE
 70
     1
  9
$QTEXTMODE
 70
     0
  9
$MIRRTEXT
 70
     0
  9
$LTSCALE
 40
1.0
  9
$ATTMODE
 70
     1
  9
$TEXTSIZE
 40
0.2
  9
$TRACEWID
 40
0.05
  9
$TEXTSTYLE
  7
STANDARD
  9
$CLAYER
  8
0
  9
$CELTYPE
  6
CONTINUOUS
  9
$CECOLOR
 62
   256
  9
$CELTSCALE
 40
1.0
  9
$DISPSILH
 70
     0
  9
$DIMSCALE
 40
1.0
  9
$DIMASZ
 40
1.0
  9
$DIMEXO
 40
2.54
  9
$DIMDLI
 40
0.38
  9
$DIMRND
 40
0.0
  9
$DIMDLE
 40
0.0
  9
$DIMEXE
 40
2.54
  9
$DIMTP
 40
0.0
  9
$DIMTM
 40
0.0
  9
$DIMTXT
 40
3.0
  9
$DIMCEN
 40
0.09
  9
$DIMTSZ
 40
0.0
  9
$DIMTOL
 70
     0
  9
$DIMLIM
 70
     0
  9
$DIMTIH
 70
     0
  9
$DIMTOH
 70
     0
  9
$DIMSE1
 70
     0
  9
$DIMSE2
 70
     0
  9
$DIMTAD
 70
     1
  9
$DIMZIN
 70
     0
  9
$DIMBLK
  1

  9
$DIMASO
 70
     1
  9
$DIMSHO
 70
     0
  9
$DIMPOST
  1

  9
$DIMAPOST
  1

  9
$DIMALT
 70
     0
  9
$DIMALTD
 70
     2
  9
$DIMALTF
 40
25.4
  9
$DIMLFAC
 40
1.0
  9
$DIMTOFL
 70
     0
  9
$DIMTVP
 40
1.0
  9
$DIMTIX
 70
     0
  9
$DIMSOXD
 70
     0
  9
$DIMSAH
 70
     1
  9
$DIMBLK1
  1

  9
$DIMBLK2
  1

  9
$DIMSTYLE
  2
DIMSTYLE1
  9
$DIMCLRD
 70
     0
  9
$DIMCLRE
 70
     0
  9
$DIMCLRT
 70
     0
  9
$DIMTFAC
 40
1.0
  9
$DIMGAP
 40
1.5
  9
$DIMJUST
 70
     0
  9
$DIMSD1
 70
     0
  9
$DIMSD2
 70
     0
  9
$DIMTOLJ
 70
     1
  9
$DIMTZIN
 70
     0
  9
$DIMALTZ
 70
     0
  9
$DIMALTTZ
 70
     0
  9
$DIMUPT
 70
     0
  9
$DIMDEC
 70
     4
  9
$DIMTDEC
 70
     4
  9
$DIMALTU
 70
     2
  9
$DIMALTTD
 70
     2
  9
$DIMTXSTY
  7
STANDARD
  9
$DIMAUNIT
 70
     0
  9
$DIMADEC
 70
     0
  9
$DIMALTRND
 40
0.0
  9
$DIMAZIN
 70
     0
  9
$DIMDSEP
 70
    46
  9
$DIMATFIT
 70
     3
  9
$DIMFRAC
 70
     0
  9
$DIMLDRBLK
  1

  9
$DIMLUNIT
 70
     2
  9
$DIMLWD
 70
    -2
  9
$DIMLWE
 70
    -2
  9
$DIMTMOVE
 70
     0
  9
$LUNITS
 70
     2
  9
$LUPREC
 70
     4
  9
$SKETCHINC
 40
0.1
  9
$FILLETRAD
 40
0.0
  9
$AUNITS
 70
     0
  9
$AUPREC
 70
     0
  9
$MENU
  1
.
  9
$ELEVATION
 40
0.0
  9
$PELEVATION
 40
0.0
  9
$THICKNESS
 40
0.0
  9
$LIMCHECK
 70
     0
  9
$CHAMFERA
 40
0.0
  9
$CHAMFERB
 40
0.0
  9
$CHAMFERC
 40
0.0
  9
$CHAMFERD
 40
0.0
  9
$SKPOLY
 70
     0
  9
$TDCREATE
 40
2457842.611080324
  9
$TDUCREATE
 40
2457842.236080324
  9
$TDUPDATE
 40
2457842.612245370
  9
$TDUUPDATE
 40
2457842.237245370
  9
$TDINDWG
 40
0.0011663194
  9
$TDUSRTIMER
 40
0.0011663194
  9
$USRTIMER
 70
     1
  9
$ANGBASE
 50
0.0
  9
$ANGDIR
 70
     0
  9
$PDMODE
 70
     0
  9
$PDSIZE
 40
0.0
  9
$PLINEWID
 40
0.0
  9
$SPLFRAME
 70
     0
  9
$SPLINETYPE
 70
     6
  9
$SPLINESEGS
 70
     8
  9
$HANDSEED
  5
20C
  9
$SURFTAB1
 70
     6
  9
$SURFTAB2
 70
     6
  9
$SURFTYPE
 70
     6
  9
$SURFU
 70
     6
  9
$SURFV
 70
     6
  9
$UCSBASE
  2

  9
$UCSNAME
  2

  9
$UCSORG
 10
0.0
 20
0.0
 30
0.0
  9
$UCSXDIR
 10
1.0
 20
0.0
 30
0.0
  9
$UCSYDIR
 10
0.0
 20
1.0
 30
0.0
  9
$UCSORTHOREF
  2

  9
$UCSORTHOVIEW
 70
     0
  9
$UCSORGTOP
 10
0.0
 20
0.0
 30
0.0
  9
$UCSORGBOTTOM
 10
0.0
 20
0.0
 30
0.0
  9
$UCSORGLEFT
 10
0.0
 20
0.0
 30
0.0
  9
$UCSORGRIGHT
 10
0.0
 20
0.0
 30
0.0
  9
$UCSORGFRONT
 10
0.0
 20
0.0
 30
0.0
  9
$UCSORGBACK
 10
0.0
 20
0.0
 30
0.0
  9
$PUCSBASE
  2

  9
$PUCSNAME
  2

  9
$PUCSORG
 10
0.0
 20
0.0
 30
0.0
  9
$PUCSXDIR
 10
1.0
 20
0.0
 30
0.0
  9
$PUCSYDIR
 10
0.0
 20
1.0
 30
0.0
  9
$PUCSORTHOREF
  2

  9
$PUCSORTHOVIEW
 70
     0
  9
$PUCSORGTOP
 10
0.0
 20
0.0
 30
0.0
  9
$PUCSORGBOTTOM
 10
0.0
 20
0.0
 30
0.0
  9
$PUCSORGLEFT
 10
0.0
 20
0.0
 30
0.0
  9
$PUCSORGRIGHT
 10
0.0
 20
0.0
 30
0.0
  9
$PUCSORGFRONT
 10
0.0
 20
0.0
 30
0.0
  9
$PUCSORGBACK
 10
0.0
 20
0.0
 30
0.0
  9
$USERI1
 70
     0
  9
$USERI2
 70
     0
  9
$USERI3
 70
     0
  9
$USERI4
 70
     0
  9
$USERI5
 70
     0
  9
$USERR1
 40
0.0
  9
$USERR2
 40
0.0
  9
$USERR3
 40
0.0
  9
$USERR4
 40
0.0
  9
$USERR5
 40
0.0
  9
$WORLDVIEW
 70
     1
  9
$SHADEDGE
 70
     3
  9
$SHADEDIF
 70
    70
  9
$TILEMODE
 70
     1
  9
$MAXACTVP
 70
    64
  9
$PINSBASE
 10
0.0
 20
0.0
 30
0.0
  9
$PLIMCHECK
 70
     0
  9
$PEXTMIN
 10
1.000000000000000E+20
 20
1.000000000000000E+20
 30
1.000000000000000E+20
  9
$PEXTMAX
 10
-1.000000000000000E+20
 20
-1.000000000000000E+20
 30
-1.000000000000000E+20
  9
$PLIMMIN
 10
-423.0
 20
-2.0
  9
$PLIMMAX
 10
-5.0
 20
293.0
  9
$UNITMODE
 70
     0
  9
$VISRETAIN
 70
     1
  9
$PLINEGEN
 70
     0
  9
$PSLTSCALE
 70
     1
  9
$TREEDEPTH
 70
  3020
  9
$CMLSTYLE
  2
Standard
  9
$CMLJUST
 70
     0
  9
$CMLSCALE
 40
1.0
  9
$PROXYGRAPHICS
 70
     1
  9
$MEASUREMENT
 70
     0
  9
$CELWEIGHT
370
    -1
  9
$ENDCAPS
280
     0
  9
$JOINSTYLE
280
     0
  9
$LWDISPLAY
290
     0
  9
$INSUNITS
 70
     0
  9
$HYPERLINKBASE
  1

  9
$STYLESHEET
  1

  9
$XEDIT
290
     1
  9
$CEPSNTYPE
380
     0
  9
$PSTYLEMODE
290
     1
  9
$FINGERPRINTGUID
  2
{5579FA71-4F96-418A-BDFB-37880CFC56D0}
  9
$VERSIONGUID
  2
{1E5F39AD-E812-4B2C-B698-7D5AF05A5294}
  9
$EXTNAMES
290
     1
  9
$PSVPSCALE
 40
0.0
  9
$OLESTARTUP
290
     0
  9
$SORTENTS
280
   127
  9
$INDEXCTL
280
     0
  9
$HIDETEXT
280
     0
  9
$XCLIPFRAME
290
     0
  9
$HALOGAP
280
     0
  9
$OBSCOLOR
 70
   257
  9
$OBSLTYPE
280
     0
  9
$INTERSECTIONDISPLAY
280
     0
  9
$INTERSECTIONCOLOR
 70
   257
  9
$DIMASSOC
280
     1
  9
$PROJECTNAME
  1

  0
ENDSEC
  0
SECTION
  2
CLASSES
  0
CLASS
  1
ACDBDICTIONARYWDFLT
  2
AcDbDictionaryWithDefault
  3
ObjectDBX Classes
 90
        0
 91
        1
280
     0
281
     0
  0
CLASS
  1
TABLESTYLE
  2
AcDbTableStyle
  3
ObjectDBX Classes
 90
     2047
 91
        1
280
     0
281
     0
  0
CLASS
  1
DICTIONARYVAR
  2
AcDbDictionaryVar
  3
ObjectDBX Classes
 90
        0
 91
        1
280
     0
281
     0
  0
ENDSEC
  0
SECTION
  2
TABLES
  0
TABLE
  2
VPORT
  5
8
330
0
100
AcDbSymbolTable
 70
     2
  0
VPORT
  5
20B
330
8
100
AcDbSymbolTableRecord
100
AcDbViewportTableRecord
  2
*Active
 70
     0
 10
0.0
 20
0.0
 11
1.0
 21
1.0
 12
-214.0
 22
145.5
 13
0.0
 23
0.0
 14
1.0
 24
1.0
 15
0.0
 25
0.0
 16
0.0
 26
0.0
 36
1.0
 17
0.0
 27
0.0
 37
0.0
 40
297.3320158102766
 41
1.707124010554089
 42
50.0
 43
0.0
 44
0.0
 50
0.0
 51
0.0
 71
     0
 72
   100
 73
     1
 74
     1
 75
     0
 76
     0
 77
     0
 78
     0
281
     0
 65
     1
110
0.0
120
0.0
130
0.0
111
1.0
121
0.0
131
0.0
112
0.0
122
1.0
132
0.0
 79
     0
146
0.0
  0
ENDTAB
  0
TABLE
  2
LTYPE
  5
5
330
0
100
AcDbSymbolTable
 70
     6
  0
LTYPE
  5
13
330
5
100
AcDbSymbolTableRecord
100
AcDbLinetypeTableRecord
  2
ByBlock
 70
     0
  3

 72
    65
 73
     0
 40
0.0
  0
LTYPE
  5
14
330
5
100
AcDbSymbolTableRecord
100
AcDbLinetypeTableRecord
  2
ByLayer
 70
     0
  3

 72
    65
 73
     0
 40
0.0
  0
LTYPE
  5
15
330
5
100
AcDbSymbolTableRecord
100
AcDbLinetypeTableRecord
  2
CONTINUOUS
 70
     0
  3
Solid line
 72
    65
 73
     0
 40
0.0
  0
LTYPE
  5
26
330
5
100
AcDbSymbolTableRecord
100
AcDbLinetypeTableRecord
  2
DASHED
 70
     0
  3
__ __ __ __ __ __ __ __ __ __ __ __ __ __ __
 72
    65
 73
     2
 40
3.5
 49
2.0
 74
     0
 49
-1.5
 74
     0
  0
LTYPE
  5
27
330
5
100
AcDbSymbolTableRecord
100
AcDbLinetypeTableRecord
  2
CENTER
 70
     0
  3
____ _ ____ _ ____ _ ____ _ ____ _ ____ _ ____
 72
    65
 73
     4
 40
17.5
 49
13.0
 74
     0
 49
-1.5
 74
     0
 49
1.5
 74
     0
 49
-1.5
 74
     0
  0
LTYPE
  5
28
330
5
100
AcDbSymbolTableRecord
100
AcDbLinetypeTableRecord
  2
PHANTOM
 70
     0
  3
_____ _ _ _____ _ _ _____ _ _ _____ _ _ ____  
 72
    65
 73
     6
 40
15.5
 49
8.0
 74
     0
 49
-1.5
 74
     0
 49
1.5
 74
     0
 49
-1.5
 74
     0
 49
1.5
 74
     0
 49
-1.5
 74
     0
  0
LTYPE
  5
29
330
5
100
AcDbSymbolTableRecord
100
AcDbLinetypeTableRecord
  2
DOT
 70
     0
  3
. . . . . . . . . . . . . . . . . . . . . . . .
 72
    65
 73
     2
 40
0.25
 49
0.0
 74
     0
 49
-0.25
 74
     0
  0
LTYPE
  5
2A
330
5
100
AcDbSymbolTableRecord
100
AcDbLinetypeTableRecord
  2
HIDDEN
 70
     0
  3
__ __ __ __ __ __ __ __ __ __ __ __ __ __ __
 72
    65
 73
     2
 40
3.5
 49
2.0
 74
     0
 49
-1.5
 74
     0
  0
ENDTAB
  0
TABLE
  2
LAYER
  5
2
330
0
100
AcDbSymbolTable
 70
     3
  0
LAYER
  5
10
330
2
100
AcDbSymbolTableRecord
100
AcDbLayerTableRecord
  2
0
 70
     0
 62
     7
  6
CONTINUOUS
370
    -3
390
F
  0
LAYER
  5
2B
330
2
100
AcDbSymbolTableRecord
100
AcDbLayerTableRecord
  2
1
 70
     0
 62
     7
  6
CONTINUOUS
370
    -3
390
F
  0
LAYER
  5
2C
330
2
100
AcDbSymbolTableRecord
100
AcDbLayerTableRecord
  2
DEFPOINTS
 70
     0
 62
     7
  6
CONTINUOUS
290
     0
370
    -3
390
F
  0
ENDTAB
  0
TABLE
  2
STYLE
  5
3
330
0
100
AcDbSymbolTable
 70
     2
  0
STYLE
  5
11
330
3
100
AcDbSymbolTableRecord
100
AcDbTextStyleTableRecord
  2
STANDARD
 70
     0
 40
0.0
 41
1.0
 50
0.0
 71
     0
 42
0.2
  3

  4

1001
ACAD
1000
MS Gothic
1071
    32817
  0
ENDTAB
  0
TABLE
  2
VIEW
  5
6
330
0
100
AcDbSymbolTable
 70
     0
  0
ENDTAB
  0
TABLE
  2
UCS
  5
7
330
0
100
AcDbSymbolTable
 70
     0
  0
ENDTAB
  0
TABLE
  2
APPID
  5
9
330
0
100
AcDbSymbolTable
 70
     3
  0
APPID
  5
12
330
9
100
AcDbSymbolTableRecord
100
AcDbRegAppTableRecord
  2
ACAD
 70
     0
  0
APPID
  5
1C7
330
9
100
AcDbSymbolTableRecord
100
AcDbRegAppTableRecord
  2
ACAD_DSTYLE_DIMTEXT_FILL
 70
     0
  0
APPID
  5
200
330
9
100
AcDbSymbolTableRecord
100
AcDbRegAppTableRecord
  2
ACAD_PSEXT
 70
     0
  0
ENDTAB
  0
TABLE
  2
DIMSTYLE
  5
A
330
0
100
AcDbSymbolTable
 70
     4
100
AcDbDimStyleTable
 71
     1
340
2D
  0
DIMSTYLE
105
2D
102
{ACAD_REACTORS
330
1C3
102
}
330
A
100
AcDbSymbolTableRecord
100
AcDbDimStyleTableRecord
  2
DIMSTYLE1
 70
     0
 41
1.0
 42
2.54
 44
2.54
 73
     0
 74
     0
 77
     1
140
3.0
145
1.0
147
1.5
172
     1
173
     1
279
     2
340
11
  0
DIMSTYLE
105
2E
102
{ACAD_REACTORS
330
1C4
102
}
330
A
100
AcDbSymbolTableRecord
100
AcDbDimStyleTableRecord
  2
DIMSTYLE2
 70
     0
 41
1.0
 42
2.54
 44
2.54
 73
     0
 74
     0
 75
     1
 76
     1
 77
     1
140
3.0
145
1.0
147
1.5
172
     1
173
     1
279
     2
340
11
  0
DIMSTYLE
105
2F
102
{ACAD_REACTORS
330
1C5
102
}
330
A
100
AcDbSymbolTableRecord
100
AcDbDimStyleTableRecord
  2
DIMSTYLE3
 70
     0
 41
1.0
 42
2.54
 44
2.54
 73
     0
 74
     0
 75
     1
 76
     1
 77
     1
140
3.0
145
1.0
147
1.5
172
     1
173
     1
279
     2
340
11
  0
ENDTAB
  0
TABLE
  2
BLOCK_RECORD
  5
1
330
0
100
AcDbSymbolTable
 70
     6
  0
BLOCK_RECORD
  5
22
330
1
100
AcDbSymbolTableRecord
100
AcDbBlockTableRecord
  2
*Model_Space
340
25
  0
BLOCK_RECORD
  5
1E
330
1
100
AcDbSymbolTableRecord
100
AcDbBlockTableRecord
  2
*Paper_Space
340
21
  0
BLOCK_RECORD
  5
33
330
1
100
AcDbSymbolTableRecord
100
AcDbBlockTableRecord
  2
_OPEN30
340
0
102
{BLKREFS
331
3C
331
3D
331
49
331
4A
331
53
331
54
102
}
  0
BLOCK_RECORD
  5
39
330
1
100
AcDbSymbolTableRecord
100
AcDbBlockTableRecord
  2
*D1
340
0
  0
BLOCK_RECORD
  5
45
330
1
100
AcDbSymbolTableRecord
100
AcDbBlockTableRecord
  2
*D2
340
0
  0
BLOCK_RECORD
  5
4F
330
1
100
AcDbSymbolTableRecord
100
AcDbBlockTableRecord
  2
*D3
340
0
  0
BLOCK_RECORD
  5
59
330
1
100
AcDbSymbolTableRecord
100
AcDbBlockTableRecord
  2
KOZU0001
340
0
102
{BLKREFS
331
1C2
102
}
  0
ENDTAB
  0
ENDSEC
  0
SECTION
  2
BLOCKS
  0
BLOCK
  5
23
330
22
100
AcDbEntity
  8
0
100
AcDbBlockBegin
  2
*Model_Space
 70
     0
 10
0.0
 20
0.0
 30
0.0
  3
*Model_Space
  1

  0
ENDBLK
  5
24
330
22
100
AcDbEntity
  8
0
100
AcDbBlockEnd
  0
BLOCK
  5
1F
330
1E
100
AcDbEntity
 67
     1
  8
0
100
AcDbBlockBegin
  2
*Paper_Space
 70
     0
 10
0.0
 20
0.0
 30
0.0
  3
*Paper_Space
  1

  0
ENDBLK
  5
20
330
1E
100
AcDbEntity
 67
     1
  8
0
100
AcDbBlockEnd
  0
BLOCK
  5
34
330
33
100
AcDbEntity
  8
0
100
AcDbBlockBegin
  2
_OPEN30
 70
     0
 10
0.0
 20
0.0
 30
0.0
  3
_OPEN30
  1

  0
LINE
  5
35
330
33
100
AcDbEntity
  8
0
  6
ByBlock
 62
     0
100
AcDbLine
 10
0.0
 20
0.0
 30
0.0
 11
-2.999999999999993
 21
-1.000000000000017
 31
0.0
  0
LINE
  5
36
330
33
100
AcDbEntity
  8
0
  6
ByBlock
 62
     0
100
AcDbLine
 10
0.0
 20
0.0
 30
0.0
 11
-3.000000000000006
 21
0.9999999999999815
 31
0.0
  0
LINE
  5
37
330
33
100
AcDbEntity
  8
0
  6
ByBlock
 62
     0
100
AcDbLine
 10
0.0
 20
0.0
 30
0.0
 11
-3.0
 21
0.0
 31
0.0
  0
ENDBLK
  5
38
330
33
100
AcDbEntity
  8
0
100
AcDbBlockEnd
  0
BLOCK
  5
3A
330
39
100
AcDbEntity
  8
0
100
AcDbBlockBegin
  2
*D1
 70
     1
 10
0.0
 20
0.0
 30
0.0
  3
*D1
  1

  0
LINE
  5
3B
330
39
100
AcDbEntity
  8
0
  6
Continuous
 62
     7
100
AcDbLine
 10
-140.1461944580078
 20
241.9598083496094
 30
0.0
 11
-96.14618682861328
 21
241.9598083496094
 31
0.0
  0
INSERT
  5
3C
330
39
100
AcDbEntity
  8
0
  6
Continuous
 62
     7
100
AcDbBlockReference
  2
_OPEN30
 10
-143.1461944580078
 20
241.9598083496094
 30
0.0
 50
180.0000000000004
  0
INSERT
  5
3D
330
39
100
AcDbEntity
  8
0
  6
Continuous
 62
     7
100
AcDbBlockReference
  2
_OPEN30
 10
-93.14618682861327
 20
241.9598083496094
 30
0.0
  0
LINE
  5
3E
330
39
100
AcDbEntity
  8
0
  6
Continuous
 62
     7
100
AcDbLine
 10
-143.1461944580078
 20
227.6710577392578
 30
0.0
 11
-143.1461944580078
 21
244.2458038330078
 31
0.0
  0
LINE
  5
3F
330
39
100
AcDbEntity
  8
0
  6
Continuous
 62
     7
100
AcDbLine
 10
-93.14618682861329
 20
196.1710577392578
 30
0.0
 11
-93.14618682861327
 21
244.2458038330078
 31
0.0
  0
TEXT
  5
40
330
39
100
AcDbEntity
  8
0
  6
Continuous
 62
     7
100
AcDbText
 10
-120.71618694067
 20
242.7098083496094
 30
0.0
 40
3.0
  1
50
 41
1.101428593908038
100
AcDbText
  0
POINT
  5
41
330
39
100
AcDbEntity
  8
DEFPOINTS
  6
Continuous
 62
     7
100
AcDbPoint
 10
-143.1461944580078
 20
225.1310577392578
 30
0.0
  0
POINT
  5
42
330
39
100
AcDbEntity
  8
DEFPOINTS
  6
Continuous
 62
     7
100
AcDbPoint
 10
-93.14618682861327
 20
193.6310577392578
 30
0.0
  0
POINT
  5
43
330
39
100
AcDbEntity
  8
DEFPOINTS
  6
Continuous
 62
     7
100
AcDbPoint
 10
-93.14618682861327
 20
241.9598083496094
 30
0.0
  0
ENDBLK
  5
44
330
39
100
AcDbEntity
  8
0
100
AcDbBlockEnd
  0
BLOCK
  5
46
330
45
100
AcDbEntity
  8
0
100
AcDbBlockBegin
  2
*D2
 70
     1
 10
0.0
 20
0.0
 30
0.0
  3
*D2
  1

  0
LINE
  5
47
330
45
100
AcDbEntity
  8
0
  6
Continuous
 62
     7
100
AcDbLine
 10
-226.3207855224609
 20
193.1727752685547
 30
0.0
 11
-178.4349822998047
 21
221.1494903564453
 31
0.0
  0
LINE
  5
48
330
45
100
AcDbEntity
  8
0
  6
Continuous
 62
     7
100
AcDbLine
 10
-336.840958107497
 20
128.6027011820825
 30
0.0
 11
-228.9111018290265
 21
191.6594142964331
 31
0.0
  0
INSERT
  5
49
330
45
100
AcDbEntity
  8
0
  6
Continuous
 62
     7
100
AcDbBlockReference
  2
_OPEN30
 10
-339.4312744140625
 20
127.0893402099609
 30
0.0
 50
210.2950916369296
  0
INSERT
  5
4A
330
45
100
AcDbEntity
  8
0
  6
Continuous
 62
     7
100
AcDbBlockReference
  2
_OPEN30
 10
-226.3207855224609
 20
193.1727752685547
 30
0.0
 50
30.29509163692893
  0
TEXT
  5
4B
330
45
100
AcDbEntity
  8
0
  6
Continuous
 62
     7
100
AcDbText
 10
-206.5636028631126
 20
205.5827104398096
 30
0.0
 40
3.0
  1
%%C１３１（目皿受外径）
 50
30.29999981864594
 41
0.8440126077968535
100
AcDbText
  0
POINT
  5
4C
330
45
100
AcDbEntity
  8
DEFPOINTS
  6
Continuous
 62
     7
100
AcDbPoint
 10
-339.4312744140625
 20
127.0893402099609
 30
0.0
  0
POINT
  5
4D
330
45
100
AcDbEntity
  8
DEFPOINTS
  6
Continuous
 62
     7
100
AcDbPoint
 10
-226.3207855224609
 20
193.1727752685547
 30
0.0
  0
ENDBLK
  5
4E
330
45
100
AcDbEntity
  8
0
100
AcDbBlockEnd
  0
BLOCK
  5
50
330
4F
100
AcDbEntity
  8
0
100
AcDbBlockBegin
  2
*D3
 70
     1
 10
0.0
 20
0.0
 30
0.0
  3
*D3
  1

  0
LINE
  5
51
330
4F
100
AcDbEntity
  8
0
  6
Continuous
 62
     7
100
AcDbLine
 10
-230.1904296875
 20
175.9180145263672
 30
0.0
 11
-172.5098266601563
 21
193.2016906738281
 31
0.0
  0
LINE
  5
52
330
4F
100
AcDbEntity
  8
0
  6
Continuous
 62
     7
100
AcDbLine
 10
-332.6878552379397
 20
145.2052077318751
 30
0.0
 11
-233.0641894397947
 21
175.0569077466405
 31
0.0
  0
INSERT
  5
53
330
4F
100
AcDbEntity
  8
0
  6
Continuous
 62
     7
100
AcDbBlockReference
  2
_OPEN30
 10
-335.5616149902344
 20
144.3441009521484
 30
0.0
 50
196.6805642731904
  0
INSERT
  5
54
330
4F
100
AcDbEntity
  8
0
  6
Continuous
 62
     7
100
AcDbBlockReference
  2
_OPEN30
 10
-230.1904296875
 20
175.9180145263672
 30
0.0
 50
16.68056427318967
  0
TEXT
  5
55
330
4F
100
AcDbEntity
  8
0
  6
Continuous
 62
     7
100
AcDbText
 10
-200.6377152636528
 20
185.5511008672819
 30
0.0
 40
3.0
  1
%%C１１０（目皿外径）
 50
16.70000035088335
 41
0.8443929326254473
100
AcDbText
  0
POINT
  5
56
330
4F
100
AcDbEntity
  8
DEFPOINTS
  6
Continuous
 62
     7
100
AcDbPoint
 10
-335.5616149902344
 20
144.3441009521484
 30
0.0
  0
POINT
  5
57
330
4F
100
AcDbEntity
  8
DEFPOINTS
  6
Continuous
 62
     7
100
AcDbPoint
 10
-230.1904296875
 20
175.9180145263672
 30
0.0
  0
ENDBLK
  5
58
330
4F
100
AcDbEntity
  8
0
100
AcDbBlockEnd
  0
BLOCK
  5
5A
330
59
100
AcDbEntity
  8
0
100
AcDbBlockBegin
  2
KOZU0001
 70
     0
 10
0.0
 20
0.0
 30
0.0
  3
KOZU0001
  1

  0
LINE
  5
5B
330
59
100
AcDbEntity
  8
0
  6
Continuous
 62
     7
100
AcDbLine
 10
0.0
 20
0.0
 30
0.0
 11
13.89918518066406
 21
-10.21037292480469
 31
0.0
  0
LINE
  5
5C
330
59
100
AcDbEntity
  8
0
  6
Continuous
 62
     7
100
AcDbLine
 10
13.89918518066406
 20
-10.21037292480469
 30
0.0
 11
42.69699478149414
 21
-10.21037292480469
 31
0.0
  0
LINE
  5
5D
330
59
100
AcDbEntity
  8
0
  6
Continuous
 62
     7
100
AcDbLine
 10
0.0
 20
0.0
 30
0.0
 11
3.009779602514481
 21
-0.9701684102710078
 31
0.0
  0
LINE
  5
5E
330
59
100
AcDbEntity
  8
0
  6
Continuous
 62
     7
100
AcDbLine
 10
0.0
 20
0.0
 30
0.0
 11
1.825722635848979
 21
-2.582002489725494
 31
0.0
  0
TEXT
  5
5F
330
59
100
AcDbEntity
  8
0
  6
Continuous
 62
     7
100
AcDbText
 10
17.83699727058411
 20
-9.460372924804687
 30
0.0
 40
3.0
  1
配管接続口
 41
0.8487395020950888
100
AcDbText
  0
TEXT
  5
60
330
59
100
AcDbEntity
  8
0
  6
Continuous
 62
     7
100
AcDbText
 10
17.83699727058411
 20
-14.72537292480469
 30
0.0
 40
3.0
  1
Ｒｃ２（５０Ａ）
 41
0.8454512278006642
100
AcDbText
  0
ENDBLK
  5
61
330
59
100
AcDbEntity
  8
0
100
AcDbBlockEnd
  0
ENDSEC
  0
SECTION
  2
ENTITIES
  0
POINT
  5
62
330
22
100
AcDbEntity
  8
0
  6
Continuous
 62
     7
100
AcDbPoint
 10
-282.8760375976563
 20
160.1310577392578
 30
0.0
  0
POINT
  5
63
330
22
100
AcDbEntity
  8
0
  6
Continuous
 62
     7
100
AcDbPoint
 10
-94.69533538818359
 20
188.3819122314453
 30
0.0
  0
POINT
  5
64
330
22
100
AcDbEntity
  8
0
  6
Continuous
 62
     7
100
AcDbPoint
 10
-106.6909332275391
 20
188.0070343017578
 30
0.0
  0
POINT
  5
65
330
22
100
AcDbEntity
  8
0
  6
Continuous
 62
     7
100
AcDbPoint
 10
-94.69533538818359
 20
188.3819122314453
 30
0.0
  0
POINT
  5
66
330
22
100
AcDbEntity
  8
0
  6
Continuous
 62
     7
100
AcDbPoint
 10
-106.6909332275391
 20
188.0070343017578
 30
0.0
  0
POINT
  5
67
330
22
100
AcDbEntity
  8
0
  6
Continuous
 62
     7
100
AcDbPoint
 10
-282.8760375976563
 20
160.1310577392578
 30
0.0
  0
POINT
  5
68
330
22
100
AcDbEntity
  8
0
  6
Continuous
 62
     7
100
AcDbPoint
 10
-100.6931304931641
 20
188.1944732666016
 30
0.0
  0
LINE
  5
69
330
22
100
AcDbEntity
  8
0
  6
Continuous
 62
     7
100
AcDbLine
 10
-140.1461944580078
 20
195.3063354492188
 30
0.0
 11
-137.1461944580078
 21
198.3063354492188
 31
0.0
  0
LINE
  5
6A
330
22
100
AcDbEntity
  8
0
  6
Continuous
 62
     7
100
AcDbLine
 10
-137.1461944580078
 20
163.3522796630859
 30
0.0
 11
-137.1461944580078
 21
199.4653167724609
 31
0.0
  0
LINE
  5
6B
330
22
100
AcDbEntity
  8
0
  6
Continuous
 62
     7
100
AcDbLine
 10
-143.1461944580078
 20
160.1310577392578
 30
0.0
 11
-143.1461944580078
 21
196.9653167724609
 31
0.0
  0
LINE
  5
6C
330
22
100
AcDbEntity
  8
0
  6
Continuous
 62
     7
100
AcDbLine
 10
-143.1461944580078
 20
160.1310577392578
 30
0.0
 11
-143.1461944580078
 21
196.9653167724609
 31
0.0
  0
LINE
  5
6D
330
22
100
AcDbEntity
  8
0
  6
Continuous
 62
     7
100
AcDbLine
 10
-140.7212219238281
 20
163.3522796630859
 30
0.0
 11
-143.1461944580078
 21
165.7393646240234
 31
0.0
  0
LINE
  5
6E
330
22
100
AcDbEntity
  8
0
  6
Continuous
 62
     7
100
AcDbLine
 10
-140.1461944580078
 20
163.3522796630859
 30
0.0
 11
-140.1461944580078
 21
199.4653167724609
 31
0.0
  0
LINE
  5
6F
330
22
100
AcDbEntity
  8
0
  6
Continuous
 62
     7
100
AcDbLine
 10
-114.1461868286133
 20
160.1310577392578
 30
0.0
 11
-114.1461868286133
 21
187.3810577392578
 31
0.0
  0
LINE
  5
70
330
22
100
AcDbEntity
  8
0
  6
Continuous
 62
     7
100
AcDbLine
 10
-116.4341201782227
 20
186.8810577392578
 30
0.0
 11
-116.4341201782227
 21
160.1310577392578
 31
0.0
  0
LINE
  5
71
330
22
100
AcDbEntity
  8
0
  6
Continuous
 62
     7
100
AcDbLine
 10
-138.9724884033203
 20
204.9653167724609
 30
0.0
 11
-137.1461944580078
 21
206.7916107177734
 31
0.0
  0
LINE
  5
72
330
22
100
AcDbEntity
  8
0
  6
Continuous
 62
     7
100
AcDbLine
 10
-140.1461944580078
 20
198.134765625
 30
0.0
 11
-138.8156433105469
 21
199.4653167724609
 31
0.0
  0
LINE
  5
73
330
22
100
AcDbEntity
  8
0
  6
Continuous
 62
     7
100
AcDbLine
 10
-271.257080078125
 20
159.1310577392578
 30
0.0
 11
-240.1700592041016
 21
159.1310577392578
 31
0.0
  0
LINE
  5
74
330
22
100
AcDbEntity
  8
0
  6
CENTER
 62
     7
100
AcDbLine
 10
-150.0614166259766
 20
160.1310577392578
 30
0.0
 11
-84.39863586425781
 21
160.1310577392578
 31
0.0
  0
LINE
  5
75
330
22
100
AcDbEntity
  8
0
  6
Continuous
 62
     7
100
AcDbLine
 10
-93.64618682861328
 20
126.1310577392578
 30
0.0
 11
-115.4237518310547
 21
126.1310577392578
 31
0.0
  0
LINE
  5
76
330
22
100
AcDbEntity
  8
0
  6
Continuous
 62
     7
100
AcDbLine
 10
-115.4237518310547
 20
127.9786758422852
 30
0.0
 11
-115.4237518310547
 21
134.2965393066406
 31
0.0
  0
LINE
  5
77
330
22
100
AcDbEntity
  8
0
  6
Continuous
 62
     7
100
AcDbLine
 10
-139.6304473876953
 20
162.2785491943359
 30
0.0
 11
-133.1453704833984
 21
162.2785491943359
 31
0.0
  0
LINE
  5
78
330
22
100
AcDbEntity
  8
0
  6
Continuous
 62
     7
100
AcDbLine
 10
-133.1453704833984
 20
162.2785491943359
 30
0.0
 11
-133.1453704833984
 21
160.1310577392578
 31
0.0
  0
LINE
  5
79
330
22
100
AcDbEntity
  8
0
  6
Continuous
 62
     7
100
AcDbLine
 10
-139.1461944580077
 20
101.6310577392578
 30
0.0
 11
-139.1461944580077
 21
95.13105773925779
 31
0.0
  0
LINE
  5
7A
330
22
100
AcDbEntity
  8
0
  6
Continuous
 62
     7
100
AcDbLine
 10
-139.1461944580077
 20
95.13105773925779
 30
0.0
 11
-139.6461944580078
 21
94.6310577392578
 31
0.0
  0
LINE
  5
7B
330
22
100
AcDbEntity
  8
0
  6
Continuous
 62
     7
100
AcDbLine
 10
-137.1461944580078
 20
103.6310577392578
 30
0.0
 11
-131.8782348632812
 21
103.6310577392578
 31
0.0
  0
LINE
  5
7C
330
22
100
AcDbEntity
  8
0
  6
Continuous
 62
     7
100
AcDbLine
 10
-143.1461944580078
 20
95.13105773925779
 30
0.0
 11
-142.6461944580078
 21
94.6310577392578
 31
0.0
  0
LINE
  5
7D
330
22
100
AcDbEntity
  8
0
  6
Continuous
 62
     7
100
AcDbLine
 10
-142.6461944580078
 20
94.6310577392578
 30
0.0
 11
-143.1461944580078
 21
95.13105773925779
 31
0.0
  0
LINE
  5
7E
330
22
100
AcDbEntity
  8
0
  6
Continuous
 62
     7
100
AcDbLine
 10
-142.6461944580078
 20
94.6310577392578
 30
0.0
 11
-139.6461944580078
 21
94.6310577392578
 31
0.0
  0
LINE
  5
7F
330
22
100
AcDbEntity
  8
0
  6
Continuous
 62
     7
100
AcDbLine
 10
-129.2801666259766
 20
105.1310577392578
 30
0.0
 11
-118.0218353271484
 21
124.6310577392578
 31
0.0
  0
LINE
  5
80
330
22
100
AcDbEntity
  8
0
  6
Continuous
 62
     7
100
AcDbLine
 10
-93.14618682861327
 20
127.6310577392578
 30
0.0
 11
-93.14618682861327
 21
160.1310577392578
 31
0.0
  0
LINE
  5
81
330
22
100
AcDbEntity
  8
0
  6
CENTER
 62
     7
100
AcDbLine
 10
-357.7237854003906
 20
160.1310577392578
 30
0.0
 11
-212.8655090332031
 21
160.1310577392578
 31
0.0
  0
LINE
  5
82
330
22
100
AcDbEntity
  8
0
  6
Continuous
 62
     7
100
AcDbLine
 10
-93.14618682861327
 20
137.7892608642578
 30
0.0
 11
-115.5780487060547
 21
137.7892608642578
 31
0.0
  0
LINE
  5
83
330
22
100
AcDbEntity
  8
0
  6
Continuous
 62
     7
100
AcDbLine
 10
-118.0218353271484
 20
126.2047119140625
 30
0.0
 11
-118.0218353271484
 21
160.1310577392578
 31
0.0
  0
LINE
  5
84
330
22
100
AcDbEntity
  8
0
  6
Continuous
 62
     7
100
AcDbLine
 10
-115.4237518310547
 20
137.7892608642578
 30
0.0
 11
-115.4237518310547
 21
160.1310577392578
 31
0.0
  0
LINE
  5
85
330
22
100
AcDbEntity
  8
0
  6
Continuous
 62
     7
100
AcDbLine
 10
-93.14618682861327
 20
126.6310577392578
 30
0.0
 11
-93.14618682861327
 21
160.1310577392578
 31
0.0
  0
LINE
  5
86
330
22
100
AcDbEntity
  8
0
  6
Continuous
 62
     7
100
AcDbLine
 10
-93.14618682861327
 20
134.2965393066406
 30
0.0
 11
-117.0471496582031
 21
134.2965393066406
 31
0.0
  0
LINE
  5
87
330
22
100
AcDbEntity
  8
0
  6
Continuous
 62
     7
100
AcDbLine
 10
-143.1461944580078
 20
95.13105773925779
 30
0.0
 11
-143.1461944580078
 21
160.1310577392578
 31
0.0
  0
LINE
  5
88
330
22
100
AcDbEntity
  8
0
  6
Continuous
 62
     7
100
AcDbLine
 10
-130.3782348632813
 20
106.6310577392578
 30
0.0
 11
-130.3782348632813
 21
160.1310577392578
 31
0.0
  0
LINE
  5
89
330
22
100
AcDbEntity
  8
0
  6
Continuous
 62
     7
100
AcDbLine
 10
-139.1461944580077
 20
101.6310577392578
 30
0.0
 11
-139.1461944580077
 21
160.1310577392578
 31
0.0
  0
LINE
  5
8A
330
22
100
AcDbEntity
  8
0
  6
Continuous
 62
     7
100
AcDbLine
 10
-93.14618682861327
 20
126.6310577392578
 30
0.0
 11
-93.64618682861328
 21
126.1310577392578
 31
0.0
  0
LINE
  5
8B
330
22
100
AcDbEntity
  8
0
  6
Continuous
 62
     7
100
AcDbLine
 10
-93.14618682861327
 20
160.1310577392578
 30
0.0
 11
-93.14618682861327
 21
193.6310577392578
 31
0.0
  0
LINE
  5
8C
330
22
100
AcDbEntity
  8
0
  6
Continuous
 62
     7
100
AcDbLine
 10
-140.7212219238281
 20
163.3522796630859
 30
0.0
 11
-134.2361602783203
 21
163.3522796630859
 31
0.0
  0
LINE
  5
8D
330
22
100
AcDbEntity
  8
0
  6
Continuous
 62
     7
100
AcDbLine
 10
-140.7212219238281
 20
163.3522796630859
 30
0.0
 11
-139.6304473876953
 21
162.2785491943359
 31
0.0
  0
LINE
  5
8E
330
22
100
AcDbEntity
  8
0
  6
Continuous
 62
     7
100
AcDbLine
 10
-134.2361602783203
 20
163.3522796630859
 30
0.0
 11
-133.1453704833984
 21
162.2785491943359
 31
0.0
  0
LINE
  5
8F
330
22
100
AcDbEntity
  8
0
  6
Continuous
 62
     7
100
AcDbLine
 10
-143.1461944580078
 20
207.4653167724609
 30
0.0
 11
-142.7520904541016
 21
207.4653167724609
 31
0.0
  0
LINE
  5
90
330
22
100
AcDbEntity
  8
0
  6
Continuous
 62
     7
100
AcDbLine
 10
-143.1461944580078
 20
196.9653167724609
 30
0.0
 11
-142.7520904541016
 21
196.9653167724609
 31
0.0
  0
LINE
  5
91
330
22
100
AcDbEntity
  8
0
  6
Continuous
 62
     7
100
AcDbLine
 10
-143.1461944580078
 20
207.4653167724609
 30
0.0
 11
-143.1461944580078
 21
212.1810607910156
 31
0.0
  0
LINE
  5
92
330
22
100
AcDbEntity
  8
0
  6
Continuous
 62
     7
100
AcDbLine
 10
-143.1461944580078
 20
212.1810607910156
 30
0.0
 11
-142.5461883544922
 21
212.7810668945314
 31
0.0
  0
LINE
  5
93
330
22
100
AcDbEntity
  8
0
  6
Continuous
 62
     7
100
AcDbLine
 10
-140.2520904541016
 20
199.4653167724609
 30
0.0
 11
-139.1613159179688
 21
200.5390472412109
 31
0.0
  0
LINE
  5
94
330
22
100
AcDbEntity
  8
0
  6
Continuous
 62
     7
100
AcDbLine
 10
-140.1461944580078
 20
209.6310577392578
 30
0.0
 11
-137.2461853027344
 21
209.6310577392578
 31
0.0
  0
LINE
  5
95
330
22
100
AcDbEntity
  8
0
  6
Continuous
 62
     7
100
AcDbLine
 10
-139.2961883544922
 20
213.1310577392578
 30
0.0
 11
-136.6461944580078
 21
213.1310577392578
 31
0.0
  0
LINE
  5
96
330
22
100
AcDbEntity
  8
0
  6
Continuous
 62
     7
100
AcDbLine
 10
-106.6909332275391
 20
188.0070343017578
 30
0.0
 11
-94.69533538818359
 21
188.3819122314453
 31
0.0
  0
LINE
  5
97
330
22
100
AcDbEntity
  8
0
  6
CENTER
 62
     7
100
AcDbLine
 10
-282.8760375976563
 20
231.4583435058594
 30
0.0
 11
-282.8760375976563
 21
86.29119110107422
 31
0.0
  0
LINE
  5
98
330
22
100
AcDbEntity
  8
0
  6
Continuous
 62
     7
100
AcDbLine
 10
-94.69533538818359
 20
160.1310577392578
 30
0.0
 11
-94.69533538818359
 21
188.3819122314453
 31
0.0
  0
LINE
  5
99
330
22
100
AcDbEntity
  8
0
  6
Continuous
 62
     7
100
AcDbLine
 10
-93.14618682861327
 20
189.9310607910156
 30
0.0
 11
-94.69533538818359
 21
188.3819122314453
 31
0.0
  0
LINE
  5
9A
330
22
100
AcDbEntity
  8
0
  6
Continuous
 62
     7
100
AcDbLine
 10
-108.1461868286133
 20
189.4622802734375
 30
0.0
 11
-93.14618682861327
 21
189.9310607910156
 31
0.0
  0
LINE
  5
9B
330
22
100
AcDbEntity
  8
0
  6
Continuous
 62
     7
100
AcDbLine
 10
-93.14618682861327
 20
193.6310577392578
 30
0.0
 11
-95.14618682861328
 21
195.6310577392578
 31
0.0
  0
LINE
  5
9C
330
22
100
AcDbEntity
  8
0
  6
Continuous
 62
     7
100
AcDbLine
 10
-106.6909332275391
 20
188.0070343017578
 30
0.0
 11
-106.6909332275391
 21
160.1310577392578
 31
0.0
  0
LINE
  5
9D
330
22
100
AcDbEntity
  8
0
  6
Continuous
 62
     7
100
AcDbLine
 10
-95.14618682861328
 20
195.6310577392578
 30
0.0
 11
-118.0218353271484
 21
195.6310577392578
 31
0.0
  0
LINE
  5
9E
330
22
100
AcDbEntity
  8
0
  6
Continuous
 62
     7
100
AcDbLine
 10
-109.1461868286133
 20
190.1310577392578
 30
0.0
 11
-113.1461868286133
 21
190.1310577392578
 31
0.0
  0
LINE
  5
9F
330
22
100
AcDbEntity
  8
0
  6
Continuous
 62
     7
100
AcDbLine
 10
-115.1461868286133
 20
186.3810577392578
 30
0.0
 11
-115.5680923461914
 21
186.3810577392578
 31
0.0
  0
LINE
  5
A0
330
22
100
AcDbEntity
  8
0
  6
Continuous
 62
     7
100
AcDbLine
 10
-114.1461868286133
 20
187.3810577392578
 30
0.0
 11
-114.1461868286133
 21
189.1310577392578
 31
0.0
  0
LINE
  5
A1
330
22
100
AcDbEntity
  8
0
  6
Continuous
 62
     7
100
AcDbLine
 10
-108.1461868286133
 20
189.4622802734375
 30
0.0
 11
-108.1461868286133
 21
160.1310577392578
 31
0.0
  0
LINE
  5
A2
330
22
100
AcDbEntity
  8
0
  6
Continuous
 62
     7
100
AcDbLine
 10
-108.1461868286133
 20
189.4622802734375
 30
0.0
 11
-106.6909332275391
 21
188.0070343017578
 31
0.0
  0
LINE
  5
A3
330
22
100
AcDbEntity
  8
0
  6
Continuous
 62
     7
100
AcDbLine
 10
-133.7670288085938
 20
204.9653167724609
 30
0.0
 11
-132.6762390136719
 21
203.8915710449219
 31
0.0
  0
LINE
  5
A4
330
22
100
AcDbEntity
  8
0
  6
Continuous
 62
     7
100
AcDbLine
 10
-133.7670288085938
 20
199.4653167724609
 30
0.0
 11
-132.6762390136719
 21
200.5390472412109
 31
0.0
  0
LINE
  5
A5
330
22
100
AcDbEntity
  8
0
  6
Continuous
 62
     7
100
AcDbLine
 10
-140.1461944580078
 20
204.9653167724609
 30
0.0
 11
-140.1461944580078
 21
209.6310577392578
 31
0.0
  0
LINE
  5
A6
330
22
100
AcDbEntity
  8
0
  6
Continuous
 62
     7
100
AcDbLine
 10
-142.5461883544922
 20
212.7810668945314
 30
0.0
 11
-137.34619140625
 21
212.7810668945314
 31
0.0
  0
LINE
  5
A7
330
22
100
AcDbEntity
  8
0
  6
Continuous
 62
     7
100
AcDbLine
 10
-143.1461944580078
 20
212.1810607910156
 30
0.0
 11
-136.7461853027344
 21
212.1810607910156
 31
0.0
  0
LINE
  5
A8
330
22
100
AcDbEntity
  8
0
  6
Continuous
 62
     7
100
AcDbLine
 10
-139.1613159179688
 20
203.8915710449219
 30
0.0
 11
-132.6762390136719
 21
203.8915710449219
 31
0.0
  0
LINE
  5
A9
330
22
100
AcDbEntity
  8
0
  6
Continuous
 62
     7
100
AcDbLine
 10
-137.1461944580078
 20
216.6310577392578
 30
0.0
 11
-131.8782348632812
 21
216.6310577392578
 31
0.0
  0
LINE
  5
AA
330
22
100
AcDbEntity
  8
0
  6
Continuous
 62
     7
100
AcDbLine
 10
-139.1461944580077
 20
218.6310577392578
 30
0.0
 11
-139.1461944580077
 21
225.1310577392578
 31
0.0
  0
LINE
  5
AB
330
22
100
AcDbEntity
  8
0
  6
Continuous
 62
     7
100
AcDbLine
 10
-140.2520904541016
 20
204.9653167724609
 30
0.0
 11
-139.1613159179688
 21
203.8915710449219
 31
0.0
  0
LINE
  5
AC
330
22
100
AcDbEntity
  8
0
  6
Continuous
 62
     7
100
AcDbLine
 10
-137.1461944580078
 20
204.9653167724609
 30
0.0
 11
-137.1461944580078
 21
208.6310577392578
 31
0.0
  0
LINE
  5
AD
330
22
100
AcDbEntity
  8
0
  6
Continuous
 62
     7
100
AcDbLine
 10
-137.1461944580078
 20
208.6310577392578
 30
0.0
 11
-140.1461944580078
 21
208.6310577392578
 31
0.0
  0
LINE
  5
AE
330
22
100
AcDbEntity
  8
0
  6
Continuous
 62
     7
100
AcDbLine
 10
-136.6461944580078
 20
210.6310577392578
 30
0.0
 11
-136.1461944580078
 21
210.1310577392578
 31
0.0
  0
LINE
  5
AF
330
22
100
AcDbEntity
  8
0
  6
Continuous
 62
     7
100
AcDbLine
 10
-140.2520904541016
 20
199.4653167724609
 30
0.0
 11
-133.7670288085938
 21
199.4653167724609
 31
0.0
  0
LINE
  5
B0
330
22
100
AcDbEntity
  8
0
  6
Continuous
 62
     7
100
AcDbLine
 10
-140.2520904541016
 20
204.9653167724609
 30
0.0
 11
-133.7670288085938
 21
204.9653167724609
 31
0.0
  0
LINE
  5
B1
330
22
100
AcDbEntity
  8
0
  6
Continuous
 62
     7
100
AcDbLine
 10
-139.1613159179688
 20
200.5390472412109
 30
0.0
 11
-132.6762390136719
 21
200.5390472412109
 31
0.0
  0
LINE
  5
B2
330
22
100
AcDbEntity
  8
0
  6
Continuous
 62
     7
100
AcDbLine
 10
-136.7461853027344
 20
210.1310577392578
 30
0.0
 11
-136.7461853027344
 21
212.1810607910156
 31
0.0
  0
LINE
  5
B3
330
22
100
AcDbEntity
  8
0
  6
Continuous
 62
     7
100
AcDbLine
 10
-143.1461944580078
 20
225.1310577392578
 30
0.0
 11
-142.6461944580078
 21
225.6310577392578
 31
0.0
  0
LINE
  5
B4
330
22
100
AcDbEntity
  8
0
  6
Continuous
 62
     7
100
AcDbLine
 10
-142.5461883544922
 20
212.1810607910156
 30
0.0
 11
-140.2461853027344
 21
212.1810607910156
 31
0.0
  0
LINE
  5
B5
330
22
100
AcDbEntity
  8
0
  6
Continuous
 62
     7
100
AcDbLine
 10
-143.1461944580078
 20
212.7810668945314
 30
0.0
 11
-139.6461944580078
 21
212.7810668945314
 31
0.0
  0
LINE
  5
B6
330
22
100
AcDbEntity
  8
0
  6
Continuous
 62
     7
100
AcDbLine
 10
-143.1461944580078
 20
212.7810668945314
 30
0.0
 11
-142.5461883544922
 21
212.1810607910156
 31
0.0
  0
LINE
  5
B7
330
22
100
AcDbEntity
  8
0
  6
Continuous
 62
     7
100
AcDbLine
 10
-142.7520904541016
 20
196.9653167724609
 30
0.0
 11
-140.2520904541016
 21
199.4653167724609
 31
0.0
  0
LINE
  5
B8
330
22
100
AcDbEntity
  8
0
  6
Continuous
 62
     7
100
AcDbLine
 10
-142.7520904541016
 20
207.4653167724609
 30
0.0
 11
-140.2520904541016
 21
204.9653167724609
 31
0.0
  0
LINE
  5
B9
330
22
100
AcDbEntity
  8
0
  6
Continuous
 62
     7
100
AcDbLine
 10
-143.1461944580078
 20
207.4653167724609
 30
0.0
 11
-143.1461944580078
 21
225.1310577392578
 31
0.0
  0
LINE
  5
BA
330
22
100
AcDbEntity
  8
0
  6
Continuous
 62
     7
100
AcDbLine
 10
-128.9914855957031
 20
208.6310577392578
 30
0.0
 11
-116.4341201782227
 21
186.8810577392578
 31
0.0
  0
LINE
  5
BB
330
22
100
AcDbEntity
  8
0
  6
Continuous
 62
     7
100
AcDbLine
 10
-129.2801666259766
 20
215.1310577392578
 30
0.0
 11
-118.0218353271484
 21
195.6310577392578
 31
0.0
  0
LINE
  5
BC
330
22
100
AcDbEntity
  8
0
  6
Continuous
 62
     7
100
AcDbLine
 10
-143.1461944580078
 20
213.4858703613281
 30
0.0
 11
-142.4413757324219
 21
212.7810668945314
 31
0.0
  0
LINE
  5
BD
330
22
100
AcDbEntity
  8
0
  6
Continuous
 62
     7
100
AcDbLine
 10
-143.1461944580078
 20
215.607177734375
 30
0.0
 11
-140.320068359375
 21
212.7810668945314
 31
0.0
  0
LINE
  5
BE
330
22
100
AcDbEntity
  8
0
  6
Continuous
 62
     7
100
AcDbLine
 10
-119.1853713989258
 20
191.6463623046875
 30
0.0
 11
-114.3485107421875
 21
186.8095092773438
 31
0.0
  0
LINE
  5
BF
330
22
100
AcDbEntity
  8
0
  6
Continuous
 62
     7
100
AcDbLine
 10
-143.1461944580078
 20
216.3142852783203
 30
0.0
 11
-139.6295776367187
 21
212.7976684570313
 31
0.0
  0
LINE
  5
C0
330
22
100
AcDbEntity
  8
0
  6
Continuous
 62
     7
100
AcDbLine
 10
-120.1512985229492
 20
193.3193969726563
 30
0.0
 11
-114.1572647094727
 21
187.3253631591797
 31
0.0
  0
LINE
  5
C1
330
22
100
AcDbEntity
  8
0
  6
Continuous
 62
     7
100
AcDbLine
 10
-143.1461944580078
 20
218.4356079101563
 30
0.0
 11
-137.8416290283203
 21
213.1310577392578
 31
0.0
  0
LINE
  5
C2
330
22
100
AcDbEntity
  8
0
  6
Continuous
 62
     7
100
AcDbLine
 10
-136.6461944580078
 20
211.9356079101563
 30
0.0
 11
-134.8416290283203
 21
210.1310577392578
 31
0.0
  0
LINE
  5
C3
330
22
100
AcDbEntity
  8
0
  6
Continuous
 62
     7
100
AcDbLine
 10
-123.049072265625
 20
198.3385009765625
 30
0.0
 11
-114.0956573486328
 21
189.3850860595703
 31
0.0
  0
LINE
  5
C4
330
22
100
AcDbEntity
  8
0
  6
Continuous
 62
     7
100
AcDbLine
 10
-143.1461944580078
 20
219.1427154541016
 30
0.0
 11
-137.134521484375
 21
213.1310577392578
 31
0.0
  0
LINE
  5
C5
330
22
100
AcDbEntity
  8
0
  6
Continuous
 62
     7
100
AcDbLine
 10
-136.6461944580078
 20
212.6427154541016
 30
0.0
 11
-134.134521484375
 21
210.1310577392578
 31
0.0
  0
LINE
  5
C6
330
22
100
AcDbEntity
  8
0
  6
Continuous
 62
     7
100
AcDbLine
 10
-124.0149993896484
 20
200.0115356445313
 30
0.0
 11
-113.846305847168
 21
189.8428344726563
 31
0.0
  0
LINE
  5
C7
330
22
100
AcDbEntity
  8
0
  6
Continuous
 62
     7
100
AcDbLine
 10
-143.1461944580078
 20
221.2640380859375
 30
0.0
 11
-132.0132141113281
 21
210.1310577392578
 31
0.0
  0
LINE
  5
C8
330
22
100
AcDbEntity
  8
0
  6
Continuous
 62
     7
100
AcDbLine
 10
-126.9127731323242
 20
205.0306243896484
 30
0.0
 11
-118.7166213989258
 21
196.83447265625
 31
0.0
  0
LINE
  5
C9
330
22
100
AcDbEntity
  8
0
  6
Continuous
 62
     7
100
AcDbLine
 10
-117.5132064819336
 20
195.6310577392578
 30
0.0
 11
-112.0132064819336
 21
190.1310577392578
 31
0.0
  0
LINE
  5
CA
330
22
100
AcDbEntity
  8
0
  6
Continuous
 62
     7
100
AcDbLine
 10
-143.1461944580078
 20
221.9711456298828
 30
0.0
 11
-138.9402160644531
 21
217.7651824951172
 31
0.0
  0
LINE
  5
CB
330
22
100
AcDbEntity
  8
0
  6
Continuous
 62
     7
100
AcDbLine
 10
-138.0120697021484
 20
216.8370208740234
 30
0.0
 11
-131.2751312255859
 21
210.10009765625
 31
0.0
  0
LINE
  5
CC
330
22
100
AcDbEntity
  8
0
  6
Continuous
 62
     7
100
AcDbLine
 10
-127.8787002563477
 20
206.7036590576172
 30
0.0
 11
-119.6825485229492
 21
198.5075073242188
 31
0.0
  0
LINE
  5
CD
330
22
100
AcDbEntity
  8
0
  6
Continuous
 62
     7
100
AcDbLine
 10
-116.8060989379883
 20
195.6310577392578
 30
0.0
 11
-111.3060989379883
 21
190.1310577392578
 31
0.0
  0
LINE
  5
CE
330
22
100
AcDbEntity
  8
0
  6
Continuous
 62
     7
100
AcDbLine
 10
-143.1461944580078
 20
224.0924682617188
 30
0.0
 11
-139.1461944580077
 21
220.0924682617188
 31
0.0
  0
LINE
  5
CF
330
22
100
AcDbEntity
  8
0
  6
Continuous
 62
     7
100
AcDbLine
 10
-135.6847839355469
 20
216.6310577392578
 30
0.0
 11
-122.5803298950195
 21
203.526611328125
 31
0.0
  0
LINE
  5
D0
330
22
100
AcDbEntity
  8
0
  6
Continuous
 62
     7
100
AcDbLine
 10
-114.6847839355469
 20
195.6310577392578
 30
0.0
 11
-109.1847839355469
 21
190.1310577392578
 31
0.0
  0
LINE
  5
D1
330
22
100
AcDbEntity
  8
0
  6
Continuous
 62
     7
100
AcDbLine
 10
-143.1461944580078
 20
224.7995758056641
 30
0.0
 11
-139.1461944580077
 21
220.7995758056641
 31
0.0
  0
LINE
  5
D2
330
22
100
AcDbEntity
  8
0
  6
Continuous
 62
     7
100
AcDbLine
 10
-134.9776763916016
 20
216.6310577392578
 30
0.0
 11
-123.546257019043
 21
205.1996459960939
 31
0.0
  0
LINE
  5
D3
330
22
100
AcDbEntity
  8
0
  6
Continuous
 62
     7
100
AcDbLine
 10
-113.9776763916016
 20
195.6310577392578
 30
0.0
 11
-107.819122314453
 21
189.4725036621094
 31
0.0
  0
LINE
  5
D4
330
22
100
AcDbEntity
  8
0
  6
Continuous
 62
     7
100
AcDbLine
 10
-141.8563537597656
 20
225.6310577392578
 30
0.0
 11
-139.1461944580077
 21
222.9208984375
 31
0.0
  0
LINE
  5
D5
330
22
100
AcDbEntity
  8
0
  6
Continuous
 62
     7
100
AcDbLine
 10
-132.8563537597656
 20
216.6310577392578
 30
0.0
 11
-126.4440307617188
 21
210.2187347412109
 31
0.0
  0
LINE
  5
D6
330
22
100
AcDbEntity
  8
0
  6
Continuous
 62
     7
100
AcDbLine
 10
-111.8563537597656
 20
195.6310577392578
 30
0.0
 11
-105.7620849609375
 21
189.5367889404297
 31
0.0
  0
LINE
  5
D7
330
22
100
AcDbEntity
  8
0
  6
Continuous
 62
     7
100
AcDbLine
 10
-141.1492462158203
 20
225.6310577392578
 30
0.0
 11
-139.1461944580077
 21
223.6280059814453
 31
0.0
  0
LINE
  5
D8
330
22
100
AcDbEntity
  8
0
  6
Continuous
 62
     7
100
AcDbLine
 10
-132.1492462158203
 20
216.6310577392578
 30
0.0
 11
-127.4099578857422
 21
211.8917694091797
 31
0.0
  0
LINE
  5
D9
330
22
100
AcDbEntity
  8
0
  6
Continuous
 62
     7
100
AcDbLine
 10
-111.1492462158203
 20
195.6310577392578
 30
0.0
 11
-105.0764083862305
 21
189.5582275390625
 31
0.0
  0
LINE
  5
DA
330
22
100
AcDbEntity
  8
0
  6
Continuous
 62
     7
100
AcDbLine
 10
-109.0279235839844
 20
195.6310577392578
 30
0.0
 11
-103.0193710327148
 21
189.6225128173828
 31
0.0
  0
LINE
  5
DB
330
22
100
AcDbEntity
  8
0
  6
Continuous
 62
     7
100
AcDbLine
 10
-108.3208236694336
 20
195.6310577392578
 30
0.0
 11
-102.3336944580078
 21
189.6439361572266
 31
0.0
  0
LINE
  5
DC
330
22
100
AcDbEntity
  8
0
  6
Continuous
 62
     7
100
AcDbLine
 10
-106.1995010375977
 20
195.6310577392578
 30
0.0
 11
-100.2766647338867
 21
189.7082214355469
 31
0.0
  0
LINE
  5
DD
330
22
100
AcDbEntity
  8
0
  6
Continuous
 62
     7
100
AcDbLine
 10
-105.4923934936523
 20
195.6310577392578
 30
0.0
 11
-99.59098052978516
 21
189.7296447753906
 31
0.0
  0
LINE
  5
DE
330
22
100
AcDbEntity
  8
0
  6
Continuous
 62
     7
100
AcDbLine
 10
-103.3710708618164
 20
195.6310577392578
 30
0.0
 11
-97.53395080566406
 21
189.7939300537109
 31
0.0
  0
LINE
  5
DF
330
22
100
AcDbEntity
  8
0
  6
Continuous
 62
     7
100
AcDbLine
 10
-102.6639633178711
 20
195.6310577392578
 30
0.0
 11
-96.8482666015625
 21
189.8153686523438
 31
0.0
  0
LINE
  5
E0
330
22
100
AcDbEntity
  8
0
  6
Continuous
 62
     7
100
AcDbLine
 10
-100.5426483154297
 20
195.6310577392578
 30
0.0
 11
-94.7912368774414
 21
189.8796539306641
 31
0.0
  0
LINE
  5
E1
330
22
100
AcDbEntity
  8
0
  6
Continuous
 62
     7
100
AcDbLine
 10
-99.83554077148438
 20
195.6310577392578
 30
0.0
 11
-94.10556030273438
 21
189.9010772705078
 31
0.0
  0
LINE
  5
E2
330
22
100
AcDbEntity
  8
0
  6
Continuous
 62
     7
100
AcDbLine
 10
-97.71421813964844
 20
195.6310577392578
 30
0.0
 11
-93.14618682861327
 21
191.0630340576172
 31
0.0
  0
LINE
  5
E3
330
22
100
AcDbEntity
  8
0
  6
Continuous
 62
     7
100
AcDbLine
 10
-97.00711059570313
 20
195.6310577392578
 30
0.0
 11
-93.14618682861327
 21
191.7701416015625
 31
0.0
  0
LINE
  5
E4
330
22
100
AcDbEntity
  8
0
  6
Continuous
 62
     7
100
AcDbLine
 10
-139.6461944580078
 20
212.7810668945314
 30
0.0
 11
-139.2961883544922
 21
213.1310577392578
 31
0.0
  0
LINE
  5
E5
330
22
100
AcDbEntity
  8
0
  6
Continuous
 62
     7
100
AcDbLine
 10
-136.7461853027344
 20
212.1810607910156
 30
0.0
 11
-137.34619140625
 21
212.7810668945314
 31
0.0
  0
LINE
  5
E6
330
22
100
AcDbEntity
  8
0
  6
Continuous
 62
     7
100
AcDbLine
 10
-137.2461853027344
 20
209.6310577392578
 30
0.0
 11
-136.7461853027344
 21
210.1310577392578
 31
0.0
  0
LINE
  5
E7
330
22
100
AcDbEntity
  8
0
  6
Continuous
 62
     7
100
AcDbLine
 10
-139.1461944580077
 20
225.1310577392578
 30
0.0
 11
-139.6461944580078
 21
225.6310577392578
 31
0.0
  0
LINE
  5
E8
330
22
100
AcDbEntity
  8
0
  6
Continuous
 62
     7
100
AcDbLine
 10
-136.1461944580078
 20
210.1310577392578
 30
0.0
 11
-131.5895690917969
 21
210.1310577392578
 31
0.0
  0
LINE
  5
E9
330
22
100
AcDbEntity
  8
0
  6
Continuous
 62
     7
100
AcDbLine
 10
-136.6461944580078
 20
210.6310577392578
 30
0.0
 11
-136.6461944580078
 21
213.1310577392578
 31
0.0
  0
LINE
  5
EA
330
22
100
AcDbEntity
  8
0
  6
Continuous
 62
     7
100
AcDbLine
 10
-142.6461944580078
 20
225.6310577392578
 30
0.0
 11
-139.6461944580078
 21
225.6310577392578
 31
0.0
  0
LINE
  5
EB
330
22
100
AcDbEntity
  8
0
  6
Continuous
 62
     7
100
AcDbLine
 10
-139.6461944580078
 20
212.7810668945314
 30
0.0
 11
-140.2461853027344
 21
212.1810607910156
 31
0.0
  0
LINE
  5
EC
330
22
100
AcDbEntity
  8
0
  6
Continuous
 62
     7
100
AcDbLine
 10
-132.6762390136719
 20
203.8915710449219
 30
0.0
 11
-132.6762390136719
 21
200.5390472412109
 31
0.0
  0
LINE
  5
ED
330
22
100
AcDbEntity
  8
0
  6
Continuous
 62
     7
100
AcDbLine
 10
-287.0867919921875
 20
160.7979736328125
 30
0.0
 11
-287.0143737792968
 21
161.2552795410156
 31
0.0
  0
LINE
  5
EE
330
22
100
AcDbEntity
  8
0
  6
Continuous
 62
     7
100
AcDbLine
 10
-140.1461944580078
 20
206.6200408935547
 30
0.0
 11
-138.1351776123047
 21
208.6310577392578
 31
0.0
  0
LINE
  5
EF
330
22
100
AcDbEntity
  8
0
  6
Continuous
 62
     7
100
AcDbLine
 10
-287.0867919921875
 20
160.7979736328125
 30
0.0
 11
-287.1592102050781
 21
160.3406829833984
 31
0.0
  0
LINE
  5
F0
330
22
100
AcDbEntity
  8
0
  6
Continuous
 62
     7
100
AcDbLine
 10
-283.0820617675781
 20
155.8727874755859
 30
0.0
 11
-283.5390014648438
 21
155.9451599121094
 31
0.0
  0
LINE
  5
F1
330
22
100
AcDbEntity
  8
0
  6
Continuous
 62
     7
100
AcDbLine
 10
-283.9959716796875
 20
156.0175323486328
 30
0.0
 11
-283.9290466308593
 21
159.3659973144531
 31
0.0
  0
LINE
  5
F2
330
22
100
AcDbEntity
  8
0
  6
Continuous
 62
     7
100
AcDbLine
 10
-272.8883056640625
 20
154.1106262207031
 30
0.0
 11
-247.7383880615234
 21
135.8381500244141
 31
0.0
  0
LINE
  5
F3
330
22
100
AcDbEntity
  8
0
  6
Continuous
 62
     7
100
AcDbLine
 10
-292.8637390136719
 20
154.1106262207031
 30
0.0
 11
-318.0136413574219
 21
135.8381500244141
 31
0.0
  0
LINE
  5
F4
330
22
100
AcDbEntity
  8
0
  6
Continuous
 62
     7
100
AcDbLine
 10
-285.5154113769531
 20
148.7717590332031
 30
0.0
 11
-295.121826171875
 21
119.2062606811523
 31
0.0
  0
LINE
  5
F5
330
22
100
AcDbEntity
  8
0
  6
Continuous
 62
     7
100
AcDbLine
 10
-278.5928344726563
 20
159.9214324951172
 30
0.0
 11
-281.822998046875
 21
160.8961181640625
 31
0.0
  0
LINE
  5
F6
330
22
100
AcDbEntity
  8
0
  6
Continuous
 62
     7
100
AcDbLine
 10
-278.7377014160156
 20
159.0068359375
 30
0.0
 11
-282.1109619140625
 21
159.0780487060547
 31
0.0
  0
LINE
  5
F7
330
22
100
AcDbEntity
  8
0
  6
Continuous
 62
     7
100
AcDbLine
 10
-278.6652526855469
 20
159.4641418457031
 30
0.0
 11
-278.5928344726563
 21
159.9214324951172
 31
0.0
  0
LINE
  5
F8
330
22
100
AcDbEntity
  8
0
  6
Continuous
 62
     7
100
AcDbLine
 10
-278.6652526855469
 20
159.4641418457031
 30
0.0
 11
-278.7377014160156
 21
159.0068359375
 31
0.0
  0
LINE
  5
F9
330
22
100
AcDbEntity
  8
0
  6
Continuous
 62
     7
100
AcDbLine
 10
-282.6699829101563
 20
164.3893280029297
 30
0.0
 11
-283.6410827636719
 21
161.18408203125
 31
0.0
  0
LINE
  5
FA
330
22
100
AcDbEntity
  8
0
  6
Continuous
 62
     7
100
AcDbLine
 10
-281.7560729980469
 20
164.2445831298828
 30
0.0
 11
-281.822998046875
 21
160.8961181640625
 31
0.0
  0
LINE
  5
FB
330
22
100
AcDbEntity
  8
0
  6
Continuous
 62
     7
100
AcDbLine
 10
-282.6699829101563
 20
164.3893280029297
 30
0.0
 11
-282.2130432128906
 21
164.3169555664063
 31
0.0
  0
LINE
  5
FC
330
22
100
AcDbEntity
  8
0
  6
Continuous
 62
     7
100
AcDbLine
 10
-281.7560729980469
 20
164.2445831298828
 30
0.0
 11
-282.2130432128906
 21
164.3169555664063
 31
0.0
  0
LINE
  5
FD
330
22
100
AcDbEntity
  8
0
  6
Continuous
 62
     7
100
AcDbLine
 10
-280.2366333007813
 20
148.7717590332031
 30
0.0
 11
-270.6302185058594
 21
119.2062606811523
 31
0.0
  0
LINE
  5
FE
330
22
100
AcDbEntity
  8
0
  6
Continuous
 62
     7
100
AcDbLine
 10
-299.2196655273438
 20
198.8913879394531
 30
0.0
 11
-296.5500183105469
 21
200.9137115478516
 31
0.0
  0
LINE
  5
FF
330
22
100
AcDbEntity
  8
0
  6
Continuous
 62
     7
100
AcDbLine
 10
-299.8739318847656
 20
199.5456848144531
 30
0.0
 11
-299.5467834472656
 21
199.2185363769531
 31
0.0
  0
LINE
  5
100
330
22
100
AcDbEntity
  8
0
  6
Continuous
 62
     7
100
AcDbLine
 10
-299.8739318847656
 20
199.5456848144531
 30
0.0
 11
-297.8516235351563
 21
202.2153167724609
 31
0.0
  0
LINE
  5
101
330
22
100
AcDbEntity
  8
0
  6
Continuous
 62
     7
100
AcDbLine
 10
-299.5646057128906
 20
205.2298889160156
 30
0.0
 11
-299.2372131347656
 21
205.5572814941406
 31
0.0
  0
LINE
  5
102
330
22
100
AcDbEntity
  8
0
  6
Continuous
 62
     7
100
AcDbLine
 10
-299.8919982910156
 20
204.9024963378906
 30
0.0
 11
-297.8516235351563
 21
202.2153167724609
 31
0.0
  0
LINE
  5
103
330
22
100
AcDbEntity
  8
0
  6
Continuous
 62
     7
100
AcDbLine
 10
-299.2196655273438
 20
198.8913879394531
 30
0.0
 11
-299.5467834472656
 21
199.2185363769531
 31
0.0
  0
LINE
  5
104
330
22
100
AcDbEntity
  8
0
  6
Continuous
 62
     7
100
AcDbLine
 10
-299.2372131347656
 20
205.5572814941406
 30
0.0
 11
-296.5500183105469
 21
203.5169067382813
 31
0.0
  0
LINE
  5
105
330
22
100
AcDbEntity
  8
0
  6
Continuous
 62
     7
100
AcDbLine
 10
-299.5646057128906
 20
205.2298889160156
 30
0.0
 11
-299.8919982910156
 21
204.9024963378906
 31
0.0
  0
LINE
  5
106
330
22
100
AcDbEntity
  8
0
  6
Continuous
 62
     7
100
AcDbLine
 10
-278.3345031738281
 20
170.872314453125
 30
0.0
 11
-270.4846801757813
 21
195.0316619873047
 31
0.0
  0
LINE
  5
107
330
22
100
AcDbEntity
  8
0
  6
Continuous
 62
     7
100
AcDbLine
 10
-293.8804016113281
 20
205.5392303466797
 30
0.0
 11
-296.5500183105469
 21
203.5169067382813
 31
0.0
  0
LINE
  5
108
330
22
100
AcDbEntity
  8
0
  6
Continuous
 62
     7
100
AcDbLine
 10
-293.8628540039063
 20
198.8733520507813
 30
0.0
 11
-296.5500183105469
 21
200.9137115478516
 31
0.0
  0
LINE
  5
109
330
22
100
AcDbEntity
  8
0
  6
Continuous
 62
     7
100
AcDbLine
 10
-287.4175415039063
 20
170.872314453125
 30
0.0
 11
-295.2673645019531
 21
195.0316619873047
 31
0.0
  0
LINE
  5
10A
330
22
100
AcDbEntity
  8
0
  6
Continuous
 62
     7
100
AcDbLine
 10
-293.2261047363281
 20
204.8849334716797
 30
0.0
 11
-295.2484130859375
 21
202.2153167724609
 31
0.0
  0
LINE
  5
10B
330
22
100
AcDbEntity
  8
0
  6
Continuous
 62
     7
100
AcDbLine
 10
-293.5354614257813
 20
199.2007293701172
 30
0.0
 11
-293.8628540039063
 21
198.8733520507813
 31
0.0
  0
LINE
  5
10C
330
22
100
AcDbEntity
  8
0
  6
Continuous
 62
     7
100
AcDbLine
 10
-293.2080688476563
 20
199.5281219482422
 30
0.0
 11
-295.2484130859375
 21
202.2153167724609
 31
0.0
  0
LINE
  5
10D
330
22
100
AcDbEntity
  8
0
  6
Continuous
 62
     7
100
AcDbLine
 10
-293.5354614257813
 20
199.2007293701172
 30
0.0
 11
-293.2080688476563
 21
199.5281219482422
 31
0.0
  0
LINE
  5
10E
330
22
100
AcDbEntity
  8
0
  6
Continuous
 62
     7
100
AcDbLine
 10
-293.2261047363281
 20
204.8849334716797
 30
0.0
 11
-293.8804016113281
 21
205.5392303466797
 31
0.0
  0
LINE
  5
10F
330
22
100
AcDbEntity
  8
0
  6
Continuous
 62
     7
100
AcDbLine
 10
-283.0820617675781
 20
155.8727874755859
 30
0.0
 11
-282.1109619140625
 21
159.0780487060547
 31
0.0
  0
LINE
  5
110
330
22
100
AcDbEntity
  8
0
  6
Continuous
 62
     7
100
AcDbLine
 10
-283.9959716796875
 20
156.0175323486328
 30
0.0
 11
-283.5390014648438
 21
155.9451599121094
 31
0.0
  0
LINE
  5
111
330
22
100
AcDbEntity
  8
0
  6
Continuous
 62
     7
100
AcDbLine
 10
-294.4949645996094
 20
159.1310577392578
 30
0.0
 11
-325.5819702148438
 21
159.1310577392578
 31
0.0
  0
LINE
  5
112
330
22
100
AcDbEntity
  8
0
  6
Continuous
 62
     7
100
AcDbLine
 10
-287.0143737792968
 20
161.2552795410156
 30
0.0
 11
-283.6410827636719
 21
161.18408203125
 31
0.0
  0
LINE
  5
113
330
22
100
AcDbEntity
  8
0
  6
Continuous
 62
     7
100
AcDbLine
 10
-287.1592102050781
 20
160.3406829833984
 30
0.0
 11
-283.9290466308593
 21
159.3659973144531
 31
0.0
  0
LINE
  5
114
330
22
100
AcDbEntity
  8
0
  6
Continuous
 62
     7
100
AcDbLine
 10
-291.6881713867188
 20
167.76953125
 30
0.0
 11
-316.8380737304688
 21
186.0420074462891
 31
0.0
  0
LINE
  5
115
330
22
100
AcDbEntity
  8
0
  6
Continuous
 62
     7
100
AcDbLine
 10
-140.1461944580078
 20
192.4779052734375
 30
0.0
 11
-137.1461944580078
 21
195.4779052734375
 31
0.0
  0
LINE
  5
116
330
22
100
AcDbEntity
  8
0
  6
Continuous
 62
     7
100
AcDbLine
 10
-274.0638732910156
 20
167.76953125
 30
0.0
 11
-248.9139556884766
 21
186.0420074462891
 31
0.0
  0
LINE
  5
117
330
22
100
AcDbEntity
  8
0
  6
Continuous
 62
     7
100
AcDbLine
 10
-140.1461944580078
 20
183.9926300048828
 30
0.0
 11
-137.1461944580078
 21
186.9926300048828
 31
0.0
  0
LINE
  5
118
330
22
100
AcDbEntity
  8
0
  6
Continuous
 62
     7
100
AcDbLine
 10
-140.1461944580078
 20
189.6494750976563
 30
0.0
 11
-137.1461944580078
 21
192.6494750976563
 31
0.0
  0
LINE
  5
119
330
22
100
AcDbEntity
  8
0
  6
Continuous
 62
     7
100
AcDbLine
 10
-140.1461944580078
 20
181.1641998291016
 30
0.0
 11
-137.1461944580078
 21
184.1641998291016
 31
0.0
  0
LINE
  5
11A
330
22
100
AcDbEntity
  8
0
  6
Continuous
 62
     7
100
AcDbLine
 10
-140.1461944580078
 20
186.8210601806641
 30
0.0
 11
-137.1461944580078
 21
189.8210601806641
 31
0.0
  0
LINE
  5
11B
330
22
100
AcDbEntity
  8
0
  6
Continuous
 62
     7
100
AcDbLine
 10
-140.1461944580078
 20
178.3357696533203
 30
0.0
 11
-137.1461944580078
 21
181.3357696533203
 31
0.0
  0
LINE
  5
11C
330
22
100
AcDbEntity
  8
0
  6
Continuous
 62
     7
100
AcDbLine
 10
-140.1461944580078
 20
175.5073394775391
 30
0.0
 11
-137.1461944580078
 21
178.5073394775391
 31
0.0
  0
LINE
  5
11D
330
22
100
AcDbEntity
  8
0
  6
Continuous
 62
     7
100
AcDbLine
 10
-140.1461944580078
 20
172.6789245605469
 30
0.0
 11
-137.1461944580078
 21
175.6789245605469
 31
0.0
  0
LINE
  5
11E
330
22
100
AcDbEntity
  8
0
  6
Continuous
 62
     7
100
AcDbLine
 10
-140.1461944580078
 20
169.8504943847656
 30
0.0
 11
-137.1461944580078
 21
172.8504943847656
 31
0.0
  0
LINE
  5
11F
330
22
100
AcDbEntity
  8
0
  6
Continuous
 62
     7
100
AcDbLine
 10
-140.1461944580078
 20
167.0220642089844
 30
0.0
 11
-137.1461944580078
 21
170.0220642089844
 31
0.0
  0
LINE
  5
120
330
22
100
AcDbEntity
  8
0
  6
Continuous
 62
     7
100
AcDbLine
 10
-140.1461944580078
 20
164.1936340332031
 30
0.0
 11
-137.1461944580078
 21
167.1936340332031
 31
0.0
  0
LINE
  5
121
330
22
100
AcDbEntity
  8
0
  6
Continuous
 62
     7
100
AcDbLine
 10
-138.1591033935547
 20
163.3522796630859
 30
0.0
 11
-137.1461944580078
 21
164.3652038574219
 31
0.0
  0
LINE
  5
122
330
22
100
AcDbEntity
  8
0
  6
Continuous
 62
     7
100
AcDbLine
 10
-139.1962127685547
 20
163.3522796630859
 30
0.0
 11
-140.1461944580078
 21
164.30224609375
 31
0.0
  0
LINE
  5
123
330
22
100
AcDbEntity
  8
0
  6
Continuous
 62
     7
100
AcDbLine
 10
-137.1461944580078
 20
164.1306762695313
 30
0.0
 11
-140.1461944580078
 21
167.1306762695313
 31
0.0
  0
LINE
  5
124
330
22
100
AcDbEntity
  8
0
  6
Continuous
 62
     7
100
AcDbLine
 10
-137.1461944580078
 20
166.9591064453125
 30
0.0
 11
-140.1461944580078
 21
169.9591064453125
 31
0.0
  0
LINE
  5
125
330
22
100
AcDbEntity
  8
0
  6
Continuous
 62
     7
100
AcDbLine
 10
-137.1461944580078
 20
169.7875366210938
 30
0.0
 11
-140.1461944580078
 21
172.7875366210938
 31
0.0
  0
LINE
  5
126
330
22
100
AcDbEntity
  8
0
  6
Continuous
 62
     7
100
AcDbLine
 10
-137.1461944580078
 20
172.615966796875
 30
0.0
 11
-140.1461944580078
 21
175.615966796875
 31
0.0
  0
LINE
  5
127
330
22
100
AcDbEntity
  8
0
  6
Continuous
 62
     7
100
AcDbLine
 10
-137.1461944580078
 20
175.4443817138672
 30
0.0
 11
-140.1461944580078
 21
178.4443817138672
 31
0.0
  0
LINE
  5
128
330
22
100
AcDbEntity
  8
0
  6
Continuous
 62
     7
100
AcDbLine
 10
-137.1461944580078
 20
178.2728118896484
 30
0.0
 11
-140.1461944580078
 21
181.2728118896484
 31
0.0
  0
LINE
  5
129
330
22
100
AcDbEntity
  8
0
  6
Continuous
 62
     7
100
AcDbLine
 10
-137.1461944580078
 20
181.1012420654297
 30
0.0
 11
-140.1461944580078
 21
184.1012420654297
 31
0.0
  0
LINE
  5
12A
330
22
100
AcDbEntity
  8
0
  6
Continuous
 62
     7
100
AcDbLine
 10
-137.1461944580078
 20
183.9296722412109
 30
0.0
 11
-140.1461944580078
 21
186.9296722412109
 31
0.0
  0
LINE
  5
12B
330
22
100
AcDbEntity
  8
0
  6
Continuous
 62
     7
100
AcDbLine
 10
-137.1461944580078
 20
186.7581024169922
 30
0.0
 11
-140.1461944580078
 21
189.7581024169921
 31
0.0
  0
LINE
  5
12C
330
22
100
AcDbEntity
  8
0
  6
Continuous
 62
     7
100
AcDbLine
 10
-137.1461944580078
 20
189.5865173339844
 30
0.0
 11
-140.1461944580078
 21
192.5865173339844
 31
0.0
  0
LINE
  5
12D
330
22
100
AcDbEntity
  8
0
  6
Continuous
 62
     7
100
AcDbLine
 10
-137.1461944580078
 20
192.4149475097656
 30
0.0
 11
-140.1461944580078
 21
195.4149475097656
 31
0.0
  0
LINE
  5
12E
330
22
100
AcDbEntity
  8
0
  6
Continuous
 62
     7
100
AcDbLine
 10
-137.1461944580078
 20
195.2433776855469
 30
0.0
 11
-140.1461944580078
 21
198.2433776855469
 31
0.0
  0
LINE
  5
12F
330
22
100
AcDbEntity
  8
0
  6
Continuous
 62
     7
100
AcDbLine
 10
-137.1461944580078
 20
198.0718078613281
 30
0.0
 11
-138.5396881103516
 21
199.4653167724609
 31
0.0
  0
LINE
  5
130
330
22
100
AcDbEntity
  8
0
  6
Continuous
 62
     7
100
AcDbLine
 10
-138.3828430175781
 20
204.9653167724609
 30
0.0
 11
-140.1461944580078
 21
206.7286529541016
 31
0.0
  0
LINE
  5
131
330
22
100
AcDbEntity
  8
0
  6
Continuous
 62
     7
100
AcDbLine
 10
-137.1461944580078
 20
206.5570831298828
 30
0.0
 11
-139.2201538085938
 21
208.6310577392578
 31
0.0
  0
LINE
  5
132
330
22
100
AcDbEntity
  8
0
  6
Continuous
 62
     7
100
AcDbLine
 10
-138.6834411621094
 20
212.1810607910156
 30
0.0
 11
-136.7461853027344
 21
210.2438049316406
 31
0.0
  0
LINE
  5
133
330
22
100
AcDbEntity
  8
0
  6
Continuous
 62
     7
100
AcDbLine
 10
-141.5118713378906
 20
212.1810607910156
 30
0.0
 11
-138.9618682861328
 21
209.6310577392578
 31
0.0
  0
LINE
  5
134
330
22
100
AcDbEntity
  8
0
  6
Continuous
 62
     7
100
AcDbLine
 10
-143.1461944580078
 20
210.9869537353516
 30
0.0
 11
-140.1461944580078
 21
207.9869537353516
 31
0.0
  0
LINE
  5
135
330
22
100
AcDbEntity
  8
0
  6
Continuous
 62
     7
100
AcDbLine
 10
-143.1461944580078
 20
208.1585235595703
 30
0.0
 11
-140.1461944580078
 21
205.1585235595703
 31
0.0
  0
LINE
  5
136
330
22
100
AcDbEntity
  8
0
  6
Continuous
 62
     7
100
AcDbLine
 10
-141.5951690673828
 20
198.1222381591797
 30
0.0
 11
-140.1461944580078
 21
196.6732482910156
 31
0.0
  0
LINE
  5
137
330
22
100
AcDbEntity
  8
0
  6
Continuous
 62
     7
100
AcDbLine
 10
-143.1461944580078
 20
196.8448181152344
 30
0.0
 11
-140.1461944580078
 21
193.8448181152344
 31
0.0
  0
LINE
  5
138
330
22
100
AcDbEntity
  8
0
  6
Continuous
 62
     7
100
AcDbLine
 10
-143.1461944580078
 20
194.0163879394531
 30
0.0
 11
-140.1461944580078
 21
191.0163879394531
 31
0.0
  0
LINE
  5
139
330
22
100
AcDbEntity
  8
0
  6
Continuous
 62
     7
100
AcDbLine
 10
-143.1461944580078
 20
191.1879577636719
 30
0.0
 11
-140.1461944580078
 21
188.1879577636719
 31
0.0
  0
LINE
  5
13A
330
22
100
AcDbEntity
  8
0
  6
Continuous
 62
     7
100
AcDbLine
 10
-143.1461944580078
 20
188.3595428466797
 30
0.0
 11
-140.1461944580078
 21
185.3595428466796
 31
0.0
  0
LINE
  5
13B
330
22
100
AcDbEntity
  8
0
  6
Continuous
 62
     7
100
AcDbLine
 10
-143.1461944580078
 20
185.5311126708984
 30
0.0
 11
-140.1461944580078
 21
182.5311126708984
 31
0.0
  0
LINE
  5
13C
330
22
100
AcDbEntity
  8
0
  6
Continuous
 62
     7
100
AcDbLine
 10
-143.1461944580078
 20
182.7026824951172
 30
0.0
 11
-140.1461944580078
 21
179.7026824951172
 31
0.0
  0
LINE
  5
13D
330
22
100
AcDbEntity
  8
0
  6
Continuous
 62
     7
100
AcDbLine
 10
-143.1461944580078
 20
179.8742523193359
 30
0.0
 11
-140.1461944580078
 21
176.8742523193359
 31
0.0
  0
LINE
  5
13E
330
22
100
AcDbEntity
  8
0
  6
Continuous
 62
     7
100
AcDbLine
 10
-143.1461944580078
 20
177.0458221435547
 30
0.0
 11
-140.1461944580078
 21
174.0458221435547
 31
0.0
  0
LINE
  5
13F
330
22
100
AcDbEntity
  8
0
  6
Continuous
 62
     7
100
AcDbLine
 10
-143.1461944580078
 20
174.2174072265625
 30
0.0
 11
-140.1461944580078
 21
171.2174072265625
 31
0.0
  0
LINE
  5
140
330
22
100
AcDbEntity
  8
0
  6
Continuous
 62
     7
100
AcDbLine
 10
-143.1461944580078
 20
171.3889770507813
 30
0.0
 11
-140.1461944580078
 21
168.3889770507813
 31
0.0
  0
LINE
  5
141
330
22
100
AcDbEntity
  8
0
  6
Continuous
 62
     7
100
AcDbLine
 10
-143.1461944580078
 20
168.560546875
 30
0.0
 11
-140.1461944580078
 21
165.560546875
 31
0.0
  0
CIRCLE
  5
142
330
22
100
AcDbEntity
  8
0
  6
Continuous
 62
     7
100
AcDbCircle
 10
-282.8760375976563
 20
160.1310577392578
 30
0.0
 40
55.0
  0
CIRCLE
  5
143
330
22
100
AcDbEntity
  8
0
  6
Continuous
 62
     7
100
AcDbCircle
 10
-282.8760375976563
 20
160.1310577392578
 30
0.0
 40
55.59999847412109
  0
ARC
  5
144
330
22
100
AcDbEntity
  8
0
  6
Continuous
 62
     7
100
AcDbCircle
 10
-282.8751525878906
 20
160.1310424804688
 30
0.0
 40
20.0
100
AcDbArc
 50
326.8659776636284
 51
357.1340147612629
  0
ARC
  5
145
330
22
100
AcDbEntity
  8
0
  6
Continuous
 62
     7
100
AcDbCircle
 10
-116.9851837158203
 20
135.4573974609375
 30
0.0
 40
1.162511467933655
100
AcDbArc
 50
226.1290364661798
 51
266.9444840454218
  0
ARC
  5
146
330
22
100
AcDbEntity
  8
0
  6
Continuous
 62
     7
100
AcDbCircle
 10
-115.4237518310547
 20
123.1310577392578
 30
0.0
 40
3.0
100
AcDbArc
 50
90.00000000000019
 51
150.0000695640007
  0
ARC
  5
147
330
22
100
AcDbEntity
  8
0
  6
Continuous
 62
     7
100
AcDbCircle
 10
-137.1461944580078
 20
101.6310577392578
 30
0.0
 40
2.0
100
AcDbArc
 50
90.00000000000019
 51
180.0000000000004
  0
ARC
  5
148
330
22
100
AcDbEntity
  8
0
  6
Continuous
 62
     7
100
AcDbCircle
 10
-131.8782348632812
 20
106.6310577392578
 30
0.0
 40
3.0
100
AcDbArc
 50
270.0000000000005
 51
329.9999238532701
  0
ARC
  5
149
330
22
100
AcDbEntity
  8
0
  6
Continuous
 62
     7
100
AcDbCircle
 10
-114.5431289672852
 20
134.6838073730469
 30
0.0
 40
3.545835494995116
100
AcDbArc
 50
139.4194046625891
 51
168.8329793778972
  0
ARC
  5
14A
330
22
100
AcDbEntity
  8
0
  6
Continuous
 62
     7
100
AcDbCircle
 10
-114.8921356201172
 20
134.2452545166016
 30
0.0
 40
3.609778881072998
100
AcDbArc
 50
100.9536944665093
 51
130.493011292489
  0
ARC
  5
14B
330
22
100
AcDbEntity
  8
0
  6
Continuous
 62
     7
100
AcDbCircle
 10
-116.8982009887695
 20
135.304931640625
 30
0.0
 40
1.12554121017456
100
AcDbArc
 50
176.6588768478255
 51
217.5258741591803
  0
ARC
  5
14C
330
22
100
AcDbEntity
  8
0
  6
Continuous
 62
     7
100
AcDbCircle
 10
-89.78916931152344
 20
132.1157989501953
 30
0.0
 40
6.5922532081604
100
AcDbArc
 50
120.6130281926291
 51
141.1570166076121
  0
ARC
  5
14D
330
22
100
AcDbEntity
  8
0
  6
Continuous
 62
     7
100
AcDbCircle
 10
-93.13711547851564
 20
136.7845153808594
 30
0.0
 40
2.487993478775023
100
AcDbArc
 50
224.1049660384527
 51
269.7910961534879
  0
ARC
  5
14E
330
22
100
AcDbEntity
  8
0
  6
Continuous
 62
     7
100
AcDbCircle
 10
-94.23861694335938
 20
135.6516571044922
 30
0.0
 40
0.9098099470138549
100
AcDbArc
 50
138.8467080398825
 51
221.1532919601182
  0
ARC
  5
14F
330
22
100
AcDbEntity
  8
0
  6
Continuous
 62
     7
100
AcDbCircle
 10
-113.1461868286133
 20
189.1310577392578
 30
0.0
 40
1.0
100
AcDbArc
 50
90.00000000000019
 51
180.0000000000004
  0
ARC
  5
150
330
22
100
AcDbEntity
  8
0
  6
Continuous
 62
     7
100
AcDbCircle
 10
-115.1461868286133
 20
187.3810577392578
 30
0.0
 40
1.0
100
AcDbArc
 50
270.0000000000005
 51
0.0
  0
ARC
  5
151
330
22
100
AcDbEntity
  8
0
  6
Continuous
 62
     7
100
AcDbCircle
 10
-115.5680923461914
 20
187.3810577392578
 30
0.0
 40
1.0
100
AcDbArc
 50
209.9999304360001
 51
270.0000000000005
  0
ARC
  5
152
330
22
100
AcDbEntity
  8
0
  6
Continuous
 62
     7
100
AcDbCircle
 10
-109.1461868286133
 20
189.1310577392578
 30
0.0
 40
1.0
100
AcDbArc
 50
0.0
 51
90.00000000000019
  0
ARC
  5
153
330
22
100
AcDbEntity
  8
0
  6
Continuous
 62
     7
100
AcDbCircle
 10
-137.1461944580078
 20
218.6310577392578
 30
0.0
 40
2.0
100
AcDbArc
 50
180.0000000000004
 51
270.0000000000005
  0
ARC
  5
154
330
22
100
AcDbEntity
  8
0
  6
Continuous
 62
     7
100
AcDbCircle
 10
-131.8782348632812
 20
213.6310577392578
 30
0.0
 40
3.0
100
AcDbArc
 50
30.00007614673063
 51
90.00000000000019
  0
ARC
  5
155
330
22
100
AcDbEntity
  8
0
  6
Continuous
 62
     7
100
AcDbCircle
 10
-131.5895690917969
 20
207.1310577392578
 30
0.0
 40
3.0
100
AcDbArc
 50
29.99993043599933
 51
90.00000000000019
  0
ARC
  5
156
330
22
100
AcDbEntity
  8
0
  6
Continuous
 62
     7
100
AcDbCircle
 10
-271.257080078125
 20
157.1310577392578
 30
0.0
 40
2.0
100
AcDbArc
 50
90.00000000000019
 51
165.522496743742
  0
ARC
  5
157
330
22
100
AcDbEntity
  8
0
  6
Continuous
 62
     7
100
AcDbCircle
 10
-282.8751525878906
 20
160.1310424804688
 30
0.0
 40
18.5
100
AcDbArc
 50
327.0985589720897
 51
356.9014220369286
  0
ARC
  5
158
330
22
100
AcDbEntity
  8
0
  6
Continuous
 62
     7
100
AcDbCircle
 10
-282.8763122558594
 20
160.1311492919922
 30
0.0
 40
26.0
100
AcDbArc
 50
182.2042265028017
 51
213.7957597327684
  0
ARC
  5
159
330
22
100
AcDbEntity
  8
0
  6
Continuous
 62
     7
100
AcDbCircle
 10
-282.8763122558594
 20
160.1311492919922
 30
0.0
 40
20.0
100
AcDbArc
 50
182.8659852387386
 51
213.133985731183
  0
ARC
  5
15A
330
22
100
AcDbEntity
  8
0
  6
Continuous
 62
     7
100
AcDbCircle
 10
-282.8763122558594
 20
160.1311492919922
 30
0.0
 40
18.5
100
AcDbArc
 50
183.0985779630728
 51
212.901401350183
  0
ARC
  5
15B
330
22
100
AcDbEntity
  8
0
  6
Continuous
 62
     7
100
AcDbCircle
 10
-240.1700592041016
 20
157.1310577392578
 30
0.0
 40
2.0
100
AcDbArc
 50
8.726121708742592
 51
90.00000000000019
  0
ARC
  5
15C
330
22
100
AcDbEntity
  8
0
  6
Continuous
 62
     7
100
AcDbCircle
 10
-262.9038391113281
 20
153.6417083740234
 30
0.0
 40
25.0
100
AcDbArc
 50
315.273887438333
 51
8.726085937259981
  0
ARC
  5
15D
330
22
100
AcDbEntity
  8
0
  6
Continuous
 62
     7
100
AcDbCircle
 10
-246.5628204345703
 20
137.4561767578125
 30
0.0
 40
2.0
100
AcDbArc
 50
233.9999445221343
 51
315.2738623561177
  0
ARC
  5
15E
330
22
100
AcDbEntity
  8
0
  6
Continuous
 62
     7
100
AcDbCircle
 10
-282.8751525878906
 20
160.1310424804688
 30
0.0
 40
40.49999999999999
100
AcDbArc
 50
325.414855668042
 51
358.5851457176091
  0
ARC
  5
15F
330
22
100
AcDbEntity
  8
0
  6
Continuous
 62
     7
100
AcDbCircle
 10
-282.8751525878906
 20
160.1310424804688
 30
0.0
 40
39.0
100
AcDbArc
 50
325.4692833692061
 51
358.5307166159595
  0
ARC
  5
160
330
22
100
AcDbEntity
  8
0
  6
Continuous
 62
     7
100
AcDbCircle
 10
-282.8751525878906
 20
160.1310424804688
 30
0.0
 40
34.0
100
AcDbArc
 50
325.6854055979802
 51
358.3145869395268
  0
ARC
  5
161
330
22
100
AcDbEntity
  8
0
  6
Continuous
 62
     7
100
AcDbCircle
 10
-282.8751525878906
 20
160.1310424804688
 30
0.0
 40
32.5
100
AcDbArc
 50
325.7632161286929
 51
358.2367742160812
  0
ARC
  5
162
330
22
100
AcDbEntity
  8
0
  6
Continuous
 62
     7
100
AcDbCircle
 10
-282.8763122558594
 20
160.1311492919922
 30
0.0
 40
39.0
100
AcDbArc
 50
181.4692833840419
 51
214.5307293378483
  0
ARC
  5
163
330
22
100
AcDbEntity
  8
0
  6
Continuous
 62
     7
100
AcDbCircle
 10
-282.8763122558594
 20
160.1311492919922
 30
0.0
 40
40.49999999999999
100
AcDbArc
 50
181.4148548153991
 51
214.5851443319595
  0
ARC
  5
164
330
22
100
AcDbEntity
  8
0
  6
Continuous
 62
     7
100
AcDbCircle
 10
-319.1892395019531
 20
137.4561767578125
 30
0.0
 40
2.0
100
AcDbArc
 50
224.7267528857403
 51
306.0007627683063
  0
ARC
  5
165
330
22
100
AcDbEntity
  8
0
  6
Continuous
 62
     7
100
AcDbCircle
 10
-282.8763122558594
 20
160.1311492919922
 30
0.0
 40
34.0
100
AcDbArc
 50
181.6854130604746
 51
214.3145944020211
  0
ARC
  5
166
330
22
100
AcDbEntity
  8
0
  6
Continuous
 62
     7
100
AcDbCircle
 10
-282.8763122558594
 20
160.1311492919922
 30
0.0
 40
32.5
100
AcDbArc
 50
181.7632249562145
 51
214.2367838713086
  0
ARC
  5
167
330
22
100
AcDbEntity
  8
0
  6
Continuous
 62
     7
100
AcDbCircle
 10
-282.8760375976563
 20
160.1310577392578
 30
0.0
 40
10.0
100
AcDbArc
 50
338.4776163909103
 51
345.5224967437428
  0
ARC
  5
168
330
22
100
AcDbEntity
  8
0
  6
Continuous
 62
     7
100
AcDbCircle
 10
-271.7127380371094
 20
155.7286682128906
 30
0.0
 40
2.0
100
AcDbArc
 50
158.477342616818
 51
234.0002014616679
  0
ARC
  5
169
330
22
100
AcDbEntity
  8
0
  6
Continuous
 62
     7
100
AcDbCircle
 10
-294.4949645996094
 20
157.1310577392578
 30
0.0
 40
2.0
100
AcDbArc
 50
14.47750325625797
 51
90.00000000000019
  0
ARC
  5
16A
330
22
100
AcDbEntity
  8
0
  6
Continuous
 62
     7
100
AcDbCircle
 10
-294.039306640625
 20
155.7286682128906
 30
0.0
 40
2.0
100
AcDbArc
 50
305.9997985383335
 51
21.52265738318204
  0
ARC
  5
16B
330
22
100
AcDbEntity
  8
0
  6
Continuous
 62
     7
100
AcDbCircle
 10
-282.8760375976563
 20
160.1310577392578
 30
0.0
 40
10.0
100
AcDbArc
 50
194.4775469695458
 51
201.5224477564561
  0
ARC
  5
16C
330
22
100
AcDbEntity
  8
0
  6
Continuous
 62
     7
100
AcDbCircle
 10
-282.8763122558594
 20
160.1311492919922
 30
0.0
 40
27.5
100
AcDbArc
 50
182.0839423833917
 51
213.9160568602277
  0
ARC
  5
16D
330
22
100
AcDbEntity
  8
0
  6
Continuous
 62
     7
100
AcDbCircle
 10
-282.1387329101563
 20
148.1537322998047
 30
0.0
 40
2.0
100
AcDbArc
 50
17.99992115332157
 51
93.522889836456
  0
CIRCLE
  5
16E
330
22
100
AcDbEntity
  8
0
  6
Continuous
 62
     7
100
AcDbCircle
 10
-282.8760375976563
 20
160.1310577392578
 30
0.0
 40
5.0
  0
CIRCLE
  5
16F
330
22
100
AcDbEntity
  8
0
  6
Continuous
 62
     7
100
AcDbCircle
 10
-282.8760375976563
 20
160.1310577392578
 30
0.0
 40
5.5
  0
ARC
  5
170
330
22
100
AcDbEntity
  8
0
  6
Continuous
 62
     7
100
AcDbCircle
 10
-282.8757629394531
 20
160.1306762695313
 30
0.0
 40
18.5
100
AcDbArc
 50
255.098530918503
 51
284.9013777450127
  0
ARC
  5
171
330
22
100
AcDbEntity
  8
0
  6
Continuous
 62
     7
100
AcDbCircle
 10
-282.8757629394531
 20
160.1306762695313
 30
0.0
 40
20.0
100
AcDbArc
 50
254.8659675441812
 51
285.1340324558202
  0
ARC
  5
172
330
22
100
AcDbEntity
  8
0
  6
Continuous
 62
     7
100
AcDbCircle
 10
-282.8757629394531
 20
160.1306762695313
 30
0.0
 40
26.0
100
AcDbArc
 50
254.2041987310085
 51
285.7957365574236
  0
ARC
  5
173
330
22
100
AcDbEntity
  8
0
  6
Continuous
 62
     7
100
AcDbCircle
 10
-302.8482055664063
 20
153.6417083740234
 30
0.0
 40
25.0
100
AcDbArc
 50
171.2739193681528
 51
224.7261371711075
  0
ARC
  5
174
330
22
100
AcDbEntity
  8
0
  6
Continuous
 62
     7
100
AcDbCircle
 10
-325.5819702148438
 20
157.1310577392578
 30
0.0
 40
2.0
100
AcDbArc
 50
90.00000000000019
 51
171.2740109260026
  0
ARC
  5
175
330
22
100
AcDbEntity
  8
0
  6
Continuous
 62
     7
100
AcDbCircle
 10
-272.5323181152344
 20
118.5882263183594
 30
0.0
 40
2.0
100
AcDbArc
 50
296.7259412379431
 51
18.00012902339873
  0
ARC
  5
176
330
22
100
AcDbEntity
  8
0
  6
Continuous
 62
     7
100
AcDbCircle
 10
-293.2197265625
 20
118.5882263183594
 30
0.0
 40
2.0
100
AcDbArc
 50
161.9998709766013
 51
243.2740587620584
  0
ARC
  5
177
330
22
100
AcDbEntity
  8
0
  6
Continuous
 62
     7
100
AcDbCircle
 10
-282.8757629394531
 20
160.1306762695313
 30
0.0
 40
34.0
100
AcDbArc
 50
253.6853831467992
 51
286.3145674966824
  0
ARC
  5
178
330
22
100
AcDbEntity
  8
0
  6
Continuous
 62
     7
100
AcDbCircle
 10
-282.8757629394531
 20
160.1306762695313
 30
0.0
 40
27.5
100
AcDbArc
 50
254.0839408586874
 51
285.9160591413139
  0
ARC
  5
179
330
22
100
AcDbEntity
  8
0
  6
Continuous
 62
     7
100
AcDbCircle
 10
-282.8757629394531
 20
160.1306762695313
 30
0.0
 40
32.5
100
AcDbArc
 50
253.7632105061895
 51
286.2367378388128
  0
ARC
  5
17A
330
22
100
AcDbEntity
  8
0
  6
Continuous
 62
     7
100
AcDbCircle
 10
-282.8757629394531
 20
160.1306762695313
 30
0.0
 40
40.49999999999999
100
AcDbArc
 50
253.4148315293323
 51
286.5851270932952
  0
ARC
  5
17B
330
22
100
AcDbEntity
  8
0
  6
Continuous
 62
     7
100
AcDbCircle
 10
-282.8757629394531
 20
160.1306762695313
 30
0.0
 40
39.0
100
AcDbArc
 50
253.4692749625989
 51
286.5306820564427
  0
ARC
  5
17C
330
22
100
AcDbEntity
  8
0
  6
Continuous
 62
     7
100
AcDbCircle
 10
-282.8760375976563
 20
139.1310577392578
 30
0.0
 40
25.0
100
AcDbArc
 50
243.2739261796975
 51
296.7261362893951
  0
ARC
  5
17D
330
22
100
AcDbEntity
  8
0
  6
Continuous
 62
     7
100
AcDbCircle
 10
-282.8753051757813
 20
160.1317443847656
 30
0.0
 40
39.0
100
AcDbArc
 50
37.46927277405197
 51
66.71127649654403
  0
ARC
  5
17E
330
22
100
AcDbEntity
  8
0
  6
Continuous
 62
     7
100
AcDbCircle
 10
-303.7482604980469
 20
198.4806671142578
 30
0.0
 40
2.0
100
AcDbArc
 50
77.01924251372694
 51
111.7660180753249
  0
ARC
  5
17F
330
22
100
AcDbEntity
  8
0
  6
Continuous
 62
     7
100
AcDbCircle
 10
-303.5236511230469
 20
199.4551086425781
 30
0.0
 40
1.0
100
AcDbArc
 50
21.59344760390905
 51
77.01848879209439
  0
ARC
  5
180
330
22
100
AcDbEntity
  8
0
  6
Continuous
 62
     7
100
AcDbCircle
 10
-296.5500183105469
 20
202.2153167724609
 30
0.0
 40
6.5
100
AcDbArc
 50
201.5940546273056
 51
272.5340369145485
  0
ARC
  5
181
330
22
100
AcDbEntity
  8
0
  6
Continuous
 62
     7
100
AcDbCircle
 10
-296.5500183105469
 20
202.2153167724609
 30
0.0
 40
6.5
100
AcDbArc
 50
257.2209936521221
 51
272.5340369145485
  0
ARC
  5
182
330
22
100
AcDbEntity
  8
0
  6
Continuous
 62
     7
100
AcDbCircle
 10
-295.2195129394531
 20
177.1204223632813
 30
0.0
 40
25.0
100
AcDbArc
 50
111.7659139848794
 51
152.7260942149501
  0
ARC
  5
183
330
22
100
AcDbEntity
  8
0
  6
Continuous
 62
     7
100
AcDbCircle
 10
-315.6625061035156
 20
187.6600494384766
 30
0.0
 40
2.0
100
AcDbArc
 50
152.7260777061365
 51
234.0002014616679
  0
ARC
  5
184
330
22
100
AcDbEntity
  8
0
  6
Continuous
 62
     7
100
AcDbCircle
 10
-282.8760375976563
 20
160.1318054199219
 30
0.0
 40
39.0
100
AcDbArc
 50
113.7969886025575
 51
142.5306957969172
  0
CIRCLE
  5
185
330
22
100
AcDbEntity
  8
0
  6
Continuous
 62
     7
100
AcDbCircle
 10
-296.5500183105469
 20
202.2153167724609
 30
0.0
 40
4.75
  0
ARC
  5
186
330
22
100
AcDbEntity
  8
0
  6
Continuous
 62
     7
100
AcDbCircle
 10
-282.8760375976563
 20
160.1318054199219
 30
0.0
 40
32.5
100
AcDbArc
 50
109.7632131586326
 51
142.2367563897196
  0
ARC
  5
187
330
22
100
AcDbEntity
  8
0
  6
Continuous
 62
     7
100
AcDbCircle
 10
-282.8760375976563
 20
160.1318054199219
 30
0.0
 40
34.0
100
AcDbArc
 50
109.6853683707986
 51
142.3145715584392
  0
ARC
  5
188
330
22
100
AcDbEntity
  8
0
  6
Continuous
 62
     7
100
AcDbCircle
 10
-282.8760375976563
 20
160.1318054199219
 30
0.0
 40
26.0
100
AcDbArc
 50
110.2042225698004
 51
141.7957473085722
  0
ARC
  5
189
330
22
100
AcDbEntity
  8
0
  6
Continuous
 62
     7
100
AcDbCircle
 10
-282.8760375976563
 20
160.1318054199219
 30
0.0
 40
27.5
100
AcDbArc
 50
110.0839128339608
 51
141.9160109857513
  0
ARC
  5
18A
330
22
100
AcDbEntity
  8
0
  6
Continuous
 62
     7
100
AcDbCircle
 10
-282.8760375976563
 20
160.1318054199219
 30
0.0
 40
20.0
100
AcDbArc
 50
110.8659581358253
 51
141.1339791083131
  0
ARC
  5
18B
330
22
100
AcDbEntity
  8
0
  6
Continuous
 62
     7
100
AcDbCircle
 10
-296.2184448242188
 20
194.7226409912109
 30
0.0
 40
1.0
100
AcDbArc
 50
17.99979657111008
 51
92.53269320829341
  0
ARC
  5
18C
330
22
100
AcDbEntity
  8
0
  6
Continuous
 62
     7
100
AcDbCircle
 10
-296.5500183105469
 20
202.2153167724609
 30
0.0
 40
5.25
100
AcDbArc
 50
108.0000755961145
 51
288.0000241364982
  0
ARC
  5
18D
330
22
100
AcDbEntity
  8
0
  6
Continuous
 62
     7
100
AcDbCircle
 10
-282.8753051757813
 20
160.1317443847656
 30
0.0
 40
40.53212356567382
100
AcDbArc
 50
37.41484182932932
 51
64.78162135268448
  0
ARC
  5
18E
330
22
100
AcDbEntity
  8
0
  6
Continuous
 62
     7
100
AcDbCircle
 10
-269.2020263671875
 20
202.2153167724609
 30
0.0
 40
5.25
100
AcDbArc
 50
251.9999758635032
 51
71.99992440388552
  0
ARC
  5
18F
330
22
100
AcDbEntity
  8
0
  6
Continuous
 62
     7
100
AcDbCircle
 10
-269.2020263671875
 20
202.2153167724609
 30
0.0
 40
6.5
100
AcDbArc
 50
267.4659630854529
 51
339.7162341425449
  0
ARC
  5
190
330
22
100
AcDbEntity
  8
0
  6
Continuous
 62
     7
100
AcDbCircle
 10
-269.2020263671875
 20
202.2153167724609
 30
0.0
 40
2.75
100
AcDbArc
 50
252.0001619443968
 51
72.00006370418606
  0
ARC
  5
191
330
22
100
AcDbEntity
  8
0
  6
Continuous
 62
     7
100
AcDbCircle
 10
-269.5335998535156
 20
194.7226409912109
 30
0.0
 40
1.0
100
AcDbArc
 50
87.46730679170662
 51
162.0002034288899
  0
ARC
  5
192
330
22
100
AcDbEntity
  8
0
  6
Continuous
 62
     7
100
AcDbCircle
 10
-250.0895385742188
 20
187.6600494384766
 30
0.0
 40
2.0
100
AcDbArc
 50
306.0001521841085
 51
27.27372198127128
  0
ARC
  5
193
330
22
100
AcDbEntity
  8
0
  6
Continuous
 62
     7
100
AcDbCircle
 10
-262.1671142578125
 20
199.6152954101563
 30
0.0
 40
1.0
100
AcDbArc
 50
69.60010212312425
 51
159.7165495461443
  0
ARC
  5
194
330
22
100
AcDbEntity
  8
0
  6
Continuous
 62
     7
100
AcDbCircle
 10
-282.8753051757813
 20
160.1317443847656
 30
0.0
 40
34.0
100
AcDbArc
 50
37.68540809231194
 51
70.31457454570622
  0
ARC
  5
195
330
22
100
AcDbEntity
  8
0
  6
Continuous
 62
     7
100
AcDbCircle
 10
-270.5325317382813
 20
177.1204223632813
 30
0.0
 40
25.0
100
AcDbArc
 50
27.27388975997114
 51
69.60075766939531
  0
ARC
  5
196
330
22
100
AcDbEntity
  8
0
  6
Continuous
 62
     7
100
AcDbCircle
 10
-282.8753051757813
 20
160.1317443847656
 30
0.0
 40
27.5
100
AcDbArc
 50
38.08392477207723
 51
69.91608716603917
  0
ARC
  5
197
330
22
100
AcDbEntity
  8
0
  6
Continuous
 62
     7
100
AcDbCircle
 10
-282.8753051757813
 20
160.1317443847656
 30
0.0
 40
32.5
100
AcDbArc
 50
37.76322234418512
 51
70.23677774541936
  0
ARC
  5
198
330
22
100
AcDbEntity
  8
0
  6
Continuous
 62
     7
100
AcDbCircle
 10
-289.3196411132813
 20
170.2542877197266
 30
0.0
 40
2.0
100
AcDbArc
 50
302.4775958257367
 51
17.99992115332157
  0
ARC
  5
199
330
22
100
AcDbEntity
  8
0
  6
Continuous
 62
     7
100
AcDbCircle
 10
-276.4324035644531
 20
170.2542877197266
 30
0.0
 40
2.0
100
AcDbArc
 50
162.0000788466785
 51
237.5224041742646
  0
ARC
  5
19A
330
22
100
AcDbEntity
  8
0
  6
Continuous
 62
     7
100
AcDbCircle
 10
-282.8760375976563
 20
160.1310577392578
 30
0.0
 40
47.0
100
AcDbArc
 50
71.99999611105963
 51
103.13263048774
  0
ARC
  5
19B
330
22
100
AcDbEntity
  8
0
  6
Continuous
 62
     7
100
AcDbCircle
 10
-282.8760375976563
 20
160.1310577392578
 30
0.0
 40
49.5
100
AcDbArc
 50
71.99998475059129
 51
107.999981654474
  0
ARC
  5
19C
330
22
100
AcDbEntity
  8
0
  6
Continuous
 62
     7
100
AcDbCircle
 10
-282.8760375976563
 20
160.1310577392578
 30
0.0
 40
41.5
100
AcDbArc
 50
71.99998064300773
 51
102.8198944240459
  0
ARC
  5
19D
330
22
100
AcDbEntity
  8
0
  6
Continuous
 62
     7
100
AcDbCircle
 10
-282.8753051757813
 20
160.1317443847656
 30
0.0
 40
20.0
100
AcDbArc
 50
38.86596603150574
 51
69.13404186417468
  0
ARC
  5
19E
330
22
100
AcDbEntity
  8
0
  6
Continuous
 62
     7
100
AcDbCircle
 10
-282.8753051757813
 20
160.1317443847656
 30
0.0
 40
18.5
100
AcDbArc
 50
39.09857649492406
 51
68.90140329915446
  0
ARC
  5
19F
330
22
100
AcDbEntity
  8
0
  6
Continuous
 62
     7
100
AcDbCircle
 10
-282.8760375976563
 20
160.1310577392578
 30
0.0
 40
39.0
100
AcDbArc
 50
71.99999407052397
 51
107.9999632897387
  0
ARC
  5
1A0
330
22
100
AcDbEntity
  8
0
  6
Continuous
 62
     7
100
AcDbCircle
 10
-282.8753051757813
 20
160.1317443847656
 30
0.0
 40
26.0
100
AcDbArc
 50
38.2042262681012
 51
69.79576581702911
  0
ARC
  5
1A1
330
22
100
AcDbEntity
  8
0
  6
Continuous
 62
     7
100
AcDbCircle
 10
-282.8760375976563
 20
160.1318054199219
 30
0.0
 40
18.5
100
AcDbArc
 50
111.0984915103574
 51
140.9014235050759
  0
ARC
  5
1A2
330
22
100
AcDbEntity
  8
0
  6
Continuous
 62
     7
100
AcDbCircle
 10
-282.8751525878906
 20
160.1310424804688
 30
0.0
 40
27.5
100
AcDbArc
 50
326.0839431397737
 51
357.9160576166098
  0
ARC
  5
1A3
330
22
100
AcDbEntity
  8
0
  6
Continuous
 62
     7
100
AcDbCircle
 10
-282.8751525878906
 20
160.1310424804688
 30
0.0
 40
26.0
100
AcDbArc
 50
326.204212323541
 51
357.7957734971998
  0
ARC
  5
1A4
330
22
100
AcDbEntity
  8
0
  6
Continuous
 62
     7
100
AcDbCircle
 10
-282.8760375976563
 20
160.1310577392578
 30
0.0
 40
10.0
100
AcDbArc
 50
266.4776444750323
 51
273.5225300474547
  0
ARC
  5
1A5
330
22
100
AcDbEntity
  8
0
  6
Continuous
 62
     7
100
AcDbCircle
 10
-283.6133117675781
 20
148.1537322998047
 30
0.0
 40
2.0
100
AcDbArc
 50
86.47711016354401
 51
162.0000788466785
  0
CIRCLE
  5
1A6
330
22
100
AcDbEntity
  8
0
  6
Continuous
 62
     7
100
AcDbCircle
 10
-282.8760375976563
 20
160.1310577392578
 30
0.0
 40
66.25240325927734
  0
CIRCLE
  5
1A7
330
22
100
AcDbEntity
  8
0
  6
Continuous
 62
     7
100
AcDbCircle
 10
-282.8760375976563
 20
160.1310577392578
 30
0.0
 40
65.5
  0
CIRCLE
  5
1A8
330
22
100
AcDbEntity
  8
0
  6
DASHED
 62
     7
100
AcDbCircle
 10
-282.8760375976563
 20
160.1310577392578
 30
0.0
 40
49.5
  0
CIRCLE
  5
1A9
330
22
100
AcDbEntity
  8
0
  6
DASHED
 62
     7
100
AcDbCircle
 10
-282.8760375976563
 20
160.1310577392578
 30
0.0
 40
26.25
  0
ARC
  5
1AA
330
22
100
AcDbEntity
  8
0
  6
Continuous
 62
     7
100
AcDbCircle
 10
-275.2394409179688
 20
169.3875579833984
 30
0.0
 40
2.0
100
AcDbArc
 50
230.4775204647301
 51
306.0000554778671
  0
ARC
  5
1AB
330
22
100
AcDbEntity
  8
0
  6
Continuous
 62
     7
100
AcDbCircle
 10
-282.8760375976563
 20
160.1310577392578
 30
0.0
 40
10.0
100
AcDbArc
 50
50.47740919183095
 51
57.52245778968815
  0
ARC
  5
1AC
330
22
100
AcDbEntity
  8
0
  6
Continuous
 62
     7
100
AcDbCircle
 10
-282.8760375976563
 20
160.1310577392578
 30
0.0
 40
10.0
100
AcDbArc
 50
122.4773947038667
 51
129.522455931155
  0
ARC
  5
1AD
330
22
100
AcDbEntity
  8
0
  6
Continuous
 62
     7
100
AcDbCircle
 10
-290.5126037597656
 20
169.3875579833984
 30
0.0
 40
2.0
100
AcDbArc
 50
233.9999445221343
 51
309.5224795352713
  0
LWPOLYLINE
  5
1AE
330
22
100
AcDbEntity
  8
0
  6
Continuous
 62
     7
100
AcDbPolyline
 90
       17
 70
     0
 43
0.0
 10
-143.1461944580079
 20
207.4653167724609
 42
0.0491268497694673
 10
-143.5157137765478
 20
207.3644394945779
 42
0.0491268497694673
 10
-143.8710326749051
 20
207.0656843181452
 42
0.0491268497694673
 10
-144.198496447081
 20
206.5805322370493
 42
0.0491268497694673
 10
-144.4855208439546
 20
205.9276273736903
 42
0.0491268497694673
 10
-144.721075678919
 20
205.1320604958139
 42
0.0491268497694673
 10
-144.8961087117676
 20
204.2244047923776
 42
0.0491268497694673
 10
-145.0038935212073
 20
203.2395409630456
 42
0.0491268497694673
 10
-145.0402879974578
 20
202.2153167724609
 42
0.0491268497694673
 10
-145.0038935212071
 20
201.1910925818762
 42
0.0491268497694673
 10
-144.8961087117675
 20
200.2062287525442
 42
0.0491268497694673
 10
-144.721075678919
 20
199.298573049108
 42
0.0491268497694673
 10
-144.4855208439545
 20
198.5030061712315
 42
0.0491268497694673
 10
-144.1984964470809
 20
197.8501013078726
 42
0.0491268497694673
 10
-143.871032674905
 20
197.3649492267767
 42
0.0491268497694673
 10
-143.5157137765477
 20
197.066194050344
 42
0.0491268497694673
 10
-143.1461944580078
 20
196.9653167724609
 42
-1.0
  0
TEXT
  5
1C1
330
22
100
AcDbEntity
  8
0
  6
Continuous
 62
     7
100
AcDbText
 10
-303.9364557266235
 20
54.4123306274414
 30
0.0
 40
7.0
  1
DL-SUC-50G
 41
1.022456212151318
100
AcDbText
  0
INSERT
  5
1C2
330
22
100
AcDbEntity
  8
0
  6
Continuous
 62
     7
100
AcDbBlockReference
  2
KOZU0001
 10
-102.2052459716797
 20
182.3409729003906
 30
0.0
  0
DIMENSION
  5
1C3
330
22
100
AcDbEntity
  8
0
  6
Continuous
 62
     7
100
AcDbDimension
  2
*D1
 10
-93.14618682861327
 20
241.9598083496094
 30
0.0
 11
-118.1461868286133
 21
241.9598083496094
 31
0.0
 71
     5
 42
-1.0
  3
DIMSTYLE1
100
AcDbAlignedDimension
 13
-143.1461944580078
 23
225.1310577392578
 33
0.0
 14
-93.14618682861327
 24
193.6310577392578
 34
0.0
100
AcDbRotatedDimension
  0
DIMENSION
  5
1C4
330
22
100
AcDbEntity
  8
0
  6
Continuous
 62
     7
100
AcDbDimension
  2
*D2
 10
-339.4312745898562
 20
127.0893391284456
 30
0.0
 11
-192.3104400634766
 21
213.0429229736328
 31
0.0
 70
     3
 71
     5
 42
-1.0
  3
DIMSTYLE2
100
AcDbDiametricDimension
 15
-226.3208006054563
 25
193.17277635007
 35
0.0
 40
0.0
  0
DIMENSION
  5
1C5
330
22
100
AcDbEntity
  8
0
  6
Continuous
 62
     7
100
AcDbDimension
  2
*D3
 10
-335.5616342544792
 20
144.3441041092957
 30
0.0
 11
-186.4667205810547
 21
189.0195770263671
 31
0.0
 70
     3
 71
     5
 42
-1.0
  3
DIMSTYLE3
100
AcDbDiametricDimension
 15
-230.1904409408334
 25
175.91801136922
 35
0.0
 40
0.0
  0
ENDSEC
  0
SECTION
  2
OBJECTS
  0
DICTIONARY
  5
C
330
0
100
AcDbDictionary
281
     1
  3
ACAD_COLOR
350
1B
  3
ACAD_GROUP
350
D
  3
ACAD_LAYOUT
350
19
  3
ACAD_MATERIAL
350
1A
  3
ACAD_MLINESTYLE
350
16
  3
ACAD_PLOTSETTINGS
350
18
  3
ACAD_PLOTSTYLENAME
350
E
  3
ACAD_TABLESTYLE
350
1C
  3
AcDbVariableDictionary
350
209
  0
DICTIONARY
  5
1B
102
{ACAD_REACTORS
330
C
102
}
330
C
100
AcDbDictionary
281
     1
  0
DICTIONARY
  5
D
102
{ACAD_REACTORS
330
C
102
}
330
C
100
AcDbDictionary
281
     1
  0
DICTIONARY
  5
19
102
{ACAD_REACTORS
330
C
102
}
330
C
100
AcDbDictionary
281
     1
  3
Model
350
25
  3
レイアウト1
350
21
  0
DICTIONARY
  5
1A
102
{ACAD_REACTORS
330
C
102
}
330
C
100
AcDbDictionary
281
     1
  0
DICTIONARY
  5
16
102
{ACAD_REACTORS
330
C
102
}
330
C
100
AcDbDictionary
281
     1
  3
Standard
350
17
  0
DICTIONARY
  5
18
102
{ACAD_REACTORS
330
C
102
}
330
C
100
AcDbDictionary
281
     1
  0
ACDBDICTIONARYWDFLT
  5
E
102
{ACAD_REACTORS
330
C
102
}
330
C
100
AcDbDictionary
281
     1
  3
Normal
350
F
100
AcDbDictionaryWithDefault
340
F
  0
DICTIONARY
  5
1C
102
{ACAD_REACTORS
330
C
102
}
330
C
100
AcDbDictionary
281
     1
  3
Standard
350
1D
  0
DICTIONARY
  5
209
102
{ACAD_REACTORS
330
C
102
}
330
C
100
AcDbDictionary
281
     1
  3
CTABLESTYLE
350
20A
  0
LAYOUT
  5
25
102
{ACAD_REACTORS
330
19
102
}
330
19
100
AcDbPlotSettings
  1

  2
PDF reDirect v2
  4
A3
  6

 40
3.174999952316284
 41
3.174999952316284
 42
3.17498779296875
 43
3.17498779296875
 44
297.0530090332031
 45
420.1583251953125
 46
0.0
 47
0.0
 48
0.0
 49
0.0
140
0.0
141
0.0
142
1.0
143
1.0
 70
 11952
 72
     1
 73
     1
 74
     2
  7
C:\Users\ck\AppData\Roaming\Autodesk\AutoCAD 2005\R16.1\jpn\Plot Styles\black.ctb
 75
    16
147
1.0
 76
     0
 77
     2
 78
   300
148
423.0
149
2.0
100
AcDbLayout
  1
Model
 70
     1
 71
     0
 10
0.0
 20
0.0
 11
12.0
 21
9.0
 12
0.0
 22
0.0
 32
0.0
 14
0.0
 24
0.0
 34
0.0
 15
0.0
 25
0.0
 35
0.0
146
0.0
 13
0.0
 23
0.0
 33
0.0
 16
1.0
 26
0.0
 36
0.0
 17
0.0
 27
1.0
 37
0.0
 76
     0
330
22
1001
ACAD_PSEXT
1000
PDF reDirect v2
1000
PDF reDirect Pro
1000
PDF_REDIRECT_PORT:
1000
PDF reDirect provided by EXP Systems
1070
     0
  0
LAYOUT
  5
21
102
{ACAD_REACTORS
330
19
102
}
330
19
100
AcDbPlotSettings
  1

  2
PDF reDirect v2
  4

  6

 40
0.0
 41
0.0
 42
0.0
 43
0.0
 44
0.0
 45
0.0
 46
0.0
 47
0.0
 48
0.0
 49
0.0
140
0.0
141
0.0
142
1.0
143
1.0
 70
   688
 72
     0
 73
     0
 74
     5
  7
C:\Users\ck\AppData\Roaming\Autodesk\AutoCAD 2005\R16.1\jpn\Plot Styles\black.ctb
 75
    16
147
1.0
 76
     0
 77
     2
 78
   300
148
0.0
149
0.0
100
AcDbLayout
  1
レイアウト1
 70
     1
 71
     1
 10
-423.0
 20
-2.0
 11
-5.0
 21
293.0
 12
0.0
 22
0.0
 32
0.0
 14
1.000000000000000E+20
 24
1.000000000000000E+20
 34
1.000000000000000E+20
 15
-1.000000000000000E+20
 25
-1.000000000000000E+20
 35
-1.000000000000000E+20
146
0.0
 13
0.0
 23
0.0
 33
0.0
 16
1.0
 26
0.0
 36
0.0
 17
0.0
 27
1.0
 37
0.0
 76
     0
330
1E
  0
MLINESTYLE
  5
17
102
{ACAD_REACTORS
330
16
102
}
330
16
100
AcDbMlineStyle
  2
STANDARD
 70
     0
  3

 62
   256
 51
90.0
 52
90.0
 71
     2
 49
0.5
 62
   256
  6
BYLAYER
 49
-0.5
 62
   256
  6
BYLAYER
  0
ACDBPLACEHOLDER
  5
F
102
{ACAD_REACTORS
330
E
102
}
330
E
  0
TABLESTYLE
  5
1D
102
{ACAD_REACTORS
330
1C
102
}
330
1C
100
AcDbTableStyle
  3
Standard
 70
     0
 71
     0
 40
0.06
 41
0.06
280
     0
281
     0
  7
STANDARD
140
0.18
170
     2
 62
     0
 63
     7
283
     0
274
    -2
284
     1
 64
     0
275
    -2
285
     1
 65
     0
276
    -2
286
     1
 66
     0
277
    -2
287
     1
 67
     0
278
    -2
288
     1
 68
     0
279
    -2
289
     1
 69
     0
  7
STANDARD
140
0.25
170
     5
 62
     0
 63
     7
283
     0
274
    -2
284
     1
 64
     0
275
    -2
285
     1
 65
     0
276
    -2
286
     1
 66
     0
277
    -2
287
     1
 67
     0
278
    -2
288
     1
 68
     0
279
    -2
289
     1
 69
     0
  7
STANDARD
140
0.18
170
     5
 62
     0
 63
     7
283
     0
274
    -2
284
     1
 64
     0
275
    -2
285
     1
 65
     0
276
    -2
286
     1
 66
     0
277
    -2
287
     1
 67
     0
278
    -2
288
     1
 68
     0
279
    -2
289
     1
 69
     0
  0
DICTIONARYVAR
  5
20A
102
{ACAD_REACTORS
330
209
102
}
330
209
100
DictionaryVariables
280
     0
  1
STANDARD
  0
ENDSEC
  0
EOF
