  0
SECTION
  2
HEADER
  9
$ACADVER
  1
AC1018
  9
$ACADMAINTVER
 70
    39
  9
$DWGCODEPAGE
  3
ANSI_932
  9
$INSBASE
 10
0.0
 20
0.0
 30
0.0
  9
$EXTMIN
 10
-550.337705230035
 20
63.24284507758306
 30
-0.0015258207003583
  9
$EXTMAX
 10
-210.1212598878442
 20
543.5836500024698
 30
0.0000000349246037
  9
$LIMMIN
 10
-839.0
 20
0.0
  9
$LIMMAX
 10
0.0
 20
591.0
  9
$ORTHOMODE
 70
     0
  9
$REGENMODE
 70
     1
  9
$FILLMODE
 70
     1
  9
$QTEXTMODE
 70
     0
  9
$MIRRTEXT
 70
     0
  9
$LTSCALE
 40
1.0
  9
$ATTMODE
 70
     1
  9
$TEXTSIZE
 40
0.2
  9
$TRACEWID
 40
0.05
  9
$TEXTSTYLE
  7
STANDARD
  9
$CLAYER
  8
0
  9
$CELTYPE
  6
CONTINUOUS
  9
$CECOLOR
 62
   256
  9
$CELTSCALE
 40
1.0
  9
$DISPSILH
 70
     0
  9
$DIMSCALE
 40
1.0
  9
$DIMASZ
 40
1.0
  9
$DIMEXO
 40
2.54
  9
$DIMDLI
 40
0.38
  9
$DIMRND
 40
0.0
  9
$DIMDLE
 40
0.0
  9
$DIMEXE
 40
2.54
  9
$DIMTP
 40
0.0
  9
$DIMTM
 40
0.0
  9
$DIMTXT
 40
3.0
  9
$DIMCEN
 40
0.09
  9
$DIMTSZ
 40
0.0
  9
$DIMTOL
 70
     0
  9
$DIMLIM
 70
     0
  9
$DIMTIH
 70
     0
  9
$DIMTOH
 70
     0
  9
$DIMSE1
 70
     0
  9
$DIMSE2
 70
     0
  9
$DIMTAD
 70
     1
  9
$DIMZIN
 70
     0
  9
$DIMBLK
  1

  9
$DIMASO
 70
     1
  9
$DIMSHO
 70
     0
  9
$DIMPOST
  1

  9
$DIMAPOST
  1

  9
$DIMALT
 70
     0
  9
$DIMALTD
 70
     2
  9
$DIMALTF
 40
25.4
  9
$DIMLFAC
 40
1.0
  9
$DIMTOFL
 70
     0
  9
$DIMTVP
 40
1.0
  9
$DIMTIX
 70
     0
  9
$DIMSOXD
 70
     0
  9
$DIMSAH
 70
     1
  9
$DIMBLK1
  1

  9
$DIMBLK2
  1

  9
$DIMSTYLE
  2
DIMSTYLE1
  9
$DIMCLRD
 70
     0
  9
$DIMCLRE
 70
     0
  9
$DIMCLRT
 70
     0
  9
$DIMTFAC
 40
1.0
  9
$DIMGAP
 40
1.5
  9
$DIMJUST
 70
     0
  9
$DIMSD1
 70
     0
  9
$DIMSD2
 70
     0
  9
$DIMTOLJ
 70
     1
  9
$DIMTZIN
 70
     0
  9
$DIMALTZ
 70
     0
  9
$DIMALTTZ
 70
     0
  9
$DIMUPT
 70
     0
  9
$DIMDEC
 70
     4
  9
$DIMTDEC
 70
     4
  9
$DIMALTU
 70
     2
  9
$DIMALTTD
 70
     2
  9
$DIMTXSTY
  7
STANDARD
  9
$DIMAUNIT
 70
     0
  9
$DIMADEC
 70
     0
  9
$DIMALTRND
 40
0.0
  9
$DIMAZIN
 70
     0
  9
$DIMDSEP
 70
    46
  9
$DIMATFIT
 70
     3
  9
$DIMFRAC
 70
     0
  9
$DIMLDRBLK
  1

  9
$DIMLUNIT
 70
     2
  9
$DIMLWD
 70
    -2
  9
$DIMLWE
 70
    -2
  9
$DIMTMOVE
 70
     0
  9
$LUNITS
 70
     2
  9
$LUPREC
 70
     4
  9
$SKETCHINC
 40
0.1
  9
$FILLETRAD
 40
0.0
  9
$AUNITS
 70
     0
  9
$AUPREC
 70
     0
  9
$MENU
  1
.
  9
$ELEVATION
 40
0.0
  9
$PELEVATION
 40
0.0
  9
$THICKNESS
 40
0.0
  9
$LIMCHECK
 70
     0
  9
$CHAMFERA
 40
0.0
  9
$CHAMFERB
 40
0.0
  9
$CHAMFERC
 40
0.0
  9
$CHAMFERD
 40
0.0
  9
$SKPOLY
 70
     0
  9
$TDCREATE
 40
2457843.024879942
  9
$TDUCREATE
 40
2457842.649879942
  9
$TDUPDATE
 40
2457843.025386424
  9
$TDUUPDATE
 40
2457842.650386424
  9
$TDINDWG
 40
0.0005076389
  9
$TDUSRTIMER
 40
0.0005076389
  9
$USRTIMER
 70
     1
  9
$ANGBASE
 50
0.0
  9
$ANGDIR
 70
     0
  9
$PDMODE
 70
     0
  9
$PDSIZE
 40
0.0
  9
$PLINEWID
 40
0.0
  9
$SPLFRAME
 70
     0
  9
$SPLINETYPE
 70
     6
  9
$SPLINESEGS
 70
     8
  9
$HANDSEED
  5
2F8
  9
$SURFTAB1
 70
     6
  9
$SURFTAB2
 70
     6
  9
$SURFTYPE
 70
     6
  9
$SURFU
 70
     6
  9
$SURFV
 70
     6
  9
$UCSBASE
  2

  9
$UCSNAME
  2

  9
$UCSORG
 10
0.0
 20
0.0
 30
0.0
  9
$UCSXDIR
 10
1.0
 20
0.0
 30
0.0
  9
$UCSYDIR
 10
0.0
 20
1.0
 30
0.0
  9
$UCSORTHOREF
  2

  9
$UCSORTHOVIEW
 70
     0
  9
$UCSORGTOP
 10
0.0
 20
0.0
 30
0.0
  9
$UCSORGBOTTOM
 10
0.0
 20
0.0
 30
0.0
  9
$UCSORGLEFT
 10
0.0
 20
0.0
 30
0.0
  9
$UCSORGRIGHT
 10
0.0
 20
0.0
 30
0.0
  9
$UCSORGFRONT
 10
0.0
 20
0.0
 30
0.0
  9
$UCSORGBACK
 10
0.0
 20
0.0
 30
0.0
  9
$PUCSBASE
  2

  9
$PUCSNAME
  2

  9
$PUCSORG
 10
0.0
 20
0.0
 30
0.0
  9
$PUCSXDIR
 10
1.0
 20
0.0
 30
0.0
  9
$PUCSYDIR
 10
0.0
 20
1.0
 30
0.0
  9
$PUCSORTHOREF
  2

  9
$PUCSORTHOVIEW
 70
     0
  9
$PUCSORGTOP
 10
0.0
 20
0.0
 30
0.0
  9
$PUCSORGBOTTOM
 10
0.0
 20
0.0
 30
0.0
  9
$PUCSORGLEFT
 10
0.0
 20
0.0
 30
0.0
  9
$PUCSORGRIGHT
 10
0.0
 20
0.0
 30
0.0
  9
$PUCSORGFRONT
 10
0.0
 20
0.0
 30
0.0
  9
$PUCSORGBACK
 10
0.0
 20
0.0
 30
0.0
  9
$USERI1
 70
     0
  9
$USERI2
 70
     0
  9
$USERI3
 70
     0
  9
$USERI4
 70
     0
  9
$USERI5
 70
     0
  9
$USERR1
 40
0.0
  9
$USERR2
 40
0.0
  9
$USERR3
 40
0.0
  9
$USERR4
 40
0.0
  9
$USERR5
 40
0.0
  9
$WORLDVIEW
 70
     1
  9
$SHADEDGE
 70
     3
  9
$SHADEDIF
 70
    70
  9
$TILEMODE
 70
     1
  9
$MAXACTVP
 70
    64
  9
$PINSBASE
 10
0.0
 20
0.0
 30
0.0
  9
$PLIMCHECK
 70
     0
  9
$PEXTMIN
 10
1.000000000000000E+20
 20
1.000000000000000E+20
 30
1.000000000000000E+20
  9
$PEXTMAX
 10
-1.000000000000000E+20
 20
-1.000000000000000E+20
 30
-1.000000000000000E+20
  9
$PLIMMIN
 10
-839.0
 20
0.0
  9
$PLIMMAX
 10
0.0
 20
591.0
  9
$UNITMODE
 70
     0
  9
$VISRETAIN
 70
     1
  9
$PLINEGEN
 70
     0
  9
$PSLTSCALE
 70
     1
  9
$TREEDEPTH
 70
  3020
  9
$CMLSTYLE
  2
Standard
  9
$CMLJUST
 70
     0
  9
$CMLSCALE
 40
1.0
  9
$PROXYGRAPHICS
 70
     1
  9
$MEASUREMENT
 70
     0
  9
$CELWEIGHT
370
    -1
  9
$ENDCAPS
280
     0
  9
$JOINSTYLE
280
     0
  9
$LWDISPLAY
290
     0
  9
$INSUNITS
 70
     0
  9
$HYPERLINKBASE
  1

  9
$STYLESHEET
  1

  9
$XEDIT
290
     1
  9
$CEPSNTYPE
380
     0
  9
$PSTYLEMODE
290
     1
  9
$FINGERPRINTGUID
  2
{397C90A5-629B-4679-A0CC-742FA7CDDD71}
  9
$VERSIONGUID
  2
{A9B4F623-1886-43AF-B3EE-74F79D996EE1}
  9
$EXTNAMES
290
     1
  9
$PSVPSCALE
 40
0.0
  9
$OLESTARTUP
290
     0
  9
$SORTENTS
280
   127
  9
$INDEXCTL
280
     0
  9
$HIDETEXT
280
     0
  9
$XCLIPFRAME
290
     0
  9
$HALOGAP
280
     0
  9
$OBSCOLOR
 70
   257
  9
$OBSLTYPE
280
     0
  9
$INTERSECTIONDISPLAY
280
     0
  9
$INTERSECTIONCOLOR
 70
   257
  9
$DIMASSOC
280
     1
  9
$PROJECTNAME
  1

  0
ENDSEC
  0
SECTION
  2
CLASSES
  0
CLASS
  1
ACDBDICTIONARYWDFLT
  2
AcDbDictionaryWithDefault
  3
ObjectDBX Classes
 90
        0
 91
        1
280
     0
281
     0
  0
CLASS
  1
TABLESTYLE
  2
AcDbTableStyle
  3
ObjectDBX Classes
 90
     2047
 91
        1
280
     0
281
     0
  0
CLASS
  1
DICTIONARYVAR
  2
AcDbDictionaryVar
  3
ObjectDBX Classes
 90
        0
 91
        1
280
     0
281
     0
  0
ENDSEC
  0
SECTION
  2
TABLES
  0
TABLE
  2
VPORT
  5
8
330
0
100
AcDbSymbolTable
 70
     2
  0
VPORT
  5
2F7
330
8
100
AcDbSymbolTableRecord
100
AcDbViewportTableRecord
  2
*Active
 70
     0
 10
0.0
 20
0.0
 11
1.0
 21
1.0
 12
-419.5
 22
295.5
 13
0.0
 23
0.0
 14
1.0
 24
1.0
 15
0.0
 25
0.0
 16
0.0
 26
0.0
 36
1.0
 17
0.0
 27
0.0
 37
0.0
 40
595.6719367588932
 41
1.707124010554089
 42
50.0
 43
0.0
 44
0.0
 50
0.0
 51
0.0
 71
     0
 72
   100
 73
     1
 74
     1
 75
     0
 76
     0
 77
     0
 78
     0
281
     0
 65
     1
110
0.0
120
0.0
130
0.0
111
1.0
121
0.0
131
0.0
112
0.0
122
1.0
132
0.0
 79
     0
146
0.0
  0
ENDTAB
  0
TABLE
  2
LTYPE
  5
5
330
0
100
AcDbSymbolTable
 70
     6
  0
LTYPE
  5
13
330
5
100
AcDbSymbolTableRecord
100
AcDbLinetypeTableRecord
  2
ByBlock
 70
     0
  3

 72
    65
 73
     0
 40
0.0
  0
LTYPE
  5
14
330
5
100
AcDbSymbolTableRecord
100
AcDbLinetypeTableRecord
  2
ByLayer
 70
     0
  3

 72
    65
 73
     0
 40
0.0
  0
LTYPE
  5
15
330
5
100
AcDbSymbolTableRecord
100
AcDbLinetypeTableRecord
  2
CONTINUOUS
 70
     0
  3
Solid line
 72
    65
 73
     0
 40
0.0
  0
LTYPE
  5
26
330
5
100
AcDbSymbolTableRecord
100
AcDbLinetypeTableRecord
  2
DASHED
 70
     0
  3
__ __ __ __ __ __ __ __ __ __ __ __ __ __ __
 72
    65
 73
     2
 40
3.5
 49
2.0
 74
     0
 49
-1.5
 74
     0
  0
LTYPE
  5
27
330
5
100
AcDbSymbolTableRecord
100
AcDbLinetypeTableRecord
  2
CENTER
 70
     0
  3
____ _ ____ _ ____ _ ____ _ ____ _ ____ _ ____
 72
    65
 73
     4
 40
17.5
 49
13.0
 74
     0
 49
-1.5
 74
     0
 49
1.5
 74
     0
 49
-1.5
 74
     0
  0
LTYPE
  5
28
330
5
100
AcDbSymbolTableRecord
100
AcDbLinetypeTableRecord
  2
PHANTOM
 70
     0
  3
_____ _ _ _____ _ _ _____ _ _ _____ _ _ ____  
 72
    65
 73
     6
 40
15.5
 49
8.0
 74
     0
 49
-1.5
 74
     0
 49
1.5
 74
     0
 49
-1.5
 74
     0
 49
1.5
 74
     0
 49
-1.5
 74
     0
  0
LTYPE
  5
29
330
5
100
AcDbSymbolTableRecord
100
AcDbLinetypeTableRecord
  2
DOT
 70
     0
  3
. . . . . . . . . . . . . . . . . . . . . . . .
 72
    65
 73
     2
 40
0.25
 49
0.0
 74
     0
 49
-0.25
 74
     0
  0
LTYPE
  5
2A
330
5
100
AcDbSymbolTableRecord
100
AcDbLinetypeTableRecord
  2
HIDDEN
 70
     0
  3
__ __ __ __ __ __ __ __ __ __ __ __ __ __ __
 72
    65
 73
     2
 40
3.5
 49
2.0
 74
     0
 49
-1.5
 74
     0
  0
ENDTAB
  0
TABLE
  2
LAYER
  5
2
330
0
100
AcDbSymbolTable
 70
     2
  0
LAYER
  5
10
330
2
100
AcDbSymbolTableRecord
100
AcDbLayerTableRecord
  2
0
 70
     0
 62
     7
  6
CONTINUOUS
370
    -3
390
F
  0
LAYER
  5
2B
330
2
100
AcDbSymbolTableRecord
100
AcDbLayerTableRecord
  2
DEFPOINTS
 70
     0
 62
     7
  6
CONTINUOUS
290
     0
370
    -3
390
F
  0
ENDTAB
  0
TABLE
  2
STYLE
  5
3
330
0
100
AcDbSymbolTable
 70
     2
  0
STYLE
  5
11
330
3
100
AcDbSymbolTableRecord
100
AcDbTextStyleTableRecord
  2
STANDARD
 70
     0
 40
0.0
 41
1.0
 50
0.0
 71
     0
 42
0.2
  3

  4

1001
ACAD
1000
MS Gothic
1071
    32817
  0
ENDTAB
  0
TABLE
  2
VIEW
  5
6
330
0
100
AcDbSymbolTable
 70
     0
  0
ENDTAB
  0
TABLE
  2
UCS
  5
7
330
0
100
AcDbSymbolTable
 70
     0
  0
ENDTAB
  0
TABLE
  2
APPID
  5
9
330
0
100
AcDbSymbolTable
 70
     2
  0
APPID
  5
12
330
9
100
AcDbSymbolTableRecord
100
AcDbRegAppTableRecord
  2
ACAD
 70
     0
  0
APPID
  5
2EC
330
9
100
AcDbSymbolTableRecord
100
AcDbRegAppTableRecord
  2
ACAD_PSEXT
 70
     0
  0
ENDTAB
  0
TABLE
  2
DIMSTYLE
  5
A
330
0
100
AcDbSymbolTable
 70
    11
100
AcDbDimStyleTable
 71
     1
340
2C
  0
DIMSTYLE
105
2C
102
{ACAD_REACTORS
330
2DF
102
}
330
A
100
AcDbSymbolTableRecord
100
AcDbDimStyleTableRecord
  2
DIMSTYLE1
 70
     0
 41
1.0
 42
2.54
 44
2.54
 73
     0
 74
     0
 77
     1
140
3.0
145
1.0
147
1.5
172
     1
173
     1
279
     2
340
11
  0
DIMSTYLE
105
2D
102
{ACAD_REACTORS
330
2E0
102
}
330
A
100
AcDbSymbolTableRecord
100
AcDbDimStyleTableRecord
  2
DIMSTYLE2
 70
     0
 41
1.0
 42
2.54
 44
2.54
 73
     0
 74
     0
 75
     1
 76
     1
 77
     1
140
3.0
145
1.0
147
1.5
172
     1
173
     1
279
     2
340
11
  0
DIMSTYLE
105
2E
102
{ACAD_REACTORS
330
2E1
102
}
330
A
100
AcDbSymbolTableRecord
100
AcDbDimStyleTableRecord
  2
DIMSTYLE3
 70
     0
 41
1.0
 42
2.54
 44
2.54
 73
     0
 74
     0
 75
     1
 76
     1
 77
     1
140
3.0
145
1.0
147
1.5
172
     1
173
     1
279
     2
340
11
  0
DIMSTYLE
105
2F
102
{ACAD_REACTORS
330
2E2
102
}
330
A
100
AcDbSymbolTableRecord
100
AcDbDimStyleTableRecord
  2
DIMSTYLE4
 70
     0
 41
1.0
 42
2.54
 44
2.54
 73
     0
 74
     0
 75
     1
 76
     1
 77
     1
140
3.0
145
1.0
147
1.5
172
     1
173
     1
279
     2
340
11
  0
DIMSTYLE
105
30
102
{ACAD_REACTORS
330
2E3
102
}
330
A
100
AcDbSymbolTableRecord
100
AcDbDimStyleTableRecord
  2
DIMSTYLE5
 70
     0
 41
1.0
 42
2.54
 44
2.54
 73
     0
 74
     0
 77
     1
140
3.0
145
1.0
147
1.5
172
     1
173
     1
279
     2
340
11
  0
DIMSTYLE
105
31
102
{ACAD_REACTORS
330
2E4
102
}
330
A
100
AcDbSymbolTableRecord
100
AcDbDimStyleTableRecord
  2
DIMSTYLE6
 70
     0
 41
1.0
 42
2.54
 44
2.54
 73
     0
 74
     0
 77
     1
140
3.0
145
1.0
147
1.5
172
     1
173
     1
279
     2
340
11
  0
DIMSTYLE
105
32
102
{ACAD_REACTORS
330
2E5
102
}
330
A
100
AcDbSymbolTableRecord
100
AcDbDimStyleTableRecord
  2
DIMSTYLE7
 70
     0
 41
1.0
 42
2.54
 44
2.54
 73
     0
 74
     0
 77
     1
140
3.0
145
1.0
147
1.5
172
     1
173
     1
279
     2
340
11
  0
DIMSTYLE
105
33
102
{ACAD_REACTORS
330
2E6
102
}
330
A
100
AcDbSymbolTableRecord
100
AcDbDimStyleTableRecord
  2
DIMSTYLE8
 70
     0
 41
1.0
 42
2.54
 44
2.54
 73
     0
 74
     0
 77
     1
140
3.0
145
1.0
147
1.5
172
     1
173
     1
279
     2
340
11
  0
DIMSTYLE
105
34
102
{ACAD_REACTORS
330
2E8
102
}
330
A
100
AcDbSymbolTableRecord
100
AcDbDimStyleTableRecord
  2
DIMSTYLE9
 70
     0
 41
1.0
 42
2.54
 44
2.54
 73
     0
 74
     0
 77
     1
140
3.0
145
1.0
147
1.5
172
     1
173
     1
279
     2
340
11
  0
DIMSTYLE
105
35
102
{ACAD_REACTORS
330
2E9
102
}
330
A
100
AcDbSymbolTableRecord
100
AcDbDimStyleTableRecord
  2
DIMSTYLE10
 70
     0
 41
1.0
 42
2.54
 44
2.54
 73
     0
 74
     0
 77
     1
140
3.0
145
1.0
147
1.5
172
     1
173
     1
279
     2
340
11
  0
ENDTAB
  0
TABLE
  2
BLOCK_RECORD
  5
1
330
0
100
AcDbSymbolTable
 70
    13
  0
BLOCK_RECORD
  5
22
330
1
100
AcDbSymbolTableRecord
100
AcDbBlockTableRecord
  2
*Model_Space
340
25
  0
BLOCK_RECORD
  5
1E
330
1
100
AcDbSymbolTableRecord
100
AcDbBlockTableRecord
  2
*Paper_Space
340
21
  0
BLOCK_RECORD
  5
39
330
1
100
AcDbSymbolTableRecord
100
AcDbBlockTableRecord
  2
_OPEN30
340
0
102
{BLKREFS
331
42
331
43
331
4F
331
50
331
59
331
5A
331
63
331
64
331
6C
331
6D
331
79
331
7B
331
86
331
87
331
91
331
92
331
9C
331
9D
331
A8
331
A9
102
}
  0
BLOCK_RECORD
  5
3F
330
1
100
AcDbSymbolTableRecord
100
AcDbBlockTableRecord
  2
*D1
340
0
  0
BLOCK_RECORD
  5
4B
330
1
100
AcDbSymbolTableRecord
100
AcDbBlockTableRecord
  2
*D2
340
0
  0
BLOCK_RECORD
  5
55
330
1
100
AcDbSymbolTableRecord
100
AcDbBlockTableRecord
  2
*D3
340
0
  0
BLOCK_RECORD
  5
5F
330
1
100
AcDbSymbolTableRecord
100
AcDbBlockTableRecord
  2
*D4
340
0
  0
BLOCK_RECORD
  5
69
330
1
100
AcDbSymbolTableRecord
100
AcDbBlockTableRecord
  2
*D5
340
0
  0
BLOCK_RECORD
  5
75
330
1
100
AcDbSymbolTableRecord
100
AcDbBlockTableRecord
  2
*D6
340
0
  0
BLOCK_RECORD
  5
83
330
1
100
AcDbSymbolTableRecord
100
AcDbBlockTableRecord
  2
*D7
340
0
  0
BLOCK_RECORD
  5
8E
330
1
100
AcDbSymbolTableRecord
100
AcDbBlockTableRecord
  2
*D8
340
0
  0
BLOCK_RECORD
  5
99
330
1
100
AcDbSymbolTableRecord
100
AcDbBlockTableRecord
  2
*D9
340
0
  0
BLOCK_RECORD
  5
A5
330
1
100
AcDbSymbolTableRecord
100
AcDbBlockTableRecord
  2
*D10
340
0
  0
BLOCK_RECORD
  5
AF
330
1
100
AcDbSymbolTableRecord
100
AcDbBlockTableRecord
  2
KOZU0001
340
0
102
{BLKREFS
331
2E7
102
}
  0
ENDTAB
  0
ENDSEC
  0
SECTION
  2
BLOCKS
  0
BLOCK
  5
23
330
22
100
AcDbEntity
  8
0
100
AcDbBlockBegin
  2
*Model_Space
 70
     0
 10
0.0
 20
0.0
 30
0.0
  3
*Model_Space
  1

  0
ENDBLK
  5
24
330
22
100
AcDbEntity
  8
0
100
AcDbBlockEnd
  0
BLOCK
  5
1F
330
1E
100
AcDbEntity
 67
     1
  8
0
100
AcDbBlockBegin
  2
*Paper_Space
 70
     0
 10
0.0
 20
0.0
 30
0.0
  3
*Paper_Space
  1

  0
ENDBLK
  5
20
330
1E
100
AcDbEntity
 67
     1
  8
0
100
AcDbBlockEnd
  0
BLOCK
  5
3A
330
39
100
AcDbEntity
  8
0
100
AcDbBlockBegin
  2
_OPEN30
 70
     0
 10
0.0
 20
0.0
 30
0.0
  3
_OPEN30
  1

  0
LINE
  5
3B
330
39
100
AcDbEntity
  8
0
  6
ByBlock
 62
     0
100
AcDbLine
 10
0.0
 20
0.0
 30
0.0
 11
-2.999999999999993
 21
-1.000000000000017
 31
0.0
  0
LINE
  5
3C
330
39
100
AcDbEntity
  8
0
  6
ByBlock
 62
     0
100
AcDbLine
 10
0.0
 20
0.0
 30
0.0
 11
-3.000000000000006
 21
0.9999999999999815
 31
0.0
  0
LINE
  5
3D
330
39
100
AcDbEntity
  8
0
  6
ByBlock
 62
     0
100
AcDbLine
 10
0.0
 20
0.0
 30
0.0
 11
-3.0
 21
0.0
 31
0.0
  0
ENDBLK
  5
3E
330
39
100
AcDbEntity
  8
0
100
AcDbBlockEnd
  0
BLOCK
  5
40
330
3F
100
AcDbEntity
  8
0
100
AcDbBlockBegin
  2
*D1
 70
     1
 10
0.0
 20
0.0
 30
0.0
  3
*D1
  1

  0
LINE
  5
41
330
3F
100
AcDbEntity
  8
0
  6
Continuous
 62
     7
100
AcDbLine
 10
-479.3881225585938
 20
65.5435562133789
 30
0.0
 11
-402.3881225585937
 21
65.54355621337889
 31
0.0
  0
INSERT
  5
42
330
3F
100
AcDbEntity
  8
0
  6
Continuous
 62
     7
100
AcDbBlockReference
  2
_OPEN30
 10
-482.3881225585938
 20
65.5435562133789
 30
0.0
 50
180.0000000000004
  0
INSERT
  5
43
330
3F
100
AcDbEntity
  8
0
  6
Continuous
 62
     7
100
AcDbBlockReference
  2
_OPEN30
 10
-399.3881225585938
 20
65.5435562133789
 30
0.0
  0
LINE
  5
44
330
3F
100
AcDbEntity
  8
0
  6
Continuous
 62
     7
100
AcDbLine
 10
-482.3881225585938
 20
96.6828317260742
 30
0.0
 11
-482.3881225585938
 21
63.25755310058593
 31
0.0
  0
LINE
  5
45
330
3F
100
AcDbEntity
  8
0
  6
Continuous
 62
     7
100
AcDbLine
 10
-399.3881225585938
 20
96.6828317260742
 30
0.0
 11
-399.3881225585938
 21
63.25755310058593
 31
0.0
  0
TEXT
  5
46
330
3F
100
AcDbEntity
  8
0
  6
Continuous
 62
     7
100
AcDbText
 10
-444.9581227302551
 20
66.2935562133789
 30
0.0
 40
3.0
  1
%%C83
 41
0.9498249830693319
100
AcDbText
  0
POINT
  5
47
330
3F
100
AcDbEntity
  8
DEFPOINTS
  6
Continuous
 62
     7
100
AcDbPoint
 10
-482.3881225585938
 20
99.22283172607421
 30
0.0
  0
POINT
  5
48
330
3F
100
AcDbEntity
  8
DEFPOINTS
  6
Continuous
 62
     7
100
AcDbPoint
 10
-399.3881225585938
 20
99.22283172607421
 30
0.0
  0
POINT
  5
49
330
3F
100
AcDbEntity
  8
DEFPOINTS
  6
Continuous
 62
     7
100
AcDbPoint
 10
-399.3881225585938
 20
65.5435562133789
 30
0.0
  0
ENDBLK
  5
4A
330
3F
100
AcDbEntity
  8
0
100
AcDbBlockEnd
  0
BLOCK
  5
4C
330
4B
100
AcDbEntity
  8
0
100
AcDbBlockBegin
  2
*D2
 70
     1
 10
0.0
 20
0.0
 30
0.0
  3
*D2
  1

  0
LINE
  5
4D
330
4B
100
AcDbEntity
  8
0
  6
Continuous
 62
     7
100
AcDbLine
 10
-368.4430541992188
 20
498.2467956542969
 30
0.0
 11
-336.2952880859375
 21
522.684326171875
 31
0.0
  0
LINE
  5
4E
330
4B
100
AcDbEntity
  8
0
  6
Continuous
 62
     7
100
AcDbLine
 10
-510.9448917704429
 20
389.922185854093
 30
0.0
 11
-370.8313533467446
 21
496.4312992533288
 31
0.0
  0
INSERT
  5
4F
330
4B
100
AcDbEntity
  8
0
  6
Continuous
 62
     7
100
AcDbBlockReference
  2
_OPEN30
 10
-513.3331909179688
 20
388.106689453125
 30
0.0
 50
217.2407496941359
  0
INSERT
  5
50
330
4B
100
AcDbEntity
  8
0
  6
Continuous
 62
     7
100
AcDbBlockReference
  2
_OPEN30
 10
-368.4430541992188
 20
498.2467956542969
 30
0.0
 50
37.24074969413523
  0
TEXT
  5
51
330
4B
100
AcDbEntity
  8
0
  6
Continuous
 62
     7
100
AcDbText
 10
-362.3422781085945
 20
503.8408397750727
 30
0.0
 40
3.0
  1
%%C１８２（防水皿外径）
 50
37.20000035216539
 41
0.8440126077968535
100
AcDbText
  0
POINT
  5
52
330
4B
100
AcDbEntity
  8
DEFPOINTS
  6
Continuous
 62
     7
100
AcDbPoint
 10
-513.3331909179688
 20
388.106689453125
 30
0.0
  0
POINT
  5
53
330
4B
100
AcDbEntity
  8
DEFPOINTS
  6
Continuous
 62
     7
100
AcDbPoint
 10
-368.4430541992188
 20
498.2467956542969
 30
0.0
  0
ENDBLK
  5
54
330
4B
100
AcDbEntity
  8
0
100
AcDbBlockEnd
  0
BLOCK
  5
56
330
55
100
AcDbEntity
  8
0
100
AcDbBlockBegin
  2
*D3
 70
     1
 10
0.0
 20
0.0
 30
0.0
  3
*D3
  1

  0
LINE
  5
57
330
55
100
AcDbEntity
  8
0
  6
Continuous
 62
     7
100
AcDbLine
 10
-374.8292541503906
 20
454.0723571777343
 30
0.0
 11
-316.1445922851563
 21
463.7444763183593
 31
0.0
  0
LINE
  5
58
330
55
100
AcDbEntity
  8
0
  6
Continuous
 62
     7
100
AcDbLine
 10
-504.0854664528332
 20
432.7689912457874
 30
0.0
 11
-377.7893199241201
 21
453.5844938616343
 31
0.0
  0
INSERT
  5
59
330
55
100
AcDbEntity
  8
0
  6
Continuous
 62
     7
100
AcDbBlockReference
  2
_OPEN30
 10
-507.0455322265624
 20
432.2811279296875
 30
0.0
 50
189.3590674244951
  0
INSERT
  5
5A
330
55
100
AcDbEntity
  8
0
  6
Continuous
 62
     7
100
AcDbBlockReference
  2
_OPEN30
 10
-374.8292541503906
 20
454.0723571777343
 30
0.0
 50
9.359067424494396
  0
TEXT
  5
5B
330
55
100
AcDbEntity
  8
0
  6
Continuous
 62
     7
100
AcDbText
 10
-345.0175118467013
 20
459.7353307817406
 30
0.0
 40
3.0
  1
%%C１３４（目皿外径）
 50
9.400000033905858
 41
0.8443929326254473
100
AcDbText
  0
POINT
  5
5C
330
55
100
AcDbEntity
  8
DEFPOINTS
  6
Continuous
 62
     7
100
AcDbPoint
 10
-507.0455322265624
 20
432.2811279296875
 30
0.0
  0
POINT
  5
5D
330
55
100
AcDbEntity
  8
DEFPOINTS
  6
Continuous
 62
     7
100
AcDbPoint
 10
-374.8292541503906
 20
454.0723571777343
 30
0.0
  0
ENDBLK
  5
5E
330
55
100
AcDbEntity
  8
0
100
AcDbBlockEnd
  0
BLOCK
  5
60
330
5F
100
AcDbEntity
  8
0
100
AcDbBlockBegin
  2
*D4
 70
     1
 10
0.0
 20
0.0
 30
0.0
  3
*D4
  1

  0
LINE
  5
61
330
5F
100
AcDbEntity
  8
0
  6
Continuous
 62
     7
100
AcDbLine
 10
-366.5985717773438
 20
472.8594055175781
 30
0.0
 11
-321.0013427734375
 21
491.0779724121093
 31
0.0
  0
LINE
  5
62
330
5F
100
AcDbEntity
  8
0
  6
Continuous
 62
     7
100
AcDbLine
 10
-512.3918149116946
 20
414.6071496150338
 30
0.0
 11
-369.3844302054928
 21
471.7463049748097
 31
0.0
  0
INSERT
  5
63
330
5F
100
AcDbEntity
  8
0
  6
Continuous
 62
     7
100
AcDbBlockReference
  2
_OPEN30
 10
-515.1776733398438
 20
413.4940490722656
 30
0.0
 50
201.7793709070589
  0
INSERT
  5
64
330
5F
100
AcDbEntity
  8
0
  6
Continuous
 62
     7
100
AcDbBlockReference
  2
_OPEN30
 10
-366.5985717773438
 20
472.8594055175781
 30
0.0
 50
21.77937090705821
  0
TEXT
  5
65
330
5F
100
AcDbEntity
  8
0
  6
Continuous
 62
     7
100
AcDbText
 10
-351.1235490739346
 20
479.8439309699488
 30
0.0
 40
3.0
  1
%%C１６０（目皿受外径）
 50
21.80000015129432
 41
0.8440126077968535
100
AcDbText
  0
POINT
  5
66
330
5F
100
AcDbEntity
  8
DEFPOINTS
  6
Continuous
 62
     7
100
AcDbPoint
 10
-515.1776733398438
 20
413.4940490722656
 30
0.0
  0
POINT
  5
67
330
5F
100
AcDbEntity
  8
DEFPOINTS
  6
Continuous
 62
     7
100
AcDbPoint
 10
-366.5985717773438
 20
472.8594055175781
 30
0.0
  0
ENDBLK
  5
68
330
5F
100
AcDbEntity
  8
0
100
AcDbBlockEnd
  0
BLOCK
  5
6A
330
69
100
AcDbEntity
  8
0
100
AcDbBlockBegin
  2
*D5
 70
     1
 10
0.0
 20
0.0
 30
0.0
  3
*D5
  1

  0
LINE
  5
6B
330
69
100
AcDbEntity
  8
0
  6
Continuous
 62
     7
100
AcDbLine
 10
-302.8066101074219
 20
145.2228240966797
 30
0.0
 11
-302.8066101074219
 21
298.2228393554688
 31
0.0
  0
INSERT
  5
6C
330
69
100
AcDbEntity
  8
0
  6
Continuous
 62
     7
100
AcDbBlockReference
  2
_OPEN30
 10
-302.8066101074219
 20
142.2228240966797
 30
0.0
 50
270.0000000000005
  0
INSERT
  5
6D
330
69
100
AcDbEntity
  8
0
  6
Continuous
 62
     7
100
AcDbBlockReference
  2
_OPEN30
 10
-302.8066101074219
 20
301.2228393554688
 30
0.0
 50
90.00000000000019
  0
LINE
  5
6E
330
69
100
AcDbEntity
  8
0
  6
Continuous
 62
     7
100
AcDbLine
 10
-347.3481225585937
 20
142.2228240966797
 30
0.0
 11
-300.5205993652344
 21
142.2228240966797
 31
0.0
  0
LINE
  5
6F
330
69
100
AcDbEntity
  8
0
  6
Continuous
 62
     7
100
AcDbLine
 10
-358.8481225585937
 20
301.2228393554688
 30
0.0
 11
-300.5205993652344
 21
301.2228393554688
 31
0.0
  0
TEXT
  5
70
330
69
100
AcDbEntity
  8
0
  6
Continuous
 62
     7
100
AcDbText
 10
-303.5566092738457
 20
202.6528232961884
 30
0.0
 40
3.0
  1
１５９　（１５２～１７２）
 50
90.00000250447815
 41
0.8434321120058422
100
AcDbText
  0
POINT
  5
71
330
69
100
AcDbEntity
  8
DEFPOINTS
  6
Continuous
 62
     7
100
AcDbPoint
 10
-349.8881225585938
 20
142.2228240966797
 30
0.0
  0
POINT
  5
72
330
69
100
AcDbEntity
  8
DEFPOINTS
  6
Continuous
 62
     7
100
AcDbPoint
 10
-361.3881225585938
 20
301.2228393554688
 30
0.0
  0
POINT
  5
73
330
69
100
AcDbEntity
  8
DEFPOINTS
  6
Continuous
 62
     7
100
AcDbPoint
 10
-302.8066101074219
 20
301.2228393554688
 30
0.0
  0
ENDBLK
  5
74
330
69
100
AcDbEntity
  8
0
100
AcDbBlockEnd
  0
BLOCK
  5
76
330
75
100
AcDbEntity
  8
0
100
AcDbBlockBegin
  2
*D6
 70
     1
 10
0.0
 20
0.0
 30
0.0
  3
*D6
  1

  0
LINE
  5
77
330
75
100
AcDbEntity
  8
0
  6
Continuous
 62
     7
100
AcDbLine
 10
-302.8066101074219
 20
139.2228240966797
 30
0.0
 11
-302.8066101074219
 21
127.3202362060547
 31
0.0
  0
LINE
  5
78
330
75
100
AcDbEntity
  8
0
  6
Continuous
 62
     7
100
AcDbLine
 10
-302.8066101074219
 20
142.2228240966797
 30
0.0
 11
-302.8066101074219
 21
139.2228240966797
 31
0.0
  0
INSERT
  5
79
330
75
100
AcDbEntity
  8
0
  6
Continuous
 62
     7
100
AcDbBlockReference
  2
_OPEN30
 10
-302.8066101074219
 20
142.2228240966797
 30
0.0
 50
270.0000000000002
  0
LINE
  5
7A
330
75
100
AcDbEntity
  8
0
  6
Continuous
 62
     7
100
AcDbLine
 10
-302.8066101074219
 20
145.2228240966797
 30
0.0
 11
-302.8066101074219
 21
148.5728240966797
 31
0.0
  0
INSERT
  5
7B
330
75
100
AcDbEntity
  8
0
  6
Continuous
 62
     7
100
AcDbBlockReference
  2
_OPEN30
 10
-302.8066101074219
 20
139.2228240966797
 30
0.0
 50
90.00000000000049
  0
LINE
  5
7C
330
75
100
AcDbEntity
  8
0
  6
Continuous
 62
     7
100
AcDbLine
 10
-302.8066101074219
 20
136.2228240966797
 30
0.0
 11
-302.8066101074218
 21
132.8728240966797
 31
0.0
  0
LINE
  5
7D
330
75
100
AcDbEntity
  8
0
  6
Continuous
 62
     7
100
AcDbLine
 10
-347.3481225585937
 20
139.2228240966797
 30
0.0
 11
-300.5205993652344
 21
139.2228240966797
 31
0.0
  0
TEXT
  5
7E
330
75
100
AcDbEntity
  8
0
  6
Continuous
 62
     7
100
AcDbText
 10
-303.5566100606506
 20
127.3202434450378
 30
0.0
 40
3.0
  1
3
 50
90.00000250447815
100
AcDbText
  0
POINT
  5
7F
330
75
100
AcDbEntity
  8
DEFPOINTS
  6
Continuous
 62
     7
100
AcDbPoint
 10
-300.5205993652344
 20
142.2228240966797
 30
0.0
  0
POINT
  5
80
330
75
100
AcDbEntity
  8
DEFPOINTS
  6
Continuous
 62
     7
100
AcDbPoint
 10
-349.8881225585938
 20
139.2228240966797
 30
0.0
  0
POINT
  5
81
330
75
100
AcDbEntity
  8
DEFPOINTS
  6
Continuous
 62
     7
100
AcDbPoint
 10
-302.8066101074219
 20
139.2228240966797
 30
0.0
  0
ENDBLK
  5
82
330
75
100
AcDbEntity
  8
0
100
AcDbBlockEnd
  0
BLOCK
  5
84
330
83
100
AcDbEntity
  8
0
100
AcDbBlockBegin
  2
*D7
 70
     1
 10
0.0
 20
0.0
 30
0.0
  3
*D7
  1

  0
LINE
  5
85
330
83
100
AcDbEntity
  8
0
  6
Continuous
 62
     7
100
AcDbLine
 10
-324.6429748535156
 20
145.2228240966797
 30
0.0
 11
-324.6429748535156
 21
169.2228240966796
 31
0.0
  0
INSERT
  5
86
330
83
100
AcDbEntity
  8
0
  6
Continuous
 62
     7
100
AcDbBlockReference
  2
_OPEN30
 10
-324.6429748535156
 20
142.2228240966797
 30
0.0
 50
270.0000000000005
  0
INSERT
  5
87
330
83
100
AcDbEntity
  8
0
  6
Continuous
 62
     7
100
AcDbBlockReference
  2
_OPEN30
 10
-324.6429748535156
 20
172.2228240966797
 30
0.0
 50
90.00000000000019
  0
LINE
  5
88
330
83
100
AcDbEntity
  8
0
  6
Continuous
 62
     7
100
AcDbLine
 10
-396.8481225585937
 20
172.2228240966797
 30
0.0
 11
-322.3569641113281
 21
172.2228240966797
 31
0.0
  0
TEXT
  5
89
330
83
100
AcDbEntity
  8
0
  6
Continuous
 62
     7
100
AcDbText
 10
-325.3929747411774
 20
154.6528239518394
 30
0.0
 40
3.0
  1
30
 50
90.00000250447815
 41
1.101428593908038
100
AcDbText
  0
POINT
  5
8A
330
83
100
AcDbEntity
  8
DEFPOINTS
  6
Continuous
 62
     7
100
AcDbPoint
 10
-300.5205993652344
 20
142.2228240966797
 30
0.0
  0
POINT
  5
8B
330
83
100
AcDbEntity
  8
DEFPOINTS
  6
Continuous
 62
     7
100
AcDbPoint
 10
-399.3881225585938
 20
172.2228240966797
 30
0.0
  0
POINT
  5
8C
330
83
100
AcDbEntity
  8
DEFPOINTS
  6
Continuous
 62
     7
100
AcDbPoint
 10
-324.6429748535156
 20
172.2228240966797
 30
0.0
  0
ENDBLK
  5
8D
330
83
100
AcDbEntity
  8
0
100
AcDbBlockEnd
  0
BLOCK
  5
8F
330
8E
100
AcDbEntity
  8
0
100
AcDbBlockBegin
  2
*D8
 70
     1
 10
0.0
 20
0.0
 30
0.0
  3
*D8
  1

  0
LINE
  5
90
330
8E
100
AcDbEntity
  8
0
  6
Continuous
 62
     7
100
AcDbLine
 10
-324.6429748535156
 20
298.2228393554688
 30
0.0
 11
-324.6429748535156
 21
234.2228240966797
 31
0.0
  0
INSERT
  5
91
330
8E
100
AcDbEntity
  8
0
  6
Continuous
 62
     7
100
AcDbBlockReference
  2
_OPEN30
 10
-324.6429748535156
 20
301.2228393554688
 30
0.0
 50
90.00000000000019
  0
INSERT
  5
92
330
8E
100
AcDbEntity
  8
0
  6
Continuous
 62
     7
100
AcDbBlockReference
  2
_OPEN30
 10
-324.6429748535156
 20
231.2228240966797
 30
0.0
 50
270.0000000000005
  0
LINE
  5
93
330
8E
100
AcDbEntity
  8
0
  6
Continuous
 62
     7
100
AcDbLine
 10
-393.9981164550781
 20
231.2228240966797
 30
0.0
 11
-322.3569641113281
 21
231.2228240966797
 31
0.0
  0
TEXT
  5
94
330
8E
100
AcDbEntity
  8
0
  6
Continuous
 62
     7
100
AcDbText
 10
-325.3929747411774
 20
263.6528392106285
 30
0.0
 40
3.0
  1
70
 50
90.00000250447815
 41
1.101428593908038
100
AcDbText
  0
POINT
  5
95
330
8E
100
AcDbEntity
  8
DEFPOINTS
  6
Continuous
 62
     7
100
AcDbPoint
 10
-300.5205993652344
 20
301.2228393554688
 30
0.0
  0
POINT
  5
96
330
8E
100
AcDbEntity
  8
DEFPOINTS
  6
Continuous
 62
     7
100
AcDbPoint
 10
-396.5381164550781
 20
231.2228240966797
 30
0.0
  0
POINT
  5
97
330
8E
100
AcDbEntity
  8
DEFPOINTS
  6
Continuous
 62
     7
100
AcDbPoint
 10
-324.6429748535156
 20
231.2228240966797
 30
0.0
  0
ENDBLK
  5
98
330
8E
100
AcDbEntity
  8
0
100
AcDbBlockEnd
  0
BLOCK
  5
9A
330
99
100
AcDbEntity
  8
0
100
AcDbBlockBegin
  2
*D9
 70
     1
 10
0.0
 20
0.0
 30
0.0
  3
*D9
  1

  0
LINE
  5
9B
330
99
100
AcDbEntity
  8
0
  6
Continuous
 62
     7
100
AcDbLine
 10
-546.2251586914063
 20
102.2228317260742
 30
0.0
 11
-546.2251586914063
 21
169.2228240966796
 31
0.0
  0
INSERT
  5
9C
330
99
100
AcDbEntity
  8
0
  6
Continuous
 62
     7
100
AcDbBlockReference
  2
_OPEN30
 10
-546.2251586914063
 20
99.22283172607421
 30
0.0
 50
270.0000000000005
  0
INSERT
  5
9D
330
99
100
AcDbEntity
  8
0
  6
Continuous
 62
     7
100
AcDbBlockReference
  2
_OPEN30
 10
-546.2251586914063
 20
172.2228240966797
 30
0.0
 50
90.00000000000019
  0
LINE
  5
9E
330
99
100
AcDbEntity
  8
0
  6
Continuous
 62
     7
100
AcDbLine
 10
-484.9281225585938
 20
99.22283172607421
 30
0.0
 11
-548.5111694335938
 21
99.22283172607421
 31
0.0
  0
LINE
  5
9F
330
99
100
AcDbEntity
  8
0
  6
Continuous
 62
     7
100
AcDbLine
 10
-484.9281225585938
 20
172.2228240966797
 30
0.0
 11
-548.5111694335938
 21
172.2228240966797
 31
0.0
  0
TEXT
  5
A0
330
99
100
AcDbEntity
  8
0
  6
Continuous
 62
     7
100
AcDbText
 10
-546.9751585790679
 20
133.1528239518394
 30
0.0
 40
3.0
  1
73
 50
90.00000250447815
 41
1.028000020980834
100
AcDbText
  0
POINT
  5
A1
330
99
100
AcDbEntity
  8
DEFPOINTS
  6
Continuous
 62
     7
100
AcDbPoint
 10
-482.3881225585938
 20
99.22283172607421
 30
0.0
  0
POINT
  5
A2
330
99
100
AcDbEntity
  8
DEFPOINTS
  6
Continuous
 62
     7
100
AcDbPoint
 10
-482.3881225585938
 20
172.2228240966797
 30
0.0
  0
POINT
  5
A3
330
99
100
AcDbEntity
  8
DEFPOINTS
  6
Continuous
 62
     7
100
AcDbPoint
 10
-546.2251586914063
 20
172.2228240966797
 30
0.0
  0
ENDBLK
  5
A4
330
99
100
AcDbEntity
  8
0
100
AcDbBlockEnd
  0
BLOCK
  5
A6
330
A5
100
AcDbEntity
  8
0
100
AcDbBlockBegin
  2
*D10
 70
     1
 10
0.0
 20
0.0
 30
0.0
  3
*D10
  1

  0
LINE
  5
A7
330
A5
100
AcDbEntity
  8
0
  6
Continuous
 62
     7
100
AcDbLine
 10
-423.2790832519531
 20
152.2228240966797
 30
0.0
 11
-423.2790832519531
 21
246.2228240966797
 31
0.0
  0
INSERT
  5
A8
330
A5
100
AcDbEntity
  8
0
  6
Continuous
 62
     7
100
AcDbBlockReference
  2
_OPEN30
 10
-423.2790832519531
 20
149.2228240966797
 30
0.0
 50
270.0000000000005
  0
INSERT
  5
A9
330
A5
100
AcDbEntity
  8
0
  6
Continuous
 62
     7
100
AcDbBlockReference
  2
_OPEN30
 10
-423.2790832519531
 20
249.2228240966797
 30
0.0
 50
90.00000000000019
  0
TEXT
  5
AA
330
A5
100
AcDbEntity
  8
0
  6
Continuous
 62
     7
100
AcDbText
 10
-424.0290830740478
 20
195.1528238922348
 30
0.0
 40
3.0
  1
100
 50
90.00000250447815
 41
1.320000017011488
100
AcDbText
  0
POINT
  5
AB
330
A5
100
AcDbEntity
  8
DEFPOINTS
  6
Continuous
 62
     7
100
AcDbPoint
 10
-440.8881225585938
 20
149.2228240966797
 30
0.0
  0
POINT
  5
AC
330
A5
100
AcDbEntity
  8
DEFPOINTS
  6
Continuous
 62
     7
100
AcDbPoint
 10
-440.8881225585938
 20
249.2228240966797
 30
0.0
  0
POINT
  5
AD
330
A5
100
AcDbEntity
  8
DEFPOINTS
  6
Continuous
 62
     7
100
AcDbPoint
 10
-423.2790832519531
 20
249.2228240966797
 30
0.0
  0
ENDBLK
  5
AE
330
A5
100
AcDbEntity
  8
0
100
AcDbBlockEnd
  0
BLOCK
  5
B0
330
AF
100
AcDbEntity
  8
0
100
AcDbBlockBegin
  2
KOZU0001
 70
     0
 10
0.0
 20
0.0
 30
0.0
  3
KOZU0001
  1

  0
LINE
  5
B1
330
AF
100
AcDbEntity
  8
0
  6
Continuous
 62
     7
100
AcDbLine
 10
0.0
 20
0.0
 30
0.0
 11
25.86178588867188
 21
-27.41581726074219
 31
0.0
  0
LINE
  5
B2
330
AF
100
AcDbEntity
  8
0
  6
Continuous
 62
     7
100
AcDbLine
 10
25.86178588867188
 20
-27.41581726074219
 30
0.0
 11
65.0277099609375
 21
-27.41581726074219
 31
0.0
  0
LINE
  5
B3
330
AF
100
AcDbEntity
  8
0
  6
Continuous
 62
     7
100
AcDbLine
 10
0.0
 20
0.0
 30
0.0
 11
2.785991624475786
 21
-1.49607842987952
 31
0.0
  0
LINE
  5
B4
330
AF
100
AcDbEntity
  8
0
  6
Continuous
 62
     7
100
AcDbLine
 10
0.0
 20
0.0
 30
0.0
 11
1.331146241652916
 21
-2.868457718589087
 31
0.0
  0
TEXT
  5
B5
330
AF
100
AcDbEntity
  8
0
  6
Continuous
 62
     7
100
AcDbText
 10
28.1677086353302
 20
-26.66581726074219
 30
0.0
 40
3.0
  1
配管接続口
 41
0.8487395020950888
100
AcDbText
  0
TEXT
  5
B6
330
AF
100
AcDbEntity
  8
0
  6
Continuous
 62
     7
100
AcDbText
 10
28.1677086353302
 20
-31.93081726074219
 30
0.0
 40
3.0
  1
Ｒｃ２　１／２（６５Ａ）
 41
0.8436974815103043
100
AcDbText
  0
ENDBLK
  5
B7
330
AF
100
AcDbEntity
  8
0
100
AcDbBlockEnd
  0
ENDSEC
  0
SECTION
  2
ENTITIES
  0
LINE
  5
B8
330
22
100
AcDbEntity
  8
0
  6
Continuous
 62
     7
100
AcDbLine
 10
-392.1881103515625
 20
456.6767272949219
 30
0.0
 11
-392.1881103515625
 21
448.8767395019531
 31
0.0
  0
LINE
  5
B9
330
22
100
AcDbEntity
  8
0
  6
Continuous
 62
     7
100
AcDbLine
 10
-414.9881286621093
 20
459.6767272949218
 30
0.0
 11
-414.9881286621093
 21
448.8767395019531
 31
0.0
  0
LINE
  5
BA
330
22
100
AcDbEntity
  8
0
  6
Continuous
 62
     7
100
AcDbLine
 10
-409.7881164550781
 20
467.3767395019531
 30
0.0
 11
-409.7881164550781
 21
448.8767395019531
 31
0.0
  0
LINE
  5
BB
330
22
100
AcDbEntity
  8
0
  6
Continuous
 62
     7
100
AcDbLine
 10
-403.5881042480468
 20
467.3767395019531
 30
0.0
 11
-403.5881042480468
 21
448.8767395019531
 31
0.0
  0
LINE
  5
BC
330
22
100
AcDbEntity
  8
0
  6
Continuous
 62
     7
100
AcDbLine
 10
-398.3881225585938
 20
456.6767272949219
 30
0.0
 11
-398.3881225585938
 21
448.8767395019531
 31
0.0
  0
LINE
  5
BD
330
22
100
AcDbEntity
  8
0
  6
Continuous
 62
     7
100
AcDbLine
 10
-372.8881225585938
 20
301.2228393554688
 30
0.0
 11
-361.3881225585938
 21
301.2228393554688
 31
0.0
  0
LINE
  5
BE
330
22
100
AcDbEntity
  8
0
  6
Continuous
 62
     7
100
AcDbLine
 10
-409.7881164550781
 20
389.8880920410156
 30
0.0
 11
-409.7881164550781
 21
407.7767333984374
 31
0.0
  0
LINE
  5
BF
330
22
100
AcDbEntity
  8
0
  6
Continuous
 62
     7
100
AcDbLine
 10
-414.9881286621093
 20
387.176025390625
 30
0.0
 11
-414.9881286621093
 21
415.4767456054687
 31
0.0
  0
LINE
  5
C0
330
22
100
AcDbEntity
  8
0
  6
Continuous
 62
     7
100
AcDbLine
 10
-398.3881225585938
 20
418.4767456054688
 30
0.0
 11
-398.3881225585938
 21
398.4482116699219
 31
0.0
  0
LINE
  5
C1
330
22
100
AcDbEntity
  8
0
  6
Continuous
 62
     7
100
AcDbLine
 10
-403.5881042480468
 20
394.0279846191406
 30
0.0
 11
-403.5881042480468
 21
407.7767333984374
 31
0.0
  0
LINE
  5
C2
330
22
100
AcDbEntity
  8
0
  6
Continuous
 62
     7
100
AcDbLine
 10
-414.9881286621093
 20
426.6767272949218
 30
0.0
 11
-414.9881286621093
 21
437.4767456054688
 31
0.0
  0
LINE
  5
C3
330
22
100
AcDbEntity
  8
0
  6
Continuous
 62
     7
100
AcDbLine
 10
-409.7881164550781
 20
418.9767456054688
 30
0.0
 11
-409.7881164550781
 21
437.4767456054688
 31
0.0
  0
LINE
  5
C4
330
22
100
AcDbEntity
  8
0
  6
Continuous
 62
     7
100
AcDbLine
 10
-386.9881286621094
 20
419.5067443847656
 30
0.0
 11
-386.9881286621094
 21
439.0767517089844
 31
0.0
  0
LINE
  5
C5
330
22
100
AcDbEntity
  8
0
  6
Continuous
 62
     7
100
AcDbLine
 10
-380.7881164550781
 20
439.0767517089844
 30
0.0
 11
-380.7881164550781
 21
429.216796875
 31
0.0
  0
LINE
  5
C6
330
22
100
AcDbEntity
  8
0
  6
Continuous
 62
     7
100
AcDbLine
 10
-398.3881225585938
 20
429.6767272949218
 30
0.0
 11
-398.3881225585938
 21
437.4767456054688
 31
0.0
  0
LINE
  5
C7
330
22
100
AcDbEntity
  8
0
  6
Continuous
 62
     7
100
AcDbLine
 10
-392.1881103515625
 20
429.6767272949218
 30
0.0
 11
-392.1881103515625
 21
437.4767456054688
 31
0.0
  0
LINE
  5
C8
330
22
100
AcDbEntity
  8
0
  6
Continuous
 62
     7
100
AcDbLine
 10
-403.5881042480468
 20
418.9767456054688
 30
0.0
 11
-403.5881042480468
 21
437.4767456054688
 31
0.0
  0
LINE
  5
C9
330
22
100
AcDbEntity
  8
0
  6
Continuous
 62
     7
100
AcDbLine
 10
-380.7881164550781
 20
447.2767333984375
 30
0.0
 11
-380.7881164550781
 21
457.1366882324219
 31
0.0
  0
LINE
  5
CA
330
22
100
AcDbEntity
  8
0
  6
Continuous
 62
     7
100
AcDbLine
 10
-386.9881286621094
 20
466.8467407226563
 30
0.0
 11
-386.9881286621094
 21
447.2767333984375
 31
0.0
  0
LINE
  5
CB
330
22
100
AcDbEntity
  8
0
  6
Continuous
 62
     7
100
AcDbLine
 10
-389.7789306640625
 20
469.775146484375
 30
0.0
 11
-390.1795959472656
 21
470.0064697265625
 31
0.0
  0
LINE
  5
CC
330
22
100
AcDbEntity
  8
0
  6
Continuous
 62
     7
100
AcDbLine
 10
-384.5999755859375
 20
471.1441345214844
 30
0.0
 11
-387.7236938476563
 21
472.4194946289062
 31
0.0
  0
LINE
  5
CD
330
22
100
AcDbEntity
  8
0
  6
Continuous
 62
     7
100
AcDbLine
 10
-385.5408630371094
 20
477.1156921386718
 30
0.0
 11
-386.8033142089844
 21
474.0136108398438
 31
0.0
  0
LINE
  5
CE
330
22
100
AcDbEntity
  8
0
  6
Continuous
 62
     7
100
AcDbLine
 10
-391.7526550292969
 20
475.8083801269531
 30
0.0
 11
-391.5211486816406
 21
476.2093200683593
 31
0.0
  0
LINE
  5
CF
330
22
100
AcDbEntity
  8
0
  6
Continuous
 62
     7
100
AcDbLine
 10
-391.5211486816406
 20
476.2093200683593
 30
0.0
 11
-388.3974609375
 21
474.9339904785156
 31
0.0
  0
LINE
  5
D0
330
22
100
AcDbEntity
  8
0
  6
Continuous
 62
     7
100
AcDbLine
 10
-409.7881164550781
 20
496.4653930664063
 30
0.0
 11
-409.7881164550781
 21
478.5767517089843
 31
0.0
  0
LINE
  5
D1
330
22
100
AcDbEntity
  8
0
  6
Continuous
 62
     7
100
AcDbLine
 10
-414.9881286621093
 20
499.1774597167968
 30
0.0
 11
-414.9881286621093
 21
470.8767395019531
 31
0.0
  0
LINE
  5
D2
330
22
100
AcDbEntity
  8
0
  6
Continuous
 62
     7
100
AcDbLine
 10
-403.5881042480468
 20
492.3255004882813
 30
0.0
 11
-403.5881042480468
 21
478.5767517089843
 31
0.0
  0
LINE
  5
D3
330
22
100
AcDbEntity
  8
0
  6
Continuous
 62
     7
100
AcDbLine
 10
-398.3881225585938
 20
487.9052429199218
 30
0.0
 11
-398.3881225585938
 21
466.8767395019531
 31
0.0
  0
LINE
  5
D4
330
22
100
AcDbEntity
  8
0
  6
Continuous
 62
     7
100
AcDbLine
 10
-394.1881103515625
 20
483.5004272460937
 30
0.0
 11
-394.1881103515625
 21
466.8767395019531
 31
0.0
  0
LINE
  5
D5
330
22
100
AcDbEntity
  8
0
  6
Continuous
 62
     7
100
AcDbLine
 10
-382.2881164550781
 20
445.7767333984374
 30
0.0
 11
-385.4881286621094
 21
445.7767333984374
 31
0.0
  0
LINE
  5
D6
330
22
100
AcDbEntity
  8
0
  6
Continuous
 62
     7
100
AcDbLine
 10
-382.2881164550781
 20
440.5767517089843
 30
0.0
 11
-385.4881286621094
 21
440.5767517089843
 31
0.0
  0
LINE
  5
D7
330
22
100
AcDbEntity
  8
0
  6
Continuous
 62
     7
100
AcDbLine
 10
-392.1881103515625
 20
418.4767456054688
 30
0.0
 11
-392.1881103515625
 21
405.2926940917968
 31
0.0
  0
LINE
  5
D8
330
22
100
AcDbEntity
  8
0
  6
Continuous
 62
     7
100
AcDbLine
 10
-405.4890441894531
 20
125.9228286743164
 30
0.0
 11
-405.4890441894531
 21
137.2228240966797
 31
0.0
  0
LINE
  5
D9
330
22
100
AcDbEntity
  8
0
  6
Continuous
 62
     7
100
AcDbLine
 10
-402.7537231445313
 20
172.2228240966797
 30
0.0
 11
-402.7537231445313
 21
139.1228332519531
 31
0.0
  0
LINE
  5
DA
330
22
100
AcDbEntity
  8
0
  6
Continuous
 62
     7
100
AcDbLine
 10
-404.6537170410156
 20
137.2228240966797
 30
0.0
 11
-402.7537231445313
 21
139.1228332519531
 31
0.0
  0
LINE
  5
DB
330
22
100
AcDbEntity
  8
0
  6
Continuous
 62
     7
100
AcDbLine
 10
-402.7537231445313
 20
172.2129211425781
 30
0.0
 11
-402.7438049316406
 21
172.2228240966797
 31
0.0
  0
LINE
  5
DC
330
22
100
AcDbEntity
  8
0
  6
Continuous
 62
     7
100
AcDbLine
 10
-402.7537231445313
 20
169.3845062255859
 30
0.0
 11
-399.9153747558594
 21
172.2228240966797
 31
0.0
  0
LINE
  5
DD
330
22
100
AcDbEntity
  8
0
  6
Continuous
 62
     7
100
AcDbLine
 10
-402.7537231445313
 20
166.5560760498047
 30
0.0
 11
-399.3881225585938
 21
169.9216613769531
 31
0.0
  0
LINE
  5
DE
330
22
100
AcDbEntity
  8
0
  6
Continuous
 62
     7
100
AcDbLine
 10
-402.7537231445313
 20
163.7276458740234
 30
0.0
 11
-399.3881225585938
 21
167.0932312011719
 31
0.0
  0
LINE
  5
DF
330
22
100
AcDbEntity
  8
0
  6
Continuous
 62
     7
100
AcDbLine
 10
-402.7537231445313
 20
160.8992156982422
 30
0.0
 11
-399.3881225585938
 21
164.2648162841797
 31
0.0
  0
LINE
  5
E0
330
22
100
AcDbEntity
  8
0
  6
Continuous
 62
     7
100
AcDbLine
 10
-402.7537231445313
 20
158.0707855224609
 30
0.0
 11
-399.3881225585938
 21
161.4363861083984
 31
0.0
  0
LINE
  5
E1
330
22
100
AcDbEntity
  8
0
  6
Continuous
 62
     7
100
AcDbLine
 10
-402.7537231445313
 20
155.2423706054688
 30
0.0
 11
-399.3881225585938
 21
158.6079559326172
 31
0.0
  0
LINE
  5
E2
330
22
100
AcDbEntity
  8
0
  6
Continuous
 62
     7
100
AcDbLine
 10
-402.7537231445313
 20
152.4139404296875
 30
0.0
 11
-399.3881225585938
 21
155.7795257568359
 31
0.0
  0
LINE
  5
E3
330
22
100
AcDbEntity
  8
0
  6
Continuous
 62
     7
100
AcDbLine
 10
-402.7537231445313
 20
149.5855102539063
 30
0.0
 11
-399.3881225585938
 21
152.9510955810547
 31
0.0
  0
LINE
  5
E4
330
22
100
AcDbEntity
  8
0
  6
Continuous
 62
     7
100
AcDbLine
 10
-402.7537231445313
 20
146.757080078125
 30
0.0
 11
-399.3881225585938
 21
150.1226806640625
 31
0.0
  0
LINE
  5
E5
330
22
100
AcDbEntity
  8
0
  6
Continuous
 62
     7
100
AcDbLine
 10
-402.7537231445313
 20
143.9286499023438
 30
0.0
 11
-399.3881225585938
 21
147.2942504882813
 31
0.0
  0
LINE
  5
E6
330
22
100
AcDbEntity
  8
0
  6
Continuous
 62
     7
100
AcDbLine
 10
-402.7537231445313
 20
141.1002349853516
 30
0.0
 11
-399.3881225585938
 21
144.4658203125
 31
0.0
  0
LINE
  5
E7
330
22
100
AcDbEntity
  8
0
  6
Continuous
 62
     7
100
AcDbLine
 10
-405.4890441894531
 20
135.5364532470703
 30
0.0
 11
-399.3881225585938
 21
141.6373901367188
 31
0.0
  0
LINE
  5
E8
330
22
100
AcDbEntity
  8
0
  6
Continuous
 62
     7
100
AcDbLine
 10
-405.4890441894531
 20
132.7080230712891
 30
0.0
 11
-399.3881225585938
 21
138.8089599609375
 31
0.0
  0
LINE
  5
E9
330
22
100
AcDbEntity
  8
0
  6
Continuous
 62
     7
100
AcDbLine
 10
-405.4890441894531
 20
129.8796081542969
 30
0.0
 11
-399.3881225585938
 21
135.9805450439453
 31
0.0
  0
LINE
  5
EA
330
22
100
AcDbEntity
  8
0
  6
Continuous
 62
     7
100
AcDbLine
 10
-405.4890441894531
 20
127.0511779785156
 30
0.0
 11
-399.3881225585938
 21
133.1521148681641
 31
0.0
  0
LINE
  5
EB
330
22
100
AcDbEntity
  8
0
  6
Continuous
 62
     7
100
AcDbLine
 10
-404.6390075683594
 20
125.0727920532227
 30
0.0
 11
-399.3881225585938
 21
130.3236846923828
 31
0.0
  0
LINE
  5
EC
330
22
100
AcDbEntity
  8
0
  6
Continuous
 62
     7
100
AcDbLine
 10
-403.5084838867188
 20
123.3748779296875
 30
0.0
 11
-399.3881225585938
 21
127.4952545166016
 31
0.0
  0
LINE
  5
ED
330
22
100
AcDbEntity
  8
0
  6
Continuous
 62
     7
100
AcDbLine
 10
-403.4227905273437
 20
120.6321640014648
 30
0.0
 11
-399.3881225585938
 21
124.6668319702148
 31
0.0
  0
LINE
  5
EE
330
22
100
AcDbEntity
  8
0
  6
Continuous
 62
     7
100
AcDbLine
 10
-403.3370666503905
 20
117.8894500732422
 30
0.0
 11
-399.3881225585938
 21
121.8384017944336
 31
0.0
  0
LINE
  5
EF
330
22
100
AcDbEntity
  8
0
  6
Continuous
 62
     7
100
AcDbLine
 10
-403.2513427734374
 20
115.1467361450195
 30
0.0
 11
-399.3881225585938
 21
119.0099792480469
 31
0.0
  0
LINE
  5
F0
330
22
100
AcDbEntity
  8
0
  6
Continuous
 62
     7
100
AcDbLine
 10
-403.1656494140625
 20
112.4040222167969
 30
0.0
 11
-399.3881225585938
 21
116.1815490722656
 31
0.0
  0
LINE
  5
F1
330
22
100
AcDbEntity
  8
0
  6
Continuous
 62
     7
100
AcDbLine
 10
-403.0799255371094
 20
109.6613082885742
 30
0.0
 11
-399.3881225585938
 21
113.3531188964844
 31
0.0
  0
LINE
  5
F2
330
22
100
AcDbEntity
  8
0
  6
Continuous
 62
     7
100
AcDbLine
 10
-402.9942016601562
 20
106.9185943603516
 30
0.0
 11
-399.3881225585938
 21
110.5246963500977
 31
0.0
  0
LINE
  5
F3
330
22
100
AcDbEntity
  8
0
  6
Continuous
 62
     7
100
AcDbLine
 10
-402.9085083007813
 20
104.1758804321289
 30
0.0
 11
-399.3881225585938
 21
107.6962661743164
 31
0.0
  0
LINE
  5
F4
330
22
100
AcDbEntity
  8
0
  6
Continuous
 62
     7
100
AcDbLine
 10
-402.8227844238281
 20
101.4331741333008
 30
0.0
 11
-399.3881225585938
 21
104.8678436279297
 31
0.0
  0
LINE
  5
F5
330
22
100
AcDbEntity
  8
0
  6
Continuous
 62
     7
100
AcDbLine
 10
-402.2047119140625
 20
99.22283172607421
 30
0.0
 11
-399.3881225585938
 21
102.0394134521484
 31
0.0
  0
LINE
  5
F6
330
22
100
AcDbEntity
  8
0
  6
Continuous
 62
     7
100
AcDbLine
 10
-399.3881225585938
 20
172.2228240966797
 30
0.0
 11
-399.3881225585938
 21
99.22283172607421
 31
0.0
  0
LINE
  5
F7
330
22
100
AcDbEntity
  8
0
  6
Continuous
 62
     7
100
AcDbLine
 10
-366.6036987304688
 20
141.2228240966797
 30
0.0
 11
-367.6036987304688
 21
142.2228240966797
 31
0.0
  0
LINE
  5
F8
330
22
100
AcDbEntity
  8
0
  6
Continuous
 62
     7
100
AcDbLine
 10
-365.6036987304688
 20
142.2228240966797
 30
0.0
 11
-366.6036987304688
 21
141.2228240966797
 31
0.0
  0
LINE
  5
F9
330
22
100
AcDbEntity
  8
0
  6
Continuous
 62
     7
100
AcDbLine
 10
-362.6381225585938
 20
139.2233428955078
 30
0.0
 11
-362.6381225585938
 21
139.9733428955078
 31
0.0
  0
LINE
  5
FA
330
22
100
AcDbEntity
  8
0
  6
Continuous
 62
     7
100
AcDbLine
 10
-364.8881225585938
 20
142.2233428955078
 30
0.0
 11
-362.6381225585938
 21
139.9733428955078
 31
0.0
  0
LINE
  5
FB
330
22
100
AcDbEntity
  8
0
  6
CENTER
 62
     7
100
AcDbLine
 10
-359.8881225585938
 20
143.4056091308594
 30
0.0
 11
-359.8881225585938
 21
137.9759063720703
 31
0.0
  0
LINE
  5
FC
330
22
100
AcDbEntity
  8
0
  6
Continuous
 62
     7
100
AcDbLine
 10
-350.7781982421875
 20
142.2228240966797
 30
0.0
 11
-349.8881225585938
 21
141.332763671875
 31
0.0
  0
LINE
  5
FD
330
22
100
AcDbEntity
  8
0
  6
Continuous
 62
     7
100
AcDbLine
 10
-351.4852905273438
 20
142.2228240966797
 30
0.0
 11
-349.8881225585938
 21
140.6256561279297
 31
0.0
  0
LINE
  5
FE
330
22
100
AcDbEntity
  8
0
  6
Continuous
 62
     7
100
AcDbLine
 10
-353.6066284179688
 20
142.2228240966797
 30
0.0
 11
-350.6066284179688
 21
139.2228240966797
 31
0.0
  0
LINE
  5
FF
330
22
100
AcDbEntity
  8
0
  6
Continuous
 62
     7
100
AcDbLine
 10
-354.313720703125
 20
142.2228240966797
 30
0.0
 11
-351.313720703125
 21
139.2228240966797
 31
0.0
  0
LINE
  5
100
330
22
100
AcDbEntity
  8
0
  6
Continuous
 62
     7
100
AcDbLine
 10
-355.6618347167969
 20
141.4496154785156
 30
0.0
 11
-353.43505859375
 21
139.2228240966797
 31
0.0
  0
LINE
  5
101
330
22
100
AcDbEntity
  8
0
  6
Continuous
 62
     7
100
AcDbLine
 10
-356.015380859375
 20
141.0960693359375
 30
0.0
 11
-354.1421508789063
 21
139.2228240966797
 31
0.0
  0
LINE
  5
102
330
22
100
AcDbEntity
  8
0
  6
Continuous
 62
     7
100
AcDbLine
 10
-357.0760498046875
 20
140.035400390625
 30
0.0
 11
-356.2634582519531
 21
139.2228240966797
 31
0.0
  0
LINE
  5
103
330
22
100
AcDbEntity
  8
0
  6
Continuous
 62
     7
100
AcDbLine
 10
-364.9203186035156
 20
142.2228240966797
 30
0.0
 11
-362.6381225585938
 21
139.9406280517577
 31
0.0
  0
LINE
  5
104
330
22
100
AcDbEntity
  8
0
  6
Continuous
 62
     7
100
AcDbLine
 10
-365.6155700683594
 20
142.2109680175781
 30
0.0
 11
-362.7374572753906
 21
139.3328704833984
 31
0.0
  0
LINE
  5
105
330
22
100
AcDbEntity
  8
0
  6
Continuous
 62
     7
100
AcDbLine
 10
-367.7487487792969
 20
142.2228240966797
 30
0.0
 11
-364.7487487792969
 21
139.2228240966797
 31
0.0
  0
LINE
  5
106
330
22
100
AcDbEntity
  8
0
  6
Continuous
 62
     7
100
AcDbLine
 10
-368.4558715820313
 20
142.2228240966797
 30
0.0
 11
-365.4558715820313
 21
139.2228240966797
 31
0.0
  0
LINE
  5
107
330
22
100
AcDbEntity
  8
0
  6
Continuous
 62
     7
100
AcDbLine
 10
-370.5771789550781
 20
142.2228240966797
 30
0.0
 11
-367.5771789550781
 21
139.2228240966797
 31
0.0
  0
LINE
  5
108
330
22
100
AcDbEntity
  8
0
  6
Continuous
 62
     7
100
AcDbLine
 10
-371.2842712402344
 20
142.2228240966797
 30
0.0
 11
-368.2842712402344
 21
139.2228240966797
 31
0.0
  0
LINE
  5
109
330
22
100
AcDbEntity
  8
0
  6
Continuous
 62
     7
100
AcDbLine
 10
-373.4056091308594
 20
142.2228240966797
 30
0.0
 11
-370.4056091308594
 21
139.2228240966797
 31
0.0
  0
LINE
  5
10A
330
22
100
AcDbEntity
  8
0
  6
Continuous
 62
     7
100
AcDbLine
 10
-374.1127014160156
 20
142.2228240966797
 30
0.0
 11
-371.1127014160156
 21
139.2228240966797
 31
0.0
  0
LINE
  5
10B
330
22
100
AcDbEntity
  8
0
  6
Continuous
 62
     7
100
AcDbLine
 10
-376.2340393066406
 20
142.2228240966797
 30
0.0
 11
-373.2340393066406
 21
139.2228240966797
 31
0.0
  0
LINE
  5
10C
330
22
100
AcDbEntity
  8
0
  6
Continuous
 62
     7
100
AcDbLine
 10
-376.9411315917969
 20
142.2228240966797
 30
0.0
 11
-373.9411315917969
 21
139.2228240966797
 31
0.0
  0
LINE
  5
10D
330
22
100
AcDbEntity
  8
0
  6
Continuous
 62
     7
100
AcDbLine
 10
-379.0624694824219
 20
142.2228240966797
 30
0.0
 11
-376.0624694824219
 21
139.2228240966797
 31
0.0
  0
LINE
  5
10E
330
22
100
AcDbEntity
  8
0
  6
Continuous
 62
     7
100
AcDbLine
 10
-379.7695617675781
 20
142.2228240966797
 30
0.0
 11
-376.7695617675781
 21
139.2228240966797
 31
0.0
  0
LINE
  5
10F
330
22
100
AcDbEntity
  8
0
  6
Continuous
 62
     7
100
AcDbLine
 10
-381.8908996582031
 20
142.2228240966797
 30
0.0
 11
-378.8908996582031
 21
139.2228240966797
 31
0.0
  0
LINE
  5
110
330
22
100
AcDbEntity
  8
0
  6
Continuous
 62
     7
100
AcDbLine
 10
-382.39306640625
 20
142.0178985595703
 30
0.0
 11
-379.5979919433594
 21
139.2228240966797
 31
0.0
  0
LINE
  5
111
330
22
100
AcDbEntity
  8
0
  6
Continuous
 62
     7
100
AcDbLine
 10
-384.7193298339844
 20
142.2228240966797
 30
0.0
 11
-381.7193298339844
 21
139.2228240966797
 31
0.0
  0
LINE
  5
112
330
22
100
AcDbEntity
  8
0
  6
Continuous
 62
     7
100
AcDbLine
 10
-385.4264221191406
 20
142.2228240966797
 30
0.0
 11
-382.4264221191406
 21
139.2228240966797
 31
0.0
  0
LINE
  5
113
330
22
100
AcDbEntity
  8
0
  6
Continuous
 62
     7
100
AcDbLine
 10
-387.5477294921875
 20
142.2228240966797
 30
0.0
 11
-384.5477294921875
 21
139.2228240966797
 31
0.0
  0
LINE
  5
114
330
22
100
AcDbEntity
  8
0
  6
Continuous
 62
     7
100
AcDbLine
 10
-388.2548522949219
 20
142.2228240966797
 30
0.0
 11
-385.2548522949219
 21
139.2228240966797
 31
0.0
  0
LINE
  5
115
330
22
100
AcDbEntity
  8
0
  6
Continuous
 62
     7
100
AcDbLine
 10
-390.3761596679688
 20
142.2228240966797
 30
0.0
 11
-387.3761596679688
 21
139.2228240966797
 31
0.0
  0
LINE
  5
116
330
22
100
AcDbEntity
  8
0
  6
Continuous
 62
     7
100
AcDbLine
 10
-391.0832824707031
 20
142.2228240966797
 30
0.0
 11
-388.0832824707031
 21
139.2228240966797
 31
0.0
  0
LINE
  5
117
330
22
100
AcDbEntity
  8
0
  6
Continuous
 62
     7
100
AcDbLine
 10
-393.20458984375
 20
142.2228240966797
 30
0.0
 11
-390.20458984375
 21
139.2228240966797
 31
0.0
  0
LINE
  5
118
330
22
100
AcDbEntity
  8
0
  6
Continuous
 62
     7
100
AcDbLine
 10
-393.9117126464844
 20
142.2228240966797
 30
0.0
 11
-390.9117126464844
 21
139.2228240966797
 31
0.0
  0
LINE
  5
119
330
22
100
AcDbEntity
  8
0
  6
Continuous
 62
     7
100
AcDbLine
 10
-396.0330200195313
 20
142.2228240966797
 30
0.0
 11
-393.0330200195313
 21
139.2228240966797
 31
0.0
  0
LINE
  5
11A
330
22
100
AcDbEntity
  8
0
  6
Continuous
 62
     7
100
AcDbLine
 10
-396.7401428222656
 20
142.2228240966797
 30
0.0
 11
-393.7401428222656
 21
139.2228240966797
 31
0.0
  0
LINE
  5
11B
330
22
100
AcDbEntity
  8
0
  6
Continuous
 62
     7
100
AcDbLine
 10
-398.8614501953125
 20
142.2228240966797
 30
0.0
 11
-395.8614501953125
 21
139.2228240966797
 31
0.0
  0
LINE
  5
11C
330
22
100
AcDbEntity
  8
0
  6
Continuous
 62
     7
100
AcDbLine
 10
-399.3881225585938
 20
142.0423889160156
 30
0.0
 11
-396.5685424804688
 21
139.2228240966797
 31
0.0
  0
LINE
  5
11D
330
22
100
AcDbEntity
  8
0
  6
Continuous
 62
     7
100
AcDbLine
 10
-399.3881225585938
 20
139.9210662841797
 30
0.0
 11
-398.6898803710938
 21
139.2228240966797
 31
0.0
  0
LINE
  5
11E
330
22
100
AcDbEntity
  8
0
  6
Continuous
 62
     7
100
AcDbLine
 10
-349.8881225585938
 20
142.2228240966797
 30
0.0
 11
-399.3881225585938
 21
142.2228240966797
 31
0.0
  0
LINE
  5
11F
330
22
100
AcDbEntity
  8
0
  6
Continuous
 62
     7
100
AcDbLine
 10
-349.8881225585938
 20
139.2228240966797
 30
0.0
 11
-399.3881225585938
 21
139.2228240966797
 31
0.0
  0
LINE
  5
120
330
22
100
AcDbEntity
  8
0
  6
Continuous
 62
     7
100
AcDbLine
 10
-386.3421936035156
 20
477.5783386230468
 30
0.0
 11
-385.9415283203125
 21
477.3470153808593
 31
0.0
  0
LINE
  5
121
330
22
100
AcDbEntity
  8
0
  6
Continuous
 62
     7
100
AcDbLine
 10
-385.5408630371094
 20
477.1156921386718
 30
0.0
 11
-385.9415283203125
 21
477.3470153808593
 31
0.0
  0
LINE
  5
122
330
22
100
AcDbEntity
  8
0
  6
Continuous
 62
     7
100
AcDbLine
 10
-384.3684692382813
 20
471.5451049804688
 30
0.0
 11
-384.1369934082031
 21
471.9460754394531
 31
0.0
  0
LINE
  5
123
330
22
100
AcDbEntity
  8
0
  6
Continuous
 62
     7
100
AcDbLine
 10
-384.3684692382813
 20
471.5451049804688
 30
0.0
 11
-384.5999755859375
 21
471.1441345214844
 31
0.0
  0
LINE
  5
124
330
22
100
AcDbEntity
  8
0
  6
Continuous
 62
     7
100
AcDbLine
 10
-386.3421936035156
 20
477.5783386230468
 30
0.0
 11
-388.3974609375
 21
474.9339904785156
 31
0.0
  0
LINE
  5
125
330
22
100
AcDbEntity
  8
0
  6
Continuous
 62
     7
100
AcDbLine
 10
-390.5802612304688
 20
470.2377929687499
 30
0.0
 11
-389.3178100585938
 21
473.3398742675781
 31
0.0
  0
LINE
  5
126
330
22
100
AcDbEntity
  8
0
  6
Continuous
 62
     7
100
AcDbLine
 10
-384.1369934082031
 20
471.9460754394531
 30
0.0
 11
-386.8033142089844
 21
474.0136108398438
 31
0.0
  0
LINE
  5
127
330
22
100
AcDbEntity
  8
0
  6
Continuous
 62
     7
100
AcDbLine
 10
-391.9841613769531
 20
475.4074096679688
 30
0.0
 11
-389.3178100585938
 21
473.3398742675781
 31
0.0
  0
LINE
  5
128
330
22
100
AcDbEntity
  8
0
  6
Continuous
 62
     7
100
AcDbLine
 10
-391.7526550292969
 20
475.8083801269531
 30
0.0
 11
-391.9841613769531
 21
475.4074096679688
 31
0.0
  0
LINE
  5
129
330
22
100
AcDbEntity
  8
0
  6
Continuous
 62
     7
100
AcDbLine
 10
-390.5802612304688
 20
470.2377929687499
 30
0.0
 11
-390.1795959472656
 21
470.0064697265625
 31
0.0
  0
LINE
  5
12A
330
22
100
AcDbEntity
  8
0
  6
Continuous
 62
     7
100
AcDbLine
 10
-389.7789306640625
 20
469.775146484375
 30
0.0
 11
-387.7236938476563
 21
472.4194946289062
 31
0.0
  0
LINE
  5
12B
330
22
100
AcDbEntity
  8
0
  6
Continuous
 62
     7
100
AcDbLine
 10
-403.6266174316406
 20
247.6995086669922
 30
0.0
 11
-402.7381286621094
 21
219.2228240966797
 31
0.0
  0
LINE
  5
12C
330
22
100
AcDbEntity
  8
0
  6
Continuous
 62
     7
100
AcDbLine
 10
-402.7381286621094
 20
219.2228240966797
 30
0.0
 11
-404.2668151855468
 21
220.9178161621094
 31
0.0
  0
LINE
  5
12D
330
22
100
AcDbEntity
  8
0
  6
Continuous
 62
     7
100
AcDbLine
 10
-395.5381164550781
 20
232.2228240966797
 30
0.0
 11
-395.5381164550781
 21
263.0246887207031
 31
0.0
  0
LINE
  5
12E
330
22
100
AcDbEntity
  8
0
  6
Continuous
 62
     7
100
AcDbLine
 10
-404.8369445800781
 20
232.7616424560547
 30
0.0
 11
-405.8826599121093
 21
266.2228393554688
 31
0.0
  0
LINE
  5
12F
330
22
100
AcDbEntity
  8
0
  6
Continuous
 62
     7
100
AcDbLine
 10
-406.3881225585937
 20
266.2228393554688
 30
0.0
 11
-406.3881225585937
 21
269.2228393554688
 31
0.0
  0
LINE
  5
130
330
22
100
AcDbEntity
  8
0
  6
Continuous
 62
     7
100
AcDbLine
 10
-406.3881225585937
 20
269.2228393554688
 30
0.0
 11
-403.6381225585937
 21
269.2228393554688
 31
0.0
  0
LINE
  5
131
330
22
100
AcDbEntity
  8
0
  6
Continuous
 62
     7
100
AcDbLine
 10
-403.6381225585937
 20
269.2228393554688
 30
0.0
 11
-381.6381225585938
 21
287.0698852539063
 31
0.0
  0
LINE
  5
132
330
22
100
AcDbEntity
  8
0
  6
Continuous
 62
     7
100
AcDbLine
 10
-405.8515930175781
 20
265.7183227539063
 30
0.0
 11
-404.3285522460938
 21
264.1952514648438
 31
0.0
  0
LINE
  5
133
330
22
100
AcDbEntity
  8
0
  6
Continuous
 62
     7
100
AcDbLine
 10
-403.2981262207031
 20
231.2228240966797
 30
0.0
 11
-404.3285522460938
 21
264.1952514648438
 31
0.0
  0
LINE
  5
134
330
22
100
AcDbEntity
  8
0
  6
Continuous
 62
     7
100
AcDbLine
 10
-406.3881225585937
 20
266.2228393554688
 30
0.0
 11
-405.8826599121093
 21
266.2228393554688
 31
0.0
  0
LINE
  5
135
330
22
100
AcDbEntity
  8
0
  6
Continuous
 62
     7
100
AcDbLine
 10
-374.5232849121094
 20
282.7230224609375
 30
0.0
 11
-393.7205200195313
 21
266.8811645507813
 31
0.0
  0
LINE
  5
136
330
22
100
AcDbEntity
  8
0
  6
Continuous
 62
     7
100
AcDbLine
 10
-402.7537231445313
 20
99.22283172607421
 30
0.0
 11
-404.7137756347656
 21
101.1150588989258
 31
0.0
  0
LINE
  5
137
330
22
100
AcDbEntity
  8
0
  6
Continuous
 62
     7
100
AcDbLine
 10
-405.4890441894531
 20
125.9228286743164
 30
0.0
 11
-403.5267944335938
 21
123.960578918457
 31
0.0
  0
LINE
  5
138
330
22
100
AcDbEntity
  8
0
  6
Continuous
 62
     7
100
AcDbLine
 10
-403.5267944335938
 20
123.960578918457
 30
0.0
 11
-402.7537231445313
 21
99.22283172607421
 31
0.0
  0
LINE
  5
139
330
22
100
AcDbEntity
  8
0
  6
Continuous
 62
     7
100
AcDbLine
 10
-405.4890441894531
 20
125.9228286743164
 30
0.0
 11
-404.7137756347656
 21
101.1150588989258
 31
0.0
  0
LINE
  5
13A
330
22
100
AcDbEntity
  8
0
  6
Continuous
 62
     7
100
AcDbLine
 10
-349.8881225585938
 20
142.2228240966797
 30
0.0
 11
-349.8881225585938
 21
139.2228240966797
 31
0.0
  0
LINE
  5
13B
330
22
100
AcDbEntity
  8
0
  6
Continuous
 62
     7
100
AcDbLine
 10
-354.8881225585938
 20
142.2233428955078
 30
0.0
 11
-357.1381225585938
 21
139.9733428955078
 31
0.0
  0
LINE
  5
13C
330
22
100
AcDbEntity
  8
0
  6
Continuous
 62
     7
100
AcDbLine
 10
-357.1381225585938
 20
139.2233428955078
 30
0.0
 11
-357.1381225585938
 21
139.9733428955078
 31
0.0
  0
LINE
  5
13D
330
22
100
AcDbEntity
  8
0
  6
Continuous
 62
     7
100
AcDbLine
 10
-383.1881103515625
 20
141.2228240966797
 30
0.0
 11
-384.1881103515625
 21
142.2228240966797
 31
0.0
  0
LINE
  5
13E
330
22
100
AcDbEntity
  8
0
  6
Continuous
 62
     7
100
AcDbLine
 10
-382.1881103515625
 20
142.2228240966797
 30
0.0
 11
-383.1881103515625
 21
141.2228240966797
 31
0.0
  0
LINE
  5
13F
330
22
100
AcDbEntity
  8
0
  6
Continuous
 62
     7
100
AcDbLine
 10
-404.6537170410156
 20
170.3228302001953
 30
0.0
 11
-404.6537170410156
 21
137.2228240966797
 31
0.0
  0
LINE
  5
140
330
22
100
AcDbEntity
  8
0
  6
Continuous
 62
     7
100
AcDbLine
 10
-449.1881103515624
 20
470.1767272949219
 30
0.0
 11
-449.1881103515624
 21
448.8767395019531
 31
0.0
  0
LINE
  5
141
330
22
100
AcDbEntity
  8
0
  6
Continuous
 62
     7
100
AcDbLine
 10
-443.9881286621093
 20
461.7767333984375
 30
0.0
 11
-443.9881286621093
 21
451.2767333984375
 31
0.0
  0
LINE
  5
142
330
22
100
AcDbEntity
  8
0
  6
Continuous
 62
     7
100
AcDbLine
 10
-471.9881286621093
 20
467.3767395019531
 30
0.0
 11
-471.9881286621093
 21
448.8767395019531
 31
0.0
  0
LINE
  5
143
330
22
100
AcDbEntity
  8
0
  6
Continuous
 62
     7
100
AcDbLine
 10
-500.9881286621093
 20
447.2767333984375
 30
0.0
 11
-500.9881286621093
 21
457.1366882324219
 31
0.0
  0
LINE
  5
144
330
22
100
AcDbEntity
  8
0
  6
Continuous
 62
     7
100
AcDbLine
 10
-483.3881225585938
 20
456.6767272949219
 30
0.0
 11
-483.3881225585938
 21
448.8767395019531
 31
0.0
  0
LINE
  5
145
330
22
100
AcDbEntity
  8
0
  6
CENTER
 62
     7
100
AcDbLine
 10
-440.8881225585938
 20
543.5755004882813
 30
0.0
 11
-440.8881225585938
 21
342.7780151367188
 31
0.0
  0
LINE
  5
146
330
22
100
AcDbEntity
  8
0
  6
Continuous
 62
     7
100
AcDbLine
 10
-387.3770141601563
 20
287.0698852539063
 30
0.0
 11
-383.4460754394531
 21
287.0698852539063
 31
0.0
  0
LINE
  5
147
330
22
100
AcDbEntity
  8
0
  6
Continuous
 62
     7
100
AcDbLine
 10
-404.7731018066405
 20
149.2228240966797
 30
0.0
 11
-404.7731018066405
 21
207.1878356933594
 31
0.0
  0
LINE
  5
148
330
22
100
AcDbEntity
  8
0
  6
Continuous
 62
     7
100
AcDbLine
 10
-410.3881225585937
 20
249.2228240966797
 30
0.0
 11
-410.3881225585937
 21
149.2228240966797
 31
0.0
  0
LINE
  5
149
330
22
100
AcDbEntity
  8
0
  6
Continuous
 62
     7
100
AcDbLine
 10
-405.1499328613281
 20
249.2228240966797
 30
0.0
 11
-404.2668151855468
 21
220.9178161621094
 31
0.0
  0
LINE
  5
14A
330
22
100
AcDbEntity
  8
0
  6
Continuous
 62
     7
100
AcDbLine
 10
-403.1125183105468
 20
231.2228240966797
 30
0.0
 11
-396.5381164550781
 21
231.2228240966797
 31
0.0
  0
LINE
  5
14B
330
22
100
AcDbEntity
  8
0
  6
Continuous
 62
     7
100
AcDbLine
 10
-374.6381225585938
 20
142.2228240966797
 30
0.0
 11
-378.6492614746094
 21
142.2228240966797
 31
0.0
  0
LINE
  5
14C
330
22
100
AcDbEntity
  8
0
  6
Continuous
 62
     7
100
AcDbLine
 10
-403.2981262207031
 20
150.6978302001953
 30
0.0
 11
-403.2981262207031
 21
208.6628265380859
 31
0.0
  0
LINE
  5
14D
330
22
100
AcDbEntity
  8
0
  6
Continuous
 62
     7
100
AcDbLine
 10
-410.3881225585937
 20
245.0709533691406
 30
0.0
 11
-406.2362365722655
 21
249.2228240966797
 31
0.0
  0
LINE
  5
14E
330
22
100
AcDbEntity
  8
0
  6
Continuous
 62
     7
100
AcDbLine
 10
-410.3881225585937
 20
240.8283081054688
 30
0.0
 11
-405.2496032714843
 21
245.9668121337891
 31
0.0
  0
LINE
  5
14F
330
22
100
AcDbEntity
  8
0
  6
Continuous
 62
     7
100
AcDbLine
 10
-410.3881225585937
 20
236.5856781005859
 30
0.0
 11
-405.1210327148438
 21
241.8527374267578
 31
0.0
  0
LINE
  5
150
330
22
100
AcDbEntity
  8
0
  6
Continuous
 62
     7
100
AcDbLine
 10
-410.3881225585937
 20
232.3430328369141
 30
0.0
 11
-404.9924621582031
 21
237.7386779785156
 31
0.0
  0
LINE
  5
151
330
22
100
AcDbEntity
  8
0
  6
Continuous
 62
     7
100
AcDbLine
 10
-410.3881225585937
 20
228.1003875732422
 30
0.0
 11
-404.8638916015624
 21
233.6246032714844
 31
0.0
  0
LINE
  5
152
330
22
100
AcDbEntity
  8
0
  6
Continuous
 62
     7
100
AcDbLine
 10
-410.3881225585937
 20
223.8577575683594
 30
0.0
 11
-404.5409851074218
 21
229.7048950195313
 31
0.0
  0
LINE
  5
153
330
22
100
AcDbEntity
  8
0
  6
Continuous
 62
     7
100
AcDbLine
 10
-410.3881225585937
 20
219.6151123046875
 30
0.0
 11
-404.41259765625
 21
225.5906219482422
 31
0.0
  0
LINE
  5
154
330
22
100
AcDbEntity
  8
0
  6
Continuous
 62
     7
100
AcDbLine
 10
-410.3881225585937
 20
215.3724670410156
 30
0.0
 11
-404.2842407226562
 21
221.4763488769531
 31
0.0
  0
LINE
  5
155
330
22
100
AcDbEntity
  8
0
  6
Continuous
 62
     7
100
AcDbLine
 10
-410.3881225585937
 20
211.1298217773438
 30
0.0
 11
-402.7381286621094
 21
218.7798309326172
 31
0.0
  0
LINE
  5
156
330
22
100
AcDbEntity
  8
0
  6
Continuous
 62
     7
100
AcDbLine
 10
-410.3881225585937
 20
206.8871917724609
 30
0.0
 11
-402.7381286621094
 21
214.5371856689453
 31
0.0
  0
LINE
  5
157
330
22
100
AcDbEntity
  8
0
  6
Continuous
 62
     7
100
AcDbLine
 10
-410.3881225585937
 20
202.6445465087891
 30
0.0
 11
-402.7381286621094
 21
210.2945404052734
 31
0.0
  0
LINE
  5
158
330
22
100
AcDbEntity
  8
0
  6
Continuous
 62
     7
100
AcDbLine
 10
-410.3881225585937
 20
198.4019012451172
 30
0.0
 11
-404.7731018066405
 21
204.0169067382813
 31
0.0
  0
LINE
  5
159
330
22
100
AcDbEntity
  8
0
  6
Continuous
 62
     7
100
AcDbLine
 10
-410.3881225585937
 20
194.1592712402344
 30
0.0
 11
-404.7731018066405
 21
199.7742614746094
 31
0.0
  0
LINE
  5
15A
330
22
100
AcDbEntity
  8
0
  6
Continuous
 62
     7
100
AcDbLine
 10
-410.3881225585937
 20
189.9166259765625
 30
0.0
 11
-404.7731018066405
 21
195.5316314697266
 31
0.0
  0
LINE
  5
15B
330
22
100
AcDbEntity
  8
0
  6
Continuous
 62
     7
100
AcDbLine
 10
-410.3881225585937
 20
185.6739807128906
 30
0.0
 11
-404.7731018066405
 21
191.2889862060547
 31
0.0
  0
LINE
  5
15C
330
22
100
AcDbEntity
  8
0
  6
Continuous
 62
     7
100
AcDbLine
 10
-410.3881225585937
 20
181.4313507080078
 30
0.0
 11
-404.7731018066405
 21
187.0463409423828
 31
0.0
  0
LINE
  5
15D
330
22
100
AcDbEntity
  8
0
  6
Continuous
 62
     7
100
AcDbLine
 10
-410.3881225585937
 20
177.1887054443359
 30
0.0
 11
-404.7731018066405
 21
182.8037109375
 31
0.0
  0
LINE
  5
15E
330
22
100
AcDbEntity
  8
0
  6
Continuous
 62
     7
100
AcDbLine
 10
-410.3881225585937
 20
172.9460601806641
 30
0.0
 11
-404.7731018066405
 21
178.5610656738281
 31
0.0
  0
LINE
  5
15F
330
22
100
AcDbEntity
  8
0
  6
Continuous
 62
     7
100
AcDbLine
 10
-410.3881225585937
 20
168.7034149169922
 30
0.0
 11
-404.7731018066405
 21
174.3184204101563
 31
0.0
  0
LINE
  5
160
330
22
100
AcDbEntity
  8
0
  6
Continuous
 62
     7
100
AcDbLine
 10
-410.3881225585937
 20
164.4607849121094
 30
0.0
 11
-404.7731018066405
 21
170.0757751464844
 31
0.0
  0
LINE
  5
161
330
22
100
AcDbEntity
  8
0
  6
Continuous
 62
     7
100
AcDbLine
 10
-410.3881225585937
 20
160.2181396484375
 30
0.0
 11
-404.7731018066405
 21
165.8331451416016
 31
0.0
  0
LINE
  5
162
330
22
100
AcDbEntity
  8
0
  6
Continuous
 62
     7
100
AcDbLine
 10
-410.3881225585937
 20
155.9754943847656
 30
0.0
 11
-404.7731018066405
 21
161.5904998779297
 31
0.0
  0
LINE
  5
163
330
22
100
AcDbEntity
  8
0
  6
Continuous
 62
     7
100
AcDbLine
 10
-410.3881225585937
 20
151.7328643798828
 30
0.0
 11
-404.7731018066405
 21
157.3478546142578
 31
0.0
  0
LINE
  5
164
330
22
100
AcDbEntity
  8
0
  6
Continuous
 62
     7
100
AcDbLine
 10
-408.6555175781249
 20
149.2228240966797
 30
0.0
 11
-404.7731018066405
 21
153.105224609375
 31
0.0
  0
LINE
  5
165
330
22
100
AcDbEntity
  8
0
  6
Continuous
 62
     7
100
AcDbLine
 10
-410.3881225585937
 20
247.1922760009766
 30
0.0
 11
-408.3575744628906
 21
249.2228240966797
 31
0.0
  0
LINE
  5
166
330
22
100
AcDbEntity
  8
0
  6
Continuous
 62
     7
100
AcDbLine
 10
-410.3881225585937
 20
242.9496307373047
 30
0.0
 11
-405.3139038085937
 21
248.0238494873047
 31
0.0
  0
LINE
  5
167
330
22
100
AcDbEntity
  8
0
  6
Continuous
 62
     7
100
AcDbLine
 10
-410.3881225585937
 20
238.7070007324219
 30
0.0
 11
-405.1853332519531
 21
243.9097747802734
 31
0.0
  0
LINE
  5
168
330
22
100
AcDbEntity
  8
0
  6
Continuous
 62
     7
100
AcDbLine
 10
-410.3881225585937
 20
234.46435546875
 30
0.0
 11
-405.0567626953125
 21
239.7957153320313
 31
0.0
  0
LINE
  5
169
330
22
100
AcDbEntity
  8
0
  6
Continuous
 62
     7
100
AcDbLine
 10
-410.3881225585937
 20
230.2217102050781
 30
0.0
 11
-404.9281921386718
 21
235.681640625
 31
0.0
  0
LINE
  5
16A
330
22
100
AcDbEntity
  8
0
  6
Continuous
 62
     7
100
AcDbLine
 10
-410.3881225585937
 20
225.9790649414064
 30
0.0
 11
-404.6051635742188
 21
231.7620391845703
 31
0.0
  0
LINE
  5
16B
330
22
100
AcDbEntity
  8
0
  6
Continuous
 62
     7
100
AcDbLine
 10
-410.3881225585937
 20
221.7364349365234
 30
0.0
 11
-404.4767761230469
 21
227.6477661132813
 31
0.0
  0
LINE
  5
16C
330
22
100
AcDbEntity
  8
0
  6
Continuous
 62
     7
100
AcDbLine
 10
-410.3881225585937
 20
217.4937896728516
 30
0.0
 11
-404.3484191894531
 21
223.5334930419922
 31
0.0
  0
LINE
  5
16D
330
22
100
AcDbEntity
  8
0
  6
Continuous
 62
     7
100
AcDbLine
 10
-410.3881225585937
 20
213.2511444091797
 30
0.0
 11
-403.5339965820313
 21
220.1052856445314
 31
0.0
  0
LINE
  5
16E
330
22
100
AcDbEntity
  8
0
  6
Continuous
 62
     7
100
AcDbLine
 10
-410.3881225585937
 20
209.0085144042969
 30
0.0
 11
-402.7381286621094
 21
216.6585083007813
 31
0.0
  0
LINE
  5
16F
330
22
100
AcDbEntity
  8
0
  6
Continuous
 62
     7
100
AcDbLine
 10
-410.3881225585937
 20
204.765869140625
 30
0.0
 11
-402.7381286621094
 21
212.4158630371094
 31
0.0
  0
LINE
  5
170
330
22
100
AcDbEntity
  8
0
  6
Continuous
 62
     7
100
AcDbLine
 10
-410.3881225585937
 20
200.5232238769531
 30
0.0
 11
-404.7731018066405
 21
206.1382293701172
 31
0.0
  0
LINE
  5
171
330
22
100
AcDbEntity
  8
0
  6
Continuous
 62
     7
100
AcDbLine
 10
-410.3881225585937
 20
196.2805938720703
 30
0.0
 11
-404.7731018066405
 21
201.8955841064453
 31
0.0
  0
LINE
  5
172
330
22
100
AcDbEntity
  8
0
  6
Continuous
 62
     7
100
AcDbLine
 10
-410.3881225585937
 20
192.0379486083984
 30
0.0
 11
-404.7731018066405
 21
197.6529388427734
 31
0.0
  0
LINE
  5
173
330
22
100
AcDbEntity
  8
0
  6
Continuous
 62
     7
100
AcDbLine
 10
-410.3881225585937
 20
187.7953033447266
 30
0.0
 11
-404.7731018066405
 21
193.4103088378906
 31
0.0
  0
LINE
  5
174
330
22
100
AcDbEntity
  8
0
  6
Continuous
 62
     7
100
AcDbLine
 10
-410.3881225585937
 20
183.5526580810547
 30
0.0
 11
-404.7731018066405
 21
189.1676635742188
 31
0.0
  0
LINE
  5
175
330
22
100
AcDbEntity
  8
0
  6
Continuous
 62
     7
100
AcDbLine
 10
-410.3881225585937
 20
179.3100280761719
 30
0.0
 11
-404.7731018066405
 21
184.9250183105469
 31
0.0
  0
LINE
  5
176
330
22
100
AcDbEntity
  8
0
  6
Continuous
 62
     7
100
AcDbLine
 10
-410.3881225585937
 20
175.0673828125
 30
0.0
 11
-404.7731018066405
 21
180.6823883056641
 31
0.0
  0
LINE
  5
177
330
22
100
AcDbEntity
  8
0
  6
Continuous
 62
     7
100
AcDbLine
 10
-410.3881225585937
 20
170.8247375488281
 30
0.0
 11
-404.7731018066405
 21
176.4397430419922
 31
0.0
  0
LINE
  5
178
330
22
100
AcDbEntity
  8
0
  6
Continuous
 62
     7
100
AcDbLine
 10
-410.3881225585937
 20
166.5821075439453
 30
0.0
 11
-404.7731018066405
 21
172.1970977783203
 31
0.0
  0
LINE
  5
179
330
22
100
AcDbEntity
  8
0
  6
Continuous
 62
     7
100
AcDbLine
 10
-410.3881225585937
 20
162.3394622802734
 30
0.0
 11
-404.7731018066405
 21
167.9544677734375
 31
0.0
  0
LINE
  5
17A
330
22
100
AcDbEntity
  8
0
  6
Continuous
 62
     7
100
AcDbLine
 10
-410.3881225585937
 20
158.0968170166016
 30
0.0
 11
-404.7731018066405
 21
163.7118225097656
 31
0.0
  0
LINE
  5
17B
330
22
100
AcDbEntity
  8
0
  6
Continuous
 62
     7
100
AcDbLine
 10
-410.3881225585937
 20
153.8541870117188
 30
0.0
 11
-404.7731018066405
 21
159.4691772460938
 31
0.0
  0
LINE
  5
17C
330
22
100
AcDbEntity
  8
0
  6
Continuous
 62
     7
100
AcDbLine
 10
-410.3881225585937
 20
149.6115417480469
 30
0.0
 11
-404.7731018066405
 21
155.2265319824219
 31
0.0
  0
LINE
  5
17D
330
22
100
AcDbEntity
  8
0
  6
Continuous
 62
     7
100
AcDbLine
 10
-406.5341796874999
 20
149.2228240966797
 30
0.0
 11
-404.7731018066405
 21
150.9839019775391
 31
0.0
  0
LINE
  5
17E
330
22
100
AcDbEntity
  8
0
  6
Continuous
 62
     7
100
AcDbLine
 10
-404.7731018066405
 20
149.2228240966797
 30
0.0
 11
-403.2981262207031
 21
150.6978302001953
 31
0.0
  0
LINE
  5
17F
330
22
100
AcDbEntity
  8
0
  6
Continuous
 62
     7
100
AcDbLine
 10
-402.7381286621094
 20
219.2228240966797
 30
0.0
 11
-402.7381286621094
 21
209.2228240966797
 31
0.0
  0
LINE
  5
180
330
22
100
AcDbEntity
  8
0
  6
Continuous
 62
     7
100
AcDbLine
 10
-403.2981262207031
 20
231.2228240966797
 30
0.0
 11
-404.8369445800781
 21
232.7616424560547
 31
0.0
  0
LINE
  5
181
330
22
100
AcDbEntity
  8
0
  6
Continuous
 62
     7
100
AcDbLine
 10
-402.7381286621094
 20
209.2228240966797
 30
0.0
 11
-404.7731018066405
 21
207.1878356933594
 31
0.0
  0
LINE
  5
182
330
22
100
AcDbEntity
  8
0
  6
Continuous
 62
     7
100
AcDbLine
 10
-405.1499328613281
 20
249.2228240966797
 30
0.0
 11
-403.6266174316406
 21
247.6995086669922
 31
0.0
  0
LINE
  5
183
330
22
100
AcDbEntity
  8
0
  6
Continuous
 62
     7
100
AcDbLine
 10
-399.3881225585938
 20
172.2228240966797
 30
0.0
 11
-403.2981262207031
 21
172.2228240966797
 31
0.0
  0
LINE
  5
184
330
22
100
AcDbEntity
  8
0
  6
Continuous
 62
     7
100
AcDbLine
 10
-402.7537231445313
 20
172.2228240966797
 30
0.0
 11
-404.6537170410156
 21
170.3228302001953
 31
0.0
  0
LINE
  5
185
330
22
100
AcDbEntity
  8
0
  6
Continuous
 62
     7
100
AcDbLine
 10
-499.4881286621093
 20
445.7767333984374
 30
0.0
 11
-496.2881164550781
 21
445.7767333984374
 31
0.0
  0
LINE
  5
186
330
22
100
AcDbEntity
  8
0
  6
Continuous
 62
     7
100
AcDbLine
 10
-489.5881042480469
 20
418.4767456054688
 30
0.0
 11
-489.5881042480469
 21
405.2926940917968
 31
0.0
  0
LINE
  5
187
330
22
100
AcDbEntity
  8
0
  6
Continuous
 62
     7
100
AcDbLine
 10
-494.7881164550781
 20
419.5067443847656
 30
0.0
 11
-494.7881164550781
 21
439.0767517089844
 31
0.0
  0
LINE
  5
188
330
22
100
AcDbEntity
  8
0
  6
Continuous
 62
     7
100
AcDbLine
 10
-489.5881042480469
 20
429.6767272949218
 30
0.0
 11
-489.5881042480469
 21
437.4767456054688
 31
0.0
  0
LINE
  5
189
330
22
100
AcDbEntity
  8
0
  6
Continuous
 62
     7
100
AcDbLine
 10
-489.5881042480469
 20
456.6767272949219
 30
0.0
 11
-489.5881042480469
 21
448.8767395019531
 31
0.0
  0
LINE
  5
18A
330
22
100
AcDbEntity
  8
0
  6
Continuous
 62
     7
100
AcDbLine
 10
-443.9881286621093
 20
461.7767333984375
 30
0.0
 11
-443.9881286621093
 21
451.2767333984375
 31
0.0
  0
LINE
  5
18B
330
22
100
AcDbEntity
  8
0
  6
Continuous
 62
     7
100
AcDbLine
 10
-478.1881103515624
 20
467.3767395019531
 30
0.0
 11
-478.1881103515624
 21
448.8767395019531
 31
0.0
  0
LINE
  5
18C
330
22
100
AcDbEntity
  8
0
  6
Continuous
 62
     7
100
AcDbLine
 10
-437.7881164550781
 20
461.7767333984375
 30
0.0
 11
-437.7881164550781
 21
451.2767333984375
 31
0.0
  0
LINE
  5
18D
330
22
100
AcDbEntity
  8
0
  6
Continuous
 62
     7
100
AcDbLine
 10
-437.7881164550781
 20
461.7767333984375
 30
0.0
 11
-437.7881164550781
 21
451.2767333984375
 31
0.0
  0
LINE
  5
18E
330
22
100
AcDbEntity
  8
0
  6
Continuous
 62
     7
100
AcDbLine
 10
-460.5881042480469
 20
459.6767272949218
 30
0.0
 11
-460.5881042480469
 21
448.8767395019531
 31
0.0
  0
LINE
  5
18F
330
22
100
AcDbEntity
  8
0
  6
Continuous
 62
     7
100
AcDbLine
 10
-466.7881164550781
 20
459.6767272949218
 30
0.0
 11
-466.7881164550781
 21
448.8767395019531
 31
0.0
  0
LINE
  5
190
330
22
100
AcDbEntity
  8
0
  6
Continuous
 62
     7
100
AcDbLine
 10
-432.5881042480468
 20
470.1767272949219
 30
0.0
 11
-432.5881042480468
 21
448.8767395019531
 31
0.0
  0
LINE
  5
191
330
22
100
AcDbEntity
  8
0
  6
Continuous
 62
     7
100
AcDbLine
 10
-494.7881164550781
 20
466.8467407226563
 30
0.0
 11
-494.7881164550781
 21
447.2767333984375
 31
0.0
  0
LINE
  5
192
330
22
100
AcDbEntity
  8
0
  6
Continuous
 62
     7
100
AcDbLine
 10
-455.3881225585937
 20
470.1767272949219
 30
0.0
 11
-455.3881225585937
 21
448.8767395019531
 31
0.0
  0
LINE
  5
193
330
22
100
AcDbEntity
  8
0
  6
Continuous
 62
     7
100
AcDbLine
 10
-500.9881286621093
 20
439.0767517089844
 30
0.0
 11
-500.9881286621093
 21
429.216796875
 31
0.0
  0
LINE
  5
194
330
22
100
AcDbEntity
  8
0
  6
Continuous
 62
     7
100
AcDbLine
 10
-490.0235900878906
 20
471.5451049804688
 30
0.0
 11
-490.2550659179688
 21
471.1441345214844
 31
0.0
  0
LINE
  5
195
330
22
100
AcDbEntity
  8
0
  6
Continuous
 62
     7
100
AcDbLine
 10
-490.2550659179688
 20
471.1441345214844
 30
0.0
 11
-493.3787841796875
 21
472.4194946289062
 31
0.0
  0
LINE
  5
196
330
22
100
AcDbEntity
  8
0
  6
Continuous
 62
     7
100
AcDbLine
 10
-489.7920837402343
 20
471.9460754394531
 30
0.0
 11
-492.4584045410155
 21
474.0136108398438
 31
0.0
  0
LINE
  5
197
330
22
100
AcDbEntity
  8
0
  6
Continuous
 62
     7
100
AcDbLine
 10
-490.0235900878906
 20
471.5451049804688
 30
0.0
 11
-489.7920837402343
 21
471.9460754394531
 31
0.0
  0
LINE
  5
198
330
22
100
AcDbEntity
  8
0
  6
Continuous
 62
     7
100
AcDbLine
 10
-495.4340209960938
 20
469.775146484375
 30
0.0
 11
-493.3787841796875
 21
472.4194946289062
 31
0.0
  0
LINE
  5
199
330
22
100
AcDbEntity
  8
0
  6
Continuous
 62
     7
100
AcDbLine
 10
-497.4077453613281
 20
475.8083801269531
 30
0.0
 11
-497.6392517089843
 21
475.4074096679688
 31
0.0
  0
LINE
  5
19A
330
22
100
AcDbEntity
  8
0
  6
Continuous
 62
     7
100
AcDbLine
 10
-496.2353820800781
 20
470.2377929687499
 30
0.0
 11
-495.8347167968749
 21
470.0064697265625
 31
0.0
  0
LINE
  5
19B
330
22
100
AcDbEntity
  8
0
  6
Continuous
 62
     7
100
AcDbLine
 10
-491.9972839355469
 20
477.5783386230468
 30
0.0
 11
-494.0525512695312
 21
474.9339904785156
 31
0.0
  0
LINE
  5
19C
330
22
100
AcDbEntity
  8
0
  6
Continuous
 62
     7
100
AcDbLine
 10
-497.1762390136718
 20
476.2093200683593
 30
0.0
 11
-494.0525512695312
 21
474.9339904785156
 31
0.0
  0
LINE
  5
19D
330
22
100
AcDbEntity
  8
0
  6
Continuous
 62
     7
100
AcDbLine
 10
-491.9972839355469
 20
477.5783386230468
 30
0.0
 11
-491.5966186523438
 21
477.3470153808593
 31
0.0
  0
LINE
  5
19E
330
22
100
AcDbEntity
  8
0
  6
Continuous
 62
     7
100
AcDbLine
 10
-491.1959533691406
 20
477.1156921386718
 30
0.0
 11
-492.4584045410155
 21
474.0136108398438
 31
0.0
  0
LINE
  5
19F
330
22
100
AcDbEntity
  8
0
  6
Continuous
 62
     7
100
AcDbLine
 10
-491.1959533691406
 20
477.1156921386718
 30
0.0
 11
-491.5966186523438
 21
477.3470153808593
 31
0.0
  0
LINE
  5
1A0
330
22
100
AcDbEntity
  8
0
  6
Continuous
 62
     7
100
AcDbLine
 10
-497.4077453613281
 20
475.8083801269531
 30
0.0
 11
-497.1762390136718
 21
476.2093200683593
 31
0.0
  0
LINE
  5
1A1
330
22
100
AcDbEntity
  8
0
  6
Continuous
 62
     7
100
AcDbLine
 10
-497.6392517089843
 20
475.4074096679688
 30
0.0
 11
-494.9729309082031
 21
473.3398742675781
 31
0.0
  0
LINE
  5
1A2
330
22
100
AcDbEntity
  8
0
  6
Continuous
 62
     7
100
AcDbLine
 10
-495.4340209960938
 20
469.775146484375
 30
0.0
 11
-495.8347167968749
 21
470.0064697265625
 31
0.0
  0
LINE
  5
1A3
330
22
100
AcDbEntity
  8
0
  6
Continuous
 62
     7
100
AcDbLine
 10
-496.2353820800781
 20
470.2377929687499
 30
0.0
 11
-494.9729309082031
 21
473.3398742675781
 31
0.0
  0
LINE
  5
1A4
330
22
100
AcDbEntity
  8
0
  6
Continuous
 62
     7
100
AcDbLine
 10
-499.4881286621093
 20
440.5767517089843
 30
0.0
 11
-496.2881164550781
 21
440.5767517089843
 31
0.0
  0
LINE
  5
1A5
330
22
100
AcDbEntity
  8
0
  6
Continuous
 62
     7
100
AcDbLine
 10
-455.3881225585937
 20
383.2047424316406
 30
0.0
 11
-455.3881225585937
 21
404.9767456054688
 31
0.0
  0
LINE
  5
1A6
330
22
100
AcDbEntity
  8
0
  6
Continuous
 62
     7
100
AcDbLine
 10
-483.3881225585938
 20
418.4767456054688
 30
0.0
 11
-483.3881225585938
 21
398.4482116699219
 31
0.0
  0
LINE
  5
1A7
330
22
100
AcDbEntity
  8
0
  6
Continuous
 62
     7
100
AcDbLine
 10
-437.7881164550781
 20
391.0767517089844
 30
0.0
 11
-437.7881164550781
 21
413.3767395019531
 31
0.0
  0
LINE
  5
1A8
330
22
100
AcDbEntity
  8
0
  6
Continuous
 62
     7
100
AcDbLine
 10
-437.7881164550781
 20
391.0767517089844
 30
0.0
 11
-437.7881164550781
 21
413.3767395019531
 31
0.0
  0
LINE
  5
1A9
330
22
100
AcDbEntity
  8
0
  6
Continuous
 62
     7
100
AcDbLine
 10
-460.5881042480469
 20
384.7062377929688
 30
0.0
 11
-460.5881042480469
 21
415.4767456054687
 31
0.0
  0
LINE
  5
1AA
330
22
100
AcDbEntity
  8
0
  6
Continuous
 62
     7
100
AcDbLine
 10
-432.5881042480468
 20
382.0375671386719
 30
0.0
 11
-432.5881042480468
 21
404.9767456054688
 31
0.0
  0
LINE
  5
1AB
330
22
100
AcDbEntity
  8
0
  6
Continuous
 62
     7
100
AcDbLine
 10
-443.9881286621093
 20
424.5767517089843
 30
0.0
 11
-443.9881286621093
 21
435.0767517089844
 31
0.0
  0
LINE
  5
1AC
330
22
100
AcDbEntity
  8
0
  6
Continuous
 62
     7
100
AcDbLine
 10
-466.7881164550781
 20
426.6767272949218
 30
0.0
 11
-466.7881164550781
 21
437.4767456054688
 31
0.0
  0
LINE
  5
1AD
330
22
100
AcDbEntity
  8
0
  6
Continuous
 62
     7
100
AcDbLine
 10
-432.5881042480468
 20
416.1767272949218
 30
0.0
 11
-432.5881042480468
 21
437.4767456054688
 31
0.0
  0
LINE
  5
1AE
330
22
100
AcDbEntity
  8
0
  6
Continuous
 62
     7
100
AcDbLine
 10
-455.3881225585937
 20
416.1767272949218
 30
0.0
 11
-455.3881225585937
 21
437.4767456054688
 31
0.0
  0
LINE
  5
1AF
330
22
100
AcDbEntity
  8
0
  6
Continuous
 62
     7
100
AcDbLine
 10
-449.1881103515624
 20
416.1767272949218
 30
0.0
 11
-449.1881103515624
 21
437.4767456054688
 31
0.0
  0
LINE
  5
1B0
330
22
100
AcDbEntity
  8
0
  6
Continuous
 62
     7
100
AcDbLine
 10
-478.1881103515624
 20
418.9767456054688
 30
0.0
 11
-478.1881103515624
 21
437.4767456054688
 31
0.0
  0
LINE
  5
1B1
330
22
100
AcDbEntity
  8
0
  6
Continuous
 62
     7
100
AcDbLine
 10
-471.9881286621093
 20
418.9767456054688
 30
0.0
 11
-471.9881286621093
 21
437.4767456054688
 31
0.0
  0
LINE
  5
1B2
330
22
100
AcDbEntity
  8
0
  6
Continuous
 62
     7
100
AcDbLine
 10
-483.3881225585938
 20
429.6767272949218
 30
0.0
 11
-483.3881225585938
 21
437.4767456054688
 31
0.0
  0
LINE
  5
1B3
330
22
100
AcDbEntity
  8
0
  6
Continuous
 62
     7
100
AcDbLine
 10
-437.7881164550781
 20
424.5767517089843
 30
0.0
 11
-437.7881164550781
 21
435.0767517089844
 31
0.0
  0
LINE
  5
1B4
330
22
100
AcDbEntity
  8
0
  6
Continuous
 62
     7
100
AcDbLine
 10
-437.7881164550781
 20
424.5767517089843
 30
0.0
 11
-437.7881164550781
 21
435.0767517089844
 31
0.0
  0
LINE
  5
1B5
330
22
100
AcDbEntity
  8
0
  6
Continuous
 62
     7
100
AcDbLine
 10
-460.5881042480469
 20
426.6767272949218
 30
0.0
 11
-460.5881042480469
 21
437.4767456054688
 31
0.0
  0
LINE
  5
1B6
330
22
100
AcDbEntity
  8
0
  6
Continuous
 62
     7
100
AcDbLine
 10
-443.9881286621093
 20
424.5767517089843
 30
0.0
 11
-443.9881286621093
 21
435.0767517089844
 31
0.0
  0
LINE
  5
1B7
330
22
100
AcDbEntity
  8
0
  6
Continuous
 62
     7
100
AcDbLine
 10
-471.9881286621093
 20
389.8880920410156
 30
0.0
 11
-471.9881286621093
 21
407.7767333984374
 31
0.0
  0
LINE
  5
1B8
330
22
100
AcDbEntity
  8
0
  6
Continuous
 62
     7
100
AcDbLine
 10
-478.1881103515624
 20
394.0279846191406
 30
0.0
 11
-478.1881103515624
 21
407.7767333984374
 31
0.0
  0
LINE
  5
1B9
330
22
100
AcDbEntity
  8
0
  6
Continuous
 62
     7
100
AcDbLine
 10
-449.1881103515624
 20
382.0375671386719
 30
0.0
 11
-449.1881103515624
 21
404.9767456054688
 31
0.0
  0
LINE
  5
1BA
330
22
100
AcDbEntity
  8
0
  6
Continuous
 62
     7
100
AcDbLine
 10
-437.1960449218749
 20
380.0451049804688
 30
0.0
 11
-437.4275207519531
 21
379.6441345214844
 31
0.0
  0
LINE
  5
1BB
330
22
100
AcDbEntity
  8
0
  6
Continuous
 62
     7
100
AcDbLine
 10
-437.1960449218749
 20
380.0451049804688
 30
0.0
 11
-436.9645385742187
 21
380.4460754394531
 31
0.0
  0
LINE
  5
1BC
330
22
100
AcDbEntity
  8
0
  6
Continuous
 62
     7
100
AcDbLine
 10
-439.1697387695312
 20
386.0783386230469
 30
0.0
 11
-438.7690734863281
 21
385.8470153808594
 31
0.0
  0
LINE
  5
1BD
330
22
100
AcDbEntity
  8
0
  6
Continuous
 62
     7
100
AcDbLine
 10
-442.6064758300781
 20
378.275146484375
 30
0.0
 11
-443.0071411132812
 21
378.5064697265625
 31
0.0
  0
LINE
  5
1BE
330
22
100
AcDbEntity
  8
0
  6
Continuous
 62
     7
100
AcDbLine
 10
-442.6064758300781
 20
378.275146484375
 30
0.0
 11
-440.5512390136719
 21
380.9194946289063
 31
0.0
  0
LINE
  5
1BF
330
22
100
AcDbEntity
  8
0
  6
Continuous
 62
     7
100
AcDbLine
 10
-444.5802001953125
 20
384.3083801269531
 30
0.0
 11
-444.8117065429688
 21
383.9074096679688
 31
0.0
  0
LINE
  5
1C0
330
22
100
AcDbEntity
  8
0
  6
Continuous
 62
     7
100
AcDbLine
 10
-444.8117065429688
 20
383.9074096679688
 30
0.0
 11
-442.1453552246093
 21
381.8398742675782
 31
0.0
  0
LINE
  5
1C1
330
22
100
AcDbEntity
  8
0
  6
Continuous
 62
     7
100
AcDbLine
 10
-436.9645385742187
 20
380.4460754394531
 30
0.0
 11
-439.6308593749999
 21
382.5136108398438
 31
0.0
  0
LINE
  5
1C2
330
22
100
AcDbEntity
  8
0
  6
Continuous
 62
     7
100
AcDbLine
 10
-437.4275207519531
 20
379.6441345214844
 30
0.0
 11
-440.5512390136719
 21
380.9194946289063
 31
0.0
  0
LINE
  5
1C3
330
22
100
AcDbEntity
  8
0
  6
Continuous
 62
     7
100
AcDbLine
 10
-443.4078063964843
 20
378.73779296875
 30
0.0
 11
-442.1453552246093
 21
381.8398742675782
 31
0.0
  0
LINE
  5
1C4
330
22
100
AcDbEntity
  8
0
  6
Continuous
 62
     7
100
AcDbLine
 10
-443.4078063964843
 20
378.73779296875
 30
0.0
 11
-443.0071411132812
 21
378.5064697265625
 31
0.0
  0
LINE
  5
1C5
330
22
100
AcDbEntity
  8
0
  6
Continuous
 62
     7
100
AcDbLine
 10
-466.7881164550781
 20
387.176025390625
 30
0.0
 11
-466.7881164550781
 21
415.4767456054687
 31
0.0
  0
LINE
  5
1C6
330
22
100
AcDbEntity
  8
0
  6
Continuous
 62
     7
100
AcDbLine
 10
-443.9881286621093
 20
504.798828125
 30
0.0
 11
-443.9881286621093
 21
472.9767456054688
 31
0.0
  0
LINE
  5
1C7
330
22
100
AcDbEntity
  8
0
  6
Continuous
 62
     7
100
AcDbLine
 10
-449.1881103515624
 20
504.3159179687499
 30
0.0
 11
-449.1881103515624
 21
481.3767395019531
 31
0.0
  0
LINE
  5
1C8
330
22
100
AcDbEntity
  8
0
  6
Continuous
 62
     7
100
AcDbLine
 10
-455.3881225585937
 20
503.1487426757813
 30
0.0
 11
-455.3881225585937
 21
481.3767395019531
 31
0.0
  0
LINE
  5
1C9
330
22
100
AcDbEntity
  8
0
  6
Continuous
 62
     7
100
AcDbLine
 10
-438.3684082031249
 20
385.6156921386719
 30
0.0
 11
-438.7690734863281
 21
385.8470153808594
 31
0.0
  0
LINE
  5
1CA
330
22
100
AcDbEntity
  8
0
  6
Continuous
 62
     7
100
AcDbLine
 10
-444.3486938476563
 20
384.7093200683594
 30
0.0
 11
-441.2250061035156
 21
383.4339904785156
 31
0.0
  0
LINE
  5
1CB
330
22
100
AcDbEntity
  8
0
  6
Continuous
 62
     7
100
AcDbLine
 10
-439.1697387695312
 20
386.0783386230469
 30
0.0
 11
-441.2250061035156
 21
383.4339904785156
 31
0.0
  0
LINE
  5
1CC
330
22
100
AcDbEntity
  8
0
  6
Continuous
 62
     7
100
AcDbLine
 10
-444.5802001953125
 20
384.3083801269531
 30
0.0
 11
-444.3486938476563
 21
384.7093200683594
 31
0.0
  0
LINE
  5
1CD
330
22
100
AcDbEntity
  8
0
  6
Continuous
 62
     7
100
AcDbLine
 10
-438.3684082031249
 20
385.6156921386719
 30
0.0
 11
-439.6308593749999
 21
382.5136108398438
 31
0.0
  0
LINE
  5
1CE
330
22
100
AcDbEntity
  8
0
  6
Continuous
 62
     7
100
AcDbLine
 10
-443.9881286621093
 20
391.0767517089844
 30
0.0
 11
-443.9881286621093
 21
413.3767395019531
 31
0.0
  0
LINE
  5
1CF
330
22
100
AcDbEntity
  8
0
  6
Continuous
 62
     7
100
AcDbLine
 10
-443.9881286621093
 20
391.0767517089844
 30
0.0
 11
-443.9881286621093
 21
413.3767395019531
 31
0.0
  0
LINE
  5
1D0
330
22
100
AcDbEntity
  8
0
  6
Continuous
 62
     7
100
AcDbLine
 10
-478.1881103515624
 20
492.3255004882813
 30
0.0
 11
-478.1881103515624
 21
478.5767517089843
 31
0.0
  0
LINE
  5
1D1
330
22
100
AcDbEntity
  8
0
  6
Continuous
 62
     7
100
AcDbLine
 10
-483.3881225585938
 20
487.9052429199218
 30
0.0
 11
-483.3881225585938
 21
466.8767395019531
 31
0.0
  0
LINE
  5
1D2
330
22
100
AcDbEntity
  8
0
  6
Continuous
 62
     7
100
AcDbLine
 10
-487.5881042480468
 20
483.5004272460937
 30
0.0
 11
-487.5881042480468
 21
466.8767395019531
 31
0.0
  0
LINE
  5
1D3
330
22
100
AcDbEntity
  8
0
  6
Continuous
 62
     7
100
AcDbLine
 10
-471.9881286621093
 20
496.4653930664063
 30
0.0
 11
-471.9881286621093
 21
478.5767517089843
 31
0.0
  0
LINE
  5
1D4
330
22
100
AcDbEntity
  8
0
  6
Continuous
 62
     7
100
AcDbLine
 10
-432.5881042480468
 20
504.3159179687499
 30
0.0
 11
-432.5881042480468
 21
481.3767395019531
 31
0.0
  0
LINE
  5
1D5
330
22
100
AcDbEntity
  8
0
  6
Continuous
 62
     7
100
AcDbLine
 10
-460.5881042480469
 20
501.647247314453
 30
0.0
 11
-460.5881042480469
 21
470.8767395019531
 31
0.0
  0
LINE
  5
1D6
330
22
100
AcDbEntity
  8
0
  6
Continuous
 62
     7
100
AcDbLine
 10
-466.7881164550781
 20
499.1774597167968
 30
0.0
 11
-466.7881164550781
 21
470.8767395019531
 31
0.0
  0
LINE
  5
1D7
330
22
100
AcDbEntity
  8
0
  6
Continuous
 62
     7
100
AcDbLine
 10
-437.7881164550781
 20
504.798828125
 30
0.0
 11
-437.7881164550781
 21
472.9767456054688
 31
0.0
  0
LINE
  5
1D8
330
22
100
AcDbEntity
  8
0
  6
Continuous
 62
     7
100
AcDbLine
 10
-437.7881164550781
 20
504.798828125
 30
0.0
 11
-437.7881164550781
 21
472.9767456054688
 31
0.0
  0
LINE
  5
1D9
330
22
100
AcDbEntity
  8
0
  6
Continuous
 62
     7
100
AcDbLine
 10
-443.9881286621093
 20
504.798828125
 30
0.0
 11
-443.9881286621093
 21
472.9767456054688
 31
0.0
  0
LINE
  5
1DA
330
22
100
AcDbEntity
  8
0
  6
Continuous
 62
     7
100
AcDbLine
 10
-477.5094299316406
 20
220.9178161621094
 30
0.0
 11
-440.8881225585938
 21
220.9178161621094
 31
0.0
  0
LINE
  5
1DB
330
22
100
AcDbEntity
  8
0
  6
Continuous
 62
     7
100
AcDbLine
 10
-477.0031127929688
 20
207.1878356933594
 30
0.0
 11
-440.8881225585938
 21
207.1878356933594
 31
0.0
  0
LINE
  5
1DC
330
22
100
AcDbEntity
  8
0
  6
Continuous
 62
     7
100
AcDbLine
 10
-477.0031127929688
 20
172.2228240966797
 30
0.0
 11
-477.0031127929688
 21
207.1878356933594
 31
0.0
  0
LINE
  5
1DD
330
22
100
AcDbEntity
  8
0
  6
Continuous
 62
     7
100
AcDbLine
 10
-478.4781188964843
 20
172.2228240966797
 30
0.0
 11
-478.4781188964843
 21
208.6628265380859
 31
0.0
  0
LINE
  5
1DE
330
22
100
AcDbEntity
  8
0
  6
Continuous
 62
     7
100
AcDbLine
 10
-485.2381286621094
 20
231.2228240966797
 30
0.0
 11
-440.8881225585938
 21
231.2228240966797
 31
0.0
  0
LINE
  5
1DF
330
22
100
AcDbEntity
  8
0
  6
Continuous
 62
     7
100
AcDbLine
 10
-486.2381286621094
 20
232.2228240966797
 30
0.0
 11
-440.8881225585938
 21
232.2228240966797
 31
0.0
  0
LINE
  5
1E0
330
22
100
AcDbEntity
  8
0
  6
Continuous
 62
     7
100
AcDbLine
 10
-440.8881225585938
 20
172.2228240966797
 30
0.0
 11
-482.3881225585938
 21
172.2228240966797
 31
0.0
  0
LINE
  5
1E1
330
22
100
AcDbEntity
  8
0
  6
Continuous
 62
     7
100
AcDbLine
 10
-482.3881225585938
 20
172.2228240966797
 30
0.0
 11
-482.3881225585938
 21
142.2228240966797
 31
0.0
  0
LINE
  5
1E2
330
22
100
AcDbEntity
  8
0
  6
Continuous
 62
     7
100
AcDbLine
 10
-479.0381164550781
 20
209.2228240966797
 30
0.0
 11
-477.0031127929688
 21
207.1878356933594
 31
0.0
  0
LINE
  5
1E3
330
22
100
AcDbEntity
  8
0
  6
Continuous
 62
     7
100
AcDbLine
 10
-479.0381164550781
 20
219.2228240966797
 30
0.0
 11
-479.0381164550781
 21
209.2228240966797
 31
0.0
  0
LINE
  5
1E4
330
22
100
AcDbEntity
  8
0
  6
Continuous
 62
     7
100
AcDbLine
 10
-486.2381286621094
 20
232.2228240966797
 30
0.0
 11
-486.2381286621094
 21
263.0246887207031
 31
0.0
  0
LINE
  5
1E5
330
22
100
AcDbEntity
  8
0
  6
Continuous
 62
     7
100
AcDbLine
 10
-482.4066772460938
 20
265.2119445800781
 30
0.0
 11
-440.8881225585938
 21
265.2119445800781
 31
0.0
  0
LINE
  5
1E6
330
22
100
AcDbEntity
  8
0
  6
Continuous
 62
     7
100
AcDbLine
 10
-504.9066772460938
 20
286.7119445800781
 30
0.0
 11
-440.8881225585938
 21
286.7119445800781
 31
0.0
  0
LINE
  5
1E7
330
22
100
AcDbEntity
  8
0
  6
Continuous
 62
     7
100
AcDbLine
 10
-440.8881225585938
 20
142.2228240966797
 30
0.0
 11
-531.8881225585938
 21
142.2228240966797
 31
0.0
  0
LINE
  5
1E8
330
22
100
AcDbEntity
  8
0
  6
Continuous
 62
     7
100
AcDbLine
 10
-507.2529296875
 20
282.7230224609375
 30
0.0
 11
-488.0556945800781
 21
266.8811645507813
 31
0.0
  0
LINE
  5
1E9
330
22
100
AcDbEntity
  8
0
  6
Continuous
 62
     7
100
AcDbLine
 10
-482.3881225585938
 20
139.2228240966797
 30
0.0
 11
-482.3881225585938
 21
99.22283172607421
 31
0.0
  0
LINE
  5
1EA
330
22
100
AcDbEntity
  8
0
  6
Continuous
 62
     7
100
AcDbLine
 10
-440.8881225585938
 20
139.2228240966797
 30
0.0
 11
-531.8881225585938
 21
139.2228240966797
 31
0.0
  0
LINE
  5
1EB
330
22
100
AcDbEntity
  8
0
  6
Continuous
 62
     7
100
AcDbLine
 10
-531.8881225585938
 20
139.2228240966797
 30
0.0
 11
-531.8881225585938
 21
142.2228240966797
 31
0.0
  0
LINE
  5
1EC
330
22
100
AcDbEntity
  8
0
  6
Continuous
 62
     7
100
AcDbLine
 10
-437.7881164550781
 20
301.2228393554688
 30
0.0
 11
-437.7881164550781
 21
298.0228271484375
 31
0.0
  0
LINE
  5
1ED
330
22
100
AcDbEntity
  8
0
  6
Continuous
 62
     7
100
AcDbLine
 10
-520.8881225585939
 20
300.7228393554688
 30
0.0
 11
-520.8881225585939
 21
297.2228393554688
 31
0.0
  0
LINE
  5
1EE
330
22
100
AcDbEntity
  8
0
  6
Continuous
 62
     7
100
AcDbLine
 10
-519.8881225585938
 20
296.2228393554688
 30
0.0
 11
-512.8881225585939
 21
296.2228393554688
 31
0.0
  0
LINE
  5
1EF
330
22
100
AcDbEntity
  8
0
  6
Continuous
 62
     7
100
AcDbLine
 10
-512.8881225585939
 20
296.2228393554688
 30
0.0
 11
-440.8881225585938
 21
296.2228393554688
 31
0.0
  0
LINE
  5
1F0
330
22
100
AcDbEntity
  8
0
  6
Continuous
 62
     7
100
AcDbLine
 10
-510.8881225585938
 20
294.2228393554688
 30
0.0
 11
-510.8881225585938
 21
290.4359436035156
 31
0.0
  0
LINE
  5
1F1
330
22
100
AcDbEntity
  8
0
  6
CENTER
 62
     7
100
AcDbLine
 10
-440.8881225585938
 20
308.8111877441406
 30
0.0
 11
-440.8881225585938
 21
94.72550201416016
 31
0.0
  0
LINE
  5
1F2
330
22
100
AcDbEntity
  8
0
  6
Continuous
 62
     7
100
AcDbLine
 10
-387.5359497070313
 20
298.0228271484375
 30
0.0
 11
-388.1685485839844
 21
288.9947509765625
 31
0.0
  0
LINE
  5
1F3
330
22
100
AcDbEntity
  8
0
  6
Continuous
 62
     7
100
AcDbLine
 10
-373.3881225585938
 20
300.7228393554688
 30
0.0
 11
-373.3881225585938
 21
298.0228271484375
 31
0.0
  0
LINE
  5
1F4
330
22
100
AcDbEntity
  8
0
  6
Continuous
 62
     7
100
AcDbLine
 10
-370.8881225585938
 20
294.2228393554688
 30
0.0
 11
-370.8881225585938
 21
290.4359436035156
 31
0.0
  0
LINE
  5
1F5
330
22
100
AcDbEntity
  8
0
  6
Continuous
 62
     7
100
AcDbLine
 10
-380.6798706054688
 20
298.0228271484375
 30
0.0
 11
-381.6381225585938
 21
287.0698852539063
 31
0.0
  0
LINE
  5
1F6
330
22
100
AcDbEntity
  8
0
  6
Continuous
 62
     7
100
AcDbLine
 10
-373.3881225585938
 20
298.0228271484375
 30
0.0
 11
-380.6798706054688
 21
298.0228271484375
 31
0.0
  0
LINE
  5
1F7
330
22
100
AcDbEntity
  8
0
  6
Continuous
 62
     7
100
AcDbLine
 10
-393.0604858398438
 20
298.0228271484375
 30
0.0
 11
-393.0604858398438
 21
286.7518005371094
 31
0.0
  0
LINE
  5
1F8
330
22
100
AcDbEntity
  8
0
  6
Continuous
 62
     7
100
AcDbLine
 10
-360.8881225585938
 20
300.7228393554688
 30
0.0
 11
-360.8881225585938
 21
297.2228393554688
 31
0.0
  0
LINE
  5
1F9
330
22
100
AcDbEntity
  8
0
  6
Continuous
 62
     7
100
AcDbLine
 10
-368.8881225585938
 20
296.2228393554688
 30
0.0
 11
-361.8881225585938
 21
296.2228393554688
 31
0.0
  0
LINE
  5
1FA
330
22
100
AcDbEntity
  8
0
  6
Continuous
 62
     7
100
AcDbLine
 10
-380.7236022949219
 20
297.5229187011719
 30
0.0
 11
-380.2236633300781
 21
298.0228271484375
 31
0.0
  0
LINE
  5
1FB
330
22
100
AcDbEntity
  8
0
  6
Continuous
 62
     7
100
AcDbLine
 10
-380.9947814941406
 20
294.4233093261719
 30
0.0
 11
-377.3952331542969
 21
298.0228271484375
 31
0.0
  0
LINE
  5
1FC
330
22
100
AcDbEntity
  8
0
  6
Continuous
 62
     7
100
AcDbLine
 10
-406.3881225585937
 20
269.0299682617188
 30
0.0
 11
-406.1952514648438
 21
269.2228393554688
 31
0.0
  0
LINE
  5
1FD
330
22
100
AcDbEntity
  8
0
  6
Continuous
 62
     7
100
AcDbLine
 10
-373.3881225585938
 20
299.2015380859375
 30
0.0
 11
-371.3668212890625
 21
301.2228393554688
 31
0.0
  0
LINE
  5
1FE
330
22
100
AcDbEntity
  8
0
  6
Continuous
 62
     7
100
AcDbLine
 10
-381.2659606933594
 20
291.3236999511719
 30
0.0
 11
-374.5668334960938
 21
298.0228271484375
 31
0.0
  0
LINE
  5
1FF
330
22
100
AcDbEntity
  8
0
  6
Continuous
 62
     7
100
AcDbLine
 10
-406.2275695800781
 20
266.3620910644531
 30
0.0
 11
-402.200927734375
 21
270.3887023925781
 31
0.0
  0
LINE
  5
200
330
22
100
AcDbEntity
  8
0
  6
Continuous
 62
     7
100
AcDbLine
 10
-381.5371398925781
 20
288.2240905761719
 30
0.0
 11
-368.5383911132813
 21
301.2228393554688
 31
0.0
  0
LINE
  5
201
330
22
100
AcDbEntity
  8
0
  6
Continuous
 62
     7
100
AcDbLine
 10
-404.9472656249999
 20
264.81396484375
 30
0.0
 11
-387.2174987792969
 21
282.5437316894531
 31
0.0
  0
LINE
  5
202
330
22
100
AcDbEntity
  8
0
  6
Continuous
 62
     7
100
AcDbLine
 10
-404.2803344726562
 20
262.6524658203125
 30
0.0
 11
-365.7099609375
 21
301.2228393554688
 31
0.0
  0
LINE
  5
203
330
22
100
AcDbEntity
  8
0
  6
Continuous
 62
     7
100
AcDbLine
 10
-367.8815307617188
 20
296.2228393554688
 30
0.0
 11
-362.8815307617188
 21
301.2228393554688
 31
0.0
  0
LINE
  5
204
330
22
100
AcDbEntity
  8
0
  6
Continuous
 62
     7
100
AcDbLine
 10
-404.1946411132813
 20
259.9097290039063
 30
0.0
 11
-370.8881225585938
 21
293.2162475585938
 31
0.0
  0
LINE
  5
205
330
22
100
AcDbEntity
  8
0
  6
Continuous
 62
     7
100
AcDbLine
 10
-365.0531005859375
 20
296.2228393554688
 30
0.0
 11
-360.8881225585938
 21
300.3878173828125
 31
0.0
  0
LINE
  5
206
330
22
100
AcDbEntity
  8
0
  6
Continuous
 62
     7
100
AcDbLine
 10
-404.1089172363281
 20
257.167022705078
 30
0.0
 11
-370.8905029296875
 21
290.3854370117188
 31
0.0
  0
LINE
  5
207
330
22
100
AcDbEntity
  8
0
  6
Continuous
 62
     7
100
AcDbLine
 10
-362.2246704101563
 20
296.2228393554688
 30
0.0
 11
-360.8881225585938
 21
297.5593872070313
 31
0.0
  0
LINE
  5
208
330
22
100
AcDbEntity
  8
0
  6
Continuous
 62
     7
100
AcDbLine
 10
-381.3957824707031
 20
277.051727294922
 30
0.0
 11
-371.6058654785156
 21
286.8416748046875
 31
0.0
  0
LINE
  5
209
330
22
100
AcDbEntity
  8
0
  6
Continuous
 62
     7
100
AcDbLine
 10
-404.023193359375
 20
254.42431640625
 30
0.0
 11
-395.5381164550781
 21
262.9093933105469
 31
0.0
  0
LINE
  5
20A
330
22
100
AcDbEntity
  8
0
  6
Continuous
 62
     7
100
AcDbLine
 10
-403.9374694824219
 20
251.6816101074219
 30
0.0
 11
-395.5381164550781
 21
260.0809631347656
 31
0.0
  0
LINE
  5
20B
330
22
100
AcDbEntity
  8
0
  6
Continuous
 62
     7
100
AcDbLine
 10
-403.8517761230468
 20
248.9388885498047
 30
0.0
 11
-395.5381164550781
 21
257.2525329589844
 31
0.0
  0
LINE
  5
20C
330
22
100
AcDbEntity
  8
0
  6
Continuous
 62
     7
100
AcDbLine
 10
-403.5853576660156
 20
246.3768768310547
 30
0.0
 11
-395.5381164550781
 21
254.4241180419922
 31
0.0
  0
LINE
  5
20D
330
22
100
AcDbEntity
  8
0
  6
Continuous
 62
     7
100
AcDbLine
 10
-403.4997558593749
 20
243.634033203125
 30
0.0
 11
-395.5381164550781
 21
251.5956878662109
 31
0.0
  0
LINE
  5
20E
330
22
100
AcDbEntity
  8
0
  6
Continuous
 62
     7
100
AcDbLine
 10
-403.4141845703125
 20
240.8911895751953
 30
0.0
 11
-395.5381164550781
 21
248.7672576904297
 31
0.0
  0
LINE
  5
20F
330
22
100
AcDbEntity
  8
0
  6
Continuous
 62
     7
100
AcDbLine
 10
-403.32861328125
 20
238.1483459472656
 30
0.0
 11
-395.5381164550781
 21
245.9388427734375
 31
0.0
  0
LINE
  5
210
330
22
100
AcDbEntity
  8
0
  6
Continuous
 62
     7
100
AcDbLine
 10
-403.2430419921874
 20
235.4054870605469
 30
0.0
 11
-395.5381164550781
 21
243.1104125976563
 31
0.0
  0
LINE
  5
211
330
22
100
AcDbEntity
  8
0
  6
Continuous
 62
     7
100
AcDbLine
 10
-403.1574401855468
 20
232.6626434326172
 30
0.0
 11
-395.5381164550781
 21
240.281982421875
 31
0.0
  0
LINE
  5
212
330
22
100
AcDbEntity
  8
0
  6
Continuous
 62
     7
100
AcDbLine
 10
-401.7688293457031
 20
231.2228240966797
 30
0.0
 11
-395.5381164550781
 21
237.4535522460938
 31
0.0
  0
LINE
  5
213
330
22
100
AcDbEntity
  8
0
  6
Continuous
 62
     7
100
AcDbLine
 10
-398.9403991699219
 20
231.2228240966797
 30
0.0
 11
-395.5381164550781
 21
234.6251220703125
 31
0.0
  0
LINE
  5
214
330
22
100
AcDbEntity
  8
0
  6
Continuous
 62
     7
100
AcDbLine
 10
-479.0381164550781
 20
219.2228240966797
 30
0.0
 11
-477.5094299316406
 21
220.9178161621094
 31
0.0
  0
LINE
  5
215
330
22
100
AcDbEntity
  8
0
  6
Continuous
 62
     7
100
AcDbLine
 10
-478.6636962890624
 20
231.2228240966797
 30
0.0
 11
-479.0381164550781
 21
219.2228240966797
 31
0.0
  0
LINE
  5
216
330
22
100
AcDbEntity
  8
0
  6
Continuous
 62
     7
100
AcDbLine
 10
-477.1878967285156
 20
231.2228240966797
 30
0.0
 11
-477.5094299316406
 21
220.9178161621094
 31
0.0
  0
LINE
  5
217
330
22
100
AcDbEntity
  8
0
  6
Continuous
 62
     7
100
AcDbLine
 10
-393.908447265625
 20
287.0698852539063
 30
0.0
 11
-439.8023071289062
 21
287.0698852539063
 31
0.0
  0
LINE
  5
218
330
22
100
AcDbEntity
  8
0
  6
Continuous
 62
     7
100
AcDbLine
 10
-406.3881225585937
 20
266.2228393554688
 30
0.0
 11
-440.8881225585938
 21
266.2228393554688
 31
0.0
  0
LINE
  5
219
330
22
100
AcDbEntity
  8
0
  6
Continuous
 62
     7
100
AcDbLine
 10
-406.3881225585937
 20
269.2228393554688
 30
0.0
 11
-440.8881225585938
 21
269.2228393554688
 31
0.0
  0
LINE
  5
21A
330
22
100
AcDbEntity
  8
0
  6
Continuous
 62
     7
100
AcDbLine
 10
-404.7137756347656
 20
101.1150588989258
 30
0.0
 11
-440.8881225585938
 21
101.1150588989258
 31
0.0
  0
LINE
  5
21B
330
22
100
AcDbEntity
  8
0
  6
Continuous
 62
     7
100
AcDbLine
 10
-399.3881225585938
 20
99.22283172607421
 30
0.0
 11
-482.3881225585938
 21
99.22283172607421
 31
0.0
  0
LINE
  5
21C
330
22
100
AcDbEntity
  8
0
  6
Continuous
 62
     7
100
AcDbLine
 10
-403.5267944335938
 20
123.960578918457
 30
0.0
 11
-440.8881225585938
 21
123.960578918457
 31
0.0
  0
LINE
  5
21D
330
22
100
AcDbEntity
  8
0
  6
Continuous
 62
     7
100
AcDbLine
 10
-520.3881225585938
 20
301.2228393554688
 30
0.0
 11
-372.8881225585938
 21
301.2228393554688
 31
0.0
  0
LINE
  5
21E
330
22
100
AcDbEntity
  8
0
  6
Continuous
 62
     7
100
AcDbLine
 10
-421.1881103515625
 20
459.6767272949218
 30
0.0
 11
-421.1881103515625
 21
448.8767395019531
 31
0.0
  0
LINE
  5
21F
330
22
100
AcDbEntity
  8
0
  6
Continuous
 62
     7
100
AcDbLine
 10
-426.3881225585937
 20
470.1767272949219
 30
0.0
 11
-426.3881225585937
 21
448.8767395019531
 31
0.0
  0
LINE
  5
220
330
22
100
AcDbEntity
  8
0
  6
Continuous
 62
     7
100
AcDbLine
 10
-404.6537170410156
 20
137.2228240966797
 30
0.0
 11
-440.8881225585938
 21
137.2228240966797
 31
0.0
  0
LINE
  5
221
330
22
100
AcDbEntity
  8
0
  6
Continuous
 62
     7
100
AcDbLine
 10
-402.7537231445313
 20
139.1228332519531
 30
0.0
 11
-440.8881225585938
 21
139.1228332519531
 31
0.0
  0
LINE
  5
222
330
22
100
AcDbEntity
  8
0
  6
Continuous
 62
     7
100
AcDbLine
 10
-375.2280578613281
 20
301.2228393554688
 30
0.0
 11
-373.3881225585938
 21
299.3829040527344
 31
0.0
  0
LINE
  5
223
330
22
100
AcDbEntity
  8
0
  6
Continuous
 62
     7
100
AcDbLine
 10
-375.9351501464844
 20
301.2228393554688
 30
0.0
 11
-373.3881225585938
 21
298.67578125
 31
0.0
  0
LINE
  5
224
330
22
100
AcDbEntity
  8
0
  6
Continuous
 62
     7
100
AcDbLine
 10
-378.0564880371094
 20
301.2228393554688
 30
0.0
 11
-374.8564758300781
 21
298.0228271484375
 31
0.0
  0
LINE
  5
225
330
22
100
AcDbEntity
  8
0
  6
Continuous
 62
     7
100
AcDbLine
 10
-378.7635803222656
 20
301.2228393554688
 30
0.0
 11
-375.5635986328125
 21
298.0228271484375
 31
0.0
  0
LINE
  5
226
330
22
100
AcDbEntity
  8
0
  6
Continuous
 62
     7
100
AcDbLine
 10
-380.8849182128906
 20
301.2228393554688
 30
0.0
 11
-377.6849060058594
 21
298.0228271484375
 31
0.0
  0
LINE
  5
227
330
22
100
AcDbEntity
  8
0
  6
Continuous
 62
     7
100
AcDbLine
 10
-381.5920104980469
 20
301.2228393554688
 30
0.0
 11
-378.3919982910156
 21
298.0228271484375
 31
0.0
  0
LINE
  5
228
330
22
100
AcDbEntity
  8
0
  6
Continuous
 62
     7
100
AcDbLine
 10
-383.7133483886719
 20
301.2228393554688
 30
0.0
 11
-380.5133361816406
 21
298.0228271484375
 31
0.0
  0
LINE
  5
229
330
22
100
AcDbEntity
  8
0
  6
Continuous
 62
     7
100
AcDbLine
 10
-384.4204406738281
 20
301.2228393554688
 30
0.0
 11
-381.2204284667969
 21
298.0228271484375
 31
0.0
  0
LINE
  5
22A
330
22
100
AcDbEntity
  8
0
  6
Continuous
 62
     7
100
AcDbLine
 10
-386.541748046875
 20
301.2228393554688
 30
0.0
 11
-383.3417663574219
 21
298.0228271484375
 31
0.0
  0
LINE
  5
22B
330
22
100
AcDbEntity
  8
0
  6
Continuous
 62
     7
100
AcDbLine
 10
-387.2488708496094
 20
301.2228393554688
 30
0.0
 11
-384.0488586425781
 21
298.0228271484375
 31
0.0
  0
LINE
  5
22C
330
22
100
AcDbEntity
  8
0
  6
Continuous
 62
     7
100
AcDbLine
 10
-389.3701782226563
 20
301.2228393554688
 30
0.0
 11
-386.1701965332031
 21
298.0228271484375
 31
0.0
  0
LINE
  5
22D
330
22
100
AcDbEntity
  8
0
  6
Continuous
 62
     7
100
AcDbLine
 10
-390.0773010253906
 20
301.2228393554688
 30
0.0
 11
-386.8772888183594
 21
298.0228271484375
 31
0.0
  0
LINE
  5
22E
330
22
100
AcDbEntity
  8
0
  6
Continuous
 62
     7
100
AcDbLine
 10
-392.1986083984375
 20
301.2228393554688
 30
0.0
 11
-388.9986267089844
 21
298.0228271484375
 31
0.0
  0
LINE
  5
22F
330
22
100
AcDbEntity
  8
0
  6
Continuous
 62
     7
100
AcDbLine
 10
-392.9057312011719
 20
301.2228393554688
 30
0.0
 11
-389.7057189941406
 21
298.0228271484375
 31
0.0
  0
LINE
  5
230
330
22
100
AcDbEntity
  8
0
  6
Continuous
 62
     7
100
AcDbLine
 10
-395.0270385742188
 20
301.2228393554688
 30
0.0
 11
-391.8270568847656
 21
298.0228271484375
 31
0.0
  0
LINE
  5
231
330
22
100
AcDbEntity
  8
0
  6
Continuous
 62
     7
100
AcDbLine
 10
-395.7341613769531
 20
301.2228393554688
 30
0.0
 11
-392.5341491699219
 21
298.0228271484375
 31
0.0
  0
LINE
  5
232
330
22
100
AcDbEntity
  8
0
  6
Continuous
 62
     7
100
AcDbLine
 10
-397.85546875
 20
301.2228393554688
 30
0.0
 11
-394.6554565429688
 21
298.0228271484375
 31
0.0
  0
LINE
  5
233
330
22
100
AcDbEntity
  8
0
  6
Continuous
 62
     7
100
AcDbLine
 10
-398.5625610351563
 20
301.2228393554688
 30
0.0
 11
-395.3625793457031
 21
298.0228271484375
 31
0.0
  0
LINE
  5
234
330
22
100
AcDbEntity
  8
0
  6
Continuous
 62
     7
100
AcDbLine
 10
-400.6838989257813
 20
301.2228393554688
 30
0.0
 11
-397.48388671875
 21
298.0228271484375
 31
0.0
  0
LINE
  5
235
330
22
100
AcDbEntity
  8
0
  6
Continuous
 62
     7
100
AcDbLine
 10
-401.3909912109374
 20
301.2228393554688
 30
0.0
 11
-398.1910095214844
 21
298.0228271484375
 31
0.0
  0
LINE
  5
236
330
22
100
AcDbEntity
  8
0
  6
Continuous
 62
     7
100
AcDbLine
 10
-403.5123291015625
 20
301.2228393554688
 30
0.0
 11
-400.3123168945313
 21
298.0228271484375
 31
0.0
  0
LINE
  5
237
330
22
100
AcDbEntity
  8
0
  6
Continuous
 62
     7
100
AcDbLine
 10
-404.2194213867188
 20
301.2228393554688
 30
0.0
 11
-401.0194396972655
 21
298.0228271484375
 31
0.0
  0
LINE
  5
238
330
22
100
AcDbEntity
  8
0
  6
Continuous
 62
     7
100
AcDbLine
 10
-406.3407592773438
 20
301.2228393554688
 30
0.0
 11
-403.1407470703125
 21
298.0228271484375
 31
0.0
  0
LINE
  5
239
330
22
100
AcDbEntity
  8
0
  6
Continuous
 62
     7
100
AcDbLine
 10
-407.0478515625
 20
301.2228393554688
 30
0.0
 11
-403.8478698730468
 21
298.0228271484375
 31
0.0
  0
LINE
  5
23A
330
22
100
AcDbEntity
  8
0
  6
Continuous
 62
     7
100
AcDbLine
 10
-409.1691894531249
 20
301.2228393554688
 30
0.0
 11
-405.9691772460937
 21
298.0228271484375
 31
0.0
  0
LINE
  5
23B
330
22
100
AcDbEntity
  8
0
  6
Continuous
 62
     7
100
AcDbLine
 10
-409.8762817382812
 20
301.2228393554688
 30
0.0
 11
-406.6762695312499
 21
298.0228271484375
 31
0.0
  0
LINE
  5
23C
330
22
100
AcDbEntity
  8
0
  6
Continuous
 62
     7
100
AcDbLine
 10
-411.9976196289063
 20
301.2228393554688
 30
0.0
 11
-408.7976074218749
 21
298.0228271484375
 31
0.0
  0
LINE
  5
23D
330
22
100
AcDbEntity
  8
0
  6
Continuous
 62
     7
100
AcDbLine
 10
-412.7047119140625
 20
301.2228393554688
 30
0.0
 11
-409.5046997070313
 21
298.0228271484375
 31
0.0
  0
LINE
  5
23E
330
22
100
AcDbEntity
  8
0
  6
Continuous
 62
     7
100
AcDbLine
 10
-414.8260192871093
 20
301.2228393554688
 30
0.0
 11
-411.6260375976563
 21
298.0228271484375
 31
0.0
  0
LINE
  5
23F
330
22
100
AcDbEntity
  8
0
  6
Continuous
 62
     7
100
AcDbLine
 10
-415.5331420898438
 20
301.2228393554688
 30
0.0
 11
-412.3331298828125
 21
298.0228271484375
 31
0.0
  0
LINE
  5
240
330
22
100
AcDbEntity
  8
0
  6
Continuous
 62
     7
100
AcDbLine
 10
-417.6544494628906
 20
301.2228393554688
 30
0.0
 11
-414.4544677734375
 21
298.0228271484375
 31
0.0
  0
LINE
  5
241
330
22
100
AcDbEntity
  8
0
  6
Continuous
 62
     7
100
AcDbLine
 10
-418.361572265625
 20
301.2228393554688
 30
0.0
 11
-415.1615600585937
 21
298.0228271484375
 31
0.0
  0
LINE
  5
242
330
22
100
AcDbEntity
  8
0
  6
Continuous
 62
     7
100
AcDbLine
 10
-420.4828796386719
 20
301.2228393554688
 30
0.0
 11
-417.2828979492187
 21
298.0228271484375
 31
0.0
  0
LINE
  5
243
330
22
100
AcDbEntity
  8
0
  6
Continuous
 62
     7
100
AcDbLine
 10
-421.1900024414062
 20
301.2228393554688
 30
0.0
 11
-417.9899902343749
 21
298.0228271484375
 31
0.0
  0
LINE
  5
244
330
22
100
AcDbEntity
  8
0
  6
Continuous
 62
     7
100
AcDbLine
 10
-423.3113098144531
 20
301.2228393554688
 30
0.0
 11
-420.111328125
 21
298.0228271484375
 31
0.0
  0
LINE
  5
245
330
22
100
AcDbEntity
  8
0
  6
Continuous
 62
     7
100
AcDbLine
 10
-424.0184326171875
 20
301.2228393554688
 30
0.0
 11
-420.8184204101563
 21
298.0228271484375
 31
0.0
  0
LINE
  5
246
330
22
100
AcDbEntity
  8
0
  6
Continuous
 62
     7
100
AcDbLine
 10
-426.1397399902343
 20
301.2228393554688
 30
0.0
 11
-422.9397277832031
 21
298.0228271484375
 31
0.0
  0
LINE
  5
247
330
22
100
AcDbEntity
  8
0
  6
Continuous
 62
     7
100
AcDbLine
 10
-426.8468322753906
 20
301.2228393554688
 30
0.0
 11
-423.6468505859375
 21
298.0228271484375
 31
0.0
  0
LINE
  5
248
330
22
100
AcDbEntity
  8
0
  6
Continuous
 62
     7
100
AcDbLine
 10
-428.9681701660156
 20
301.2228393554688
 30
0.0
 11
-425.7681579589843
 21
298.0228271484375
 31
0.0
  0
LINE
  5
249
330
22
100
AcDbEntity
  8
0
  6
Continuous
 62
     7
100
AcDbLine
 10
-429.6752624511718
 20
301.2228393554688
 30
0.0
 11
-426.4752807617187
 21
298.0228271484375
 31
0.0
  0
LINE
  5
24A
330
22
100
AcDbEntity
  8
0
  6
Continuous
 62
     7
100
AcDbLine
 10
-431.7966003417969
 20
301.2228393554688
 30
0.0
 11
-428.5965881347656
 21
298.0228271484375
 31
0.0
  0
LINE
  5
24B
330
22
100
AcDbEntity
  8
0
  6
Continuous
 62
     7
100
AcDbLine
 10
-432.5036926269531
 20
301.2228393554688
 30
0.0
 11
-429.3037109374999
 21
298.0228271484375
 31
0.0
  0
LINE
  5
24C
330
22
100
AcDbEntity
  8
0
  6
Continuous
 62
     7
100
AcDbLine
 10
-434.6250305175781
 20
301.2228393554688
 30
0.0
 11
-431.4250183105468
 21
298.0228271484375
 31
0.0
  0
LINE
  5
24D
330
22
100
AcDbEntity
  8
0
  6
Continuous
 62
     7
100
AcDbLine
 10
-435.3321228027343
 20
301.2228393554688
 30
0.0
 11
-432.1321411132813
 21
298.0228271484375
 31
0.0
  0
LINE
  5
24E
330
22
100
AcDbEntity
  8
0
  6
Continuous
 62
     7
100
AcDbLine
 10
-437.4534606933593
 20
301.2228393554688
 30
0.0
 11
-434.2534484863281
 21
298.0228271484375
 31
0.0
  0
LINE
  5
24F
330
22
100
AcDbEntity
  8
0
  6
Continuous
 62
     7
100
AcDbLine
 10
-437.7881164550781
 20
300.8504028320313
 30
0.0
 11
-434.9605407714843
 21
298.0228271484375
 31
0.0
  0
LINE
  5
250
330
22
100
AcDbEntity
  8
0
  6
Continuous
 62
     7
100
AcDbLine
 10
-437.7881164550781
 20
298.7290649414063
 30
0.0
 11
-437.0818786621093
 21
298.0228271484375
 31
0.0
  0
LINE
  5
251
330
22
100
AcDbEntity
  8
0
  6
Continuous
 62
     7
100
AcDbLine
 10
-380.6798706054688
 20
298.0228271484375
 30
0.0
 11
-440.8881225585938
 21
298.0228271484375
 31
0.0
  0
LINE
  5
252
330
22
100
AcDbEntity
  8
0
  6
CENTER
 62
     7
100
AcDbLine
 10
-541.286865234375
 20
443.1767272949218
 30
0.0
 11
-340.4893798828125
 21
443.1767272949218
 31
0.0
  0
LINE
  5
253
330
22
100
AcDbEntity
  8
0
  6
Continuous
 62
     7
100
AcDbLine
 10
-426.3881225585937
 20
503.1487426757813
 30
0.0
 11
-426.3881225585937
 21
481.3767395019531
 31
0.0
  0
LINE
  5
254
330
22
100
AcDbEntity
  8
0
  6
Continuous
 62
     7
100
AcDbLine
 10
-421.1881103515625
 20
501.647247314453
 30
0.0
 11
-421.1881103515625
 21
470.8767395019531
 31
0.0
  0
LINE
  5
255
330
22
100
AcDbEntity
  8
0
  6
Continuous
 62
     7
100
AcDbLine
 10
-421.1881103515625
 20
384.7062377929688
 30
0.0
 11
-421.1881103515625
 21
415.4767456054687
 31
0.0
  0
LINE
  5
256
330
22
100
AcDbEntity
  8
0
  6
Continuous
 62
     7
100
AcDbLine
 10
-426.3881225585937
 20
383.2047424316406
 30
0.0
 11
-426.3881225585937
 21
404.9767456054688
 31
0.0
  0
LINE
  5
257
330
22
100
AcDbEntity
  8
0
  6
Continuous
 62
     7
100
AcDbLine
 10
-421.1881103515625
 20
426.6767272949218
 30
0.0
 11
-421.1881103515625
 21
437.4767456054688
 31
0.0
  0
LINE
  5
258
330
22
100
AcDbEntity
  8
0
  6
Continuous
 62
     7
100
AcDbLine
 10
-426.3881225585937
 20
416.1767272949218
 30
0.0
 11
-426.3881225585937
 21
437.4767456054688
 31
0.0
  0
LINE
  5
259
330
22
100
AcDbEntity
  8
0
  6
Continuous
 62
     7
100
AcDbLine
 10
-423.01904296875
 20
249.2228240966797
 30
0.0
 11
-432.8292846679688
 21
249.2228240966797
 31
0.0
  0
LINE
  5
25A
330
22
100
AcDbEntity
  8
0
  6
Continuous
 62
     7
100
AcDbLine
 10
-404.7731018066405
 20
149.2228240966797
 30
0.0
 11
-440.8881225585938
 21
149.2228240966797
 31
0.0
  0
LINE
  5
25B
330
22
100
AcDbEntity
  8
0
  6
Continuous
 62
     7
100
AcDbLine
 10
-405.1499328613281
 20
249.2228240966797
 30
0.0
 11
-440.8881225585938
 21
249.2228240966797
 31
0.0
  0
ARC
  5
25C
330
22
100
AcDbEntity
  8
0
  6
Continuous
 62
     7
100
AcDbCircle
 10
-440.8881225585938
 20
443.1767272949218
 30
0.0
 40
61.70000076293945
100
AcDbArc
 50
13.07671163393859
 51
23.65524352802771
  0
ARC
  5
25D
330
22
100
AcDbEntity
  8
0
  6
Continuous
 62
     7
100
AcDbCircle
 10
-395.2881164550781
 20
456.6767272949219
 30
0.0
 40
3.099999904632568
100
AcDbArc
 50
0.0
 51
180.0000000000004
  0
ARC
  5
25E
330
22
100
AcDbEntity
  8
0
  6
Continuous
 62
     7
100
AcDbCircle
 10
-359.8881225585938
 20
443.1767272949218
 30
0.0
 40
5.0
100
AcDbArc
 50
256.7248382016023
 51
103.2750814962373
  0
ARC
  5
25F
330
22
100
AcDbEntity
  8
0
  6
Continuous
 62
     7
100
AcDbCircle
 10
-359.8881225585938
 20
443.1767272949218
 30
0.0
 40
2.75
100
AcDbArc
 50
247.7675076825619
 51
112.2322517420529
  0
ARC
  5
260
330
22
100
AcDbEntity
  8
0
  6
Continuous
 62
     7
100
AcDbCircle
 10
-361.3881225585938
 20
300.7228393554688
 30
0.0
 40
0.5
100
AcDbArc
 50
0.0
 51
90.00000000000019
  0
ARC
  5
261
330
22
100
AcDbEntity
  8
0
  6
Continuous
 62
     7
100
AcDbCircle
 10
-372.8881225585938
 20
300.7228393554688
 30
0.0
 40
0.5
100
AcDbArc
 50
90.00000000000019
 51
180.0000000000004
  0
ARC
  5
262
330
22
100
AcDbEntity
  8
0
  6
Continuous
 62
     7
100
AcDbCircle
 10
-440.8881225585938
 20
443.1767272949218
 30
0.0
 40
61.70000076293945
100
AcDbArc
 50
313.5365247832019
 51
322.1204380365652
  0
ARC
  5
263
330
22
100
AcDbEntity
  8
0
  6
Continuous
 62
     7
100
AcDbCircle
 10
-440.8881225585938
 20
443.1767272949218
 30
0.0
 40
61.70000076293945
100
AcDbArc
 50
300.2684440165788
 51
307.195630114033
  0
ARC
  5
264
330
22
100
AcDbEntity
  8
0
  6
Continuous
 62
     7
100
AcDbCircle
 10
-406.6881103515624
 20
407.7767333984374
 30
0.0
 40
3.099999904632568
100
AcDbArc
 50
0.0
 51
180.0000000000004
  0
ARC
  5
265
330
22
100
AcDbEntity
  8
0
  6
Continuous
 62
     7
100
AcDbCircle
 10
-406.6881103515624
 20
418.9767456054688
 30
0.0
 40
3.099999904632568
100
AcDbArc
 50
180.0000000000004
 51
0.0
  0
ARC
  5
266
330
22
100
AcDbEntity
  8
0
  6
Continuous
 62
     7
100
AcDbCircle
 10
-395.2881164550781
 20
448.8767395019531
 30
0.0
 40
3.099999904632568
100
AcDbArc
 50
180.0000000000004
 51
0.0
  0
ARC
  5
267
330
22
100
AcDbEntity
  8
0
  6
Continuous
 62
     7
100
AcDbCircle
 10
-395.2881164550781
 20
437.4767456054688
 30
0.0
 40
3.099999904632568
100
AcDbArc
 50
0.0
 51
180.0000000000004
  0
ARC
  5
268
330
22
100
AcDbEntity
  8
0
  6
Continuous
 62
     7
100
AcDbCircle
 10
-406.6881103515624
 20
437.4767456054688
 30
0.0
 40
3.099999904632568
100
AcDbArc
 50
0.0
 51
180.0000000000004
  0
ARC
  5
269
330
22
100
AcDbEntity
  8
0
  6
Continuous
 62
     7
100
AcDbCircle
 10
-406.6881103515624
 20
448.8767395019531
 30
0.0
 40
3.099999904632568
100
AcDbArc
 50
180.0000000000004
 51
0.0
  0
ARC
  5
26A
330
22
100
AcDbEntity
  8
0
  6
Continuous
 62
     7
100
AcDbCircle
 10
-440.8881225585938
 20
443.1767272949218
 30
0.0
 40
61.70000076293945
100
AcDbArc
 50
336.344756471973
 51
346.9233159703656
  0
ARC
  5
26B
330
22
100
AcDbEntity
  8
0
  6
Continuous
 62
     7
100
AcDbCircle
 10
-395.2881164550781
 20
429.6767272949218
 30
0.0
 40
3.099999904632568
100
AcDbArc
 50
180.0000000000004
 51
0.0
  0
ARC
  5
26C
330
22
100
AcDbEntity
  8
0
  6
Continuous
 62
     7
100
AcDbCircle
 10
-395.2881164550781
 20
418.4499206542969
 30
0.0
 40
3.100116014480591
100
AcDbArc
 50
0.4957790652387459
 51
180.4952150671046
  0
CIRCLE
  5
26D
330
22
100
AcDbEntity
  8
0
  6
Continuous
 62
     7
100
AcDbCircle
 10
-388.0605773925781
 20
473.6767272949219
 30
0.0
 40
5.0
  0
ARC
  5
26E
330
22
100
AcDbEntity
  8
0
  6
Continuous
 62
     7
100
AcDbCircle
 10
-440.8881225585938
 20
443.1767272949218
 30
0.0
 40
61.70000076293945
100
AcDbArc
 50
40.80937097403771
 51
46.46347521679879
  0
ARC
  5
26F
330
22
100
AcDbEntity
  8
0
  6
Continuous
 62
     7
100
AcDbCircle
 10
-396.2881164550781
 20
466.8767395019531
 30
0.0
 40
2.099999904632567
100
AcDbArc
 50
180.0000000000004
 51
0.0
  0
CIRCLE
  5
270
330
22
100
AcDbEntity
  8
0
  6
Continuous
 62
     7
100
AcDbCircle
 10
-388.0605773925781
 20
473.6767272949219
 30
0.0
 40
5.25
  0
ARC
  5
271
330
22
100
AcDbEntity
  8
0
  6
Continuous
 62
     7
100
AcDbCircle
 10
-406.6881103515624
 20
478.5767517089843
 30
0.0
 40
3.099999904632568
100
AcDbArc
 50
180.0000000000004
 51
0.0
  0
ARC
  5
272
330
22
100
AcDbEntity
  8
0
  6
Continuous
 62
     7
100
AcDbCircle
 10
-440.8881225585938
 20
443.1767272949218
 30
0.0
 40
61.70000076293945
100
AcDbArc
 50
52.80438701809186
 51
59.73157026784707
  0
ARC
  5
273
330
22
100
AcDbEntity
  8
0
  6
Continuous
 62
     7
100
AcDbCircle
 10
-406.6881103515624
 20
467.3767395019531
 30
0.0
 40
3.099999904632568
100
AcDbArc
 50
0.0
 51
180.0000000000004
  0
ARC
  5
274
330
22
100
AcDbEntity
  8
0
  6
Continuous
 62
     7
100
AcDbCircle
 10
-382.2881164550781
 20
447.2767333984375
 30
0.0
 40
1.5
100
AcDbArc
 50
270.0000000000005
 51
0.0
  0
ARC
  5
275
330
22
100
AcDbEntity
  8
0
  6
Continuous
 62
     7
100
AcDbCircle
 10
-382.2881164550781
 20
439.0767517089844
 30
0.0
 40
1.5
100
AcDbArc
 50
0.0
 51
90.00000000000019
  0
ARC
  5
276
330
22
100
AcDbEntity
  8
0
  6
Continuous
 62
     7
100
AcDbCircle
 10
-385.4881286621094
 20
439.0767517089844
 30
0.0
 40
1.5
100
AcDbArc
 50
90.00000000000019
 51
180.0000000000004
  0
ARC
  5
277
330
22
100
AcDbEntity
  8
0
  6
Continuous
 62
     7
100
AcDbCircle
 10
-385.4881286621094
 20
447.2767333984375
 30
0.0
 40
1.5
100
AcDbArc
 50
180.0000000000004
 51
270.0000000000005
  0
ARC
  5
278
330
22
100
AcDbEntity
  8
0
  6
Continuous
 62
     7
100
AcDbCircle
 10
-385.4547729492188
 20
419.5067443847656
 30
0.0
 40
1.533328056335449
100
AcDbArc
 50
180.0000000000004
 51
314.9032384738086
  0
ARC
  5
279
330
22
100
AcDbEntity
  8
0
  6
Continuous
 62
     7
100
AcDbCircle
 10
-385.4547729492188
 20
466.8467407226563
 30
0.0
 40
1.533328056335449
100
AcDbArc
 50
45.09595653208736
 51
180.0000000000004
  0
ARC
  5
27A
330
22
100
AcDbEntity
  8
0
  6
Continuous
 62
     7
100
AcDbCircle
 10
-390.5381164550781
 20
263.0246887207031
 30
0.0
 40
5.0
100
AcDbArc
 50
129.5297999595819
 51
180.0000000000004
  0
ARC
  5
27B
330
22
100
AcDbEntity
  8
0
  6
Continuous
 62
     7
100
AcDbCircle
 10
-392.3696594238281
 20
289.541015625
 30
0.0
 40
4.236482620239258
100
AcDbArc
 50
291.9981510375532
 51
352.5914752778644
  0
ARC
  5
27C
330
22
100
AcDbEntity
  8
0
  6
Continuous
 62
     7
100
AcDbCircle
 10
-380.8881225585938
 20
290.4359436035156
 30
0.0
 40
10.0
100
AcDbArc
 50
309.5300461123307
 51
0.0
  0
ARC
  5
27D
330
22
100
AcDbEntity
  8
0
  6
Continuous
 62
     7
100
AcDbCircle
 10
-391.3522033691407
 20
287.3212280273438
 30
0.0
 40
1.800680637359619
100
AcDbArc
 50
198.4349488229227
 51
288.4352558956528
  0
ARC
  5
27E
330
22
100
AcDbEntity
  8
0
  6
Continuous
 62
     7
100
AcDbCircle
 10
-396.5381164550781
 20
232.2228240966797
 30
0.0
 40
1.0
100
AcDbArc
 50
270.0000000000005
 51
0.0
  0
ARC
  5
27F
330
22
100
AcDbEntity
  8
0
  6
Continuous
 62
     7
100
AcDbCircle
 10
-486.4881286621093
 20
448.8767395019531
 30
0.0
 40
3.099999904632568
100
AcDbArc
 50
180.0000000000004
 51
0.0
  0
ARC
  5
280
330
22
100
AcDbEntity
  8
0
  6
Continuous
 62
     7
100
AcDbCircle
 10
-486.4881286621093
 20
437.4767456054688
 30
0.0
 40
3.099999904632568
100
AcDbArc
 50
0.0
 51
180.0000000000004
  0
ARC
  5
281
330
22
100
AcDbEntity
  8
0
  6
Continuous
 62
     7
100
AcDbCircle
 10
-496.3214416503906
 20
419.5067443847656
 30
0.0
 40
1.533328056335449
100
AcDbArc
 50
225.0967615261928
 51
0.0
  0
ARC
  5
282
330
22
100
AcDbEntity
  8
0
  6
Continuous
 62
     7
100
AcDbCircle
 10
-440.8881225585938
 20
443.1767272949218
 30
0.0
 40
61.70000076293945
100
AcDbArc
 50
217.8795793638115
 51
226.4634752167995
  0
ARC
  5
283
330
22
100
AcDbEntity
  8
0
  6
Continuous
 62
     7
100
AcDbCircle
 10
-486.4881286621093
 20
429.6767272949218
 30
0.0
 40
3.099999904632568
100
AcDbArc
 50
180.0000000000004
 51
0.0
  0
ARC
  5
284
330
22
100
AcDbEntity
  8
0
  6
Continuous
 62
     7
100
AcDbCircle
 10
-486.4881286621093
 20
418.4499206542969
 30
0.0
 40
3.100116014480591
100
AcDbArc
 50
359.5047849328969
 51
179.5042160543289
  0
ARC
  5
285
330
22
100
AcDbEntity
  8
0
  6
Continuous
 62
     7
100
AcDbCircle
 10
-440.8881225585938
 20
443.1767272949218
 30
0.0
 40
61.70000076293945
100
AcDbArc
 50
193.0766840296359
 51
203.6552548986351
  0
ARC
  5
286
330
22
100
AcDbEntity
  8
0
  6
Continuous
 62
     7
100
AcDbCircle
 10
-486.4881286621093
 20
456.6767272949219
 30
0.0
 40
3.099999904632568
100
AcDbArc
 50
0.0
 51
180.0000000000004
  0
ARC
  5
287
330
22
100
AcDbEntity
  8
0
  6
Continuous
 62
     7
100
AcDbCircle
 10
-440.8881225585938
 20
443.1767272949218
 30
0.0
 40
61.70000076293945
100
AcDbArc
 50
156.3447451013656
 51
166.9232883660614
  0
ARC
  5
288
330
22
100
AcDbEntity
  8
0
  6
Continuous
 62
     7
100
AcDbCircle
 10
-440.8881225585938
 20
451.2767333984375
 30
0.0
 40
3.099999904632568
100
AcDbArc
 50
180.0000000000004
 51
0.0
  0
ARC
  5
289
330
22
100
AcDbEntity
  8
0
  6
Continuous
 62
     7
100
AcDbCircle
 10
-440.8881225585938
 20
451.2767333984375
 30
0.0
 40
3.099999904632568
100
AcDbArc
 50
180.0000000000004
 51
0.0
  0
ARC
  5
28A
330
22
100
AcDbEntity
  8
0
  6
Continuous
 62
     7
100
AcDbCircle
 10
-499.4881286621093
 20
439.0767517089844
 30
0.0
 40
1.5
100
AcDbArc
 50
90.00000000000019
 51
180.0000000000004
  0
ARC
  5
28B
330
22
100
AcDbEntity
  8
0
  6
Continuous
 62
     7
100
AcDbCircle
 10
-520.3881225585938
 20
300.7228393554688
 30
0.0
 40
0.5
100
AcDbArc
 50
90.00000000000019
 51
180.0000000000004
  0
CIRCLE
  5
28C
330
22
100
AcDbEntity
  8
0
  6
Continuous
 62
     7
100
AcDbCircle
 10
-493.7156677246093
 20
473.6767272949219
 30
0.0
 40
5.25
  0
CIRCLE
  5
28D
330
22
100
AcDbEntity
  8
0
  6
Continuous
 62
     7
100
AcDbCircle
 10
-493.7156677246093
 20
473.6767272949219
 30
0.0
 40
5.0
  0
ARC
  5
28E
330
22
100
AcDbEntity
  8
0
  6
Continuous
 62
     7
100
AcDbCircle
 10
-496.3214416503906
 20
466.8467407226563
 30
0.0
 40
1.533328056335449
100
AcDbArc
 50
0.0
 51
134.9040434679127
  0
ARC
  5
28F
330
22
100
AcDbEntity
  8
0
  6
Continuous
 62
     7
100
AcDbCircle
 10
-496.2881164550781
 20
447.2767333984375
 30
0.0
 40
1.5
100
AcDbArc
 50
270.0000000000005
 51
0.0
  0
ARC
  5
290
330
22
100
AcDbEntity
  8
0
  6
Continuous
 62
     7
100
AcDbCircle
 10
-496.2881164550781
 20
439.0767517089844
 30
0.0
 40
1.5
100
AcDbArc
 50
0.0
 51
90.00000000000019
  0
ARC
  5
291
330
22
100
AcDbEntity
  8
0
  6
Continuous
 62
     7
100
AcDbCircle
 10
-475.0881042480468
 20
418.9767456054688
 30
0.0
 40
3.099999904632568
100
AcDbArc
 50
180.0000000000004
 51
0.0
  0
ARC
  5
292
330
22
100
AcDbEntity
  8
0
  6
Continuous
 62
     7
100
AcDbCircle
 10
-452.288116455078
 20
416.1767272949218
 30
0.0
 40
3.099999904632568
100
AcDbArc
 50
180.0000000000004
 51
0.0
  0
ARC
  5
293
330
22
100
AcDbEntity
  8
0
  6
Continuous
 62
     7
100
AcDbCircle
 10
-440.8881225585938
 20
443.1767272949218
 30
0.0
 40
61.70000076293945
100
AcDbArc
 50
256.4078976618554
 51
262.3384710194031
  0
ARC
  5
294
330
22
100
AcDbEntity
  8
0
  6
Continuous
 62
     7
100
AcDbCircle
 10
-440.8881225585938
 20
424.5767517089843
 30
0.0
 40
3.099999904632568
100
AcDbArc
 50
180.0000000000004
 51
0.0
  0
ARC
  5
295
330
22
100
AcDbEntity
  8
0
  6
Continuous
 62
     7
100
AcDbCircle
 10
-440.8881225585938
 20
424.5767517089843
 30
0.0
 40
3.099999904632568
100
AcDbArc
 50
180.0000000000004
 51
0.0
  0
ARC
  5
296
330
22
100
AcDbEntity
  8
0
  6
Continuous
 62
     7
100
AcDbCircle
 10
-463.6881103515625
 20
426.6767272949218
 30
0.0
 40
3.099999904632568
100
AcDbArc
 50
180.0000000000004
 51
0.0
  0
ARC
  5
297
330
22
100
AcDbEntity
  8
0
  6
Continuous
 62
     7
100
AcDbCircle
 10
-499.4881286621093
 20
447.2767333984375
 30
0.0
 40
1.5
100
AcDbArc
 50
180.0000000000004
 51
270.0000000000005
  0
ARC
  5
298
330
22
100
AcDbEntity
  8
0
  6
Continuous
 62
     7
100
AcDbCircle
 10
-475.0881042480468
 20
407.7767333984374
 30
0.0
 40
3.099999904632568
100
AcDbArc
 50
0.0
 51
180.0000000000004
  0
ARC
  5
299
330
22
100
AcDbEntity
  8
0
  6
Continuous
 62
     7
100
AcDbCircle
 10
-452.288116455078
 20
404.9767456054688
 30
0.0
 40
3.099999904632568
100
AcDbArc
 50
0.0
 51
180.0000000000004
  0
ARC
  5
29A
330
22
100
AcDbEntity
  8
0
  6
Continuous
 62
     7
100
AcDbCircle
 10
-440.8881225585938
 20
391.0767517089844
 30
0.0
 40
3.099999904632568
100
AcDbArc
 50
180.0000000000004
 51
0.0
  0
ARC
  5
29B
330
22
100
AcDbEntity
  8
0
  6
Continuous
 62
     7
100
AcDbCircle
 10
-440.8881225585938
 20
413.3767395019531
 30
0.0
 40
3.099999904632568
100
AcDbArc
 50
0.0
 51
180.0000000000004
  0
ARC
  5
29C
330
22
100
AcDbEntity
  8
0
  6
Continuous
 62
     7
100
AcDbCircle
 10
-440.8881225585938
 20
413.3767395019531
 30
0.0
 40
3.099999904632568
100
AcDbArc
 50
0.0
 51
180.0000000000004
  0
ARC
  5
29D
330
22
100
AcDbEntity
  8
0
  6
Continuous
 62
     7
100
AcDbCircle
 10
-440.8881225585938
 20
443.1767272949218
 30
0.0
 40
61.70000076293945
100
AcDbArc
 50
232.804392460299
 51
239.7315559834226
  0
ARC
  5
29E
330
22
100
AcDbEntity
  8
0
  6
Continuous
 62
     7
100
AcDbCircle
 10
-481.3882446289063
 20
373.0289001464844
 30
0.0
 40
2.75
100
AcDbArc
 50
127.7702566346958
 51
352.2298512343951
  0
ARC
  5
29F
330
22
100
AcDbEntity
  8
0
  6
Continuous
 62
     7
100
AcDbCircle
 10
-481.3882446289063
 20
373.0289001464844
 30
0.0
 40
5.0
100
AcDbArc
 50
136.7260127510136
 51
343.273758196896
  0
ARC
  5
2A0
330
22
100
AcDbEntity
  8
0
  6
Continuous
 62
     7
100
AcDbCircle
 10
-463.6881103515625
 20
415.4767456054687
 30
0.0
 40
3.099999904632568
100
AcDbArc
 50
0.0
 51
180.0000000000004
  0
ARC
  5
2A1
330
22
100
AcDbEntity
  8
0
  6
Continuous
 62
     7
100
AcDbCircle
 10
-440.8881225585938
 20
443.1767272949218
 30
0.0
 40
61.70000076293945
100
AcDbArc
 50
245.1797374204752
 51
251.3802079903282
  0
ARC
  5
2A2
330
22
100
AcDbEntity
  8
0
  6
Continuous
 62
     7
100
AcDbCircle
 10
-463.6881103515625
 20
470.8767395019531
 30
0.0
 40
3.099999904632568
100
AcDbArc
 50
180.0000000000004
 51
0.0
  0
ARC
  5
2A3
330
22
100
AcDbEntity
  8
0
  6
Continuous
 62
     7
100
AcDbCircle
 10
-475.0881042480468
 20
467.3767395019531
 30
0.0
 40
3.099999904632568
100
AcDbArc
 50
0.0
 51
180.0000000000004
  0
ARC
  5
2A4
330
22
100
AcDbEntity
  8
0
  6
Continuous
 62
     7
100
AcDbCircle
 10
-440.8881225585938
 20
443.1767272949218
 30
0.0
 40
61.70000076293945
100
AcDbArc
 50
120.268429732153
 51
127.1955904075814
  0
ARC
  5
2A5
330
22
100
AcDbEntity
  8
0
  6
Continuous
 62
     7
100
AcDbCircle
 10
-452.288116455078
 20
448.8767395019531
 30
0.0
 40
3.099999904632568
100
AcDbArc
 50
180.0000000000004
 51
0.0
  0
ARC
  5
2A6
330
22
100
AcDbEntity
  8
0
  6
Continuous
 62
     7
100
AcDbCircle
 10
-452.288116455078
 20
437.4767456054688
 30
0.0
 40
3.099999904632568
100
AcDbArc
 50
0.0
 51
180.0000000000004
  0
ARC
  5
2A7
330
22
100
AcDbEntity
  8
0
  6
Continuous
 62
     7
100
AcDbCircle
 10
-475.0881042480468
 20
437.4767456054688
 30
0.0
 40
3.099999904632568
100
AcDbArc
 50
0.0
 51
180.0000000000004
  0
CIRCLE
  5
2A8
330
22
100
AcDbEntity
  8
0
  6
Continuous
 62
     7
100
AcDbCircle
 10
-440.8881225585938
 20
443.1767272949218
 30
0.0
 40
3.0
  0
ARC
  5
2A9
330
22
100
AcDbEntity
  8
0
  6
Continuous
 62
     7
100
AcDbCircle
 10
-440.8881225585938
 20
435.0767517089844
 30
0.0
 40
3.099999904632568
100
AcDbArc
 50
0.0
 51
180.0000000000004
  0
ARC
  5
2AA
330
22
100
AcDbEntity
  8
0
  6
Continuous
 62
     7
100
AcDbCircle
 10
-440.8881225585938
 20
435.0767517089844
 30
0.0
 40
3.099999904632568
100
AcDbArc
 50
0.0
 51
180.0000000000004
  0
ARC
  5
2AB
330
22
100
AcDbEntity
  8
0
  6
Continuous
 62
     7
100
AcDbCircle
 10
-463.6881103515625
 20
448.8767395019531
 30
0.0
 40
3.099999904632568
100
AcDbArc
 50
180.0000000000004
 51
0.0
  0
ARC
  5
2AC
330
22
100
AcDbEntity
  8
0
  6
Continuous
 62
     7
100
AcDbCircle
 10
-463.6881103515625
 20
437.4767456054688
 30
0.0
 40
3.099999904632568
100
AcDbArc
 50
0.0
 51
180.0000000000004
  0
ARC
  5
2AD
330
22
100
AcDbEntity
  8
0
  6
Continuous
 62
     7
100
AcDbCircle
 10
-475.0881042480468
 20
448.8767395019531
 30
0.0
 40
3.099999904632568
100
AcDbArc
 50
180.0000000000004
 51
0.0
  0
CIRCLE
  5
2AE
330
22
100
AcDbEntity
  8
0
  6
Continuous
 62
     7
100
AcDbCircle
 10
-440.8881225585938
 20
382.1767272949219
 30
0.0
 40
5.25
  0
CIRCLE
  5
2AF
330
22
100
AcDbEntity
  8
0
  6
Continuous
 62
     7
100
AcDbCircle
 10
-440.8881225585938
 20
382.1767272949219
 30
0.0
 40
5.0
  0
ARC
  5
2B0
330
22
100
AcDbEntity
  8
0
  6
Continuous
 62
     7
100
AcDbCircle
 10
-440.8881225585938
 20
443.1767272949218
 30
0.0
 40
61.70000076293945
100
AcDbArc
 50
272.7247069238183
 51
272.8799366251151
  0
ARC
  5
2B1
330
22
100
AcDbEntity
  8
0
  6
Continuous
 62
     7
100
AcDbCircle
 10
-440.8881225585938
 20
443.1767272949218
 30
0.0
 40
61.70000076293945
100
AcDbArc
 50
87.12369617681302
 51
92.87630382318701
  0
ARC
  5
2B2
330
22
100
AcDbEntity
  8
0
  6
Continuous
 62
     7
100
AcDbCircle
 10
-440.8881225585938
 20
443.1767272949218
 30
0.0
 40
61.70000076293945
100
AcDbArc
 50
108.6197829613457
 51
114.820250683496
  0
ARC
  5
2B3
330
22
100
AcDbEntity
  8
0
  6
Continuous
 62
     7
100
AcDbCircle
 10
-481.3879699707031
 20
513.3250122070314
 30
0.0
 40
2.75
100
AcDbArc
 50
7.764306931381128
 51
30.0000893932244
  0
ARC
  5
2B4
330
22
100
AcDbEntity
  8
0
  6
Continuous
 62
     7
100
AcDbCircle
 10
-481.3879699707031
 20
513.3250122070314
 30
0.0
 40
5.0
100
AcDbArc
 50
30.00010528903092
 51
223.2764440333225
  0
ARC
  5
2B5
330
22
100
AcDbEntity
  8
0
  6
Continuous
 62
     7
100
AcDbCircle
 10
-481.3879699707031
 20
513.3250122070314
 30
0.0
 40
5.0
100
AcDbArc
 50
16.72302630946375
 51
30.00010528903092
  0
ARC
  5
2B6
330
22
100
AcDbEntity
  8
0
  6
Continuous
 62
     7
100
AcDbCircle
 10
-440.8881225585938
 20
461.7767333984375
 30
0.0
 40
3.099999904632568
100
AcDbArc
 50
0.0
 51
180.0000000000004
  0
ARC
  5
2B7
330
22
100
AcDbEntity
  8
0
  6
Continuous
 62
     7
100
AcDbCircle
 10
-440.8881225585938
 20
443.1767272949218
 30
0.0
 40
61.70000076293945
100
AcDbArc
 50
133.5365247832012
 51
139.1906105050367
  0
ARC
  5
2B8
330
22
100
AcDbEntity
  8
0
  6
Continuous
 62
     7
100
AcDbCircle
 10
-440.8881225585938
 20
461.7767333984375
 30
0.0
 40
3.099999904632568
100
AcDbArc
 50
0.0
 51
180.0000000000004
  0
ARC
  5
2B9
330
22
100
AcDbEntity
  8
0
  6
Continuous
 62
     7
100
AcDbCircle
 10
-440.8881225585938
 20
472.9767456054688
 30
0.0
 40
3.099999904632568
100
AcDbArc
 50
180.0000000000004
 51
0.0
  0
ARC
  5
2BA
330
22
100
AcDbEntity
  8
0
  6
Continuous
 62
     7
100
AcDbCircle
 10
-485.4881286621093
 20
466.8767395019531
 30
0.0
 40
2.099999904632567
100
AcDbArc
 50
180.0000000000004
 51
0.0
  0
ARC
  5
2BB
330
22
100
AcDbEntity
  8
0
  6
Continuous
 62
     7
100
AcDbCircle
 10
-452.288116455078
 20
481.3767395019531
 30
0.0
 40
3.099999904632568
100
AcDbArc
 50
180.0000000000004
 51
0.0
  0
ARC
  5
2BC
330
22
100
AcDbEntity
  8
0
  6
Continuous
 62
     7
100
AcDbCircle
 10
-475.0881042480468
 20
478.5767517089843
 30
0.0
 40
3.099999904632568
100
AcDbArc
 50
180.0000000000004
 51
0.0
  0
ARC
  5
2BD
330
22
100
AcDbEntity
  8
0
  6
Continuous
 62
     7
100
AcDbCircle
 10
-463.6881103515625
 20
459.6767272949218
 30
0.0
 40
3.099999904632568
100
AcDbArc
 50
0.0
 51
180.0000000000004
  0
ARC
  5
2BE
330
22
100
AcDbEntity
  8
0
  6
Continuous
 62
     7
100
AcDbCircle
 10
-440.8881225585938
 20
472.9767456054688
 30
0.0
 40
3.099999904632568
100
AcDbArc
 50
180.0000000000004
 51
0.0
  0
ARC
  5
2BF
330
22
100
AcDbEntity
  8
0
  6
Continuous
 62
     7
100
AcDbCircle
 10
-452.288116455078
 20
470.1767272949219
 30
0.0
 40
3.099999904632568
100
AcDbArc
 50
0.0
 51
180.0000000000004
  0
ARC
  5
2C0
330
22
100
AcDbEntity
  8
0
  6
Continuous
 62
     7
100
AcDbCircle
 10
-485.2381286621094
 20
232.2228240966797
 30
0.0
 40
1.0
100
AcDbArc
 50
180.0000000000004
 51
270.0000000000005
  0
ARC
  5
2C1
330
22
100
AcDbEntity
  8
0
  6
Continuous
 62
     7
100
AcDbCircle
 10
-491.2381286621093
 20
263.0246887207031
 30
0.0
 40
5.0
100
AcDbArc
 50
0.0
 51
50.46993031622146
  0
ARC
  5
2C2
330
22
100
AcDbEntity
  8
0
  6
Continuous
 62
     7
100
AcDbCircle
 10
-500.8881225585938
 20
290.4359436035156
 30
0.0
 40
10.0
100
AcDbArc
 50
180.0000000000004
 51
230.4700887501323
  0
ARC
  5
2C3
330
22
100
AcDbEntity
  8
0
  6
Continuous
 62
     7
100
AcDbCircle
 10
-481.3879699707031
 20
513.3250122070314
 30
0.0
 40
2.75
100
AcDbArc
 50
30.0000893932244
 51
232.2348193742574
  0
ARC
  5
2C4
330
22
100
AcDbEntity
  8
0
  6
Continuous
 62
     7
100
AcDbCircle
 10
-440.8881225585938
 20
443.1767272949218
 30
0.0
 40
61.70000076293945
100
AcDbArc
 50
87.12369617681302
 51
92.87630382318701
  0
ARC
  5
2C5
330
22
100
AcDbEntity
  8
0
  6
Continuous
 62
     7
100
AcDbCircle
 10
-440.8881225585938
 20
443.1767272949218
 30
0.0
 40
61.70000076293945
100
AcDbArc
 50
97.66152898059766
 51
103.5920956782059
  0
ARC
  5
2C6
330
22
100
AcDbEntity
  8
0
  6
Continuous
 62
     7
100
AcDbCircle
 10
-512.8881225585939
 20
294.2228393554688
 30
0.0
 40
2.0
100
AcDbArc
 50
0.0
 51
90.00000000000019
  0
ARC
  5
2C7
330
22
100
AcDbEntity
  8
0
  6
Continuous
 62
     7
100
AcDbCircle
 10
-519.8881225585938
 20
297.2228393554688
 30
0.0
 40
1.0
100
AcDbArc
 50
180.0000000000004
 51
270.0000000000005
  0
ARC
  5
2C8
330
22
100
AcDbEntity
  8
0
  6
Continuous
 62
     7
100
AcDbCircle
 10
-368.8881225585938
 20
294.2228393554688
 30
0.0
 40
2.0
100
AcDbArc
 50
90.00000000000019
 51
180.0000000000004
  0
ARC
  5
2C9
330
22
100
AcDbEntity
  8
0
  6
Continuous
 62
     7
100
AcDbCircle
 10
-361.8881225585938
 20
297.2228393554688
 30
0.0
 40
1.0
100
AcDbArc
 50
270.0000000000005
 51
0.0
  0
CIRCLE
  5
2CA
330
22
100
AcDbEntity
  8
0
  6
Continuous
 62
     7
100
AcDbCircle
 10
-440.8881225585938
 20
443.1767272949218
 30
0.0
 40
67.5
  0
CIRCLE
  5
2CB
330
22
100
AcDbEntity
  8
0
  6
Continuous
 62
     7
100
AcDbCircle
 10
-440.8881225585938
 20
443.1767272949218
 30
0.0
 40
67.0
  0
CIRCLE
  5
2CC
330
22
100
AcDbEntity
  8
0
  6
Continuous
 62
     7
100
AcDbCircle
 10
-440.8881225585938
 20
443.1767272949218
 30
0.0
 40
80.0
  0
CIRCLE
  5
2CD
330
22
100
AcDbEntity
  8
0
  6
Continuous
 62
     7
100
AcDbCircle
 10
-440.8881225585938
 20
443.1767272949218
 30
0.0
 40
91.0
  0
ARC
  5
2CE
330
22
100
AcDbEntity
  8
0
  6
Continuous
 62
     7
100
AcDbCircle
 10
-440.8881225585938
 20
443.1767272949218
 30
0.0
 40
61.70000076293945
100
AcDbArc
 50
76.40790432179414
 51
82.33844293319334
  0
ARC
  5
2CF
330
22
100
AcDbEntity
  8
0
  6
Continuous
 62
     7
100
AcDbCircle
 10
-440.8881225585938
 20
443.1767272949218
 30
0.0
 40
61.70000076293945
100
AcDbArc
 50
65.17974931650396
 51
71.38019018278942
  0
ARC
  5
2D0
330
22
100
AcDbEntity
  8
0
  6
Continuous
 62
     7
100
AcDbCircle
 10
-429.4881286621094
 20
470.1767272949219
 30
0.0
 40
3.099999904632568
100
AcDbArc
 50
0.0
 51
180.0000000000004
  0
ARC
  5
2D1
330
22
100
AcDbEntity
  8
0
  6
Continuous
 62
     7
100
AcDbCircle
 10
-418.0881042480469
 20
470.8767395019531
 30
0.0
 40
3.099999904632568
100
AcDbArc
 50
180.0000000000004
 51
0.0
  0
ARC
  5
2D2
330
22
100
AcDbEntity
  8
0
  6
Continuous
 62
     7
100
AcDbCircle
 10
-418.0881042480469
 20
459.6767272949218
 30
0.0
 40
3.099999904632568
100
AcDbArc
 50
0.0
 51
180.0000000000004
  0
ARC
  5
2D3
330
22
100
AcDbEntity
  8
0
  6
Continuous
 62
     7
100
AcDbCircle
 10
-429.4881286621094
 20
481.3767395019531
 30
0.0
 40
3.099999904632568
100
AcDbArc
 50
180.0000000000004
 51
0.0
  0
ARC
  5
2D4
330
22
100
AcDbEntity
  8
0
  6
Continuous
 62
     7
100
AcDbCircle
 10
-429.4881286621094
 20
448.8767395019531
 30
0.0
 40
3.099999904632568
100
AcDbArc
 50
180.0000000000004
 51
0.0
  0
ARC
  5
2D5
330
22
100
AcDbEntity
  8
0
  6
Continuous
 62
     7
100
AcDbCircle
 10
-418.0881042480469
 20
437.4767456054688
 30
0.0
 40
3.099999904632568
100
AcDbArc
 50
0.0
 51
180.0000000000004
  0
ARC
  5
2D6
330
22
100
AcDbEntity
  8
0
  6
Continuous
 62
     7
100
AcDbCircle
 10
-418.0881042480469
 20
448.8767395019531
 30
0.0
 40
3.099999904632568
100
AcDbArc
 50
180.0000000000004
 51
0.0
  0
ARC
  5
2D7
330
22
100
AcDbEntity
  8
0
  6
Continuous
 62
     7
100
AcDbCircle
 10
-429.4881286621094
 20
437.4767456054688
 30
0.0
 40
3.099999904632568
100
AcDbArc
 50
0.0
 51
180.0000000000004
  0
ARC
  5
2D8
330
22
100
AcDbEntity
  8
0
  6
Continuous
 62
     7
100
AcDbCircle
 10
-440.8881225585938
 20
443.1767272949218
 30
0.0
 40
61.70000076293945
100
AcDbArc
 50
288.6198188655494
 51
294.8202625795262
  0
ARC
  5
2D9
330
22
100
AcDbEntity
  8
0
  6
Continuous
 62
     7
100
AcDbCircle
 10
-440.8881225585938
 20
443.1767272949218
 30
0.0
 40
61.70000076293945
100
AcDbArc
 50
277.6615570668074
 51
283.5921023381461
  0
ARC
  5
2DA
330
22
100
AcDbEntity
  8
0
  6
Continuous
 62
     7
100
AcDbCircle
 10
-418.0881042480469
 20
415.4767456054687
 30
0.0
 40
3.099999904632568
100
AcDbArc
 50
0.0
 51
180.0000000000004
  0
ARC
  5
2DB
330
22
100
AcDbEntity
  8
0
  6
Continuous
 62
     7
100
AcDbCircle
 10
-429.4881286621094
 20
404.9767456054688
 30
0.0
 40
3.099999904632568
100
AcDbArc
 50
0.0
 51
180.0000000000004
  0
ARC
  5
2DC
330
22
100
AcDbEntity
  8
0
  6
Continuous
 62
     7
100
AcDbCircle
 10
-429.4881286621094
 20
416.1767272949218
 30
0.0
 40
3.099999904632568
100
AcDbArc
 50
180.0000000000004
 51
0.0
  0
ARC
  5
2DD
330
22
100
AcDbEntity
  8
0
  6
Continuous
 62
     7
100
AcDbCircle
 10
-418.0881042480469
 20
426.6767272949218
 30
0.0
 40
3.099999904632568
100
AcDbArc
 50
180.0000000000004
 51
0.0
  0
TEXT
  5
2DE
330
22
100
AcDbEntity
  8
0
  6
Continuous
 62
     7
100
AcDbText
 10
-279.3469171524048
 20
341.5115966796875
 30
0.0
 40
7.0
  1
ＤＬ－ＳＳＰ－６５
 41
0.8448610808647003
100
AcDbText
  0
DIMENSION
  5
2DF
330
22
100
AcDbEntity
  8
0
  6
Continuous
 62
     7
100
AcDbDimension
  2
*D1
 10
-399.3881225585938
 20
65.5435562133789
 30
0.0
 11
-440.8881225585938
 21
65.5435562133789
 31
0.0
 71
     5
 42
-1.0
  3
DIMSTYLE1
100
AcDbAlignedDimension
 13
-482.3881225585938
 23
99.22283172607421
 33
0.0
 14
-399.3881225585938
 24
99.22283172607421
 34
0.0
100
AcDbRotatedDimension
  0
DIMENSION
  5
2E0
330
22
100
AcDbEntity
  8
0
  6
Continuous
 62
     7
100
AcDbDimension
  2
*D2
 10
-513.3331938343229
 20
388.1066660287992
 30
0.0
 11
-349.0885925292969
 21
512.9593505859374
 31
0.0
 70
     3
 71
     5
 42
-1.0
  3
DIMSTYLE2
100
AcDbDiametricDimension
 15
-368.4430512828645
 25
498.2467885610446
 35
0.0
 40
0.0
  0
DIMENSION
  5
2E1
330
22
100
AcDbEntity
  8
0
  6
Continuous
 62
     7
100
AcDbDimension
  2
*D3
 10
-507.0455445211004
 20
432.2811160296772
 30
0.0
 11
-330.5206604003906
 21
461.3750610351563
 31
0.0
 70
     3
 71
     5
 42
-1.0
  3
DIMSTYLE3
100
AcDbDiametricDimension
 15
-374.8292723734307
 25
454.0723385601666
 35
0.0
 40
0.0
  0
DIMENSION
  5
2E2
330
22
100
AcDbEntity
  8
0
  6
Continuous
 62
     7
100
AcDbDimension
  2
*D4
 10
-515.1776813378835
 20
413.4940478946647
 30
0.0
 11
-335.9242553710938
 21
485.1154479980468
 31
0.0
 70
     3
 71
     5
 42
-1.0
  3
DIMSTYLE4
100
AcDbDiametricDimension
 15
-366.598563779304
 25
472.8594066951791
 35
0.0
 40
0.0
  0
DIMENSION
  5
2E3
330
22
100
AcDbEntity
  8
0
  6
Continuous
 62
     7
100
AcDbDimension
  2
*D5
 10
-302.8066101074219
 20
301.2228393554688
 30
0.0
 11
-302.8066101074219
 21
221.7228240966797
 31
0.0
 71
     5
 42
-1.0
  3
DIMSTYLE5
100
AcDbAlignedDimension
 13
-349.8881225585938
 23
142.2228240966797
 33
0.0
 14
-361.3881225585938
 24
301.2228393554688
 34
0.0
 50
90.0
100
AcDbRotatedDimension
  0
DIMENSION
  5
2E4
330
22
100
AcDbEntity
  8
0
  6
Continuous
 62
     7
100
AcDbDimension
  2
*D6
 10
-302.8066101074219
 20
139.2228240966797
 30
0.0
 11
-302.8066101074219
 21
128.3902435302734
 31
0.0
 71
     5
 42
-1.0
  3
DIMSTYLE6
100
AcDbAlignedDimension
 13
-300.5205993652344
 23
142.2228240966797
 33
0.0
 14
-349.8881225585938
 24
139.2228240966797
 34
0.0
 50
90.0
100
AcDbRotatedDimension
  0
DIMENSION
  5
2E5
330
22
100
AcDbEntity
  8
0
  6
Continuous
 62
     7
100
AcDbDimension
  2
*D7
 10
-324.6429748535156
 20
172.2228240966797
 30
0.0
 11
-324.6429748535156
 21
157.2228240966797
 31
0.0
 71
     5
 42
-1.0
  3
DIMSTYLE7
100
AcDbAlignedDimension
 13
-300.5205993652344
 23
142.2228240966797
 33
0.0
 14
-399.3881225585938
 24
172.2228240966797
 34
0.0
 50
90.0
100
AcDbRotatedDimension
  0
DIMENSION
  5
2E6
330
22
100
AcDbEntity
  8
0
  6
Continuous
 62
     7
100
AcDbDimension
  2
*D8
 10
-324.6429748535156
 20
231.2228240966797
 30
0.0
 11
-324.6429748535156
 21
266.2228393554688
 31
0.0
 71
     5
 42
-1.0
  3
DIMSTYLE8
100
AcDbAlignedDimension
 13
-300.5205993652344
 23
301.2228393554688
 33
0.0
 14
-396.5381164550781
 24
231.2228240966797
 34
0.0
 50
90.0
100
AcDbRotatedDimension
  0
INSERT
  5
2E7
330
22
100
AcDbEntity
  8
0
  6
Continuous
 62
     7
100
AcDbBlockReference
  2
KOZU0001
 10
-403.1402587890625
 20
111.5917053222656
 30
0.0
  0
DIMENSION
  5
2E8
330
22
100
AcDbEntity
  8
0
  6
Continuous
 62
     7
100
AcDbDimension
  2
*D9
 10
-546.2251586914063
 20
172.2228240966797
 30
0.0
 11
-546.2251586914063
 21
135.7228240966797
 31
0.0
 71
     5
 42
-1.0
  3
DIMSTYLE9
100
AcDbAlignedDimension
 13
-482.3881225585938
 23
99.22283172607421
 33
0.0
 14
-482.3881225585938
 24
172.2228240966797
 34
0.0
 50
90.0
100
AcDbRotatedDimension
  0
DIMENSION
  5
2E9
330
22
100
AcDbEntity
  8
0
  6
Continuous
 62
     7
100
AcDbDimension
  2
*D10
 10
-423.2790832519531
 20
249.2228240966797
 30
0.0
 11
-423.2790832519531
 21
199.2228240966797
 31
0.0
 71
     5
 42
-1.0
  3
DIMSTYLE10
100
AcDbAlignedDimension
 13
-440.8881225585938
 23
149.2228240966797
 33
0.0
 14
-440.8881225585938
 24
249.2228240966797
 34
0.0
 50
90.0
100
AcDbRotatedDimension
  0
ENDSEC
  0
SECTION
  2
OBJECTS
  0
DICTIONARY
  5
C
330
0
100
AcDbDictionary
281
     1
  3
ACAD_COLOR
350
1B
  3
ACAD_GROUP
350
D
  3
ACAD_LAYOUT
350
19
  3
ACAD_MATERIAL
350
1A
  3
ACAD_MLINESTYLE
350
16
  3
ACAD_PLOTSETTINGS
350
18
  3
ACAD_PLOTSTYLENAME
350
E
  3
ACAD_TABLESTYLE
350
1C
  3
AcDbVariableDictionary
350
2F5
  0
DICTIONARY
  5
1B
102
{ACAD_REACTORS
330
C
102
}
330
C
100
AcDbDictionary
281
     1
  0
DICTIONARY
  5
D
102
{ACAD_REACTORS
330
C
102
}
330
C
100
AcDbDictionary
281
     1
  0
DICTIONARY
  5
19
102
{ACAD_REACTORS
330
C
102
}
330
C
100
AcDbDictionary
281
     1
  3
Model
350
25
  3
レイアウト1
350
21
  0
DICTIONARY
  5
1A
102
{ACAD_REACTORS
330
C
102
}
330
C
100
AcDbDictionary
281
     1
  0
DICTIONARY
  5
16
102
{ACAD_REACTORS
330
C
102
}
330
C
100
AcDbDictionary
281
     1
  3
Standard
350
17
  0
DICTIONARY
  5
18
102
{ACAD_REACTORS
330
C
102
}
330
C
100
AcDbDictionary
281
     1
  0
ACDBDICTIONARYWDFLT
  5
E
102
{ACAD_REACTORS
330
C
102
}
330
C
100
AcDbDictionary
281
     1
  3
Normal
350
F
100
AcDbDictionaryWithDefault
340
F
  0
DICTIONARY
  5
1C
102
{ACAD_REACTORS
330
C
102
}
330
C
100
AcDbDictionary
281
     1
  3
Standard
350
1D
  0
DICTIONARY
  5
2F5
102
{ACAD_REACTORS
330
C
102
}
330
C
100
AcDbDictionary
281
     1
  3
CTABLESTYLE
350
2F6
  0
LAYOUT
  5
25
102
{ACAD_REACTORS
330
19
102
}
330
19
100
AcDbPlotSettings
  1

  2
PDF reDirect v2
  4
User120
  6

 40
3.174999952316284
 41
3.174999952316284
 42
3.17498779296875
 43
3.17498779296875
 44
594.0
 45
841.0
 46
0.0
 47
0.0
 48
0.0
 49
0.0
140
0.0
141
0.0
142
1.0
143
1.0
 70
 11952
 72
     1
 73
     1
 74
     2
  7
C:\Users\ck\AppData\Roaming\Autodesk\AutoCAD 2005\R16.1\jpn\Plot Styles\black.ctb
 75
    16
147
1.0
 76
     0
 77
     2
 78
   300
148
839.0
149
0.0
100
AcDbLayout
  1
Model
 70
     1
 71
     0
 10
0.0
 20
0.0
 11
12.0
 21
9.0
 12
0.0
 22
0.0
 32
0.0
 14
0.0
 24
0.0
 34
0.0
 15
0.0
 25
0.0
 35
0.0
146
0.0
 13
0.0
 23
0.0
 33
0.0
 16
1.0
 26
0.0
 36
0.0
 17
0.0
 27
1.0
 37
0.0
 76
     0
330
22
1001
ACAD_PSEXT
1000
PDF reDirect v2
1000
PDF reDirect Pro
1000
PDF_REDIRECT_PORT:
1000
PDF reDirect provided by EXP Systems
1070
     0
  0
LAYOUT
  5
21
102
{ACAD_REACTORS
330
19
102
}
330
19
100
AcDbPlotSettings
  1

  2
PDF reDirect v2
  4

  6

 40
0.0
 41
0.0
 42
0.0
 43
0.0
 44
0.0
 45
0.0
 46
0.0
 47
0.0
 48
0.0
 49
0.0
140
0.0
141
0.0
142
1.0
143
1.0
 70
   688
 72
     0
 73
     0
 74
     5
  7
C:\Users\ck\AppData\Roaming\Autodesk\AutoCAD 2005\R16.1\jpn\Plot Styles\black.ctb
 75
    16
147
1.0
 76
     0
 77
     2
 78
   300
148
0.0
149
0.0
100
AcDbLayout
  1
レイアウト1
 70
     1
 71
     1
 10
-839.0
 20
0.0
 11
0.0
 21
591.0
 12
0.0
 22
0.0
 32
0.0
 14
1.000000000000000E+20
 24
1.000000000000000E+20
 34
1.000000000000000E+20
 15
-1.000000000000000E+20
 25
-1.000000000000000E+20
 35
-1.000000000000000E+20
146
0.0
 13
0.0
 23
0.0
 33
0.0
 16
1.0
 26
0.0
 36
0.0
 17
0.0
 27
1.0
 37
0.0
 76
     0
330
1E
  0
MLINESTYLE
  5
17
102
{ACAD_REACTORS
330
16
102
}
330
16
100
AcDbMlineStyle
  2
STANDARD
 70
     0
  3

 62
   256
 51
90.0
 52
90.0
 71
     2
 49
0.5
 62
   256
  6
BYLAYER
 49
-0.5
 62
   256
  6
BYLAYER
  0
ACDBPLACEHOLDER
  5
F
102
{ACAD_REACTORS
330
E
102
}
330
E
  0
TABLESTYLE
  5
1D
102
{ACAD_REACTORS
330
1C
102
}
330
1C
100
AcDbTableStyle
  3
Standard
 70
     0
 71
     0
 40
0.06
 41
0.06
280
     0
281
     0
  7
STANDARD
140
0.18
170
     2
 62
     0
 63
     7
283
     0
274
    -2
284
     1
 64
     0
275
    -2
285
     1
 65
     0
276
    -2
286
     1
 66
     0
277
    -2
287
     1
 67
     0
278
    -2
288
     1
 68
     0
279
    -2
289
     1
 69
     0
  7
STANDARD
140
0.25
170
     5
 62
     0
 63
     7
283
     0
274
    -2
284
     1
 64
     0
275
    -2
285
     1
 65
     0
276
    -2
286
     1
 66
     0
277
    -2
287
     1
 67
     0
278
    -2
288
     1
 68
     0
279
    -2
289
     1
 69
     0
  7
STANDARD
140
0.18
170
     5
 62
     0
 63
     7
283
     0
274
    -2
284
     1
 64
     0
275
    -2
285
     1
 65
     0
276
    -2
286
     1
 66
     0
277
    -2
287
     1
 67
     0
278
    -2
288
     1
 68
     0
279
    -2
289
     1
 69
     0
  0
DICTIONARYVAR
  5
2F6
102
{ACAD_REACTORS
330
2F5
102
}
330
2F5
100
DictionaryVariables
280
     0
  1
STANDARD
  0
ENDSEC
  0
EOF
