  0
SECTION
  2
HEADER
  9
$ACADVER
  1
AC1018
  9
$ACADMAINTVER
 70
    39
  9
$DWGCODEPAGE
  3
ANSI_932
  9
$INSBASE
 10
0.0
 20
0.0
 30
0.0
  9
$EXTMIN
 10
-432.2658675763125
 20
6.2059641152224
 30
-0.0015258207003583
  9
$EXTMAX
 10
-167.2768542851283
 20
406.1493539867799
 30
0.0000000349246037
  9
$LIMMIN
 10
-592.0
 20
0.0
  9
$LIMMAX
 10
0.0
 20
418.0
  9
$ORTHOMODE
 70
     0
  9
$REGENMODE
 70
     1
  9
$FILLMODE
 70
     1
  9
$QTEXTMODE
 70
     0
  9
$MIRRTEXT
 70
     0
  9
$LTSCALE
 40
1.0
  9
$ATTMODE
 70
     1
  9
$TEXTSIZE
 40
0.2
  9
$TRACEWID
 40
0.05
  9
$TEXTSTYLE
  7
STANDARD
  9
$CLAYER
  8
0
  9
$CELTYPE
  6
CONTINUOUS
  9
$CECOLOR
 62
   256
  9
$CELTSCALE
 40
1.0
  9
$DISPSILH
 70
     0
  9
$DIMSCALE
 40
1.0
  9
$DIMASZ
 40
1.0
  9
$DIMEXO
 40
2.54
  9
$DIMDLI
 40
0.38
  9
$DIMRND
 40
0.0
  9
$DIMDLE
 40
0.0
  9
$DIMEXE
 40
2.54
  9
$DIMTP
 40
0.0
  9
$DIMTM
 40
0.0
  9
$DIMTXT
 40
3.0
  9
$DIMCEN
 40
0.09
  9
$DIMTSZ
 40
0.0
  9
$DIMTOL
 70
     0
  9
$DIMLIM
 70
     0
  9
$DIMTIH
 70
     0
  9
$DIMTOH
 70
     0
  9
$DIMSE1
 70
     0
  9
$DIMSE2
 70
     0
  9
$DIMTAD
 70
     1
  9
$DIMZIN
 70
     0
  9
$DIMBLK
  1

  9
$DIMASO
 70
     1
  9
$DIMSHO
 70
     0
  9
$DIMPOST
  1

  9
$DIMAPOST
  1

  9
$DIMALT
 70
     0
  9
$DIMALTD
 70
     2
  9
$DIMALTF
 40
25.4
  9
$DIMLFAC
 40
1.0
  9
$DIMTOFL
 70
     0
  9
$DIMTVP
 40
1.0
  9
$DIMTIX
 70
     0
  9
$DIMSOXD
 70
     0
  9
$DIMSAH
 70
     1
  9
$DIMBLK1
  1

  9
$DIMBLK2
  1

  9
$DIMSTYLE
  2
DIMSTYLE1
  9
$DIMCLRD
 70
     0
  9
$DIMCLRE
 70
     0
  9
$DIMCLRT
 70
     0
  9
$DIMTFAC
 40
1.0
  9
$DIMGAP
 40
1.5
  9
$DIMJUST
 70
     0
  9
$DIMSD1
 70
     0
  9
$DIMSD2
 70
     0
  9
$DIMTOLJ
 70
     1
  9
$DIMTZIN
 70
     0
  9
$DIMALTZ
 70
     0
  9
$DIMALTTZ
 70
     0
  9
$DIMUPT
 70
     0
  9
$DIMDEC
 70
     4
  9
$DIMTDEC
 70
     4
  9
$DIMALTU
 70
     2
  9
$DIMALTTD
 70
     2
  9
$DIMTXSTY
  7
STANDARD
  9
$DIMAUNIT
 70
     0
  9
$DIMADEC
 70
     0
  9
$DIMALTRND
 40
0.0
  9
$DIMAZIN
 70
     0
  9
$DIMDSEP
 70
    46
  9
$DIMATFIT
 70
     3
  9
$DIMFRAC
 70
     0
  9
$DIMLDRBLK
  1

  9
$DIMLUNIT
 70
     2
  9
$DIMLWD
 70
    -2
  9
$DIMLWE
 70
    -2
  9
$DIMTMOVE
 70
     0
  9
$LUNITS
 70
     2
  9
$LUPREC
 70
     4
  9
$SKETCHINC
 40
0.1
  9
$FILLETRAD
 40
0.0
  9
$AUNITS
 70
     0
  9
$AUPREC
 70
     0
  9
$MENU
  1
.
  9
$ELEVATION
 40
0.0
  9
$PELEVATION
 40
0.0
  9
$THICKNESS
 40
0.0
  9
$LIMCHECK
 70
     0
  9
$CHAMFERA
 40
0.0
  9
$CHAMFERB
 40
0.0
  9
$CHAMFERC
 40
0.0
  9
$CHAMFERD
 40
0.0
  9
$SKPOLY
 70
     0
  9
$TDCREATE
 40
2457843.007165359
  9
$TDUCREATE
 40
2457842.632165359
  9
$TDUPDATE
 40
2457843.007701482
  9
$TDUUPDATE
 40
2457842.632701482
  9
$TDINDWG
 40
0.0005372801
  9
$TDUSRTIMER
 40
0.0005372801
  9
$USRTIMER
 70
     1
  9
$ANGBASE
 50
0.0
  9
$ANGDIR
 70
     0
  9
$PDMODE
 70
     0
  9
$PDSIZE
 40
0.0
  9
$PLINEWID
 40
0.0
  9
$SPLFRAME
 70
     0
  9
$SPLINETYPE
 70
     6
  9
$SPLINESEGS
 70
     8
  9
$HANDSEED
  5
30F
  9
$SURFTAB1
 70
     6
  9
$SURFTAB2
 70
     6
  9
$SURFTYPE
 70
     6
  9
$SURFU
 70
     6
  9
$SURFV
 70
     6
  9
$UCSBASE
  2

  9
$UCSNAME
  2

  9
$UCSORG
 10
0.0
 20
0.0
 30
0.0
  9
$UCSXDIR
 10
1.0
 20
0.0
 30
0.0
  9
$UCSYDIR
 10
0.0
 20
1.0
 30
0.0
  9
$UCSORTHOREF
  2

  9
$UCSORTHOVIEW
 70
     0
  9
$UCSORGTOP
 10
0.0
 20
0.0
 30
0.0
  9
$UCSORGBOTTOM
 10
0.0
 20
0.0
 30
0.0
  9
$UCSORGLEFT
 10
0.0
 20
0.0
 30
0.0
  9
$UCSORGRIGHT
 10
0.0
 20
0.0
 30
0.0
  9
$UCSORGFRONT
 10
0.0
 20
0.0
 30
0.0
  9
$UCSORGBACK
 10
0.0
 20
0.0
 30
0.0
  9
$PUCSBASE
  2

  9
$PUCSNAME
  2

  9
$PUCSORG
 10
0.0
 20
0.0
 30
0.0
  9
$PUCSXDIR
 10
1.0
 20
0.0
 30
0.0
  9
$PUCSYDIR
 10
0.0
 20
1.0
 30
0.0
  9
$PUCSORTHOREF
  2

  9
$PUCSORTHOVIEW
 70
     0
  9
$PUCSORGTOP
 10
0.0
 20
0.0
 30
0.0
  9
$PUCSORGBOTTOM
 10
0.0
 20
0.0
 30
0.0
  9
$PUCSORGLEFT
 10
0.0
 20
0.0
 30
0.0
  9
$PUCSORGRIGHT
 10
0.0
 20
0.0
 30
0.0
  9
$PUCSORGFRONT
 10
0.0
 20
0.0
 30
0.0
  9
$PUCSORGBACK
 10
0.0
 20
0.0
 30
0.0
  9
$USERI1
 70
     0
  9
$USERI2
 70
     0
  9
$USERI3
 70
     0
  9
$USERI4
 70
     0
  9
$USERI5
 70
     0
  9
$USERR1
 40
0.0
  9
$USERR2
 40
0.0
  9
$USERR3
 40
0.0
  9
$USERR4
 40
0.0
  9
$USERR5
 40
0.0
  9
$WORLDVIEW
 70
     1
  9
$SHADEDGE
 70
     3
  9
$SHADEDIF
 70
    70
  9
$TILEMODE
 70
     1
  9
$MAXACTVP
 70
    64
  9
$PINSBASE
 10
0.0
 20
0.0
 30
0.0
  9
$PLIMCHECK
 70
     0
  9
$PEXTMIN
 10
1.000000000000000E+20
 20
1.000000000000000E+20
 30
1.000000000000000E+20
  9
$PEXTMAX
 10
-1.000000000000000E+20
 20
-1.000000000000000E+20
 30
-1.000000000000000E+20
  9
$PLIMMIN
 10
-592.0
 20
0.0
  9
$PLIMMAX
 10
0.0
 20
418.0
  9
$UNITMODE
 70
     0
  9
$VISRETAIN
 70
     1
  9
$PLINEGEN
 70
     0
  9
$PSLTSCALE
 70
     1
  9
$TREEDEPTH
 70
  3020
  9
$CMLSTYLE
  2
Standard
  9
$CMLJUST
 70
     0
  9
$CMLSCALE
 40
1.0
  9
$PROXYGRAPHICS
 70
     1
  9
$MEASUREMENT
 70
     0
  9
$CELWEIGHT
370
    -1
  9
$ENDCAPS
280
     0
  9
$JOINSTYLE
280
     0
  9
$LWDISPLAY
290
     0
  9
$INSUNITS
 70
     0
  9
$HYPERLINKBASE
  1

  9
$STYLESHEET
  1

  9
$XEDIT
290
     1
  9
$CEPSNTYPE
380
     0
  9
$PSTYLEMODE
290
     1
  9
$FINGERPRINTGUID
  2
{5C38016B-27CE-48BA-A24A-561E1FBF6894}
  9
$VERSIONGUID
  2
{4276F329-0F6A-471E-83E0-82731D1FD8A3}
  9
$EXTNAMES
290
     1
  9
$PSVPSCALE
 40
0.0
  9
$OLESTARTUP
290
     0
  9
$SORTENTS
280
   127
  9
$INDEXCTL
280
     0
  9
$HIDETEXT
280
     0
  9
$XCLIPFRAME
290
     0
  9
$HALOGAP
280
     0
  9
$OBSCOLOR
 70
   257
  9
$OBSLTYPE
280
     0
  9
$INTERSECTIONDISPLAY
280
     0
  9
$INTERSECTIONCOLOR
 70
   257
  9
$DIMASSOC
280
     1
  9
$PROJECTNAME
  1

  0
ENDSEC
  0
SECTION
  2
CLASSES
  0
CLASS
  1
ACDBDICTIONARYWDFLT
  2
AcDbDictionaryWithDefault
  3
ObjectDBX Classes
 90
        0
 91
        1
280
     0
281
     0
  0
CLASS
  1
TABLESTYLE
  2
AcDbTableStyle
  3
ObjectDBX Classes
 90
     2047
 91
        1
280
     0
281
     0
  0
CLASS
  1
DICTIONARYVAR
  2
AcDbDictionaryVar
  3
ObjectDBX Classes
 90
        0
 91
        1
280
     0
281
     0
  0
ENDSEC
  0
SECTION
  2
TABLES
  0
TABLE
  2
VPORT
  5
8
330
0
100
AcDbSymbolTable
 70
     2
  0
VPORT
  5
30E
330
8
100
AcDbSymbolTableRecord
100
AcDbViewportTableRecord
  2
*Active
 70
     0
 10
0.0
 20
0.0
 11
1.0
 21
1.0
 12
-296.0
 22
209.0
 13
0.0
 23
0.0
 14
1.0
 24
1.0
 15
0.0
 25
0.0
 16
0.0
 26
0.0
 36
1.0
 17
0.0
 27
0.0
 37
0.0
 40
421.3043478260869
 41
1.707124010554089
 42
50.0
 43
0.0
 44
0.0
 50
0.0
 51
0.0
 71
     0
 72
   100
 73
     1
 74
     1
 75
     0
 76
     0
 77
     0
 78
     0
281
     0
 65
     1
110
0.0
120
0.0
130
0.0
111
1.0
121
0.0
131
0.0
112
0.0
122
1.0
132
0.0
 79
     0
146
0.0
  0
ENDTAB
  0
TABLE
  2
LTYPE
  5
5
330
0
100
AcDbSymbolTable
 70
     6
  0
LTYPE
  5
13
330
5
100
AcDbSymbolTableRecord
100
AcDbLinetypeTableRecord
  2
ByBlock
 70
     0
  3

 72
    65
 73
     0
 40
0.0
  0
LTYPE
  5
14
330
5
100
AcDbSymbolTableRecord
100
AcDbLinetypeTableRecord
  2
ByLayer
 70
     0
  3

 72
    65
 73
     0
 40
0.0
  0
LTYPE
  5
15
330
5
100
AcDbSymbolTableRecord
100
AcDbLinetypeTableRecord
  2
CONTINUOUS
 70
     0
  3
Solid line
 72
    65
 73
     0
 40
0.0
  0
LTYPE
  5
26
330
5
100
AcDbSymbolTableRecord
100
AcDbLinetypeTableRecord
  2
DASHED
 70
     0
  3
__ __ __ __ __ __ __ __ __ __ __ __ __ __ __
 72
    65
 73
     2
 40
3.5
 49
2.0
 74
     0
 49
-1.5
 74
     0
  0
LTYPE
  5
27
330
5
100
AcDbSymbolTableRecord
100
AcDbLinetypeTableRecord
  2
CENTER
 70
     0
  3
____ _ ____ _ ____ _ ____ _ ____ _ ____ _ ____
 72
    65
 73
     4
 40
17.5
 49
13.0
 74
     0
 49
-1.5
 74
     0
 49
1.5
 74
     0
 49
-1.5
 74
     0
  0
LTYPE
  5
28
330
5
100
AcDbSymbolTableRecord
100
AcDbLinetypeTableRecord
  2
PHANTOM
 70
     0
  3
_____ _ _ _____ _ _ _____ _ _ _____ _ _ ____  
 72
    65
 73
     6
 40
15.5
 49
8.0
 74
     0
 49
-1.5
 74
     0
 49
1.5
 74
     0
 49
-1.5
 74
     0
 49
1.5
 74
     0
 49
-1.5
 74
     0
  0
LTYPE
  5
29
330
5
100
AcDbSymbolTableRecord
100
AcDbLinetypeTableRecord
  2
DOT
 70
     0
  3
. . . . . . . . . . . . . . . . . . . . . . . .
 72
    65
 73
     2
 40
0.25
 49
0.0
 74
     0
 49
-0.25
 74
     0
  0
LTYPE
  5
2A
330
5
100
AcDbSymbolTableRecord
100
AcDbLinetypeTableRecord
  2
HIDDEN
 70
     0
  3
__ __ __ __ __ __ __ __ __ __ __ __ __ __ __
 72
    65
 73
     2
 40
3.5
 49
2.0
 74
     0
 49
-1.5
 74
     0
  0
ENDTAB
  0
TABLE
  2
LAYER
  5
2
330
0
100
AcDbSymbolTable
 70
     2
  0
LAYER
  5
10
330
2
100
AcDbSymbolTableRecord
100
AcDbLayerTableRecord
  2
0
 70
     0
 62
     7
  6
CONTINUOUS
370
    -3
390
F
  0
LAYER
  5
2B
330
2
100
AcDbSymbolTableRecord
100
AcDbLayerTableRecord
  2
DEFPOINTS
 70
     0
 62
     7
  6
CONTINUOUS
290
     0
370
    -3
390
F
  0
ENDTAB
  0
TABLE
  2
STYLE
  5
3
330
0
100
AcDbSymbolTable
 70
     2
  0
STYLE
  5
11
330
3
100
AcDbSymbolTableRecord
100
AcDbTextStyleTableRecord
  2
STANDARD
 70
     0
 40
0.0
 41
1.0
 50
0.0
 71
     0
 42
0.2
  3

  4

1001
ACAD
1000
MS Gothic
1071
    32817
  0
ENDTAB
  0
TABLE
  2
VIEW
  5
6
330
0
100
AcDbSymbolTable
 70
     0
  0
ENDTAB
  0
TABLE
  2
UCS
  5
7
330
0
100
AcDbSymbolTable
 70
     0
  0
ENDTAB
  0
TABLE
  2
APPID
  5
9
330
0
100
AcDbSymbolTable
 70
     2
  0
APPID
  5
12
330
9
100
AcDbSymbolTableRecord
100
AcDbRegAppTableRecord
  2
ACAD
 70
     0
  0
APPID
  5
303
330
9
100
AcDbSymbolTableRecord
100
AcDbRegAppTableRecord
  2
ACAD_PSEXT
 70
     0
  0
ENDTAB
  0
TABLE
  2
DIMSTYLE
  5
A
330
0
100
AcDbSymbolTable
 70
    11
100
AcDbDimStyleTable
 71
     1
340
2C
  0
DIMSTYLE
105
2C
102
{ACAD_REACTORS
330
2F6
102
}
330
A
100
AcDbSymbolTableRecord
100
AcDbDimStyleTableRecord
  2
DIMSTYLE1
 70
     0
 41
1.0
 42
2.54
 44
2.54
 73
     0
 74
     0
 75
     1
 76
     1
 77
     1
140
3.0
145
1.0
147
1.5
172
     1
173
     1
279
     2
340
11
  0
DIMSTYLE
105
2D
102
{ACAD_REACTORS
330
2F7
102
}
330
A
100
AcDbSymbolTableRecord
100
AcDbDimStyleTableRecord
  2
DIMSTYLE2
 70
     0
 41
1.0
 42
2.54
 44
2.54
 73
     0
 74
     0
 75
     1
 76
     1
 77
     1
140
3.0
145
1.0
147
1.5
172
     1
173
     1
279
     2
340
11
  0
DIMSTYLE
105
2E
102
{ACAD_REACTORS
330
2F8
102
}
330
A
100
AcDbSymbolTableRecord
100
AcDbDimStyleTableRecord
  2
DIMSTYLE3
 70
     0
 41
1.0
 42
2.54
 44
2.54
 73
     0
 74
     0
 75
     1
 76
     1
 77
     1
140
3.0
145
1.0
147
1.5
172
     1
173
     1
279
     2
340
11
  0
DIMSTYLE
105
2F
102
{ACAD_REACTORS
330
2F9
102
}
330
A
100
AcDbSymbolTableRecord
100
AcDbDimStyleTableRecord
  2
DIMSTYLE4
 70
     0
 41
1.0
 42
2.54
 44
2.54
 73
     0
 74
     0
 77
     1
140
3.0
145
1.0
147
1.5
172
     1
173
     1
279
     2
340
11
  0
DIMSTYLE
105
30
102
{ACAD_REACTORS
330
2FA
102
}
330
A
100
AcDbSymbolTableRecord
100
AcDbDimStyleTableRecord
  2
DIMSTYLE5
 70
     0
 41
1.0
 42
2.54
 44
2.54
 73
     0
 74
     0
 77
     1
140
3.0
145
1.0
147
1.5
172
     1
173
     1
279
     2
340
11
  0
DIMSTYLE
105
31
102
{ACAD_REACTORS
330
2FC
102
}
330
A
100
AcDbSymbolTableRecord
100
AcDbDimStyleTableRecord
  2
DIMSTYLE6
 70
     0
 41
1.0
 42
2.54
 44
2.54
 73
     0
 74
     0
 77
     1
140
3.0
145
1.0
147
1.5
172
     1
173
     1
279
     2
340
11
  0
DIMSTYLE
105
32
102
{ACAD_REACTORS
330
2FD
102
}
330
A
100
AcDbSymbolTableRecord
100
AcDbDimStyleTableRecord
  2
DIMSTYLE7
 70
     0
 41
1.0
 42
2.54
 44
2.54
 73
     0
 74
     0
 77
     1
140
3.0
145
1.0
147
1.5
172
     1
173
     1
279
     2
340
11
  0
DIMSTYLE
105
33
102
{ACAD_REACTORS
330
2FE
102
}
330
A
100
AcDbSymbolTableRecord
100
AcDbDimStyleTableRecord
  2
DIMSTYLE8
 70
     0
 41
1.0
 42
2.54
 44
2.54
 73
     0
 74
     0
 77
     1
140
3.0
145
1.0
147
1.5
172
     1
173
     1
279
     2
340
11
  0
DIMSTYLE
105
34
102
{ACAD_REACTORS
330
2FF
102
}
330
A
100
AcDbSymbolTableRecord
100
AcDbDimStyleTableRecord
  2
DIMSTYLE9
 70
     0
 41
1.0
 42
2.54
 44
2.54
 73
     0
 74
     0
 77
     1
140
3.0
145
1.0
147
1.5
172
     1
173
     1
279
     2
340
11
  0
DIMSTYLE
105
35
102
{ACAD_REACTORS
330
300
102
}
330
A
100
AcDbSymbolTableRecord
100
AcDbDimStyleTableRecord
  2
DIMSTYLE10
 70
     0
 41
1.0
 42
2.54
 44
2.54
 73
     0
 74
     0
 77
     1
140
3.0
145
1.0
147
1.5
172
     1
173
     1
279
     2
340
11
  0
ENDTAB
  0
TABLE
  2
BLOCK_RECORD
  5
1
330
0
100
AcDbSymbolTable
 70
    13
  0
BLOCK_RECORD
  5
22
330
1
100
AcDbSymbolTableRecord
100
AcDbBlockTableRecord
  2
*Model_Space
340
25
  0
BLOCK_RECORD
  5
1E
330
1
100
AcDbSymbolTableRecord
100
AcDbBlockTableRecord
  2
*Paper_Space
340
21
  0
BLOCK_RECORD
  5
39
330
1
100
AcDbSymbolTableRecord
100
AcDbBlockTableRecord
  2
_OPEN30
340
0
102
{BLKREFS
331
43
331
44
331
4D
331
4E
331
57
331
58
331
60
331
61
331
6C
331
6D
331
78
331
79
331
85
331
87
331
92
331
93
331
9D
331
9E
331
A8
331
A9
102
}
  0
BLOCK_RECORD
  5
3F
330
1
100
AcDbSymbolTableRecord
100
AcDbBlockTableRecord
  2
*D1
340
0
  0
BLOCK_RECORD
  5
49
330
1
100
AcDbSymbolTableRecord
100
AcDbBlockTableRecord
  2
*D2
340
0
  0
BLOCK_RECORD
  5
53
330
1
100
AcDbSymbolTableRecord
100
AcDbBlockTableRecord
  2
*D3
340
0
  0
BLOCK_RECORD
  5
5D
330
1
100
AcDbSymbolTableRecord
100
AcDbBlockTableRecord
  2
*D4
340
0
  0
BLOCK_RECORD
  5
69
330
1
100
AcDbSymbolTableRecord
100
AcDbBlockTableRecord
  2
*D5
340
0
  0
BLOCK_RECORD
  5
75
330
1
100
AcDbSymbolTableRecord
100
AcDbBlockTableRecord
  2
*D6
340
0
  0
BLOCK_RECORD
  5
81
330
1
100
AcDbSymbolTableRecord
100
AcDbBlockTableRecord
  2
*D7
340
0
  0
BLOCK_RECORD
  5
8F
330
1
100
AcDbSymbolTableRecord
100
AcDbBlockTableRecord
  2
*D8
340
0
  0
BLOCK_RECORD
  5
9A
330
1
100
AcDbSymbolTableRecord
100
AcDbBlockTableRecord
  2
*D9
340
0
  0
BLOCK_RECORD
  5
A5
330
1
100
AcDbSymbolTableRecord
100
AcDbBlockTableRecord
  2
*D10
340
0
  0
BLOCK_RECORD
  5
AF
330
1
100
AcDbSymbolTableRecord
100
AcDbBlockTableRecord
  2
KOZU0001
340
0
102
{BLKREFS
331
2FB
102
}
  0
ENDTAB
  0
ENDSEC
  0
SECTION
  2
BLOCKS
  0
BLOCK
  5
23
330
22
100
AcDbEntity
  8
0
100
AcDbBlockBegin
  2
*Model_Space
 70
     0
 10
0.0
 20
0.0
 30
0.0
  3
*Model_Space
  1

  0
ENDBLK
  5
24
330
22
100
AcDbEntity
  8
0
100
AcDbBlockEnd
  0
BLOCK
  5
1F
330
1E
100
AcDbEntity
 67
     1
  8
0
100
AcDbBlockBegin
  2
*Paper_Space
 70
     0
 10
0.0
 20
0.0
 30
0.0
  3
*Paper_Space
  1

  0
ENDBLK
  5
20
330
1E
100
AcDbEntity
 67
     1
  8
0
100
AcDbBlockEnd
  0
BLOCK
  5
3A
330
39
100
AcDbEntity
  8
0
100
AcDbBlockBegin
  2
_OPEN30
 70
     0
 10
0.0
 20
0.0
 30
0.0
  3
_OPEN30
  1

  0
LINE
  5
3B
330
39
100
AcDbEntity
  8
0
  6
ByBlock
 62
     0
100
AcDbLine
 10
0.0
 20
0.0
 30
0.0
 11
-2.999999999999993
 21
-1.000000000000017
 31
0.0
  0
LINE
  5
3C
330
39
100
AcDbEntity
  8
0
  6
ByBlock
 62
     0
100
AcDbLine
 10
0.0
 20
0.0
 30
0.0
 11
-3.000000000000006
 21
0.9999999999999815
 31
0.0
  0
LINE
  5
3D
330
39
100
AcDbEntity
  8
0
  6
ByBlock
 62
     0
100
AcDbLine
 10
0.0
 20
0.0
 30
0.0
 11
-3.0
 21
0.0
 31
0.0
  0
ENDBLK
  5
3E
330
39
100
AcDbEntity
  8
0
100
AcDbBlockEnd
  0
BLOCK
  5
40
330
3F
100
AcDbEntity
  8
0
100
AcDbBlockBegin
  2
*D1
 70
     1
 10
0.0
 20
0.0
 30
0.0
  3
*D1
  1

  0
LINE
  5
41
330
3F
100
AcDbEntity
  8
0
  6
Continuous
 62
     7
100
AcDbLine
 10
-271.2557373046875
 20
368.6810607910156
 30
0.0
 11
-243.4207611083984
 21
389.4613037109375
 31
0.0
  0
LINE
  5
42
330
3F
100
AcDbEntity
  8
0
  6
Continuous
 62
     7
100
AcDbLine
 10
-401.8716609338286
 20
271.1695977841812
 30
0.0
 11
-273.6597111364838
 21
366.8863714541
 31
0.0
  0
INSERT
  5
43
330
3F
100
AcDbEntity
  8
0
  6
Continuous
 62
     7
100
AcDbBlockReference
  2
_OPEN30
 10
-404.275634765625
 20
269.3749084472656
 30
0.0
 50
216.7432198295803
  0
INSERT
  5
44
330
3F
100
AcDbEntity
  8
0
  6
Continuous
 62
     7
100
AcDbBlockReference
  2
_OPEN30
 10
-271.2557373046875
 20
368.6810607910156
 30
0.0
 50
36.74321982957962
  0
TEXT
  5
45
330
3F
100
AcDbEntity
  8
0
  6
Continuous
 62
     7
100
AcDbText
 10
-269.6307886874325
 20
370.8452430901992
 30
0.0
 40
3.0
  1
%%C１６６（防水皿外径）
 50
36.69999976906919
 41
0.8440126077968535
100
AcDbText
  0
POINT
  5
46
330
3F
100
AcDbEntity
  8
DEFPOINTS
  6
Continuous
 62
     7
100
AcDbPoint
 10
-404.275634765625
 20
269.3749084472656
 30
0.0
  0
POINT
  5
47
330
3F
100
AcDbEntity
  8
DEFPOINTS
  6
Continuous
 62
     7
100
AcDbPoint
 10
-271.2557373046875
 20
368.6810607910156
 30
0.0
  0
ENDBLK
  5
48
330
3F
100
AcDbEntity
  8
0
100
AcDbBlockEnd
  0
BLOCK
  5
4A
330
49
100
AcDbEntity
  8
0
100
AcDbBlockBegin
  2
*D2
 70
     1
 10
0.0
 20
0.0
 30
0.0
  3
*D2
  1

  0
LINE
  5
4B
330
49
100
AcDbEntity
  8
0
  6
Continuous
 62
     7
100
AcDbLine
 10
-260.1964416503906
 20
338.5986633300781
 30
0.0
 11
-219.0507965087891
 21
348.9796752929688
 31
0.0
  0
LINE
  5
4C
330
49
100
AcDbEntity
  8
0
  6
Continuous
 62
     7
100
AcDbLine
 10
-412.4260835599709
 20
300.1912064091934
 30
0.0
 11
-263.1052885103415
 21
337.8647628290878
 31
0.0
  0
INSERT
  5
4D
330
49
100
AcDbEntity
  8
0
  6
Continuous
 62
     7
100
AcDbBlockReference
  2
_OPEN30
 10
-415.3349304199219
 20
299.4573059082031
 30
0.0
 50
194.1601757790392
  0
INSERT
  5
4E
330
49
100
AcDbEntity
  8
0
  6
Continuous
 62
     7
100
AcDbBlockReference
  2
_OPEN30
 10
-260.1964416503906
 20
338.5986633300781
 30
0.0
 50
14.16017577903855
  0
TEXT
  5
4F
330
49
100
AcDbEntity
  8
0
  6
Continuous
 62
     7
100
AcDbText
 10
-250.3954905240996
 20
341.8334255596533
 30
0.0
 40
3.0
  1
%%C１６０（目皿受外径）
 50
14.1999999967233
 41
0.8440126077968535
100
AcDbText
  0
POINT
  5
50
330
49
100
AcDbEntity
  8
DEFPOINTS
  6
Continuous
 62
     7
100
AcDbPoint
 10
-415.3349304199219
 20
299.4573059082031
 30
0.0
  0
POINT
  5
51
330
49
100
AcDbEntity
  8
DEFPOINTS
  6
Continuous
 62
     7
100
AcDbPoint
 10
-260.1964416503906
 20
338.5986633300781
 30
0.0
  0
ENDBLK
  5
52
330
49
100
AcDbEntity
  8
0
100
AcDbBlockEnd
  0
BLOCK
  5
54
330
53
100
AcDbEntity
  8
0
100
AcDbBlockBegin
  2
*D3
 70
     1
 10
0.0
 20
0.0
 30
0.0
  3
*D3
  1

  0
LINE
  5
55
330
53
100
AcDbEntity
  8
0
  6
Continuous
 62
     7
100
AcDbLine
 10
-273.7103576660156
 20
299.3832702636719
 30
0.0
 11
-227.7750854492188
 21
285.295654296875
 31
0.0
  0
LINE
  5
56
330
53
100
AcDbEntity
  8
0
  6
Continuous
 62
     7
100
AcDbLine
 10
-398.9528655306887
 20
337.793114781749
 30
0.0
 11
-276.5785065396239
 21
300.2628849741105
 31
0.0
  0
INSERT
  5
57
330
53
100
AcDbEntity
  8
0
  6
Continuous
 62
     7
100
AcDbBlockReference
  2
_OPEN30
 10
-401.8210144042968
 20
338.6727294921875
 30
0.0
 50
162.950073302599
  0
INSERT
  5
58
330
53
100
AcDbEntity
  8
0
  6
Continuous
 62
     7
100
AcDbBlockReference
  2
_OPEN30
 10
-273.7103576660156
 20
299.3832702636719
 30
0.0
 50
342.9500733025997
  0
TEXT
  5
59
330
53
100
AcDbEntity
  8
0
  6
Continuous
 62
     7
100
AcDbText
 10
-255.418809309645
 20
294.5447417884189
 30
0.0
 40
3.0
  1
%%C１３４（目皿外径）
 50
343.0000006652968
 41
0.8443929326254473
100
AcDbText
  0
POINT
  5
5A
330
53
100
AcDbEntity
  8
DEFPOINTS
  6
Continuous
 62
     7
100
AcDbPoint
 10
-401.8210144042968
 20
338.6727294921875
 30
0.0
  0
POINT
  5
5B
330
53
100
AcDbEntity
  8
DEFPOINTS
  6
Continuous
 62
     7
100
AcDbPoint
 10
-273.7103576660156
 20
299.3832702636719
 30
0.0
  0
ENDBLK
  5
5C
330
53
100
AcDbEntity
  8
0
100
AcDbBlockEnd
  0
BLOCK
  5
5E
330
5D
100
AcDbEntity
  8
0
100
AcDbBlockBegin
  2
*D4
 70
     1
 10
0.0
 20
0.0
 30
0.0
  3
*D4
  1

  0
LINE
  5
5F
330
5D
100
AcDbEntity
  8
0
  6
Continuous
 62
     7
100
AcDbLine
 10
-428.1647644042968
 20
19.62826919555664
 30
0.0
 11
-428.1647644042968
 21
77.6282730102539
 31
0.0
  0
INSERT
  5
60
330
5D
100
AcDbEntity
  8
0
  6
Continuous
 62
     7
100
AcDbBlockReference
  2
_OPEN30
 10
-428.1647644042968
 20
16.62826919555664
 30
0.0
 50
270.0000000000005
  0
INSERT
  5
61
330
5D
100
AcDbEntity
  8
0
  6
Continuous
 62
     7
100
AcDbBlockReference
  2
_OPEN30
 10
-428.1647644042968
 20
80.62827301025391
 30
0.0
 50
90.00000000000019
  0
LINE
  5
62
330
5D
100
AcDbEntity
  8
0
  6
Continuous
 62
     7
100
AcDbLine
 10
-373.3056860351563
 20
16.62826919555663
 30
0.0
 11
-430.4507751464844
 21
16.62826919555664
 31
0.0
  0
LINE
  5
63
330
5D
100
AcDbEntity
  8
0
  6
Continuous
 62
     7
100
AcDbLine
 10
-373.3056860351563
 20
80.62827301025389
 30
0.0
 11
-430.4507751464844
 21
80.62827301025391
 31
0.0
  0
TEXT
  5
64
330
5D
100
AcDbEntity
  8
0
  6
Continuous
 62
     7
100
AcDbText
 10
-428.9147642919585
 20
46.05826905071636
 30
0.0
 40
3.0
  1
64
 50
90.00000250447815
 41
1.028000020980834
100
AcDbText
  0
POINT
  5
65
330
5D
100
AcDbEntity
  8
DEFPOINTS
  6
Continuous
 62
     7
100
AcDbPoint
 10
-370.7656860351563
 20
16.62826919555664
 30
0.0
  0
POINT
  5
66
330
5D
100
AcDbEntity
  8
DEFPOINTS
  6
Continuous
 62
     7
100
AcDbPoint
 10
-370.7656860351563
 20
80.62827301025391
 30
0.0
  0
POINT
  5
67
330
5D
100
AcDbEntity
  8
DEFPOINTS
  6
Continuous
 62
     7
100
AcDbPoint
 10
-428.1647644042968
 20
80.62827301025391
 30
0.0
  0
ENDBLK
  5
68
330
5D
100
AcDbEntity
  8
0
100
AcDbBlockEnd
  0
BLOCK
  5
6A
330
69
100
AcDbEntity
  8
0
100
AcDbBlockBegin
  2
*D5
 70
     1
 10
0.0
 20
0.0
 30
0.0
  3
*D5
  1

  0
LINE
  5
6B
330
69
100
AcDbEntity
  8
0
  6
Continuous
 62
     7
100
AcDbLine
 10
-367.7656860351563
 20
8.507033348083496
 30
0.0
 11
-307.7656860351563
 21
8.507033348083476
 31
0.0
  0
INSERT
  5
6C
330
69
100
AcDbEntity
  8
0
  6
Continuous
 62
     7
100
AcDbBlockReference
  2
_OPEN30
 10
-370.7656860351563
 20
8.507033348083496
 30
0.0
 50
180.0000000000004
  0
INSERT
  5
6D
330
69
100
AcDbEntity
  8
0
  6
Continuous
 62
     7
100
AcDbBlockReference
  2
_OPEN30
 10
-304.7656860351563
 20
8.507033348083496
 30
0.0
  0
LINE
  5
6E
330
69
100
AcDbEntity
  8
0
  6
Continuous
 62
     7
100
AcDbLine
 10
-370.7656860351563
 20
14.08826919555664
 30
0.0
 11
-370.7656860351563
 21
6.221033573150634
 31
0.0
  0
LINE
  5
6F
330
69
100
AcDbEntity
  8
0
  6
Continuous
 62
     7
100
AcDbLine
 10
-304.7656860351563
 20
14.08826919555664
 30
0.0
 11
-304.7656860351563
 21
6.221033573150634
 31
0.0
  0
TEXT
  5
70
330
69
100
AcDbEntity
  8
0
  6
Continuous
 62
     7
100
AcDbText
 10
-341.8356862068176
 20
9.257033348083496
 30
0.0
 40
3.0
  1
%%C66
 41
0.9498249830693319
100
AcDbText
  0
POINT
  5
71
330
69
100
AcDbEntity
  8
DEFPOINTS
  6
Continuous
 62
     7
100
AcDbPoint
 10
-370.7656860351563
 20
16.62826919555664
 30
0.0
  0
POINT
  5
72
330
69
100
AcDbEntity
  8
DEFPOINTS
  6
Continuous
 62
     7
100
AcDbPoint
 10
-304.7656860351563
 20
16.62826919555664
 30
0.0
  0
POINT
  5
73
330
69
100
AcDbEntity
  8
DEFPOINTS
  6
Continuous
 62
     7
100
AcDbPoint
 10
-304.7656860351563
 20
8.507033348083496
 30
0.0
  0
ENDBLK
  5
74
330
69
100
AcDbEntity
  8
0
100
AcDbBlockEnd
  0
BLOCK
  5
76
330
75
100
AcDbEntity
  8
0
100
AcDbBlockBegin
  2
*D6
 70
     1
 10
0.0
 20
0.0
 30
0.0
  3
*D6
  1

  0
LINE
  5
77
330
75
100
AcDbEntity
  8
0
  6
Continuous
 62
     7
100
AcDbLine
 10
-225.7323303222656
 20
58.62826919555664
 30
0.0
 11
-225.7323303222656
 21
209.6282653808594
 31
0.0
  0
INSERT
  5
78
330
75
100
AcDbEntity
  8
0
  6
Continuous
 62
     7
100
AcDbBlockReference
  2
_OPEN30
 10
-225.7323303222656
 20
55.62826919555664
 30
0.0
 50
270.0000000000005
  0
INSERT
  5
79
330
75
100
AcDbEntity
  8
0
  6
Continuous
 62
     7
100
AcDbBlockReference
  2
_OPEN30
 10
-225.7323303222656
 20
212.6282653808594
 30
0.0
 50
90.00000000000019
  0
LINE
  5
7A
330
75
100
AcDbEntity
  8
0
  6
Continuous
 62
     7
100
AcDbLine
 10
-252.2256860351563
 20
55.62826919555664
 30
0.0
 11
-223.4463348388672
 21
55.62826919555664
 31
0.0
  0
LINE
  5
7B
330
75
100
AcDbEntity
  8
0
  6
Continuous
 62
     7
100
AcDbLine
 10
-255.7256860351563
 20
212.6282653808594
 30
0.0
 11
-223.4463348388672
 21
212.6282653808594
 31
0.0
  0
TEXT
  5
7C
330
75
100
AcDbEntity
  8
0
  6
Continuous
 62
     7
100
AcDbText
 10
-226.4823294886894
 20
115.058264580368
 30
0.0
 40
3.0
  1
１５７　（１４０～１６９）
 50
90.00000250447815
 41
0.8434321120058422
100
AcDbText
  0
POINT
  5
7D
330
75
100
AcDbEntity
  8
DEFPOINTS
  6
Continuous
 62
     7
100
AcDbPoint
 10
-254.7656860351563
 20
55.62826919555664
 30
0.0
  0
POINT
  5
7E
330
75
100
AcDbEntity
  8
DEFPOINTS
  6
Continuous
 62
     7
100
AcDbPoint
 10
-258.2656860351563
 20
212.6282653808594
 30
0.0
  0
POINT
  5
7F
330
75
100
AcDbEntity
  8
DEFPOINTS
  6
Continuous
 62
     7
100
AcDbPoint
 10
-225.7323303222656
 20
212.6282653808594
 30
0.0
  0
ENDBLK
  5
80
330
75
100
AcDbEntity
  8
0
100
AcDbBlockEnd
  0
BLOCK
  5
82
330
81
100
AcDbEntity
  8
0
100
AcDbBlockBegin
  2
*D7
 70
     1
 10
0.0
 20
0.0
 30
0.0
  3
*D7
  1

  0
LINE
  5
83
330
81
100
AcDbEntity
  8
0
  6
Continuous
 62
     7
100
AcDbLine
 10
-225.7323303222656
 20
52.62826919555664
 30
0.0
 11
-225.7323303222656
 21
44.09655380249023
 31
0.0
  0
LINE
  5
84
330
81
100
AcDbEntity
  8
0
  6
Continuous
 62
     7
100
AcDbLine
 10
-225.7323303222656
 20
55.62826919555664
 30
0.0
 11
-225.7323303222656
 21
52.62826919555664
 31
0.0
  0
INSERT
  5
85
330
81
100
AcDbEntity
  8
0
  6
Continuous
 62
     7
100
AcDbBlockReference
  2
_OPEN30
 10
-225.7323303222656
 20
55.62826919555664
 30
0.0
 50
270.0000000000002
  0
LINE
  5
86
330
81
100
AcDbEntity
  8
0
  6
Continuous
 62
     7
100
AcDbLine
 10
-225.7323303222656
 20
58.62826919555664
 30
0.0
 11
-225.7323303222657
 21
61.97826919555664
 31
0.0
  0
INSERT
  5
87
330
81
100
AcDbEntity
  8
0
  6
Continuous
 62
     7
100
AcDbBlockReference
  2
_OPEN30
 10
-225.7323303222656
 20
52.62826919555664
 30
0.0
 50
90.00000000000049
  0
LINE
  5
88
330
81
100
AcDbEntity
  8
0
  6
Continuous
 62
     7
100
AcDbLine
 10
-225.7323303222656
 20
49.62826919555664
 30
0.0
 11
-225.7323303222656
 21
46.27826919555664
 31
0.0
  0
LINE
  5
89
330
81
100
AcDbEntity
  8
0
  6
Continuous
 62
     7
100
AcDbLine
 10
-252.2256860351563
 20
52.62826919555664
 30
0.0
 11
-223.4463348388672
 21
52.62826919555664
 31
0.0
  0
TEXT
  5
8A
330
81
100
AcDbEntity
  8
0
  6
Continuous
 62
     7
100
AcDbText
 10
-226.4823302754944
 20
44.09655341207883
 30
0.0
 40
3.0
  1
3
 50
90.00000250447815
100
AcDbText
  0
POINT
  5
8B
330
81
100
AcDbEntity
  8
DEFPOINTS
  6
Continuous
 62
     7
100
AcDbPoint
 10
-223.4463348388672
 20
55.62826919555664
 30
0.0
  0
POINT
  5
8C
330
81
100
AcDbEntity
  8
DEFPOINTS
  6
Continuous
 62
     7
100
AcDbPoint
 10
-254.7656860351563
 20
52.62826919555664
 30
0.0
  0
POINT
  5
8D
330
81
100
AcDbEntity
  8
DEFPOINTS
  6
Continuous
 62
     7
100
AcDbPoint
 10
-225.7323303222656
 20
52.62826919555664
 30
0.0
  0
ENDBLK
  5
8E
330
81
100
AcDbEntity
  8
0
100
AcDbBlockEnd
  0
BLOCK
  5
90
330
8F
100
AcDbEntity
  8
0
100
AcDbBlockBegin
  2
*D8
 70
     1
 10
0.0
 20
0.0
 30
0.0
  3
*D8
  1

  0
LINE
  5
91
330
8F
100
AcDbEntity
  8
0
  6
Continuous
 62
     7
100
AcDbLine
 10
-239.8014984130859
 20
58.62826919555664
 30
0.0
 11
-239.8014984130859
 21
77.6282730102539
 31
0.0
  0
INSERT
  5
92
330
8F
100
AcDbEntity
  8
0
  6
Continuous
 62
     7
100
AcDbBlockReference
  2
_OPEN30
 10
-239.8014984130859
 20
55.62826919555664
 30
0.0
 50
270.0000000000005
  0
INSERT
  5
93
330
8F
100
AcDbEntity
  8
0
  6
Continuous
 62
     7
100
AcDbBlockReference
  2
_OPEN30
 10
-239.8014984130859
 20
80.62827301025391
 30
0.0
 50
90.00000000000019
  0
LINE
  5
94
330
8F
100
AcDbEntity
  8
0
  6
Continuous
 62
     7
100
AcDbLine
 10
-303.2674951171875
 20
80.62827301025391
 30
0.0
 11
-237.5155029296875
 21
80.62827301025391
 31
0.0
  0
TEXT
  5
95
330
8F
100
AcDbEntity
  8
0
  6
Continuous
 62
     7
100
AcDbText
 10
-240.5514983007477
 20
65.55827286541364
 30
0.0
 40
3.0
  1
25
 50
90.00000250447815
 41
1.028000020980834
100
AcDbText
  0
POINT
  5
96
330
8F
100
AcDbEntity
  8
DEFPOINTS
  6
Continuous
 62
     7
100
AcDbPoint
 10
-254.7656860351563
 20
55.62826919555664
 30
0.0
  0
POINT
  5
97
330
8F
100
AcDbEntity
  8
DEFPOINTS
  6
Continuous
 62
     7
100
AcDbPoint
 10
-305.8074951171875
 20
80.62827301025391
 30
0.0
  0
POINT
  5
98
330
8F
100
AcDbEntity
  8
DEFPOINTS
  6
Continuous
 62
     7
100
AcDbPoint
 10
-239.8014984130859
 20
80.62827301025391
 30
0.0
  0
ENDBLK
  5
99
330
8F
100
AcDbEntity
  8
0
100
AcDbBlockEnd
  0
BLOCK
  5
9B
330
9A
100
AcDbEntity
  8
0
100
AcDbBlockBegin
  2
*D9
 70
     1
 10
0.0
 20
0.0
 30
0.0
  3
*D9
  1

  0
LINE
  5
9C
330
9A
100
AcDbEntity
  8
0
  6
Continuous
 62
     7
100
AcDbLine
 10
-239.8014984130859
 20
209.6282653808594
 30
0.0
 11
-239.8014984130859
 21
145.6282653808594
 31
0.0
  0
INSERT
  5
9D
330
9A
100
AcDbEntity
  8
0
  6
Continuous
 62
     7
100
AcDbBlockReference
  2
_OPEN30
 10
-239.8014984130859
 20
212.6282653808594
 30
0.0
 50
90.00000000000019
  0
INSERT
  5
9E
330
9A
100
AcDbEntity
  8
0
  6
Continuous
 62
     7
100
AcDbBlockReference
  2
_OPEN30
 10
-239.8014984130859
 20
142.6282653808594
 30
0.0
 50
270.0000000000005
  0
LINE
  5
9F
330
9A
100
AcDbEntity
  8
0
  6
Continuous
 62
     7
100
AcDbLine
 10
-299.3756799316406
 20
142.6282653808594
 30
0.0
 11
-237.5155029296875
 21
142.6282653808594
 31
0.0
  0
TEXT
  5
A0
330
9A
100
AcDbEntity
  8
0
  6
Continuous
 62
     7
100
AcDbText
 10
-240.5514983007477
 20
175.0582652360191
 30
0.0
 40
3.0
  1
70
 50
90.00000250447815
 41
1.101428593908038
100
AcDbText
  0
POINT
  5
A1
330
9A
100
AcDbEntity
  8
DEFPOINTS
  6
Continuous
 62
     7
100
AcDbPoint
 10
-223.4463348388672
 20
212.6282653808594
 30
0.0
  0
POINT
  5
A2
330
9A
100
AcDbEntity
  8
DEFPOINTS
  6
Continuous
 62
     7
100
AcDbPoint
 10
-301.9156799316406
 20
142.6282653808594
 30
0.0
  0
POINT
  5
A3
330
9A
100
AcDbEntity
  8
DEFPOINTS
  6
Continuous
 62
     7
100
AcDbPoint
 10
-239.8014984130859
 20
142.6282653808594
 30
0.0
  0
ENDBLK
  5
A4
330
9A
100
AcDbEntity
  8
0
100
AcDbBlockEnd
  0
BLOCK
  5
A6
330
A5
100
AcDbEntity
  8
0
100
AcDbBlockBegin
  2
*D10
 70
     1
 10
0.0
 20
0.0
 30
0.0
  3
*D10
  1

  0
LINE
  5
A7
330
A5
100
AcDbEntity
  8
0
  6
Continuous
 62
     7
100
AcDbLine
 10
-323.1264038085938
 20
63.62826919555664
 30
0.0
 11
-323.1264038085938
 21
157.6282653808594
 31
0.0
  0
INSERT
  5
A8
330
A5
100
AcDbEntity
  8
0
  6
Continuous
 62
     7
100
AcDbBlockReference
  2
_OPEN30
 10
-323.1264038085938
 20
60.62826919555664
 30
0.0
 50
270.0000000000005
  0
INSERT
  5
A9
330
A5
100
AcDbEntity
  8
0
  6
Continuous
 62
     7
100
AcDbBlockReference
  2
_OPEN30
 10
-323.1264038085938
 20
160.6282653808594
 30
0.0
 50
90.00000000000019
  0
TEXT
  5
AA
330
A5
100
AcDbEntity
  8
0
  6
Continuous
 62
     7
100
AcDbText
 10
-323.8764036306883
 20
106.558272805809
 30
0.0
 40
3.0
  1
100
 50
90.00000250447815
 41
1.320000017011488
100
AcDbText
  0
POINT
  5
AB
330
A5
100
AcDbEntity
  8
DEFPOINTS
  6
Continuous
 62
     7
100
AcDbPoint
 10
-309.4156799316406
 20
60.62826919555664
 30
0.0
  0
POINT
  5
AC
330
A5
100
AcDbEntity
  8
DEFPOINTS
  6
Continuous
 62
     7
100
AcDbPoint
 10
-309.9125671386719
 20
160.6282653808594
 30
0.0
  0
POINT
  5
AD
330
A5
100
AcDbEntity
  8
DEFPOINTS
  6
Continuous
 62
     7
100
AcDbPoint
 10
-323.1264038085938
 20
160.6282653808594
 30
0.0
  0
ENDBLK
  5
AE
330
A5
100
AcDbEntity
  8
0
100
AcDbBlockEnd
  0
BLOCK
  5
B0
330
AF
100
AcDbEntity
  8
0
100
AcDbBlockBegin
  2
KOZU0001
 70
     0
 10
0.0
 20
0.0
 30
0.0
  3
KOZU0001
  1

  0
LINE
  5
B1
330
AF
100
AcDbEntity
  8
0
  6
Continuous
 62
     7
100
AcDbLine
 10
0.0
 20
0.0
 30
0.0
 11
10.59130859375
 21
-5.594806671142578
 31
0.0
  0
LINE
  5
B2
330
AF
100
AcDbEntity
  8
0
  6
Continuous
 62
     7
100
AcDbLine
 10
10.59130859375
 20
-5.594806671142578
 30
0.0
 11
39.025146484375
 21
-5.594806671142578
 31
0.0
  0
LINE
  5
B3
330
AF
100
AcDbEntity
  8
0
  6
Continuous
 62
     7
100
AcDbLine
 10
0.0
 20
0.0
 30
0.0
 11
3.119724150426743
 21
-0.5170311646739789
 31
0.0
  0
LINE
  5
B4
330
AF
100
AcDbEntity
  8
0
  6
Continuous
 62
     7
100
AcDbLine
 10
0.0
 20
0.0
 30
0.0
 11
2.185560621537007
 21
-2.285459421995229
 31
0.0
  0
TEXT
  5
B5
330
AF
100
AcDbEntity
  8
0
  6
Continuous
 62
     7
100
AcDbText
 10
14.1651451587677
 20
-4.844806671142578
 30
0.0
 40
3.0
  1
配管接続口
 41
0.8487395020950888
100
AcDbText
  0
TEXT
  5
B6
330
AF
100
AcDbEntity
  8
0
  6
Continuous
 62
     7
100
AcDbText
 10
14.1651451587677
 20
-10.10980667114258
 30
0.0
 40
3.0
  1
Ｒｃ２（５０Ａ）
 41
0.8454512278006642
100
AcDbText
  0
ENDBLK
  5
B7
330
AF
100
AcDbEntity
  8
0
100
AcDbBlockEnd
  0
ENDSEC
  0
SECTION
  2
ENTITIES
  0
LINE
  5
B8
330
22
100
AcDbEntity
  8
0
  6
Continuous
 62
     7
100
AcDbLine
 10
-291.065673828125
 20
359.3516845703125
 30
0.0
 11
-291.065673828125
 21
342.7279968261719
 31
0.0
  0
LINE
  5
B9
330
22
100
AcDbEntity
  8
0
  6
Continuous
 62
     7
100
AcDbLine
 10
-288.6302185058594
 20
351.6596069335938
 30
0.0
 11
-288.3987121582031
 21
352.0605773925781
 31
0.0
  0
LINE
  5
BA
330
22
100
AcDbEntity
  8
0
  6
Continuous
 62
     7
100
AcDbLine
 10
-287.4578247070313
 20
346.0890502929688
 30
0.0
 11
-287.0571594238281
 21
345.8576965332031
 31
0.0
  0
LINE
  5
BB
330
22
100
AcDbEntity
  8
0
  6
Continuous
 62
     7
100
AcDbLine
 10
-286.656494140625
 20
345.6263732910156
 30
0.0
 11
-287.0571594238281
 21
345.8576965332031
 31
0.0
  0
LINE
  5
BC
330
22
100
AcDbEntity
  8
0
  6
Continuous
 62
     7
100
AcDbLine
 10
-288.6302185058594
 20
351.6596069335938
 30
0.0
 11
-288.8617248535156
 21
351.2586364746094
 31
0.0
  0
LINE
  5
BD
330
22
100
AcDbEntity
  8
0
  6
Continuous
 62
     7
100
AcDbLine
 10
-306.6656799316406
 20
372.316650390625
 30
0.0
 11
-306.6656799316406
 21
354.427978515625
 31
0.0
  0
LINE
  5
BE
330
22
100
AcDbEntity
  8
0
  6
Continuous
 62
     7
100
AcDbLine
 10
-288.3987121582031
 20
352.0605773925781
 30
0.0
 11
-285.2750244140625
 21
350.7852478027344
 31
0.0
  0
LINE
  5
BF
330
22
100
AcDbEntity
  8
0
  6
Continuous
 62
     7
100
AcDbLine
 10
-287.4578247070313
 20
346.0890502929688
 30
0.0
 11
-286.1953735351563
 21
349.1911010742188
 31
0.0
  0
LINE
  5
C0
330
22
100
AcDbEntity
  8
0
  6
Continuous
 62
     7
100
AcDbLine
 10
-295.2656860351563
 20
363.7565002441406
 30
0.0
 11
-295.2656860351563
 21
342.7279968261719
 31
0.0
  0
LINE
  5
C1
330
22
100
AcDbEntity
  8
0
  6
Continuous
 62
     7
100
AcDbLine
 10
-288.8617248535156
 20
351.2586364746094
 30
0.0
 11
-286.1953735351563
 21
349.1911010742188
 31
0.0
  0
LINE
  5
C2
330
22
100
AcDbEntity
  8
0
  6
Continuous
 62
     7
100
AcDbLine
 10
-282.4184265136718
 20
352.9669494628906
 30
0.0
 11
-282.819091796875
 21
353.1982727050781
 31
0.0
  0
LINE
  5
C3
330
22
100
AcDbEntity
  8
0
  6
Continuous
 62
     7
100
AcDbLine
 10
-283.2197570800781
 20
353.4295959472656
 30
0.0
 11
-285.2750244140625
 21
350.7852478027344
 31
0.0
  0
LINE
  5
C4
330
22
100
AcDbEntity
  8
0
  6
Continuous
 62
     7
100
AcDbLine
 10
-281.0145568847655
 20
347.7973327636719
 30
0.0
 11
-283.6808776855469
 21
349.8648681640625
 31
0.0
  0
LINE
  5
C5
330
22
100
AcDbEntity
  8
0
  6
Continuous
 62
     7
100
AcDbLine
 10
-281.4775390625
 20
346.9953918457031
 30
0.0
 11
-284.6012573242188
 21
348.270751953125
 31
0.0
  0
LINE
  5
C6
330
22
100
AcDbEntity
  8
0
  6
Continuous
 62
     7
100
AcDbLine
 10
-281.2460327148438
 20
347.3963623046875
 30
0.0
 11
-281.4775390625
 21
346.9953918457031
 31
0.0
  0
LINE
  5
C7
330
22
100
AcDbEntity
  8
0
  6
Continuous
 62
     7
100
AcDbLine
 10
-281.2460327148438
 20
347.3963623046875
 30
0.0
 11
-281.0145568847655
 21
347.7973327636719
 31
0.0
  0
LINE
  5
C8
330
22
100
AcDbEntity
  8
0
  6
Continuous
 62
     7
100
AcDbLine
 10
-285.1201477050781
 20
193.3597564697265
 30
0.0
 11
-282.6221923828125
 21
198.1894226074219
 31
0.0
  0
LINE
  5
C9
330
22
100
AcDbEntity
  8
0
  6
Continuous
 62
     7
100
AcDbLine
 10
-295.2656860351563
 20
294.3280029296875
 30
0.0
 11
-295.2656860351563
 21
274.2994689941406
 31
0.0
  0
LINE
  5
CA
330
22
100
AcDbEntity
  8
0
  6
Continuous
 62
     7
100
AcDbLine
 10
-289.065673828125
 20
294.3280029296875
 30
0.0
 11
-289.065673828125
 21
281.1439514160156
 31
0.0
  0
LINE
  5
CB
330
22
100
AcDbEntity
  8
0
  6
Continuous
 62
     7
100
AcDbLine
 10
-295.2656860351563
 20
305.5279846191406
 30
0.0
 11
-295.2656860351563
 21
313.3280029296875
 31
0.0
  0
LINE
  5
CC
330
22
100
AcDbEntity
  8
0
  6
Continuous
 62
     7
100
AcDbLine
 10
-289.065673828125
 20
305.5279846191406
 30
0.0
 11
-289.065673828125
 21
313.3280029296875
 31
0.0
  0
LINE
  5
CD
330
22
100
AcDbEntity
  8
0
  6
Continuous
 62
     7
100
AcDbLine
 10
-300.4656677246094
 20
294.8280029296875
 30
0.0
 11
-300.4656677246094
 21
313.3280029296875
 31
0.0
  0
LINE
  5
CE
330
22
100
AcDbEntity
  8
0
  6
Continuous
 62
     7
100
AcDbLine
 10
-306.6656799316406
 20
294.8280029296875
 30
0.0
 11
-306.6656799316406
 21
313.3280029296875
 31
0.0
  0
LINE
  5
CF
330
22
100
AcDbEntity
  8
0
  6
Continuous
 62
     7
100
AcDbLine
 10
-277.6656799316405
 20
314.927978515625
 30
0.0
 11
-277.6656799316405
 21
305.0680541992188
 31
0.0
  0
LINE
  5
D0
330
22
100
AcDbEntity
  8
0
  6
Continuous
 62
     7
100
AcDbLine
 10
-306.6656799316406
 20
265.7393493652344
 30
0.0
 11
-306.6656799316406
 21
283.6279907226563
 31
0.0
  0
LINE
  5
D1
330
22
100
AcDbEntity
  8
0
  6
Continuous
 62
     7
100
AcDbLine
 10
-300.4656677246094
 20
269.8792419433594
 30
0.0
 11
-300.4656677246094
 21
283.6279907226563
 31
0.0
  0
LINE
  5
D2
330
22
100
AcDbEntity
  8
0
  6
Continuous
 62
     7
100
AcDbLine
 10
-257.7656860351563
 20
212.1282653808594
 30
0.0
 11
-257.7656860351563
 21
208.6282653808594
 31
0.0
  0
LINE
  5
D3
330
22
100
AcDbEntity
  8
0
  6
Continuous
 62
     7
100
AcDbLine
 10
-283.8656921386719
 20
295.3580017089844
 30
0.0
 11
-283.8656921386719
 21
314.927978515625
 31
0.0
  0
LINE
  5
D4
330
22
100
AcDbEntity
  8
0
  6
Continuous
 62
     7
100
AcDbLine
 10
-283.2197570800781
 20
353.4295959472656
 30
0.0
 11
-282.819091796875
 21
353.1982727050781
 31
0.0
  0
LINE
  5
D5
330
22
100
AcDbEntity
  8
0
  6
Continuous
 62
     7
100
AcDbLine
 10
-282.4184265136718
 20
352.9669494628906
 30
0.0
 11
-283.6808776855469
 21
349.8648681640625
 31
0.0
  0
LINE
  5
D6
330
22
100
AcDbEntity
  8
0
  6
Continuous
 62
     7
100
AcDbLine
 10
-300.4656677246094
 20
368.1767578125
 30
0.0
 11
-300.4656677246094
 21
354.427978515625
 31
0.0
  0
LINE
  5
D7
330
22
100
AcDbEntity
  8
0
  6
Continuous
 62
     7
100
AcDbLine
 10
-286.656494140625
 20
345.6263732910156
 30
0.0
 11
-284.6012573242188
 21
348.270751953125
 31
0.0
  0
LINE
  5
D8
330
22
100
AcDbEntity
  8
0
  6
Continuous
 62
     7
100
AcDbLine
 10
-289.065673828125
 20
332.5279846191406
 30
0.0
 11
-289.065673828125
 21
324.7279968261719
 31
0.0
  0
LINE
  5
D9
330
22
100
AcDbEntity
  8
0
  6
Continuous
 62
     7
100
AcDbLine
 10
-306.6656799316406
 20
343.2279968261719
 30
0.0
 11
-306.6656799316406
 21
324.7279968261719
 31
0.0
  0
LINE
  5
DA
330
22
100
AcDbEntity
  8
0
  6
Continuous
 62
     7
100
AcDbLine
 10
-300.4656677246094
 20
343.2279968261719
 30
0.0
 11
-300.4656677246094
 21
324.7279968261719
 31
0.0
  0
LINE
  5
DB
330
22
100
AcDbEntity
  8
0
  6
Continuous
 62
     7
100
AcDbLine
 10
-279.1656799316406
 20
321.6279907226563
 30
0.0
 11
-282.3656921386719
 21
321.6279907226563
 31
0.0
  0
LINE
  5
DC
330
22
100
AcDbEntity
  8
0
  6
Continuous
 62
     7
100
AcDbLine
 10
-289.9381408691406
 20
209.4282684326172
 30
0.0
 11
-289.9381408691406
 21
189.37548828125
 31
0.0
  0
LINE
  5
DD
330
22
100
AcDbEntity
  8
0
  6
Continuous
 62
     7
100
AcDbLine
 10
-258.7656860351563
 20
207.6282653808594
 30
0.0
 11
-265.7656860351563
 21
207.6282653808594
 31
0.0
  0
LINE
  5
DE
330
22
100
AcDbEntity
  8
0
  6
Continuous
 62
     7
100
AcDbLine
 10
-279.1656799316406
 20
316.427978515625
 30
0.0
 11
-282.3656921386719
 21
316.427978515625
 31
0.0
  0
LINE
  5
DF
330
22
100
AcDbEntity
  8
0
  6
Continuous
 62
     7
100
AcDbLine
 10
-267.7656860351563
 20
205.6282653808594
 30
0.0
 11
-267.7656860351563
 21
201.9367828369141
 31
0.0
  0
LINE
  5
E0
330
22
100
AcDbEntity
  8
0
  6
Continuous
 62
     7
100
AcDbLine
 10
-270.2656860351563
 20
212.6282653808594
 30
0.0
 11
-270.2656860351563
 21
209.4282684326172
 31
0.0
  0
LINE
  5
E1
330
22
100
AcDbEntity
  8
0
  6
Continuous
 62
     7
100
AcDbLine
 10
-270.2656860351563
 20
209.4282684326172
 30
0.0
 11
-278.5156860351563
 21
209.4282684326172
 31
0.0
  0
LINE
  5
E2
330
22
100
AcDbEntity
  8
0
  6
Continuous
 62
     7
100
AcDbLine
 10
-278.5156860351563
 20
209.4282684326172
 30
0.0
 11
-279.3337097167969
 21
200.0782623291016
 31
0.0
  0
LINE
  5
E3
330
22
100
AcDbEntity
  8
0
  6
Continuous
 62
     7
100
AcDbLine
 10
-281.2499389648438
 20
209.4282684326172
 30
0.0
 11
-282.0679626464844
 21
200.0782623291016
 31
0.0
  0
LINE
  5
E4
330
22
100
AcDbEntity
  8
0
  6
Continuous
 62
     7
100
AcDbLine
 10
-254.7656860351563
 20
55.62826919555664
 30
0.0
 11
-254.7656860351563
 21
52.62826919555664
 31
0.0
  0
LINE
  5
E5
330
22
100
AcDbEntity
  8
0
  6
Continuous
 62
     7
100
AcDbLine
 10
-304.7656860351563
 20
80.62827301025391
 30
0.0
 11
-304.7656860351563
 21
16.62826919555664
 31
0.0
  0
LINE
  5
E6
330
22
100
AcDbEntity
  8
0
  6
Continuous
 62
     7
100
AcDbLine
 10
-269.7656860351563
 20
55.62826919555664
 30
0.0
 11
-267.5156860351563
 21
53.37826919555664
 31
0.0
  0
LINE
  5
E7
330
22
100
AcDbEntity
  8
0
  6
Continuous
 62
     7
100
AcDbLine
 10
-267.5156860351563
 20
52.62826919555664
 30
0.0
 11
-267.5156860351563
 21
53.37826919555664
 31
0.0
  0
LINE
  5
E8
330
22
100
AcDbEntity
  8
0
  6
CENTER
 62
     7
100
AcDbLine
 10
-264.7656860351563
 20
56.810546875
 30
0.0
 11
-264.7656860351563
 21
51.3808364868164
 31
0.0
  0
LINE
  5
E9
330
22
100
AcDbEntity
  8
0
  6
Continuous
 62
     7
100
AcDbLine
 10
-259.7656860351563
 20
55.62826919555664
 30
0.0
 11
-262.0156860351563
 21
53.37826919555664
 31
0.0
  0
LINE
  5
EA
330
22
100
AcDbEntity
  8
0
  6
Continuous
 62
     7
100
AcDbLine
 10
-262.0156860351563
 20
52.62826919555664
 30
0.0
 11
-262.0156860351563
 21
53.37826919555664
 31
0.0
  0
LINE
  5
EB
330
22
100
AcDbEntity
  8
0
  6
Continuous
 62
     7
100
AcDbLine
 10
-270.4812622070313
 20
55.62826919555664
 30
0.0
 11
-271.4812622070313
 21
54.62826919555664
 31
0.0
  0
LINE
  5
EC
330
22
100
AcDbEntity
  8
0
  6
Continuous
 62
     7
100
AcDbLine
 10
-288.065673828125
 20
54.62826919555664
 30
0.0
 11
-289.065673828125
 21
55.62826919555664
 31
0.0
  0
LINE
  5
ED
330
22
100
AcDbEntity
  8
0
  6
Continuous
 62
     7
100
AcDbLine
 10
-287.065673828125
 20
55.62826919555664
 30
0.0
 11
-288.065673828125
 21
54.62826919555664
 31
0.0
  0
LINE
  5
EE
330
22
100
AcDbEntity
  8
0
  6
Continuous
 62
     7
100
AcDbLine
 10
-271.4812622070313
 20
54.62826919555664
 30
0.0
 11
-272.4812622070313
 21
55.62826919555664
 31
0.0
  0
LINE
  5
EF
330
22
100
AcDbEntity
  8
0
  6
Continuous
 62
     7
100
AcDbLine
 10
-283.7855529785156
 20
55.62826919555664
 30
0.0
 11
-270.5850524902345
 21
55.62826919555664
 31
0.0
  0
LINE
  5
F0
330
22
100
AcDbEntity
  8
0
  6
Continuous
 62
     7
100
AcDbLine
 10
-300.9156799316406
 20
143.6282653808594
 30
0.0
 11
-300.9156799316406
 21
168.2240142822266
 31
0.0
  0
LINE
  5
F1
330
22
100
AcDbEntity
  8
0
  6
Continuous
 62
     7
100
AcDbLine
 10
-307.9656677246094
 20
62.07826995849609
 30
0.0
 11
-307.9656677246094
 21
120.6282730102539
 31
0.0
  0
LINE
  5
F2
330
22
100
AcDbEntity
  8
0
  6
Continuous
 62
     7
100
AcDbLine
 10
-304.7656860351563
 20
80.62827301025391
 30
0.0
 11
-307.9656677246094
 21
80.62827301025391
 31
0.0
  0
LINE
  5
F3
330
22
100
AcDbEntity
  8
0
  6
Continuous
 62
     7
100
AcDbLine
 10
-307.6312866210938
 20
80.62827301025391
 30
0.0
 11
-307.6312866210938
 21
52.52827072143555
 31
0.0
  0
LINE
  5
F4
330
22
100
AcDbEntity
  8
0
  6
Continuous
 62
     7
100
AcDbLine
 10
-307.9931030273438
 20
142.6282653808594
 30
0.0
 11
-301.9156799316406
 21
142.6282653808594
 31
0.0
  0
LINE
  5
F5
330
22
100
AcDbEntity
  8
0
  6
Continuous
 62
     7
100
AcDbLine
 10
-307.9656677246094
 20
120.6282730102539
 30
0.0
 11
-307.7656860351563
 21
120.8282699584961
 31
0.0
  0
LINE
  5
F6
330
22
100
AcDbEntity
  8
0
  6
Continuous
 62
     7
100
AcDbLine
 10
-308.4150695800781
 20
159.1307678222656
 30
0.0
 11
-307.7656860351563
 21
138.3512420654297
 31
0.0
  0
LINE
  5
F7
330
22
100
AcDbEntity
  8
0
  6
Continuous
 62
     7
100
AcDbLine
 10
-307.7656860351563
 20
120.8282699584961
 30
0.0
 11
-307.7656860351563
 21
138.3512420654297
 31
0.0
  0
LINE
  5
F8
330
22
100
AcDbEntity
  8
0
  6
Continuous
 62
     7
100
AcDbLine
 10
-283.8656921386719
 20
342.697998046875
 30
0.0
 11
-283.8656921386719
 21
323.1279907226563
 31
0.0
  0
LINE
  5
F9
330
22
100
AcDbEntity
  8
0
  6
Continuous
 62
     7
100
AcDbLine
 10
-277.6656799316405
 20
323.1279907226563
 30
0.0
 11
-277.6656799316405
 21
332.9879455566406
 31
0.0
  0
LINE
  5
FA
330
22
100
AcDbEntity
  8
0
  6
Continuous
 62
     7
100
AcDbLine
 10
-295.2656860351563
 20
332.5279846191406
 30
0.0
 11
-295.2656860351563
 21
324.7279968261719
 31
0.0
  0
LINE
  5
FB
330
22
100
AcDbEntity
  8
0
  6
Continuous
 62
     7
100
AcDbLine
 10
-363.6656799316406
 20
375.0287170410156
 30
0.0
 11
-363.6656799316406
 21
346.7279968261719
 31
0.0
  0
LINE
  5
FC
330
22
100
AcDbEntity
  8
0
  6
Continuous
 62
     7
100
AcDbLine
 10
-357.4656677246094
 20
377.4985046386719
 30
0.0
 11
-357.4656677246094
 21
346.7279968261719
 31
0.0
  0
LINE
  5
FD
330
22
100
AcDbEntity
  8
0
  6
Continuous
 62
     7
100
AcDbLine
 10
-318.065673828125
 20
377.4985046386719
 30
0.0
 11
-318.065673828125
 21
346.7279968261719
 31
0.0
  0
LINE
  5
FE
330
22
100
AcDbEntity
  8
0
  6
Continuous
 62
     7
100
AcDbLine
 10
-340.8656921386719
 20
380.6500549316406
 30
0.0
 11
-340.8656921386719
 21
348.8280029296875
 31
0.0
  0
LINE
  5
FF
330
22
100
AcDbEntity
  8
0
  6
Continuous
 62
     7
100
AcDbLine
 10
-346.065673828125
 20
380.1671752929688
 30
0.0
 11
-346.065673828125
 21
357.2279968261719
 31
0.0
  0
LINE
  5
100
330
22
100
AcDbEntity
  8
0
  6
Continuous
 62
     7
100
AcDbLine
 10
-352.2656860351563
 20
378.9999694824219
 30
0.0
 11
-352.2656860351563
 21
357.2279968261719
 31
0.0
  0
LINE
  5
101
330
22
100
AcDbEntity
  8
0
  6
Continuous
 62
     7
100
AcDbLine
 10
-340.8656921386719
 20
380.6500549316406
 30
0.0
 11
-340.8656921386719
 21
348.8280029296875
 31
0.0
  0
LINE
  5
102
330
22
100
AcDbEntity
  8
0
  6
Continuous
 62
     7
100
AcDbLine
 10
-334.6656799316406
 20
380.6500549316406
 30
0.0
 11
-334.6656799316406
 21
348.8280029296875
 31
0.0
  0
LINE
  5
103
330
22
100
AcDbEntity
  8
0
  6
Continuous
 62
     7
100
AcDbLine
 10
-254.7656860351563
 20
52.62826919555664
 30
0.0
 11
-304.7656860351563
 21
52.62826919555664
 31
0.0
  0
LINE
  5
104
330
22
100
AcDbEntity
  8
0
  6
Continuous
 62
     7
100
AcDbLine
 10
-256.1605834960938
 20
55.62826919555664
 30
0.0
 11
-254.7656860351563
 21
54.23335647583008
 31
0.0
  0
LINE
  5
105
330
22
100
AcDbEntity
  8
0
  6
Continuous
 62
     7
100
AcDbLine
 10
-256.8677062988281
 20
55.62826919555664
 30
0.0
 11
-254.7656860351563
 21
53.52624893188477
 31
0.0
  0
LINE
  5
106
330
22
100
AcDbEntity
  8
0
  6
Continuous
 62
     7
100
AcDbLine
 10
-258.989013671875
 20
55.62826919555664
 30
0.0
 11
-255.989013671875
 21
52.62826919555664
 31
0.0
  0
LINE
  5
107
330
22
100
AcDbEntity
  8
0
  6
Continuous
 62
     7
100
AcDbLine
 10
-259.6961364746094
 20
55.62826919555664
 30
0.0
 11
-256.6961364746094
 21
52.62826919555664
 31
0.0
  0
LINE
  5
108
330
22
100
AcDbEntity
  8
0
  6
Continuous
 62
     7
100
AcDbLine
 10
-260.7915649414063
 20
54.60238647460938
 30
0.0
 11
-258.8174438476563
 21
52.62826919555664
 31
0.0
  0
LINE
  5
109
330
22
100
AcDbEntity
  8
0
  6
Continuous
 62
     7
100
AcDbLine
 10
-261.1451110839844
 20
54.24883270263672
 30
0.0
 11
-259.5245666503906
 21
52.62826919555664
 31
0.0
  0
LINE
  5
10A
330
22
100
AcDbEntity
  8
0
  6
Continuous
 62
     7
100
AcDbLine
 10
-262.0156860351563
 20
52.99807357788086
 30
0.0
 11
-261.6458740234375
 21
52.62826919555664
 31
0.0
  0
LINE
  5
10B
330
22
100
AcDbEntity
  8
0
  6
Continuous
 62
     7
100
AcDbLine
 10
-270.302734375
 20
55.62826919555664
 30
0.0
 11
-267.5156860351563
 21
52.84122085571289
 31
0.0
  0
LINE
  5
10C
330
22
100
AcDbEntity
  8
0
  6
Continuous
 62
     7
100
AcDbLine
 10
-270.7455444335938
 20
55.36398696899414
 30
0.0
 11
-268.0098266601563
 21
52.62826919555664
 31
0.0
  0
LINE
  5
10D
330
22
100
AcDbEntity
  8
0
  6
Continuous
 62
     7
100
AcDbLine
 10
-273.1311645507813
 20
55.62826919555664
 30
0.0
 11
-270.1311645507813
 21
52.62826919555664
 31
0.0
  0
LINE
  5
10E
330
22
100
AcDbEntity
  8
0
  6
Continuous
 62
     7
100
AcDbLine
 10
-273.8382568359375
 20
55.62826919555664
 30
0.0
 11
-270.8382568359375
 21
52.62826919555664
 31
0.0
  0
LINE
  5
10F
330
22
100
AcDbEntity
  8
0
  6
Continuous
 62
     7
100
AcDbLine
 10
-275.9595947265625
 20
55.62826919555664
 30
0.0
 11
-272.9595947265625
 21
52.62826919555664
 31
0.0
  0
LINE
  5
110
330
22
100
AcDbEntity
  8
0
  6
Continuous
 62
     7
100
AcDbLine
 10
-276.6666870117188
 20
55.62826919555664
 30
0.0
 11
-273.6666870117188
 21
52.62826919555664
 31
0.0
  0
LINE
  5
111
330
22
100
AcDbEntity
  8
0
  6
Continuous
 62
     7
100
AcDbLine
 10
-278.7880249023438
 20
55.62826919555664
 30
0.0
 11
-275.7880249023438
 21
52.62826919555664
 31
0.0
  0
LINE
  5
112
330
22
100
AcDbEntity
  8
0
  6
Continuous
 62
     7
100
AcDbLine
 10
-279.4951171875
 20
55.62826919555664
 30
0.0
 11
-276.4951171875
 21
52.62826919555664
 31
0.0
  0
LINE
  5
113
330
22
100
AcDbEntity
  8
0
  6
Continuous
 62
     7
100
AcDbLine
 10
-281.6164245605469
 20
55.62826919555664
 30
0.0
 11
-278.6164245605469
 21
52.62826919555664
 31
0.0
  0
LINE
  5
114
330
22
100
AcDbEntity
  8
0
  6
Continuous
 62
     7
100
AcDbLine
 10
-282.3235473632813
 20
55.62826919555664
 30
0.0
 11
-279.3235473632813
 21
52.62826919555664
 31
0.0
  0
LINE
  5
115
330
22
100
AcDbEntity
  8
0
  6
Continuous
 62
     7
100
AcDbLine
 10
-284.4448547363281
 20
55.62826919555664
 30
0.0
 11
-281.444854736328
 21
52.62826919555664
 31
0.0
  0
LINE
  5
116
330
22
100
AcDbEntity
  8
0
  6
Continuous
 62
     7
100
AcDbLine
 10
-285.1519775390625
 20
55.62826919555664
 30
0.0
 11
-282.1519775390625
 21
52.62826919555664
 31
0.0
  0
LINE
  5
117
330
22
100
AcDbEntity
  8
0
  6
Continuous
 62
     7
100
AcDbLine
 10
-287.1694946289063
 20
55.52446365356445
 30
0.0
 11
-284.2732849121094
 21
52.62826919555664
 31
0.0
  0
LINE
  5
118
330
22
100
AcDbEntity
  8
0
  6
Continuous
 62
     7
100
AcDbLine
 10
-290.1017150878906
 20
55.62826919555664
 30
0.0
 11
-287.1017150878906
 21
52.62826919555664
 31
0.0
  0
LINE
  5
119
330
22
100
AcDbEntity
  8
0
  6
Continuous
 62
     7
100
AcDbLine
 10
-290.808837890625
 20
55.62826919555664
 30
0.0
 11
-287.808837890625
 21
52.62826919555664
 31
0.0
  0
LINE
  5
11A
330
22
100
AcDbEntity
  8
0
  6
Continuous
 62
     7
100
AcDbLine
 10
-292.9301452636719
 20
55.62826919555664
 30
0.0
 11
-289.9301452636719
 21
52.62826919555664
 31
0.0
  0
LINE
  5
11B
330
22
100
AcDbEntity
  8
0
  6
Continuous
 62
     7
100
AcDbLine
 10
-293.6372680664063
 20
55.62826919555664
 30
0.0
 11
-290.6372680664063
 21
52.62826919555664
 31
0.0
  0
LINE
  5
11C
330
22
100
AcDbEntity
  8
0
  6
Continuous
 62
     7
100
AcDbLine
 10
-295.7585754394531
 20
55.62826919555664
 30
0.0
 11
-292.7585754394531
 21
52.62826919555664
 31
0.0
  0
LINE
  5
11D
330
22
100
AcDbEntity
  8
0
  6
Continuous
 62
     7
100
AcDbLine
 10
-296.4656677246093
 20
55.62826919555664
 30
0.0
 11
-293.4656677246094
 21
52.62826919555664
 31
0.0
  0
LINE
  5
11E
330
22
100
AcDbEntity
  8
0
  6
Continuous
 62
     7
100
AcDbLine
 10
-298.5870056152344
 20
55.62826919555664
 30
0.0
 11
-295.5870056152344
 21
52.62826919555664
 31
0.0
  0
LINE
  5
11F
330
22
100
AcDbEntity
  8
0
  6
Continuous
 62
     7
100
AcDbLine
 10
-299.2940979003906
 20
55.62826919555664
 30
0.0
 11
-296.2940979003906
 21
52.62826919555664
 31
0.0
  0
LINE
  5
120
330
22
100
AcDbEntity
  8
0
  6
Continuous
 62
     7
100
AcDbLine
 10
-301.4154357910156
 20
55.62826919555664
 30
0.0
 11
-298.4154357910156
 21
52.62826919555664
 31
0.0
  0
LINE
  5
121
330
22
100
AcDbEntity
  8
0
  6
Continuous
 62
     7
100
AcDbLine
 10
-302.1225280761719
 20
55.62826919555664
 30
0.0
 11
-299.1225280761719
 21
52.62826919555664
 31
0.0
  0
LINE
  5
122
330
22
100
AcDbEntity
  8
0
  6
Continuous
 62
     7
100
AcDbLine
 10
-304.2438659667969
 20
55.62826919555664
 30
0.0
 11
-301.2438659667969
 21
52.62826919555664
 31
0.0
  0
LINE
  5
123
330
22
100
AcDbEntity
  8
0
  6
Continuous
 62
     7
100
AcDbLine
 10
-304.7656860351563
 20
55.44298934936523
 30
0.0
 11
-301.9509582519531
 21
52.62826919555664
 31
0.0
  0
LINE
  5
124
330
22
100
AcDbEntity
  8
0
  6
Continuous
 62
     7
100
AcDbLine
 10
-304.7656860351563
 20
53.32166671752929
 30
0.0
 11
-304.0722961425781
 21
52.62826919555664
 31
0.0
  0
LINE
  5
125
330
22
100
AcDbEntity
  8
0
  6
Continuous
 62
     7
100
AcDbLine
 10
-254.7656860351563
 20
55.62826919555664
 30
0.0
 11
-304.7656860351563
 21
55.62826919555664
 31
0.0
  0
LINE
  5
126
330
22
100
AcDbEntity
  8
0
  6
Continuous
 62
     7
100
AcDbLine
 10
-393.1129455566406
 20
346.0890502929688
 30
0.0
 11
-391.8504943847656
 21
349.1911010742188
 31
0.0
  0
LINE
  5
127
330
22
100
AcDbEntity
  8
0
  6
Continuous
 62
     7
100
AcDbLine
 10
-388.0735168457031
 20
352.9669494628906
 30
0.0
 11
-388.4741821289063
 21
353.1982727050781
 31
0.0
  0
LINE
  5
128
330
22
100
AcDbEntity
  8
0
  6
Continuous
 62
     7
100
AcDbLine
 10
-388.8748474121094
 20
353.4295959472656
 30
0.0
 11
-390.9301147460938
 21
350.7852478027344
 31
0.0
  0
LINE
  5
129
330
22
100
AcDbEntity
  8
0
  6
Continuous
 62
     7
100
AcDbLine
 10
-392.3115844726563
 20
345.6263732910156
 30
0.0
 11
-392.7122802734375
 21
345.8576965332031
 31
0.0
  0
LINE
  5
12A
330
22
100
AcDbEntity
  8
0
  6
Continuous
 62
     7
100
AcDbLine
 10
-394.2853088378906
 20
351.6596069335938
 30
0.0
 11
-394.0538024902344
 21
352.0605773925781
 31
0.0
  0
LINE
  5
12B
330
22
100
AcDbEntity
  8
0
  6
Continuous
 62
     7
100
AcDbLine
 10
-394.2853088378906
 20
351.6596069335938
 30
0.0
 11
-394.5168151855469
 21
351.2586364746094
 31
0.0
  0
LINE
  5
12C
330
22
100
AcDbEntity
  8
0
  6
Continuous
 62
     7
100
AcDbLine
 10
-393.1129455566406
 20
346.0890502929688
 30
0.0
 11
-392.7122802734375
 21
345.8576965332031
 31
0.0
  0
LINE
  5
12D
330
22
100
AcDbEntity
  8
0
  6
Continuous
 62
     7
100
AcDbLine
 10
-386.9011535644531
 20
347.3963623046875
 30
0.0
 11
-386.6696472167969
 21
347.7973327636719
 31
0.0
  0
LINE
  5
12E
330
22
100
AcDbEntity
  8
0
  6
Continuous
 62
     7
100
AcDbLine
 10
-386.9011535644531
 20
347.3963623046875
 30
0.0
 11
-387.1326599121094
 21
346.9953918457031
 31
0.0
  0
LINE
  5
12F
330
22
100
AcDbEntity
  8
0
  6
Continuous
 62
     7
100
AcDbLine
 10
-340.8656921386719
 20
337.6279907226563
 30
0.0
 11
-340.8656921386719
 21
327.1279907226563
 31
0.0
  0
LINE
  5
130
330
22
100
AcDbEntity
  8
0
  6
Continuous
 62
     7
100
AcDbLine
 10
-340.8656921386719
 20
337.6279907226563
 30
0.0
 11
-340.8656921386719
 21
327.1279907226563
 31
0.0
  0
LINE
  5
131
330
22
100
AcDbEntity
  8
0
  6
Continuous
 62
     7
100
AcDbLine
 10
-334.6656799316406
 20
337.6279907226563
 30
0.0
 11
-334.6656799316406
 21
327.1279907226563
 31
0.0
  0
LINE
  5
132
330
22
100
AcDbEntity
  8
0
  6
Continuous
 62
     7
100
AcDbLine
 10
-334.6656799316406
 20
337.6279907226563
 30
0.0
 11
-334.6656799316406
 21
327.1279907226563
 31
0.0
  0
LINE
  5
133
330
22
100
AcDbEntity
  8
0
  6
Continuous
 62
     7
100
AcDbLine
 10
-323.2656860351563
 20
378.9999694824219
 30
0.0
 11
-323.2656860351563
 21
357.2279968261719
 31
0.0
  0
LINE
  5
134
330
22
100
AcDbEntity
  8
0
  6
Continuous
 62
     7
100
AcDbLine
 10
-334.6656799316406
 20
380.6500549316406
 30
0.0
 11
-334.6656799316406
 21
348.8280029296875
 31
0.0
  0
LINE
  5
135
330
22
100
AcDbEntity
  8
0
  6
Continuous
 62
     7
100
AcDbLine
 10
-329.4656677246094
 20
380.1671752929688
 30
0.0
 11
-329.4656677246094
 21
357.2279968261719
 31
0.0
  0
LINE
  5
136
330
22
100
AcDbEntity
  8
0
  6
Continuous
 62
     7
100
AcDbLine
 10
-375.065673828125
 20
368.1767578125
 30
0.0
 11
-375.065673828125
 21
354.427978515625
 31
0.0
  0
LINE
  5
137
330
22
100
AcDbEntity
  8
0
  6
Continuous
 62
     7
100
AcDbLine
 10
-368.8656921386719
 20
372.316650390625
 30
0.0
 11
-368.8656921386719
 21
354.427978515625
 31
0.0
  0
LINE
  5
138
330
22
100
AcDbEntity
  8
0
  6
Continuous
 62
     7
100
AcDbLine
 10
-340.8656921386719
 20
266.927978515625
 30
0.0
 11
-340.8656921386719
 21
289.2279968261719
 31
0.0
  0
LINE
  5
139
330
22
100
AcDbEntity
  8
0
  6
Continuous
 62
     7
100
AcDbLine
 10
-336.0473022460938
 20
261.9295959472656
 30
0.0
 11
-338.1025695800781
 21
259.2852478027344
 31
0.0
  0
LINE
  5
13A
330
22
100
AcDbEntity
  8
0
  6
Continuous
 62
     7
100
AcDbLine
 10
-323.2656860351563
 20
259.0559997558594
 30
0.0
 11
-323.2656860351563
 21
280.8280029296875
 31
0.0
  0
LINE
  5
13B
330
22
100
AcDbEntity
  8
0
  6
Continuous
 62
     7
100
AcDbLine
 10
-323.2656860351563
 20
292.0279846191406
 30
0.0
 11
-323.2656860351563
 21
313.3280029296875
 31
0.0
  0
LINE
  5
13C
330
22
100
AcDbEntity
  8
0
  6
Continuous
 62
     7
100
AcDbLine
 10
-334.6656799316406
 20
300.427978515625
 30
0.0
 11
-334.6656799316406
 21
310.927978515625
 31
0.0
  0
LINE
  5
13D
330
22
100
AcDbEntity
  8
0
  6
Continuous
 62
     7
100
AcDbLine
 10
-334.6656799316406
 20
300.427978515625
 30
0.0
 11
-334.6656799316406
 21
310.927978515625
 31
0.0
  0
LINE
  5
13E
330
22
100
AcDbEntity
  8
0
  6
Continuous
 62
     7
100
AcDbLine
 10
-318.065673828125
 20
302.5279846191406
 30
0.0
 11
-318.065673828125
 21
313.3280029296875
 31
0.0
  0
LINE
  5
13F
330
22
100
AcDbEntity
  8
0
  6
Continuous
 62
     7
100
AcDbLine
 10
-318.065673828125
 20
260.5574951171875
 30
0.0
 11
-318.065673828125
 21
291.3280029296875
 31
0.0
  0
LINE
  5
140
330
22
100
AcDbEntity
  8
0
  6
Continuous
 62
     7
100
AcDbLine
 10
-352.2656860351563
 20
292.0279846191406
 30
0.0
 11
-352.2656860351563
 21
313.3280029296875
 31
0.0
  0
LINE
  5
141
330
22
100
AcDbEntity
  8
0
  6
Continuous
 62
     7
100
AcDbLine
 10
-335.2459716796875
 20
261.4669494628905
 30
0.0
 11
-336.5084228515625
 21
258.3648681640625
 31
0.0
  0
LINE
  5
142
330
22
100
AcDbEntity
  8
0
  6
Continuous
 62
     7
100
AcDbLine
 10
-394.5168151855469
 20
351.2586364746094
 30
0.0
 11
-391.8504943847656
 21
349.1911010742188
 31
0.0
  0
LINE
  5
143
330
22
100
AcDbEntity
  8
0
  6
Continuous
 62
     7
100
AcDbLine
 10
-388.0735168457031
 20
352.9669494628906
 30
0.0
 11
-389.3359680175781
 21
349.8648681640625
 31
0.0
  0
LINE
  5
144
330
22
100
AcDbEntity
  8
0
  6
Continuous
 62
     7
100
AcDbLine
 10
-386.6696472167969
 20
347.7973327636719
 30
0.0
 11
-389.3359680175781
 21
349.8648681640625
 31
0.0
  0
LINE
  5
145
330
22
100
AcDbEntity
  8
0
  6
Continuous
 62
     7
100
AcDbLine
 10
-388.8748474121094
 20
353.4295959472656
 30
0.0
 11
-388.4741821289063
 21
353.1982727050781
 31
0.0
  0
LINE
  5
146
330
22
100
AcDbEntity
  8
0
  6
Continuous
 62
     7
100
AcDbLine
 10
-392.3115844726563
 20
345.6263732910156
 30
0.0
 11
-390.25634765625
 21
348.270751953125
 31
0.0
  0
LINE
  5
147
330
22
100
AcDbEntity
  8
0
  6
Continuous
 62
     7
100
AcDbLine
 10
-387.1326599121094
 20
346.9953918457031
 30
0.0
 11
-390.25634765625
 21
348.270751953125
 31
0.0
  0
LINE
  5
148
330
22
100
AcDbEntity
  8
0
  6
Continuous
 62
     7
100
AcDbLine
 10
-394.0538024902344
 20
352.0605773925781
 30
0.0
 11
-390.9301147460938
 21
350.7852478027344
 31
0.0
  0
LINE
  5
149
330
22
100
AcDbEntity
  8
0
  6
Continuous
 62
     7
100
AcDbLine
 10
-334.3050842285156
 20
255.4953918457031
 30
0.0
 11
-337.4288024902344
 21
256.770751953125
 31
0.0
  0
LINE
  5
14A
330
22
100
AcDbEntity
  8
0
  6
Continuous
 62
     7
100
AcDbLine
 10
-339.4840393066406
 20
254.1263885498047
 30
0.0
 11
-339.8847045898438
 21
254.3577117919922
 31
0.0
  0
LINE
  5
14B
330
22
100
AcDbEntity
  8
0
  6
Continuous
 62
     7
100
AcDbLine
 10
-334.0736083984375
 20
255.8963623046875
 30
0.0
 11
-333.8421020507813
 21
256.2973327636719
 31
0.0
  0
LINE
  5
14C
330
22
100
AcDbEntity
  8
0
  6
Continuous
 62
     7
100
AcDbLine
 10
-340.2853698730469
 20
254.5890350341797
 30
0.0
 11
-339.0229187011719
 21
257.6911010742188
 31
0.0
  0
LINE
  5
14D
330
22
100
AcDbEntity
  8
0
  6
Continuous
 62
     7
100
AcDbLine
 10
-339.4840393066406
 20
254.1263885498047
 30
0.0
 11
-337.4288024902344
 21
256.770751953125
 31
0.0
  0
LINE
  5
14E
330
22
100
AcDbEntity
  8
0
  6
Continuous
 62
     7
100
AcDbLine
 10
-368.8656921386719
 20
265.7393493652344
 30
0.0
 11
-368.8656921386719
 21
283.6279907226563
 31
0.0
  0
LINE
  5
14F
330
22
100
AcDbEntity
  8
0
  6
Continuous
 62
     7
100
AcDbLine
 10
-341.457763671875
 20
260.1596069335938
 30
0.0
 11
-341.2262573242188
 21
260.560577392578
 31
0.0
  0
LINE
  5
150
330
22
100
AcDbEntity
  8
0
  6
Continuous
 62
     7
100
AcDbLine
 10
-335.2459716796875
 20
261.4669494628905
 30
0.0
 11
-335.6466369628906
 21
261.6982727050781
 31
0.0
  0
LINE
  5
151
330
22
100
AcDbEntity
  8
0
  6
Continuous
 62
     7
100
AcDbLine
 10
-336.0473022460938
 20
261.9295959472656
 30
0.0
 11
-335.6466369628906
 21
261.6982727050781
 31
0.0
  0
LINE
  5
152
330
22
100
AcDbEntity
  8
0
  6
Continuous
 62
     7
100
AcDbLine
 10
-352.2656860351563
 20
259.0559997558594
 30
0.0
 11
-352.2656860351563
 21
280.8280029296875
 31
0.0
  0
LINE
  5
153
330
22
100
AcDbEntity
  8
0
  6
Continuous
 62
     7
100
AcDbLine
 10
-346.065673828125
 20
257.8887939453125
 30
0.0
 11
-346.065673828125
 21
280.8280029296875
 31
0.0
  0
LINE
  5
154
330
22
100
AcDbEntity
  8
0
  6
Continuous
 62
     7
100
AcDbLine
 10
-346.065673828125
 20
292.0279846191406
 30
0.0
 11
-346.065673828125
 21
313.3280029296875
 31
0.0
  0
LINE
  5
155
330
22
100
AcDbEntity
  8
0
  6
Continuous
 62
     7
100
AcDbLine
 10
-340.8656921386719
 20
300.427978515625
 30
0.0
 11
-340.8656921386719
 21
310.927978515625
 31
0.0
  0
LINE
  5
156
330
22
100
AcDbEntity
  8
0
  6
Continuous
 62
     7
100
AcDbLine
 10
-341.2262573242188
 20
260.560577392578
 30
0.0
 11
-338.1025695800781
 21
259.2852478027344
 31
0.0
  0
LINE
  5
157
330
22
100
AcDbEntity
  8
0
  6
Continuous
 62
     7
100
AcDbLine
 10
-340.8656921386719
 20
300.427978515625
 30
0.0
 11
-340.8656921386719
 21
310.927978515625
 31
0.0
  0
LINE
  5
158
330
22
100
AcDbEntity
  8
0
  6
Continuous
 62
     7
100
AcDbLine
 10
-341.6892700195313
 20
259.7586364746094
 30
0.0
 11
-339.0229187011719
 21
257.6911010742188
 31
0.0
  0
LINE
  5
159
330
22
100
AcDbEntity
  8
0
  6
Continuous
 62
     7
100
AcDbLine
 10
-341.457763671875
 20
260.1596069335938
 30
0.0
 11
-341.6892700195313
 21
259.7586364746094
 31
0.0
  0
LINE
  5
15A
330
22
100
AcDbEntity
  8
0
  6
Continuous
 62
     7
100
AcDbLine
 10
-340.8656921386719
 20
266.927978515625
 30
0.0
 11
-340.8656921386719
 21
289.2279968261719
 31
0.0
  0
LINE
  5
15B
330
22
100
AcDbEntity
  8
0
  6
Continuous
 62
     7
100
AcDbLine
 10
-375.065673828125
 20
269.8792419433594
 30
0.0
 11
-375.065673828125
 21
283.6279907226563
 31
0.0
  0
LINE
  5
15C
330
22
100
AcDbEntity
  8
0
  6
Continuous
 62
     7
100
AcDbLine
 10
-368.8656921386719
 20
294.8280029296875
 30
0.0
 11
-368.8656921386719
 21
313.3280029296875
 31
0.0
  0
LINE
  5
15D
330
22
100
AcDbEntity
  8
0
  6
Continuous
 62
     7
100
AcDbLine
 10
-375.065673828125
 20
294.8280029296875
 30
0.0
 11
-375.065673828125
 21
313.3280029296875
 31
0.0
  0
LINE
  5
15E
330
22
100
AcDbEntity
  8
0
  6
Continuous
 62
     7
100
AcDbLine
 10
-334.6790161132813
 20
212.6282653808594
 30
0.0
 11
-334.6768798828125
 21
209.4282684326172
 31
0.0
  0
LINE
  5
15F
330
22
100
AcDbEntity
  8
0
  6
Continuous
 62
     7
100
AcDbLine
 10
-357.4656677246094
 20
260.5574951171875
 30
0.0
 11
-357.4656677246094
 21
291.3280029296875
 31
0.0
  0
LINE
  5
160
330
22
100
AcDbEntity
  8
0
  6
Continuous
 62
     7
100
AcDbLine
 10
-363.6656799316406
 20
302.5279846191406
 30
0.0
 11
-363.6656799316406
 21
313.3280029296875
 31
0.0
  0
LINE
  5
161
330
22
100
AcDbEntity
  8
0
  6
Continuous
 62
     7
100
AcDbLine
 10
-357.4656677246094
 20
302.5279846191406
 30
0.0
 11
-357.4656677246094
 21
313.3280029296875
 31
0.0
  0
LINE
  5
162
330
22
100
AcDbEntity
  8
0
  6
Continuous
 62
     7
100
AcDbLine
 10
-363.6656799316406
 20
263.0272827148438
 30
0.0
 11
-363.6656799316406
 21
291.3280029296875
 31
0.0
  0
LINE
  5
163
330
22
100
AcDbEntity
  8
0
  6
Continuous
 62
     7
100
AcDbLine
 10
-334.6656799316406
 20
266.927978515625
 30
0.0
 11
-334.6656799316406
 21
289.2279968261719
 31
0.0
  0
LINE
  5
164
330
22
100
AcDbEntity
  8
0
  6
Continuous
 62
     7
100
AcDbLine
 10
-334.6656799316406
 20
266.927978515625
 30
0.0
 11
-334.6656799316406
 21
289.2279968261719
 31
0.0
  0
LINE
  5
165
330
22
100
AcDbEntity
  8
0
  6
Continuous
 62
     7
100
AcDbLine
 10
-329.4656677246094
 20
257.8887939453125
 30
0.0
 11
-329.4656677246094
 21
280.8280029296875
 31
0.0
  0
LINE
  5
166
330
22
100
AcDbEntity
  8
0
  6
Continuous
 62
     7
100
AcDbLine
 10
-329.4656677246094
 20
292.0279846191406
 30
0.0
 11
-329.4656677246094
 21
313.3280029296875
 31
0.0
  0
LINE
  5
167
330
22
100
AcDbEntity
  8
0
  6
Continuous
 62
     7
100
AcDbLine
 10
-334.0736083984375
 20
255.8963623046875
 30
0.0
 11
-334.3050842285156
 21
255.4953918457031
 31
0.0
  0
LINE
  5
168
330
22
100
AcDbEntity
  8
0
  6
Continuous
 62
     7
100
AcDbLine
 10
-333.8421020507813
 20
256.2973327636719
 30
0.0
 11
-336.5084228515625
 21
258.3648681640625
 31
0.0
  0
LINE
  5
169
330
22
100
AcDbEntity
  8
0
  6
Continuous
 62
     7
100
AcDbLine
 10
-340.2853698730469
 20
254.5890350341797
 30
0.0
 11
-339.8847045898438
 21
254.3577117919922
 31
0.0
  0
LINE
  5
16A
330
22
100
AcDbEntity
  8
0
  6
Continuous
 62
     7
100
AcDbLine
 10
-380.2656860351563
 20
294.3280029296875
 30
0.0
 11
-380.2656860351563
 21
274.2994689941406
 31
0.0
  0
LINE
  5
16B
330
22
100
AcDbEntity
  8
0
  6
Continuous
 62
     7
100
AcDbLine
 10
-380.2656860351563
 20
363.7565002441406
 30
0.0
 11
-380.2656860351563
 21
342.7279968261719
 31
0.0
  0
LINE
  5
16C
330
22
100
AcDbEntity
  8
0
  6
Continuous
 62
     7
100
AcDbLine
 10
-384.4656677246094
 20
359.3516845703125
 30
0.0
 11
-384.4656677246094
 21
342.7279968261719
 31
0.0
  0
LINE
  5
16D
330
22
100
AcDbEntity
  8
0
  6
Continuous
 62
     7
100
AcDbLine
 10
-396.3656921386719
 20
316.427978515625
 30
0.0
 11
-393.1656799316406
 21
316.427978515625
 31
0.0
  0
LINE
  5
16E
330
22
100
AcDbEntity
  8
0
  6
Continuous
 62
     7
100
AcDbLine
 10
-397.8656921386719
 20
314.927978515625
 30
0.0
 11
-397.8656921386719
 21
305.0680541992188
 31
0.0
  0
LINE
  5
16F
330
22
100
AcDbEntity
  8
0
  6
Continuous
 62
     7
100
AcDbLine
 10
-391.6656799316406
 20
295.3580017089844
 30
0.0
 11
-391.6656799316406
 21
314.927978515625
 31
0.0
  0
LINE
  5
170
330
22
100
AcDbEntity
  8
0
  6
Continuous
 62
     7
100
AcDbLine
 10
-417.7656860351563
 20
212.1282653808594
 30
0.0
 11
-417.7656860351563
 21
208.6282653808594
 31
0.0
  0
LINE
  5
171
330
22
100
AcDbEntity
  8
0
  6
Continuous
 62
     7
100
AcDbLine
 10
-416.7656860351563
 20
207.6282653808594
 30
0.0
 11
-409.7656860351563
 21
207.6282653808594
 31
0.0
  0
LINE
  5
172
330
22
100
AcDbEntity
  8
0
  6
Continuous
 62
     7
100
AcDbLine
 10
-407.7656860351563
 20
205.6282653808594
 30
0.0
 11
-407.7656860351563
 21
201.9367828369141
 31
0.0
  0
LINE
  5
173
330
22
100
AcDbEntity
  8
0
  6
Continuous
 62
     7
100
AcDbLine
 10
-386.4656677246094
 20
294.3280029296875
 30
0.0
 11
-386.4656677246094
 21
281.1439514160156
 31
0.0
  0
LINE
  5
174
330
22
100
AcDbEntity
  8
0
  6
Continuous
 62
     7
100
AcDbLine
 10
-386.4656677246094
 20
305.5279846191406
 30
0.0
 11
-386.4656677246094
 21
313.3280029296875
 31
0.0
  0
LINE
  5
175
330
22
100
AcDbEntity
  8
0
  6
Continuous
 62
     7
100
AcDbLine
 10
-375.065673828125
 20
343.2279968261719
 30
0.0
 11
-375.065673828125
 21
324.7279968261719
 31
0.0
  0
LINE
  5
176
330
22
100
AcDbEntity
  8
0
  6
Continuous
 62
     7
100
AcDbLine
 10
-380.2656860351563
 20
332.5279846191406
 30
0.0
 11
-380.2656860351563
 21
324.7279968261719
 31
0.0
  0
LINE
  5
177
330
22
100
AcDbEntity
  8
0
  6
Continuous
 62
     7
100
AcDbLine
 10
-368.8656921386719
 20
343.2279968261719
 30
0.0
 11
-368.8656921386719
 21
324.7279968261719
 31
0.0
  0
LINE
  5
178
330
22
100
AcDbEntity
  8
0
  6
CENTER
 62
     7
100
AcDbLine
 10
-337.7656860351563
 20
406.1242065429688
 30
0.0
 11
-337.7656860351563
 21
232.1786499023438
 31
0.0
  0
LINE
  5
179
330
22
100
AcDbEntity
  8
0
  6
Continuous
 62
     7
100
AcDbLine
 10
-363.6656799316406
 20
335.5279846191406
 30
0.0
 11
-363.6656799316406
 21
324.7279968261719
 31
0.0
  0
LINE
  5
17A
330
22
100
AcDbEntity
  8
0
  6
Continuous
 62
     7
100
AcDbLine
 10
-357.4656677246094
 20
335.5279846191406
 30
0.0
 11
-357.4656677246094
 21
324.7279968261719
 31
0.0
  0
LINE
  5
17B
330
22
100
AcDbEntity
  8
0
  6
Continuous
 62
     7
100
AcDbLine
 10
-386.4656677246094
 20
332.5279846191406
 30
0.0
 11
-386.4656677246094
 21
324.7279968261719
 31
0.0
  0
LINE
  5
17C
330
22
100
AcDbEntity
  8
0
  6
Continuous
 62
     7
100
AcDbLine
 10
-318.065673828125
 20
335.5279846191406
 30
0.0
 11
-318.065673828125
 21
324.7279968261719
 31
0.0
  0
LINE
  5
17D
330
22
100
AcDbEntity
  8
0
  6
Continuous
 62
     7
100
AcDbLine
 10
-352.2656860351563
 20
346.0279846191406
 30
0.0
 11
-352.2656860351563
 21
324.7279968261719
 31
0.0
  0
LINE
  5
17E
330
22
100
AcDbEntity
  8
0
  6
Continuous
 62
     7
100
AcDbLine
 10
-346.065673828125
 20
346.0279846191406
 30
0.0
 11
-346.065673828125
 21
324.7279968261719
 31
0.0
  0
LINE
  5
17F
330
22
100
AcDbEntity
  8
0
  6
Continuous
 62
     7
100
AcDbLine
 10
-323.2656860351563
 20
346.0279846191406
 30
0.0
 11
-323.2656860351563
 21
324.7279968261719
 31
0.0
  0
LINE
  5
180
330
22
100
AcDbEntity
  8
0
  6
Continuous
 62
     7
100
AcDbLine
 10
-329.4656677246094
 20
346.0279846191406
 30
0.0
 11
-329.4656677246094
 21
324.7279968261719
 31
0.0
  0
LINE
  5
181
330
22
100
AcDbEntity
  8
0
  6
Continuous
 62
     7
100
AcDbLine
 10
-404.009765625
 20
197.6032409667969
 30
0.0
 11
-337.7656860351563
 21
197.6032409667969
 31
0.0
  0
LINE
  5
182
330
22
100
AcDbEntity
  8
0
  6
Continuous
 62
     7
100
AcDbLine
 10
-409.7656860351563
 20
207.6282653808594
 30
0.0
 11
-337.7656860351563
 21
207.6282653808594
 31
0.0
  0
LINE
  5
183
330
22
100
AcDbEntity
  8
0
  6
Continuous
 62
     7
100
AcDbLine
 10
-380.2656860351563
 20
305.5279846191406
 30
0.0
 11
-380.2656860351563
 21
313.3280029296875
 31
0.0
  0
LINE
  5
184
330
22
100
AcDbEntity
  8
0
  6
Continuous
 62
     7
100
AcDbLine
 10
-366.1156921386719
 20
80.62827301025391
 30
0.0
 11
-366.1156921386719
 21
119.1782684326172
 31
0.0
  0
LINE
  5
185
330
22
100
AcDbEntity
  8
0
  6
Continuous
 62
     7
100
AcDbLine
 10
-367.565673828125
 20
80.62827301025391
 30
0.0
 11
-367.565673828125
 21
120.6282730102539
 31
0.0
  0
LINE
  5
186
330
22
100
AcDbEntity
  8
0
  6
Continuous
 62
     7
100
AcDbLine
 10
-373.6156921386719
 20
142.6282653808594
 30
0.0
 11
-337.7656860351563
 21
142.6282653808594
 31
0.0
  0
LINE
  5
187
330
22
100
AcDbEntity
  8
0
  6
Continuous
 62
     7
100
AcDbLine
 10
-371.7659606933594
 20
170.3907928466797
 30
0.0
 11
-337.7656860351563
 21
170.3907928466797
 31
0.0
  0
LINE
  5
188
330
22
100
AcDbEntity
  8
0
  6
Continuous
 62
     7
100
AcDbLine
 10
-366.1156921386719
 20
119.1782684326172
 30
0.0
 11
-337.7656860351563
 21
119.1782684326172
 31
0.0
  0
LINE
  5
189
330
22
100
AcDbEntity
  8
0
  6
Continuous
 62
     7
100
AcDbLine
 10
-366.2681579589844
 20
139.8487548828125
 30
0.0
 11
-337.7656860351563
 21
139.8487548828125
 31
0.0
  0
LINE
  5
18A
330
22
100
AcDbEntity
  8
0
  6
Continuous
 62
     7
100
AcDbLine
 10
-337.7656860351563
 20
80.62827301025391
 30
0.0
 11
-370.7656860351563
 21
80.62827301025391
 31
0.0
  0
LINE
  5
18B
330
22
100
AcDbEntity
  8
0
  6
Continuous
 62
     7
100
AcDbLine
 10
-367.565673828125
 20
120.6282730102539
 30
0.0
 11
-367.7656860351563
 21
120.8282699584961
 31
0.0
  0
LINE
  5
18C
330
22
100
AcDbEntity
  8
0
  6
Continuous
 62
     7
100
AcDbLine
 10
-367.565673828125
 20
120.6282730102539
 30
0.0
 11
-366.1156921386719
 21
119.1782684326172
 31
0.0
  0
LINE
  5
18D
330
22
100
AcDbEntity
  8
0
  6
Continuous
 62
     7
100
AcDbLine
 10
-367.7656860351563
 20
120.8282699584961
 30
0.0
 11
-367.7656860351563
 21
138.3512420654297
 31
0.0
  0
LINE
  5
18E
330
22
100
AcDbEntity
  8
0
  6
Continuous
 62
     7
100
AcDbLine
 10
-367.6320190429688
 20
142.6282653808594
 30
0.0
 11
-367.7656860351563
 21
138.3512420654297
 31
0.0
  0
LINE
  5
18F
330
22
100
AcDbEntity
  8
0
  6
Continuous
 62
     7
100
AcDbLine
 10
-366.1813049316406
 20
142.6282653808594
 30
0.0
 11
-366.2681579589844
 21
139.8487548828125
 31
0.0
  0
LINE
  5
190
330
22
100
AcDbEntity
  8
0
  6
Continuous
 62
     7
100
AcDbLine
 10
-374.6156921386719
 20
143.6282653808594
 30
0.0
 11
-374.6156921386719
 21
168.2240142822266
 31
0.0
  0
LINE
  5
191
330
22
100
AcDbEntity
  8
0
  6
Continuous
 62
     7
100
AcDbLine
 10
-367.7656860351563
 20
138.3512420654297
 30
0.0
 11
-366.2681579589844
 21
139.8487548828125
 31
0.0
  0
LINE
  5
192
330
22
100
AcDbEntity
  8
0
  6
Continuous
 62
     7
100
AcDbLine
 10
-323.5906677246094
 20
60.62826919555664
 30
0.0
 11
-327.8391418457031
 21
60.62826919555664
 31
0.0
  0
LINE
  5
193
330
22
100
AcDbEntity
  8
0
  6
Continuous
 62
     7
100
AcDbLine
 10
-314.7656860351563
 20
60.62826919555664
 30
0.0
 11
-314.7656860351563
 21
160.6282653808594
 31
0.0
  0
LINE
  5
194
330
22
100
AcDbEntity
  8
0
  6
Continuous
 62
     7
100
AcDbLine
 10
-397.8656921386719
 20
323.1279907226563
 30
0.0
 11
-397.8656921386719
 21
332.9879455566406
 31
0.0
  0
LINE
  5
195
330
22
100
AcDbEntity
  8
0
  6
Continuous
 62
     7
100
AcDbLine
 10
-396.3656921386719
 20
321.6279907226563
 30
0.0
 11
-393.1656799316406
 21
321.6279907226563
 31
0.0
  0
LINE
  5
196
330
22
100
AcDbEntity
  8
0
  6
Continuous
 62
     7
100
AcDbLine
 10
-391.6656799316406
 20
342.697998046875
 30
0.0
 11
-391.6656799316406
 21
323.1279907226563
 31
0.0
  0
LINE
  5
197
330
22
100
AcDbEntity
  8
0
  6
Continuous
 62
     7
100
AcDbLine
 10
-334.6773071289063
 20
210.0655212402344
 30
0.0
 11
-332.1145629882813
 21
212.6282653808594
 31
0.0
  0
LINE
  5
198
330
22
100
AcDbEntity
  8
0
  6
Continuous
 62
     7
100
AcDbLine
 10
-332.4861450195313
 20
209.4282684326172
 30
0.0
 11
-329.2861328125
 21
212.6282653808594
 31
0.0
  0
LINE
  5
199
330
22
100
AcDbEntity
  8
0
  6
Continuous
 62
     7
100
AcDbLine
 10
-329.65771484375
 20
209.4282684326172
 30
0.0
 11
-326.4577026367188
 21
212.6282653808594
 31
0.0
  0
LINE
  5
19A
330
22
100
AcDbEntity
  8
0
  6
Continuous
 62
     7
100
AcDbLine
 10
-326.8292846679688
 20
209.4282684326172
 30
0.0
 11
-323.6293029785156
 21
212.6282653808594
 31
0.0
  0
LINE
  5
19B
330
22
100
AcDbEntity
  8
0
  6
Continuous
 62
     7
100
AcDbLine
 10
-324.0008544921875
 20
209.4282684326172
 30
0.0
 11
-320.8008728027344
 21
212.6282653808594
 31
0.0
  0
LINE
  5
19C
330
22
100
AcDbEntity
  8
0
  6
Continuous
 62
     7
100
AcDbLine
 10
-321.1724243164063
 20
209.4282684326172
 30
0.0
 11
-317.9724426269531
 21
212.6282653808594
 31
0.0
  0
LINE
  5
19D
330
22
100
AcDbEntity
  8
0
  6
Continuous
 62
     7
100
AcDbLine
 10
-318.343994140625
 20
209.4282684326172
 30
0.0
 11
-315.1440124511719
 21
212.6282653808594
 31
0.0
  0
LINE
  5
19E
330
22
100
AcDbEntity
  8
0
  6
Continuous
 62
     7
100
AcDbLine
 10
-315.5155944824219
 20
209.4282684326172
 30
0.0
 11
-312.3155822753906
 21
212.6282653808594
 31
0.0
  0
LINE
  5
19F
330
22
100
AcDbEntity
  8
0
  6
Continuous
 62
     7
100
AcDbLine
 10
-312.6871643066406
 20
209.4282684326172
 30
0.0
 11
-309.4871520996094
 21
212.6282653808594
 31
0.0
  0
LINE
  5
1A0
330
22
100
AcDbEntity
  8
0
  6
Continuous
 62
     7
100
AcDbLine
 10
-309.8587341308594
 20
209.4282684326172
 30
0.0
 11
-306.6587219238281
 21
212.6282653808594
 31
0.0
  0
LINE
  5
1A1
330
22
100
AcDbEntity
  8
0
  6
Continuous
 62
     7
100
AcDbLine
 10
-307.0303039550781
 20
209.4282684326172
 30
0.0
 11
-303.8302917480469
 21
212.6282653808594
 31
0.0
  0
LINE
  5
1A2
330
22
100
AcDbEntity
  8
0
  6
Continuous
 62
     7
100
AcDbLine
 10
-304.2018737792969
 20
209.4282684326172
 30
0.0
 11
-301.0018615722656
 21
212.6282653808594
 31
0.0
  0
LINE
  5
1A3
330
22
100
AcDbEntity
  8
0
  6
Continuous
 62
     7
100
AcDbLine
 10
-301.3734436035156
 20
209.4282684326172
 30
0.0
 11
-298.1734313964844
 21
212.6282653808594
 31
0.0
  0
LINE
  5
1A4
330
22
100
AcDbEntity
  8
0
  6
Continuous
 62
     7
100
AcDbLine
 10
-298.5450134277344
 20
209.4282684326172
 30
0.0
 11
-295.3450317382813
 21
212.6282653808594
 31
0.0
  0
LINE
  5
1A5
330
22
100
AcDbEntity
  8
0
  6
Continuous
 62
     7
100
AcDbLine
 10
-295.7165832519531
 20
209.4282684326172
 30
0.0
 11
-292.5166015625
 21
212.6282653808594
 31
0.0
  0
LINE
  5
1A6
330
22
100
AcDbEntity
  8
0
  6
Continuous
 62
     7
100
AcDbLine
 10
-292.8881530761719
 20
209.4282684326172
 30
0.0
 11
-289.6881713867188
 21
212.6282653808594
 31
0.0
  0
LINE
  5
1A7
330
22
100
AcDbEntity
  8
0
  6
Continuous
 62
     7
100
AcDbLine
 10
-290.0597229003906
 20
209.4282684326172
 30
0.0
 11
-286.8597412109375
 21
212.6282653808594
 31
0.0
  0
LINE
  5
1A8
330
22
100
AcDbEntity
  8
0
  6
Continuous
 62
     7
100
AcDbLine
 10
-287.2313232421875
 20
209.4282684326172
 30
0.0
 11
-284.0313110351563
 21
212.6282653808594
 31
0.0
  0
LINE
  5
1A9
330
22
100
AcDbEntity
  8
0
  6
Continuous
 62
     7
100
AcDbLine
 10
-284.4028930664063
 20
209.4282684326172
 30
0.0
 11
-281.202880859375
 21
212.6282653808594
 31
0.0
  0
LINE
  5
1AA
330
22
100
AcDbEntity
  8
0
  6
Continuous
 62
     7
100
AcDbLine
 10
-281.574462890625
 20
209.4282684326172
 30
0.0
 11
-278.3744506835938
 21
212.6282653808594
 31
0.0
  0
LINE
  5
1AB
330
22
100
AcDbEntity
  8
0
  6
Continuous
 62
     7
100
AcDbLine
 10
-278.7460327148438
 20
209.4282684326172
 30
0.0
 11
-275.5460205078125
 21
212.6282653808594
 31
0.0
  0
LINE
  5
1AC
330
22
100
AcDbEntity
  8
0
  6
Continuous
 62
     7
100
AcDbLine
 10
-275.9176025390625
 20
209.4282684326172
 30
0.0
 11
-272.7175903320313
 21
212.6282653808594
 31
0.0
  0
LINE
  5
1AD
330
22
100
AcDbEntity
  8
0
  6
Continuous
 62
     7
100
AcDbLine
 10
-273.0891723632813
 20
209.4282684326172
 30
0.0
 11
-270.2656860351563
 21
212.2517700195313
 31
0.0
  0
LINE
  5
1AE
330
22
100
AcDbEntity
  8
0
  6
Continuous
 62
     7
100
AcDbLine
 10
-278.5156860351563
 20
209.4282684326172
 30
0.0
 11
-337.7656860351563
 21
209.4282684326172
 31
0.0
  0
LINE
  5
1AF
330
22
100
AcDbEntity
  8
0
  6
Continuous
 62
     7
100
AcDbLine
 10
-311.8656921386719
 20
263.0272827148438
 30
0.0
 11
-311.8656921386719
 21
291.3280029296875
 31
0.0
  0
LINE
  5
1B0
330
22
100
AcDbEntity
  8
0
  6
Continuous
 62
     7
100
AcDbLine
 10
-311.8656921386719
 20
302.5279846191406
 30
0.0
 11
-311.8656921386719
 21
313.3280029296875
 31
0.0
  0
LINE
  5
1B1
330
22
100
AcDbEntity
  8
0
  6
Continuous
 62
     7
100
AcDbLine
 10
-311.8656921386719
 20
375.0287170410156
 30
0.0
 11
-311.8656921386719
 21
346.7279968261719
 31
0.0
  0
LINE
  5
1B2
330
22
100
AcDbEntity
  8
0
  6
Continuous
 62
     7
100
AcDbLine
 10
-376.49365234375
 20
172.1295013427734
 30
0.0
 11
-404.009765625
 21
194.1257934570313
 31
0.0
  0
LINE
  5
1B3
330
22
100
AcDbEntity
  8
0
  6
CENTER
 62
     7
100
AcDbLine
 10
-337.7656860351563
 20
221.4271240234375
 30
0.0
 11
-337.7656860351563
 21
13.90515422821045
 31
0.0
  0
LINE
  5
1B4
330
22
100
AcDbEntity
  8
0
  6
Continuous
 62
     7
100
AcDbLine
 10
-300.5156860351563
 20
180.6282653808594
 30
0.0
 11
-281.1282653808594
 21
196.660888671875
 31
0.0
  0
LINE
  5
1B5
330
22
100
AcDbEntity
  8
0
  6
Continuous
 62
     7
100
AcDbLine
 10
-299.0377197265625
 20
172.1295013427734
 30
0.0
 11
-271.5216064453125
 21
194.1257934570313
 31
0.0
  0
LINE
  5
1B6
330
22
100
AcDbEntity
  8
0
  6
Continuous
 62
     7
100
AcDbLine
 10
-370.7656860351563
 20
52.62826919555664
 30
0.0
 11
-370.7656860351563
 21
16.62826919555664
 31
0.0
  0
LINE
  5
1B7
330
22
100
AcDbEntity
  8
0
  6
Continuous
 62
     7
100
AcDbLine
 10
-337.7656860351563
 20
55.62826919555664
 30
0.0
 11
-420.7656860351563
 21
55.62826919555664
 31
0.0
  0
LINE
  5
1B8
330
22
100
AcDbEntity
  8
0
  6
Continuous
 62
     7
100
AcDbLine
 10
-337.7656860351563
 20
52.62826919555664
 30
0.0
 11
-420.7656860351563
 21
52.62826919555664
 31
0.0
  0
LINE
  5
1B9
330
22
100
AcDbEntity
  8
0
  6
Continuous
 62
     7
100
AcDbLine
 10
-420.7656860351563
 20
52.62826919555664
 30
0.0
 11
-420.7656860351563
 21
55.62826919555664
 31
0.0
  0
LINE
  5
1BA
330
22
100
AcDbEntity
  8
0
  6
Continuous
 62
     7
100
AcDbLine
 10
-370.7656860351563
 20
80.62827301025391
 30
0.0
 11
-370.7656860351563
 21
55.62826919555664
 31
0.0
  0
LINE
  5
1BB
330
22
100
AcDbEntity
  8
0
  6
Continuous
 62
     7
100
AcDbLine
 10
-304.7656860351563
 20
16.62826919555664
 30
0.0
 11
-370.7656860351563
 21
16.62826919555664
 31
0.0
  0
LINE
  5
1BC
330
22
100
AcDbEntity
  8
0
  6
Continuous
 62
     7
100
AcDbLine
 10
-309.4156799316406
 20
60.62826919555664
 30
0.0
 11
-309.4156799316406
 21
119.1782684326172
 31
0.0
  0
LINE
  5
1BD
330
22
100
AcDbEntity
  8
0
  6
Continuous
 62
     7
100
AcDbLine
 10
-314.7656860351563
 20
159.5450439453125
 30
0.0
 11
-313.6824645996094
 21
160.6282653808594
 31
0.0
  0
LINE
  5
1BE
330
22
100
AcDbEntity
  8
0
  6
Continuous
 62
     7
100
AcDbLine
 10
-314.7656860351563
 20
155.3024139404297
 30
0.0
 11
-309.8982543945313
 21
160.1698303222656
 31
0.0
  0
LINE
  5
1BF
330
22
100
AcDbEntity
  8
0
  6
Continuous
 62
     7
100
AcDbLine
 10
-314.7656860351563
 20
151.0597686767578
 30
0.0
 11
-309.7696838378906
 21
156.0557708740234
 31
0.0
  0
LINE
  5
1C0
330
22
100
AcDbEntity
  8
0
  6
Continuous
 62
     7
100
AcDbLine
 10
-314.7656860351563
 20
146.8171234130859
 30
0.0
 11
-309.64111328125
 21
151.9416961669922
 31
0.0
  0
LINE
  5
1C1
330
22
100
AcDbEntity
  8
0
  6
Continuous
 62
     7
100
AcDbLine
 10
-314.7656860351563
 20
142.5744934082031
 30
0.0
 11
-309.5125427246094
 21
147.8276214599609
 31
0.0
  0
LINE
  5
1C2
330
22
100
AcDbEntity
  8
0
  6
Continuous
 62
     7
100
AcDbLine
 10
-314.7656860351563
 20
138.3318481445312
 30
0.0
 11
-309.3839721679688
 21
143.7135620117188
 31
0.0
  0
LINE
  5
1C3
330
22
100
AcDbEntity
  8
0
  6
Continuous
 62
     7
100
AcDbLine
 10
-314.7656860351563
 20
134.0892028808594
 30
0.0
 11
-309.1346740722656
 21
139.7202301025391
 31
0.0
  0
LINE
  5
1C4
330
22
100
AcDbEntity
  8
0
  6
Continuous
 62
     7
100
AcDbLine
 10
-314.7656860351563
 20
129.8465576171875
 30
0.0
 11
-307.7656860351563
 21
136.8465576171875
 31
0.0
  0
LINE
  5
1C5
330
22
100
AcDbEntity
  8
0
  6
Continuous
 62
     7
100
AcDbLine
 10
-314.7656860351563
 20
125.6039199829102
 30
0.0
 11
-307.7656860351563
 21
132.6039276123047
 31
0.0
  0
LINE
  5
1C6
330
22
100
AcDbEntity
  8
0
  6
Continuous
 62
     7
100
AcDbLine
 10
-314.7656860351563
 20
121.3612823486328
 30
0.0
 11
-307.7656860351563
 21
128.3612823486327
 31
0.0
  0
LINE
  5
1C7
330
22
100
AcDbEntity
  8
0
  6
Continuous
 62
     7
100
AcDbLine
 10
-314.7656860351563
 20
117.1186447143555
 30
0.0
 11
-307.7656860351563
 21
124.1186447143555
 31
0.0
  0
LINE
  5
1C8
330
22
100
AcDbEntity
  8
0
  6
Continuous
 62
     7
100
AcDbLine
 10
-314.7656860351563
 20
112.8759994506836
 30
0.0
 11
-309.4156799316406
 21
118.2259979248047
 31
0.0
  0
LINE
  5
1C9
330
22
100
AcDbEntity
  8
0
  6
Continuous
 62
     7
100
AcDbLine
 10
-314.7656860351563
 20
108.6333618164063
 30
0.0
 11
-309.4156799316406
 21
113.9833602905273
 31
0.0
  0
LINE
  5
1CA
330
22
100
AcDbEntity
  8
0
  6
Continuous
 62
     7
100
AcDbLine
 10
-314.7656860351563
 20
104.3907165527344
 30
0.0
 11
-309.4156799316406
 21
109.74072265625
 31
0.0
  0
LINE
  5
1CB
330
22
100
AcDbEntity
  8
0
  6
Continuous
 62
     7
100
AcDbLine
 10
-314.7656860351563
 20
100.148078918457
 30
0.0
 11
-309.4156799316406
 21
105.4980773925781
 31
0.0
  0
LINE
  5
1CC
330
22
100
AcDbEntity
  8
0
  6
Continuous
 62
     7
100
AcDbLine
 10
-314.7656860351563
 20
95.90544128417969
 30
0.0
 11
-309.4156799316406
 21
101.2554397583008
 31
0.0
  0
LINE
  5
1CD
330
22
100
AcDbEntity
  8
0
  6
Continuous
 62
     7
100
AcDbLine
 10
-314.7656860351563
 20
91.6627960205078
 30
0.0
 11
-309.4156799316406
 21
97.01279449462893
 31
0.0
  0
LINE
  5
1CE
330
22
100
AcDbEntity
  8
0
  6
Continuous
 62
     7
100
AcDbLine
 10
-314.7656860351563
 20
87.42015838623046
 30
0.0
 11
-309.4156799316406
 21
92.77015686035156
 31
0.0
  0
LINE
  5
1CF
330
22
100
AcDbEntity
  8
0
  6
Continuous
 62
     7
100
AcDbLine
 10
-314.7656860351563
 20
83.17751312255859
 30
0.0
 11
-309.4156799316406
 21
88.52751922607422
 31
0.0
  0
LINE
  5
1D0
330
22
100
AcDbEntity
  8
0
  6
Continuous
 62
     7
100
AcDbLine
 10
-314.7656860351563
 20
78.93487548828125
 30
0.0
 11
-309.4156799316406
 21
84.28487396240234
 31
0.0
  0
LINE
  5
1D1
330
22
100
AcDbEntity
  8
0
  6
Continuous
 62
     7
100
AcDbLine
 10
-314.7656860351563
 20
74.69223785400391
 30
0.0
 11
-309.4156799316406
 21
80.042236328125
 31
0.0
  0
LINE
  5
1D2
330
22
100
AcDbEntity
  8
0
  6
Continuous
 62
     7
100
AcDbLine
 10
-314.7656860351563
 20
70.44959259033203
 30
0.0
 11
-309.4156799316406
 21
75.79959106445312
 31
0.0
  0
LINE
  5
1D3
330
22
100
AcDbEntity
  8
0
  6
Continuous
 62
     7
100
AcDbLine
 10
-314.7656860351563
 20
66.20695495605469
 30
0.0
 11
-309.4156799316406
 21
71.55695343017578
 31
0.0
  0
LINE
  5
1D4
330
22
100
AcDbEntity
  8
0
  6
Continuous
 62
     7
100
AcDbLine
 10
-314.7656860351563
 20
61.96431350708007
 30
0.0
 11
-309.4156799316406
 21
67.31431579589844
 31
0.0
  0
LINE
  5
1D5
330
22
100
AcDbEntity
  8
0
  6
Continuous
 62
     7
100
AcDbLine
 10
-311.8590698242188
 20
60.62826919555664
 30
0.0
 11
-309.4156799316406
 21
63.07167053222656
 31
0.0
  0
LINE
  5
1D6
330
22
100
AcDbEntity
  8
0
  6
Continuous
 62
     7
100
AcDbLine
 10
-314.7656860351563
 20
157.4237213134766
 30
0.0
 11
-311.5611267089844
 21
160.6282653808594
 31
0.0
  0
LINE
  5
1D7
330
22
100
AcDbEntity
  8
0
  6
Continuous
 62
     7
100
AcDbLine
 10
-314.7656860351563
 20
153.1810913085938
 30
0.0
 11
-309.8339538574219
 21
158.11279296875
 31
0.0
  0
LINE
  5
1D8
330
22
100
AcDbEntity
  8
0
  6
Continuous
 62
     7
100
AcDbLine
 10
-314.7656860351563
 20
148.9384460449219
 30
0.0
 11
-309.7053833007813
 21
153.9987335205078
 31
0.0
  0
LINE
  5
1D9
330
22
100
AcDbEntity
  8
0
  6
Continuous
 62
     7
100
AcDbLine
 10
-314.7656860351563
 20
144.69580078125
 30
0.0
 11
-309.5768127441406
 21
149.8846588134766
 31
0.0
  0
LINE
  5
1DA
330
22
100
AcDbEntity
  8
0
  6
Continuous
 62
     7
100
AcDbLine
 10
-314.7656860351563
 20
140.4531707763672
 30
0.0
 11
-309.4482421875
 21
145.7705841064453
 31
0.0
  0
LINE
  5
1DB
330
22
100
AcDbEntity
  8
0
  6
Continuous
 62
     7
100
AcDbLine
 10
-314.7656860351563
 20
136.2105255126953
 30
0.0
 11
-309.3196716308594
 21
141.6565246582031
 31
0.0
  0
LINE
  5
1DC
330
22
100
AcDbEntity
  8
0
  6
Continuous
 62
     7
100
AcDbLine
 10
-314.7656860351563
 20
131.9678802490234
 30
0.0
 11
-308.0740051269531
 21
138.6595611572266
 31
0.0
  0
LINE
  5
1DD
330
22
100
AcDbEntity
  8
0
  6
Continuous
 62
     7
100
AcDbLine
 10
-314.7656860351563
 20
127.7252426147461
 30
0.0
 11
-307.7656860351563
 21
134.7252502441406
 31
0.0
  0
LINE
  5
1DE
330
22
100
AcDbEntity
  8
0
  6
Continuous
 62
     7
100
AcDbLine
 10
-314.7656860351563
 20
123.4826049804688
 30
0.0
 11
-307.7656860351563
 21
130.4826049804687
 31
0.0
  0
LINE
  5
1DF
330
22
100
AcDbEntity
  8
0
  6
Continuous
 62
     7
100
AcDbLine
 10
-314.7656860351563
 20
119.2399597167969
 30
0.0
 11
-307.7656860351563
 21
126.2399597167969
 31
0.0
  0
LINE
  5
1E0
330
22
100
AcDbEntity
  8
0
  6
Continuous
 62
     7
100
AcDbLine
 10
-314.7656860351563
 20
114.9973220825195
 30
0.0
 11
-307.7656860351563
 21
121.9973220825195
 31
0.0
  0
LINE
  5
1E1
330
22
100
AcDbEntity
  8
0
  6
Continuous
 62
     7
100
AcDbLine
 10
-314.7656860351563
 20
110.7546844482422
 30
0.0
 11
-309.4156799316406
 21
116.1046829223633
 31
0.0
  0
LINE
  5
1E2
330
22
100
AcDbEntity
  8
0
  6
Continuous
 62
     7
100
AcDbLine
 10
-314.7656860351563
 20
106.5120391845703
 30
0.0
 11
-309.4156799316406
 21
111.8620376586914
 31
0.0
  0
LINE
  5
1E3
330
22
100
AcDbEntity
  8
0
  6
Continuous
 62
     7
100
AcDbLine
 10
-314.7656860351563
 20
102.269401550293
 30
0.0
 11
-309.4156799316406
 21
107.6194000244141
 31
0.0
  0
LINE
  5
1E4
330
22
100
AcDbEntity
  8
0
  6
Continuous
 62
     7
100
AcDbLine
 10
-314.7656860351563
 20
98.02675628662107
 30
0.0
 11
-309.4156799316406
 21
103.3767623901367
 31
0.0
  0
LINE
  5
1E5
330
22
100
AcDbEntity
  8
0
  6
Continuous
 62
     7
100
AcDbLine
 10
-314.7656860351563
 20
93.78411865234376
 30
0.0
 11
-309.4156799316406
 21
99.13411712646485
 31
0.0
  0
LINE
  5
1E6
330
22
100
AcDbEntity
  8
0
  6
Continuous
 62
     7
100
AcDbLine
 10
-314.7656860351563
 20
89.54148101806641
 30
0.0
 11
-309.4156799316406
 21
94.8914794921875
 31
0.0
  0
LINE
  5
1E7
330
22
100
AcDbEntity
  8
0
  6
Continuous
 62
     7
100
AcDbLine
 10
-314.7656860351563
 20
85.29883575439454
 30
0.0
 11
-309.4156799316406
 21
90.64883422851563
 31
0.0
  0
LINE
  5
1E8
330
22
100
AcDbEntity
  8
0
  6
Continuous
 62
     7
100
AcDbLine
 10
-314.7656860351563
 20
81.05619812011719
 30
0.0
 11
-309.4156799316406
 21
86.40619659423828
 31
0.0
  0
LINE
  5
1E9
330
22
100
AcDbEntity
  8
0
  6
Continuous
 62
     7
100
AcDbLine
 10
-314.7656860351563
 20
76.81355285644531
 30
0.0
 11
-309.4156799316406
 21
82.16355895996093
 31
0.0
  0
LINE
  5
1EA
330
22
100
AcDbEntity
  8
0
  6
Continuous
 62
     7
100
AcDbLine
 10
-314.7656860351563
 20
72.57091522216796
 30
0.0
 11
-309.4156799316406
 21
77.92091369628906
 31
0.0
  0
LINE
  5
1EB
330
22
100
AcDbEntity
  8
0
  6
Continuous
 62
     7
100
AcDbLine
 10
-314.7656860351563
 20
68.32827758789064
 30
0.0
 11
-309.4156799316406
 21
73.67827606201172
 31
0.0
  0
LINE
  5
1EC
330
22
100
AcDbEntity
  8
0
  6
Continuous
 62
     7
100
AcDbLine
 10
-314.7656860351563
 20
64.08563232421875
 30
0.0
 11
-309.4156799316406
 21
69.43563079833984
 31
0.0
  0
LINE
  5
1ED
330
22
100
AcDbEntity
  8
0
  6
Continuous
 62
     7
100
AcDbLine
 10
-313.9804077148438
 20
60.62826919555664
 30
0.0
 11
-309.4156799316406
 21
65.1929931640625
 31
0.0
  0
LINE
  5
1EE
330
22
100
AcDbEntity
  8
0
  6
Continuous
 62
     7
100
AcDbLine
 10
-309.7377624511719
 20
60.62826919555664
 30
0.0
 11
-309.4156799316406
 21
60.95035171508789
 31
0.0
  0
LINE
  5
1EF
330
22
100
AcDbEntity
  8
0
  6
Continuous
 62
     7
100
AcDbLine
 10
-311.2656860351563
 20
177.6282653808594
 30
0.0
 11
-310.5268249511719
 21
177.6513671875
 31
0.0
  0
LINE
  5
1F0
330
22
100
AcDbEntity
  8
0
  6
Continuous
 62
     7
100
AcDbLine
 10
-310.5260925292969
 20
177.6282653808594
 30
0.0
 11
-309.4796142578125
 21
144.1421966552734
 31
0.0
  0
LINE
  5
1F1
330
22
100
AcDbEntity
  8
0
  6
Continuous
 62
     7
100
AcDbLine
 10
-309.0121765136719
 20
176.1143493652344
 30
0.0
 11
-307.9656677246094
 21
142.6282653808594
 31
0.0
  0
LINE
  5
1F2
330
22
100
AcDbEntity
  8
0
  6
Continuous
 62
     7
100
AcDbLine
 10
-310.5260925292969
 20
177.6282653808594
 30
0.0
 11
-309.0121765136719
 21
176.1143493652344
 31
0.0
  0
LINE
  5
1F3
330
22
100
AcDbEntity
  8
0
  6
Continuous
 62
     7
100
AcDbLine
 10
-311.2656860351563
 20
177.6282653808594
 30
0.0
 11
-337.7656860351563
 21
177.6282653808594
 31
0.0
  0
LINE
  5
1F4
330
22
100
AcDbEntity
  8
0
  6
Continuous
 62
     7
100
AcDbLine
 10
-307.6312866210938
 20
80.62827301025391
 30
0.0
 11
-309.5312805175781
 21
78.728271484375
 31
0.0
  0
LINE
  5
1F5
330
22
100
AcDbEntity
  8
0
  6
Continuous
 62
     7
100
AcDbLine
 10
-310.1282043457031
 20
38.73130798339844
 30
0.0
 11
-310.1282043457031
 21
50.62826919555664
 31
0.0
  0
LINE
  5
1F6
330
22
100
AcDbEntity
  8
0
  6
Continuous
 62
     7
100
AcDbLine
 10
-310.1282043457031
 20
39.42826843261719
 30
0.0
 11
-308.6307067871094
 21
37.93076324462891
 31
0.0
  0
LINE
  5
1F7
330
22
100
AcDbEntity
  8
0
  6
Continuous
 62
     7
100
AcDbLine
 10
-309.5312805175781
 20
50.62826919555664
 30
0.0
 11
-307.6312866210938
 21
52.52827072143555
 31
0.0
  0
LINE
  5
1F8
330
22
100
AcDbEntity
  8
0
  6
Continuous
 62
     7
100
AcDbLine
 10
-308.6307067871094
 20
37.93076324462891
 30
0.0
 11
-337.7656860351563
 21
37.93076324462891
 31
0.0
  0
LINE
  5
1F9
330
22
100
AcDbEntity
  8
0
  6
Continuous
 62
     7
100
AcDbLine
 10
-307.6312866210938
 20
52.52827072143555
 30
0.0
 11
-337.7656860351563
 21
52.52827072143555
 31
0.0
  0
LINE
  5
1FA
330
22
100
AcDbEntity
  8
0
  6
Continuous
 62
     7
100
AcDbLine
 10
-309.5312805175781
 20
50.62826919555664
 30
0.0
 11
-337.7656860351563
 21
50.62826919555664
 31
0.0
  0
LINE
  5
1FB
330
22
100
AcDbEntity
  8
0
  6
Continuous
 62
     7
100
AcDbLine
 10
-309.4156799316406
 20
60.62826919555664
 30
0.0
 11
-307.9656677246094
 21
62.07826995849609
 31
0.0
  0
LINE
  5
1FC
330
22
100
AcDbEntity
  8
0
  6
Continuous
 62
     7
100
AcDbLine
 10
-309.5312805175781
 20
78.728271484375
 30
0.0
 11
-309.5312805175781
 21
50.62826919555664
 31
0.0
  0
LINE
  5
1FD
330
22
100
AcDbEntity
  8
0
  6
Continuous
 62
     7
100
AcDbLine
 10
-337.7656860351563
 20
60.62826919555664
 30
0.0
 11
-309.4156799316406
 21
60.62826919555664
 31
0.0
  0
LINE
  5
1FE
330
22
100
AcDbEntity
  8
0
  6
Continuous
 62
     7
100
AcDbLine
 10
-309.9125671386719
 20
160.6282653808594
 30
0.0
 11
-308.4150695800781
 21
159.1307678222656
 31
0.0
  0
LINE
  5
1FF
330
22
100
AcDbEntity
  8
0
  6
Continuous
 62
     7
100
AcDbLine
 10
-307.9656677246094
 20
142.6282653808594
 30
0.0
 11
-309.4796142578125
 21
144.1421966552734
 31
0.0
  0
LINE
  5
200
330
22
100
AcDbEntity
  8
0
  6
Continuous
 62
     7
100
AcDbLine
 10
-309.9125671386719
 20
160.6282653808594
 30
0.0
 11
-309.26318359375
 21
139.8487548828125
 31
0.0
  0
LINE
  5
201
330
22
100
AcDbEntity
  8
0
  6
Continuous
 62
     7
100
AcDbLine
 10
-307.7656860351563
 20
138.3512420654297
 30
0.0
 11
-309.26318359375
 21
139.8487548828125
 31
0.0
  0
LINE
  5
202
330
22
100
AcDbEntity
  8
0
  6
Continuous
 62
     7
100
AcDbLine
 10
-307.9656677246094
 20
120.6282730102539
 30
0.0
 11
-309.4156799316406
 21
119.1782684326172
 31
0.0
  0
LINE
  5
203
330
22
100
AcDbEntity
  8
0
  6
Continuous
 62
     7
100
AcDbLine
 10
-337.7656860351563
 20
160.6282653808594
 30
0.0
 11
-309.9125671386719
 21
160.6282653808594
 31
0.0
  0
LINE
  5
204
330
22
100
AcDbEntity
  8
0
  6
CENTER
 62
     7
100
AcDbLine
 10
-427.3789978027344
 20
319.0279846191406
 30
0.0
 11
-248.3538055419922
 21
319.0279846191406
 31
0.0
  0
LINE
  5
205
330
22
100
AcDbEntity
  8
0
  6
Continuous
 62
     7
100
AcDbLine
 10
-311.2656860351563
 20
177.6282653808594
 30
0.0
 11
-311.2656860351563
 21
180.6282653808594
 31
0.0
  0
LINE
  5
206
330
22
100
AcDbEntity
  8
0
  6
Continuous
 62
     7
100
AcDbLine
 10
-311.2656860351563
 20
180.6282653808594
 30
0.0
 11
-300.5156860351563
 21
180.6282653808594
 31
0.0
  0
LINE
  5
207
330
22
100
AcDbEntity
  8
0
  6
Continuous
 62
     7
100
AcDbLine
 10
-311.2656860351563
 20
180.6282653808594
 30
0.0
 11
-337.7656860351563
 21
180.6282653808594
 31
0.0
  0
LINE
  5
208
330
22
100
AcDbEntity
  8
0
  6
Continuous
 62
     7
100
AcDbLine
 10
-258.4686279296875
 20
212.6282653808594
 30
0.0
 11
-257.7656860351563
 21
211.9253234863281
 31
0.0
  0
LINE
  5
209
330
22
100
AcDbEntity
  8
0
  6
Continuous
 62
     7
100
AcDbLine
 10
-259.1757202148438
 20
212.6282653808594
 30
0.0
 11
-257.7656860351563
 21
211.2182159423828
 31
0.0
  0
LINE
  5
20A
330
22
100
AcDbEntity
  8
0
  6
Continuous
 62
     7
100
AcDbLine
 10
-261.2970581054688
 20
212.6282653808594
 30
0.0
 11
-257.7656860351563
 21
209.0968933105469
 31
0.0
  0
LINE
  5
20B
330
22
100
AcDbEntity
  8
0
  6
Continuous
 62
     7
100
AcDbLine
 10
-262.004150390625
 20
212.6282653808594
 30
0.0
 11
-257.8052368164063
 21
208.4293518066406
 31
0.0
  0
LINE
  5
20C
330
22
100
AcDbEntity
  8
0
  6
Continuous
 62
     7
100
AcDbLine
 10
-264.12548828125
 20
212.6282653808594
 30
0.0
 11
-259.12548828125
 21
207.6282653808594
 31
0.0
  0
LINE
  5
20D
330
22
100
AcDbEntity
  8
0
  6
Continuous
 62
     7
100
AcDbLine
 10
-264.8325805664063
 20
212.6282653808594
 30
0.0
 11
-259.8325805664063
 21
207.6282653808594
 31
0.0
  0
LINE
  5
20E
330
22
100
AcDbEntity
  8
0
  6
Continuous
 62
     7
100
AcDbLine
 10
-266.9539184570313
 20
212.6282653808594
 30
0.0
 11
-261.9539184570313
 21
207.6282653808594
 31
0.0
  0
LINE
  5
20F
330
22
100
AcDbEntity
  8
0
  6
Continuous
 62
     7
100
AcDbLine
 10
-267.6610107421875
 20
212.6282653808594
 30
0.0
 11
-262.6610107421875
 21
207.6282653808594
 31
0.0
  0
LINE
  5
210
330
22
100
AcDbEntity
  8
0
  6
Continuous
 62
     7
100
AcDbLine
 10
-269.7823486328125
 20
212.6282653808594
 30
0.0
 11
-264.7823486328125
 21
207.6282653808594
 31
0.0
  0
LINE
  5
211
330
22
100
AcDbEntity
  8
0
  6
Continuous
 62
     7
100
AcDbLine
 10
-270.2656860351563
 20
212.4045104980469
 30
0.0
 11
-265.4894409179688
 21
207.6282653808594
 31
0.0
  0
LINE
  5
212
330
22
100
AcDbEntity
  8
0
  6
Continuous
 62
     7
100
AcDbLine
 10
-270.2656860351563
 20
210.2831878662109
 30
0.0
 11
-267.0870361328125
 21
207.1045379638672
 31
0.0
  0
LINE
  5
213
330
22
100
AcDbEntity
  8
0
  6
Continuous
 62
     7
100
AcDbLine
 10
-270.2656860351563
 20
209.5760803222656
 30
0.0
 11
-267.4010620117188
 21
206.7114715576172
 31
0.0
  0
LINE
  5
214
330
22
100
AcDbEntity
  8
0
  6
Continuous
 62
     7
100
AcDbLine
 10
-272.2391967773438
 20
209.4282684326172
 30
0.0
 11
-267.7656860351563
 21
204.9547576904297
 31
0.0
  0
LINE
  5
215
330
22
100
AcDbEntity
  8
0
  6
Continuous
 62
     7
100
AcDbLine
 10
-272.9462890625
 20
209.4282684326172
 30
0.0
 11
-267.7656860351563
 21
204.2476501464844
 31
0.0
  0
LINE
  5
216
330
22
100
AcDbEntity
  8
0
  6
Continuous
 62
     7
100
AcDbLine
 10
-275.067626953125
 20
209.4282684326172
 30
0.0
 11
-267.7656860351563
 21
202.1263275146484
 31
0.0
  0
LINE
  5
217
330
22
100
AcDbEntity
  8
0
  6
Continuous
 62
     7
100
AcDbLine
 10
-275.7747192382813
 20
209.4282684326172
 30
0.0
 11
-267.8120727539063
 21
201.4656372070313
 31
0.0
  0
LINE
  5
218
330
22
100
AcDbEntity
  8
0
  6
Continuous
 62
     7
100
AcDbLine
 10
-277.8960571289063
 20
209.4282684326172
 30
0.0
 11
-268.0732421875
 21
199.6054534912109
 31
0.0
  0
LINE
  5
219
330
22
100
AcDbEntity
  8
0
  6
Continuous
 62
     7
100
AcDbLine
 10
-278.522705078125
 20
209.3478393554689
 30
0.0
 11
-268.23779296875
 21
199.0629272460938
 31
0.0
  0
LINE
  5
21A
330
22
100
AcDbEntity
  8
0
  6
Continuous
 62
     7
100
AcDbLine
 10
-278.6933898925781
 20
207.3971710205078
 30
0.0
 11
-268.8331604003906
 21
197.5369567871094
 31
0.0
  0
LINE
  5
21B
330
22
100
AcDbEntity
  8
0
  6
Continuous
 62
     7
100
AcDbLine
 10
-278.7502746582031
 20
206.7469635009766
 30
0.0
 11
-269.0794677734375
 21
197.0761566162109
 31
0.0
  0
LINE
  5
21C
330
22
100
AcDbEntity
  8
0
  6
Continuous
 62
     7
100
AcDbLine
 10
-278.9209289550781
 20
204.7962951660156
 30
0.0
 11
-269.9263916015625
 21
195.8017730712891
 31
0.0
  0
LINE
  5
21D
330
22
100
AcDbEntity
  8
0
  6
Continuous
 62
     7
100
AcDbLine
 10
-278.9778137207031
 20
204.1460723876953
 30
0.0
 11
-270.2451477050781
 21
195.4134063720703
 31
0.0
  0
LINE
  5
21E
330
22
100
AcDbEntity
  8
0
  6
Continuous
 62
     7
100
AcDbLine
 10
-279.1484680175781
 20
202.1954193115234
 30
0.0
 11
-271.2879333496094
 21
194.3348693847656
 31
0.0
  0
LINE
  5
21F
330
22
100
AcDbEntity
  8
0
  6
Continuous
 62
     7
100
AcDbLine
 10
-279.2053527832031
 20
201.5451965332031
 30
0.0
 11
-271.6685180664063
 21
194.0083618164063
 31
0.0
  0
LINE
  5
220
330
22
100
AcDbEntity
  8
0
  6
Continuous
 62
     7
100
AcDbLine
 10
-279.4163513183594
 20
199.6348724365234
 30
0.0
 11
-272.847412109375
 21
193.0659332275391
 31
0.0
  0
LINE
  5
221
330
22
100
AcDbEntity
  8
0
  6
Continuous
 62
     7
100
AcDbLine
 10
-279.5370788574219
 20
199.0484771728516
 30
0.0
 11
-273.2403869628906
 21
192.7518005371094
 31
0.0
  0
LINE
  5
222
330
22
100
AcDbEntity
  8
0
  6
Continuous
 62
     7
100
AcDbLine
 10
-280.2500610351563
 20
197.6401519775391
 30
0.0
 11
-274.4193115234375
 21
191.8093872070313
 31
0.0
  0
LINE
  5
223
330
22
100
AcDbEntity
  8
0
  6
Continuous
 62
     7
100
AcDbLine
 10
-280.5548706054688
 20
197.2378540039063
 30
0.0
 11
-274.812255859375
 21
191.4952545166016
 31
0.0
  0
LINE
  5
224
330
22
100
AcDbEntity
  8
0
  6
Continuous
 62
     7
100
AcDbLine
 10
-281.6597290039063
 20
196.2213897705078
 30
0.0
 11
-275.9911804199219
 21
190.5528411865234
 31
0.0
  0
LINE
  5
225
330
22
100
AcDbEntity
  8
0
  6
Continuous
 62
     7
100
AcDbLine
 10
-282.0467834472656
 20
195.9013214111328
 30
0.0
 11
-276.3841552734375
 21
190.2386932373047
 31
0.0
  0
LINE
  5
226
330
22
100
AcDbEntity
  8
0
  6
Continuous
 62
     7
100
AcDbLine
 10
-283.2078857421875
 20
194.9411315917969
 30
0.0
 11
-277.5630493164063
 21
189.2962799072266
 31
0.0
  0
LINE
  5
227
330
22
100
AcDbEntity
  8
0
  6
Continuous
 62
     7
100
AcDbLine
 10
-283.5949401855469
 20
194.6210632324219
 30
0.0
 11
-277.9560241699219
 21
188.9821472167969
 31
0.0
  0
LINE
  5
228
330
22
100
AcDbEntity
  8
0
  6
Continuous
 62
     7
100
AcDbLine
 10
-284.7560424804688
 20
193.6608581542969
 30
0.0
 11
-279.1349182128906
 21
188.0397338867188
 31
0.0
  0
LINE
  5
229
330
22
100
AcDbEntity
  8
0
  6
Continuous
 62
     7
100
AcDbLine
 10
-285.1430969238281
 20
193.3407897949219
 30
0.0
 11
-279.5278930664063
 21
187.7256011962891
 31
0.0
  0
LINE
  5
22A
330
22
100
AcDbEntity
  8
0
  6
Continuous
 62
     7
100
AcDbLine
 10
-286.30419921875
 20
192.3805847167969
 30
0.0
 11
-280.706787109375
 21
186.7831878662109
 31
0.0
  0
LINE
  5
22B
330
22
100
AcDbEntity
  8
0
  6
Continuous
 62
     7
100
AcDbLine
 10
-286.6912536621094
 20
192.0605316162109
 30
0.0
 11
-281.0997619628906
 21
186.4690399169922
 31
0.0
  0
LINE
  5
22C
330
22
100
AcDbEntity
  8
0
  6
Continuous
 62
     7
100
AcDbLine
 10
-287.8523559570313
 20
191.1003265380859
 30
0.0
 11
-282.2786865234375
 21
185.5266265869141
 31
0.0
  0
LINE
  5
22D
330
22
100
AcDbEntity
  8
0
  6
Continuous
 62
     7
100
AcDbLine
 10
-288.2394104003907
 20
190.7802581787109
 30
0.0
 11
-282.671630859375
 21
185.2124938964844
 31
0.0
  0
LINE
  5
22E
330
22
100
AcDbEntity
  8
0
  6
Continuous
 62
     7
100
AcDbLine
 10
-289.4005432128906
 20
189.8200531005859
 30
0.0
 11
-283.8505554199219
 21
184.2700805664063
 31
0.0
  0
LINE
  5
22F
330
22
100
AcDbEntity
  8
0
  6
Continuous
 62
     7
100
AcDbLine
 10
-289.7875671386719
 20
189.4999847412109
 30
0.0
 11
-284.2435302734375
 21
183.9559326171875
 31
0.0
  0
LINE
  5
230
330
22
100
AcDbEntity
  8
0
  6
Continuous
 62
     7
100
AcDbLine
 10
-290.9486999511719
 20
188.539794921875
 30
0.0
 11
-285.4224243164063
 21
183.0135192871094
 31
0.0
  0
LINE
  5
231
330
22
100
AcDbEntity
  8
0
  6
Continuous
 62
     7
100
AcDbLine
 10
-291.3357238769531
 20
188.2197265625
 30
0.0
 11
-285.8153991699219
 21
182.6993865966796
 31
0.0
  0
LINE
  5
232
330
22
100
AcDbEntity
  8
0
  6
Continuous
 62
     7
100
AcDbLine
 10
-292.4968566894531
 20
187.259521484375
 30
0.0
 11
-286.9942932128907
 21
181.7569732666015
 31
0.0
  0
LINE
  5
233
330
22
100
AcDbEntity
  8
0
  6
Continuous
 62
     7
100
AcDbLine
 10
-292.8838806152344
 20
186.939453125
 30
0.0
 11
-287.3872680664063
 21
181.4428405761719
 31
0.0
  0
LINE
  5
234
330
22
100
AcDbEntity
  8
0
  6
Continuous
 62
     7
100
AcDbLine
 10
-294.0450134277344
 20
185.9792633056641
 30
0.0
 11
-288.566162109375
 21
180.5004272460938
 31
0.0
  0
LINE
  5
235
330
22
100
AcDbEntity
  8
0
  6
Continuous
 62
     7
100
AcDbLine
 10
-294.4320373535156
 20
185.6591949462891
 30
0.0
 11
-288.9591369628906
 21
180.186279296875
 31
0.0
  0
LINE
  5
236
330
22
100
AcDbEntity
  8
0
  6
Continuous
 62
     7
100
AcDbLine
 10
-295.5931701660156
 20
184.6989898681641
 30
0.0
 11
-290.1380615234375
 21
179.2438659667969
 31
0.0
  0
LINE
  5
237
330
22
100
AcDbEntity
  8
0
  6
Continuous
 62
     7
100
AcDbLine
 10
-295.980224609375
 20
184.3789215087891
 30
0.0
 11
-290.531005859375
 21
178.9297332763672
 31
0.0
  0
LINE
  5
238
330
22
100
AcDbEntity
  8
0
  6
Continuous
 62
     7
100
AcDbLine
 10
-297.1413269042969
 20
183.4187164306641
 30
0.0
 11
-291.7099304199219
 21
177.9873199462891
 31
0.0
  0
LINE
  5
239
330
22
100
AcDbEntity
  8
0
  6
Continuous
 62
     7
100
AcDbLine
 10
-297.5283813476563
 20
183.0986480712891
 30
0.0
 11
-292.1029052734375
 21
177.6731872558594
 31
0.0
  0
LINE
  5
23A
330
22
100
AcDbEntity
  8
0
  6
Continuous
 62
     7
100
AcDbLine
 10
-298.6894836425781
 20
182.1384582519531
 30
0.0
 11
-293.2817993164063
 21
176.7307739257813
 31
0.0
  0
LINE
  5
23B
330
22
100
AcDbEntity
  8
0
  6
Continuous
 62
     7
100
AcDbLine
 10
-299.0765380859375
 20
181.8183898925781
 30
0.0
 11
-293.6747741699219
 21
176.4166259765625
 31
0.0
  0
LINE
  5
23C
330
22
100
AcDbEntity
  8
0
  6
Continuous
 62
     7
100
AcDbLine
 10
-300.2376403808594
 20
180.8581848144531
 30
0.0
 11
-294.8536682128906
 21
175.4742126464844
 31
0.0
  0
LINE
  5
23D
330
22
100
AcDbEntity
  8
0
  6
Continuous
 62
     7
100
AcDbLine
 10
-300.71484375
 20
180.6282653808594
 30
0.0
 11
-295.2466430664063
 21
175.1600799560547
 31
0.0
  0
LINE
  5
23E
330
22
100
AcDbEntity
  8
0
  6
Continuous
 62
     7
100
AcDbLine
 10
-302.8361511230469
 20
180.6282653808594
 30
0.0
 11
-296.425537109375
 21
174.2176666259766
 31
0.0
  0
LINE
  5
23F
330
22
100
AcDbEntity
  8
0
  6
Continuous
 62
     7
100
AcDbLine
 10
-303.5432739257813
 20
180.6282653808594
 30
0.0
 11
-296.8185119628906
 21
173.9035186767578
 31
0.0
  0
LINE
  5
240
330
22
100
AcDbEntity
  8
0
  6
Continuous
 62
     7
100
AcDbLine
 10
-305.6645812988281
 20
180.6282653808594
 30
0.0
 11
-297.9974365234375
 21
172.9611053466797
 31
0.0
  0
LINE
  5
241
330
22
100
AcDbEntity
  8
0
  6
Continuous
 62
     7
100
AcDbLine
 10
-306.3717041015625
 20
180.6282653808594
 30
0.0
 11
-298.3904113769531
 21
172.64697265625
 31
0.0
  0
LINE
  5
242
330
22
100
AcDbEntity
  8
0
  6
Continuous
 62
     7
100
AcDbLine
 10
-308.4930114746094
 20
180.6282653808594
 30
0.0
 11
-299.5250244140625
 21
171.6602783203125
 31
0.0
  0
LINE
  5
243
330
22
100
AcDbEntity
  8
0
  6
Continuous
 62
     7
100
AcDbLine
 10
-309.2001342773438
 20
180.6282653808594
 30
0.0
 11
-299.850341796875
 21
171.2784881591797
 31
0.0
  0
LINE
  5
244
330
22
100
AcDbEntity
  8
0
  6
Continuous
 62
     7
100
AcDbLine
 10
-311.2656860351563
 20
180.572509765625
 30
0.0
 11
-300.600830078125
 21
169.9076538085938
 31
0.0
  0
LINE
  5
245
330
22
100
AcDbEntity
  8
0
  6
Continuous
 62
     7
100
AcDbLine
 10
-311.2656860351563
 20
179.8654022216797
 30
0.0
 11
-300.7737121582031
 21
169.3734283447266
 31
0.0
  0
LINE
  5
246
330
22
100
AcDbEntity
  8
0
  6
Continuous
 62
     7
100
AcDbLine
 10
-308.9920349121094
 20
175.4704437255859
 30
0.0
 11
-300.9156799316406
 21
167.3940887451172
 31
0.0
  0
LINE
  5
247
330
22
100
AcDbEntity
  8
0
  6
Continuous
 62
     7
100
AcDbLine
 10
-308.96923828125
 20
174.7405395507813
 30
0.0
 11
-300.9156799316406
 21
166.6869812011719
 31
0.0
  0
LINE
  5
248
330
22
100
AcDbEntity
  8
0
  6
Continuous
 62
     7
100
AcDbLine
 10
-308.9008178710938
 20
172.55078125
 30
0.0
 11
-300.9156799316406
 21
164.5656585693359
 31
0.0
  0
LINE
  5
249
330
22
100
AcDbEntity
  8
0
  6
Continuous
 62
     7
100
AcDbLine
 10
-308.8779907226563
 20
171.8208618164063
 30
0.0
 11
-300.9156799316406
 21
163.8585510253906
 31
0.0
  0
LINE
  5
24A
330
22
100
AcDbEntity
  8
0
  6
Continuous
 62
     7
100
AcDbLine
 10
-308.8095703125
 20
169.631103515625
 30
0.0
 11
-300.9156799316406
 21
161.7372283935547
 31
0.0
  0
LINE
  5
24B
330
22
100
AcDbEntity
  8
0
  6
Continuous
 62
     7
100
AcDbLine
 10
-308.7867431640625
 20
168.9011840820313
 30
0.0
 11
-300.9156799316406
 21
161.0301208496094
 31
0.0
  0
LINE
  5
24C
330
22
100
AcDbEntity
  8
0
  6
Continuous
 62
     7
100
AcDbLine
 10
-308.7183227539063
 20
166.7114410400391
 30
0.0
 11
-300.9156799316406
 21
158.9087982177734
 31
0.0
  0
LINE
  5
24D
330
22
100
AcDbEntity
  8
0
  6
Continuous
 62
     7
100
AcDbLine
 10
-308.6954956054688
 20
165.9815216064453
 30
0.0
 11
-300.9156799316406
 21
158.2016906738281
 31
0.0
  0
LINE
  5
24E
330
22
100
AcDbEntity
  8
0
  6
Continuous
 62
     7
100
AcDbLine
 10
-308.6270751953125
 20
163.7917633056641
 30
0.0
 11
-300.9156799316406
 21
156.0803680419922
 31
0.0
  0
LINE
  5
24F
330
22
100
AcDbEntity
  8
0
  6
Continuous
 62
     7
100
AcDbLine
 10
-308.604248046875
 20
163.0618438720703
 30
0.0
 11
-300.9156799316406
 21
155.3732604980469
 31
0.0
  0
LINE
  5
250
330
22
100
AcDbEntity
  8
0
  6
Continuous
 62
     7
100
AcDbLine
 10
-308.5358276367188
 20
160.8721008300781
 30
0.0
 11
-300.9156799316406
 21
153.251953125
 31
0.0
  0
LINE
  5
251
330
22
100
AcDbEntity
  8
0
  6
Continuous
 62
     7
100
AcDbLine
 10
-308.5130310058594
 20
160.1421813964844
 30
0.0
 11
-300.9156799316406
 21
152.5448455810547
 31
0.0
  0
LINE
  5
252
330
22
100
AcDbEntity
  8
0
  6
Continuous
 62
     7
100
AcDbLine
 10
-308.444580078125
 20
157.9524230957031
 30
0.0
 11
-300.9156799316406
 21
150.4235229492188
 31
0.0
  0
LINE
  5
253
330
22
100
AcDbEntity
  8
0
  6
Continuous
 62
     7
100
AcDbLine
 10
-308.4217834472656
 20
157.2225036621094
 30
0.0
 11
-300.9156799316406
 21
149.7164154052734
 31
0.0
  0
LINE
  5
254
330
22
100
AcDbEntity
  8
0
  6
Continuous
 62
     7
100
AcDbLine
 10
-308.3533325195313
 20
155.0327453613281
 30
0.0
 11
-300.9156799316406
 21
147.5950927734375
 31
0.0
  0
LINE
  5
255
330
22
100
AcDbEntity
  8
0
  6
Continuous
 62
     7
100
AcDbLine
 10
-308.3305358886719
 20
154.3028259277344
 30
0.0
 11
-300.9156799316406
 21
146.8879852294922
 31
0.0
  0
LINE
  5
256
330
22
100
AcDbEntity
  8
0
  6
Continuous
 62
     7
100
AcDbLine
 10
-308.2620849609375
 20
152.1130828857422
 30
0.0
 11
-300.9156799316406
 21
144.7666625976563
 31
0.0
  0
LINE
  5
257
330
22
100
AcDbEntity
  8
0
  6
Continuous
 62
     7
100
AcDbLine
 10
-308.2392883300781
 20
151.3831634521484
 30
0.0
 11
-300.9156799316406
 21
144.0595550537109
 31
0.0
  0
LINE
  5
258
330
22
100
AcDbEntity
  8
0
  6
Continuous
 62
     7
100
AcDbLine
 10
-308.1708374023438
 20
149.1934051513672
 30
0.0
 11
-301.6588134765625
 21
142.6813812255859
 31
0.0
  0
LINE
  5
259
330
22
100
AcDbEntity
  8
0
  6
Continuous
 62
     7
100
AcDbLine
 10
-308.1480407714844
 20
148.4634857177734
 30
0.0
 11
-302.3128051757813
 21
142.6282653808594
 31
0.0
  0
LINE
  5
25A
330
22
100
AcDbEntity
  8
0
  6
Continuous
 62
     7
100
AcDbLine
 10
-308.0796203613281
 20
146.2737426757813
 30
0.0
 11
-304.4341430664063
 21
142.6282653808594
 31
0.0
  0
LINE
  5
25B
330
22
100
AcDbEntity
  8
0
  6
Continuous
 62
     7
100
AcDbLine
 10
-308.0567932128906
 20
145.5438232421875
 30
0.0
 11
-305.1412353515625
 21
142.6282653808594
 31
0.0
  0
LINE
  5
25C
330
22
100
AcDbEntity
  8
0
  6
Continuous
 62
     7
100
AcDbLine
 10
-307.9883728027344
 20
143.3540649414063
 30
0.0
 11
-307.2625732421875
 21
142.6282653808594
 31
0.0
  0
LINE
  5
25D
330
22
100
AcDbEntity
  8
0
  6
Continuous
 62
     7
100
AcDbLine
 10
-310.1282043457031
 20
39.42826843261719
 30
0.0
 11
-309.4624938964844
 21
18.12577629089356
 31
0.0
  0
LINE
  5
25E
330
22
100
AcDbEntity
  8
0
  6
Continuous
 62
     7
100
AcDbLine
 10
-308.6307067871094
 20
37.93076324462891
 30
0.0
 11
-307.9649658203125
 21
16.62826919555664
 31
0.0
  0
LINE
  5
25F
330
22
100
AcDbEntity
  8
0
  6
Continuous
 62
     7
100
AcDbLine
 10
-307.6312866210938
 20
78.80448913574219
 30
0.0
 11
-305.8074951171875
 21
80.62827301025391
 31
0.0
  0
LINE
  5
260
330
22
100
AcDbEntity
  8
0
  6
Continuous
 62
     7
100
AcDbLine
 10
-307.6312866210938
 20
75.97605895996093
 30
0.0
 11
-304.7656860351563
 21
78.8416519165039
 31
0.0
  0
LINE
  5
261
330
22
100
AcDbEntity
  8
0
  6
Continuous
 62
     7
100
AcDbLine
 10
-307.6312866210938
 20
73.14763641357422
 30
0.0
 11
-304.7656860351563
 21
76.01322937011719
 31
0.0
  0
LINE
  5
262
330
22
100
AcDbEntity
  8
0
  6
Continuous
 62
     7
100
AcDbLine
 10
-307.6312866210938
 20
70.31920623779297
 30
0.0
 11
-304.7656860351563
 21
73.18479919433594
 31
0.0
  0
LINE
  5
263
330
22
100
AcDbEntity
  8
0
  6
Continuous
 62
     7
100
AcDbLine
 10
-307.6312866210938
 20
67.49078369140625
 30
0.0
 11
-304.7656860351563
 21
70.35636901855468
 31
0.0
  0
LINE
  5
264
330
22
100
AcDbEntity
  8
0
  6
Continuous
 62
     7
100
AcDbLine
 10
-307.6312866210938
 20
64.662353515625
 30
0.0
 11
-304.7656860351563
 21
67.52794647216797
 31
0.0
  0
LINE
  5
265
330
22
100
AcDbEntity
  8
0
  6
Continuous
 62
     7
100
AcDbLine
 10
-307.6312866210938
 20
61.83392715454102
 30
0.0
 11
-304.7656860351563
 21
64.69951629638671
 31
0.0
  0
LINE
  5
266
330
22
100
AcDbEntity
  8
0
  6
Continuous
 62
     7
100
AcDbLine
 10
-307.6312866210938
 20
59.00549697875977
 30
0.0
 11
-304.7656860351563
 21
61.87108993530273
 31
0.0
  0
LINE
  5
267
330
22
100
AcDbEntity
  8
0
  6
Continuous
 62
     7
100
AcDbLine
 10
-307.6312866210938
 20
56.17707061767578
 30
0.0
 11
-304.7656860351563
 21
59.04266357421875
 31
0.0
  0
LINE
  5
268
330
22
100
AcDbEntity
  8
0
  6
Continuous
 62
     7
100
AcDbLine
 10
-307.6312866210938
 20
53.3486442565918
 30
0.0
 11
-304.7656860351563
 21
56.21423721313477
 31
0.0
  0
LINE
  5
269
330
22
100
AcDbEntity
  8
0
  6
Continuous
 62
     7
100
AcDbLine
 10
-310.1282043457031
 20
48.02327346801757
 30
0.0
 11
-304.7656860351563
 21
53.38581085205078
 31
0.0
  0
LINE
  5
26A
330
22
100
AcDbEntity
  8
0
  6
Continuous
 62
     7
100
AcDbLine
 10
-309.8240356445313
 20
45.4990348815918
 30
0.0
 11
-304.7656860351563
 21
50.55738449096679
 31
0.0
  0
LINE
  5
26B
330
22
100
AcDbEntity
  8
0
  6
Continuous
 62
     7
100
AcDbLine
 10
-309.4388122558594
 20
43.05583953857421
 30
0.0
 11
-304.7656860351563
 21
47.72895431518555
 31
0.0
  0
LINE
  5
26C
330
22
100
AcDbEntity
  8
0
  6
Continuous
 62
     7
100
AcDbLine
 10
-309.0535583496094
 20
40.61264038085938
 30
0.0
 11
-304.7656860351563
 21
44.90052795410156
 31
0.0
  0
LINE
  5
26D
330
22
100
AcDbEntity
  8
0
  6
Continuous
 62
     7
100
AcDbLine
 10
-308.6683349609375
 20
38.16944122314453
 30
0.0
 11
-304.7656860351563
 21
42.07210159301758
 31
0.0
  0
LINE
  5
26E
330
22
100
AcDbEntity
  8
0
  6
Continuous
 62
     7
100
AcDbLine
 10
-308.5533752441406
 20
35.45598602294922
 30
0.0
 11
-304.7656860351563
 21
39.24367523193359
 31
0.0
  0
LINE
  5
26F
330
22
100
AcDbEntity
  8
0
  6
Continuous
 62
     7
100
AcDbLine
 10
-308.4676513671875
 20
32.71327209472655
 30
0.0
 11
-304.7656860351563
 21
36.41524887084961
 31
0.0
  0
LINE
  5
270
330
22
100
AcDbEntity
  8
0
  6
Continuous
 62
     7
100
AcDbLine
 10
-308.3819274902344
 20
29.97056007385254
 30
0.0
 11
-304.7656860351563
 21
33.58681869506836
 31
0.0
  0
LINE
  5
271
330
22
100
AcDbEntity
  8
0
  6
Continuous
 62
     7
100
AcDbLine
 10
-308.2962341308594
 20
27.22784805297852
 30
0.0
 11
-304.7656860351563
 21
30.75839233398438
 31
0.0
  0
LINE
  5
272
330
22
100
AcDbEntity
  8
0
  6
Continuous
 62
     7
100
AcDbLine
 10
-308.2105102539063
 20
24.48513412475586
 30
0.0
 11
-304.7656860351563
 21
27.92996597290039
 31
0.0
  0
LINE
  5
273
330
22
100
AcDbEntity
  8
0
  6
Continuous
 62
     7
100
AcDbLine
 10
-308.1247863769531
 20
21.74242210388184
 30
0.0
 11
-304.7656860351563
 21
25.10153961181641
 31
0.0
  0
LINE
  5
274
330
22
100
AcDbEntity
  8
0
  6
Continuous
 62
     7
100
AcDbLine
 10
-308.0390930175781
 20
18.99970817565918
 30
0.0
 11
-304.7656860351563
 21
22.27311134338379
 31
0.0
  0
LINE
  5
275
330
22
100
AcDbEntity
  8
0
  6
Continuous
 62
     7
100
AcDbLine
 10
-307.5820922851563
 20
16.62826919555664
 30
0.0
 11
-304.7656860351563
 21
19.44468498229981
 31
0.0
  0
LINE
  5
276
330
22
100
AcDbEntity
  8
0
  6
Continuous
 62
     7
100
AcDbLine
 10
-311.8656921386719
 20
335.5279846191406
 30
0.0
 11
-311.8656921386719
 21
324.7279968261719
 31
0.0
  0
LINE
  5
277
330
22
100
AcDbEntity
  8
0
  6
Continuous
 62
     7
100
AcDbLine
 10
-417.2656860351563
 20
212.6282653808594
 30
0.0
 11
-258.2656860351563
 21
212.6282653808594
 31
0.0
  0
LINE
  5
278
330
22
100
AcDbEntity
  8
0
  6
Continuous
 62
     7
100
AcDbLine
 10
-309.4624938964844
 20
18.12577629089356
 30
0.0
 11
-337.7656860351563
 21
18.12577629089356
 31
0.0
  0
LINE
  5
279
330
22
100
AcDbEntity
  8
0
  6
Continuous
 62
     7
100
AcDbLine
 10
-307.9649658203125
 20
16.62826919555664
 30
0.0
 11
-309.4624938964844
 21
18.12577629089356
 31
0.0
  0
LINE
  5
27A
330
22
100
AcDbEntity
  8
0
  6
Continuous
 62
     7
100
AcDbLine
 10
-262.0156860351563
 20
53.37826919555664
 30
0.0
 11
-267.5156860351563
 21
53.37826919555664
 31
0.0
  0
ARC
  5
27B
330
22
100
AcDbEntity
  8
0
  6
Continuous
 62
     7
100
AcDbCircle
 10
-293.1656799316406
 20
342.7279968261719
 30
0.0
 40
2.099999904632567
100
AcDbArc
 50
180.0000000000004
 51
0.0
  0
ARC
  5
27C
330
22
100
AcDbEntity
  8
0
  6
Continuous
 62
     7
100
AcDbCircle
 10
-292.1656799316406
 20
332.5279846191406
 30
0.0
 40
3.099999904632568
100
AcDbArc
 50
0.0
 51
180.0000000000004
  0
ARC
  5
27D
330
22
100
AcDbEntity
  8
0
  6
Continuous
 62
     7
100
AcDbCircle
 10
-303.565673828125
 20
354.427978515625
 30
0.0
 40
3.099999904632568
100
AcDbArc
 50
180.0000000000004
 51
0.0
  0
CIRCLE
  5
27E
330
22
100
AcDbEntity
  8
0
  6
Continuous
 62
     7
100
AcDbCircle
 10
-284.9381408691406
 20
349.5279846191406
 30
0.0
 40
5.0
  0
CIRCLE
  5
27F
330
22
100
AcDbEntity
  8
0
  6
Continuous
 62
     7
100
AcDbCircle
 10
-284.9381408691406
 20
349.5279846191406
 30
0.0
 40
5.25
  0
CIRCLE
  5
280
330
22
100
AcDbEntity
  8
0
  6
Continuous
 62
     7
100
AcDbCircle
 10
-284.9381408691406
 20
349.5279846191406
 30
0.0
 40
5.0
  0
ARC
  5
281
330
22
100
AcDbEntity
  8
0
  6
Continuous
 62
     7
100
AcDbCircle
 10
-337.7656860351563
 20
319.0279846191406
 30
0.0
 40
61.70000076293945
100
AcDbArc
 50
52.80438701809186
 51
59.73157026784707
  0
ARC
  5
282
330
22
100
AcDbEntity
  8
0
  6
Continuous
 62
     7
100
AcDbCircle
 10
-282.3323364257813
 20
342.697998046875
 30
0.0
 40
1.533328056335449
100
AcDbArc
 50
45.09595653208736
 51
180.0000000000004
  0
ARC
  5
283
330
22
100
AcDbEntity
  8
0
  6
Continuous
 62
     7
100
AcDbCircle
 10
-337.7656860351563
 20
319.0279846191406
 30
0.0
 40
61.70000076293945
100
AcDbArc
 50
13.07671163393859
 51
23.65524352802771
  0
ARC
  5
284
330
22
100
AcDbEntity
  8
0
  6
Continuous
 62
     7
100
AcDbCircle
 10
-337.7656860351563
 20
319.0279846191406
 30
0.0
 40
61.70000076293945
100
AcDbArc
 50
40.80937097403771
 51
46.46347521679879
  0
ARC
  5
285
330
22
100
AcDbEntity
  8
0
  6
Continuous
 62
     7
100
AcDbCircle
 10
-303.565673828125
 20
343.2279968261719
 30
0.0
 40
3.099999904632568
100
AcDbArc
 50
0.0
 51
180.0000000000004
  0
ARC
  5
286
330
22
100
AcDbEntity
  8
0
  6
Continuous
 62
     7
100
AcDbCircle
 10
-287.0489501953125
 20
200.5140533447266
 30
0.0
 40
5.0
100
AcDbArc
 50
332.2946132951122
 51
354.9998736081073
  0
ARC
  5
287
330
22
100
AcDbEntity
  8
0
  6
Continuous
 62
     7
100
AcDbCircle
 10
-292.1656799316406
 20
294.3011779785156
 30
0.0
 40
3.100116014480591
100
AcDbArc
 50
0.4957790652387459
 51
180.4957790652395
  0
ARC
  5
288
330
22
100
AcDbEntity
  8
0
  6
Continuous
 62
     7
100
AcDbCircle
 10
-337.7656860351563
 20
319.0279846191406
 30
0.0
 40
61.70000076293945
100
AcDbArc
 50
313.5365247832019
 51
322.1204380365652
  0
ARC
  5
289
330
22
100
AcDbEntity
  8
0
  6
Continuous
 62
     7
100
AcDbCircle
 10
-292.1656799316406
 20
305.5279846191406
 30
0.0
 40
3.099999904632568
100
AcDbArc
 50
180.0000000000004
 51
0.0
  0
ARC
  5
28A
330
22
100
AcDbEntity
  8
0
  6
Continuous
 62
     7
100
AcDbCircle
 10
-337.7656860351563
 20
319.0279846191406
 30
0.0
 40
61.70000076293945
100
AcDbArc
 50
336.344756471973
 51
346.9233159703656
  0
ARC
  5
28B
330
22
100
AcDbEntity
  8
0
  6
Continuous
 62
     7
100
AcDbCircle
 10
-337.7656860351563
 20
319.0279846191406
 30
0.0
 40
61.70000076293945
100
AcDbArc
 50
300.2684440165788
 51
307.195630114033
  0
ARC
  5
28C
330
22
100
AcDbEntity
  8
0
  6
Continuous
 62
     7
100
AcDbCircle
 10
-303.565673828125
 20
283.6279907226563
 30
0.0
 40
3.099999904632568
100
AcDbArc
 50
0.0
 51
180.0000000000004
  0
ARC
  5
28D
330
22
100
AcDbEntity
  8
0
  6
Continuous
 62
     7
100
AcDbCircle
 10
-282.3323364257813
 20
295.3580017089844
 30
0.0
 40
1.533328056335449
100
AcDbArc
 50
180.0000000000004
 51
314.9032384738086
  0
ARC
  5
28E
330
22
100
AcDbEntity
  8
0
  6
Continuous
 62
     7
100
AcDbCircle
 10
-303.565673828125
 20
294.8280029296875
 30
0.0
 40
3.099999904632568
100
AcDbArc
 50
180.0000000000004
 51
0.0
  0
ARC
  5
28F
330
22
100
AcDbEntity
  8
0
  6
Continuous
 62
     7
100
AcDbCircle
 10
-292.1656799316406
 20
324.7279968261719
 30
0.0
 40
3.099999904632568
100
AcDbArc
 50
180.0000000000004
 51
0.0
  0
ARC
  5
290
330
22
100
AcDbEntity
  8
0
  6
Continuous
 62
     7
100
AcDbCircle
 10
-282.3656921386719
 20
323.1279907226563
 30
0.0
 40
1.5
100
AcDbArc
 50
180.0000000000004
 51
270.0000000000005
  0
ARC
  5
291
330
22
100
AcDbEntity
  8
0
  6
Continuous
 62
     7
100
AcDbCircle
 10
-303.565673828125
 20
324.7279968261719
 30
0.0
 40
3.099999904632568
100
AcDbArc
 50
180.0000000000004
 51
0.0
  0
ARC
  5
292
330
22
100
AcDbEntity
  8
0
  6
Continuous
 62
     7
100
AcDbCircle
 10
-279.1656799316406
 20
323.1279907226563
 30
0.0
 40
1.5
100
AcDbArc
 50
270.0000000000005
 51
0.0
  0
ARC
  5
293
330
22
100
AcDbEntity
  8
0
  6
Continuous
 62
     7
100
AcDbCircle
 10
-277.7656860351563
 20
201.9367828369141
 30
0.0
 40
10.0
100
AcDbArc
 50
308.6387269295273
 51
0.0
  0
ARC
  5
294
330
22
100
AcDbEntity
  8
0
  6
Continuous
 62
     7
100
AcDbCircle
 10
-265.7656860351563
 20
205.6282653808594
 30
0.0
 40
2.0
100
AcDbArc
 50
90.00000000000019
 51
180.0000000000004
  0
ARC
  5
295
330
22
100
AcDbEntity
  8
0
  6
Continuous
 62
     7
100
AcDbCircle
 10
-258.7656860351563
 20
208.6282653808594
 30
0.0
 40
1.0
100
AcDbArc
 50
270.0000000000005
 51
0.0
  0
ARC
  5
296
330
22
100
AcDbEntity
  8
0
  6
Continuous
 62
     7
100
AcDbCircle
 10
-258.2656860351563
 20
212.1282653808594
 30
0.0
 40
0.5
100
AcDbArc
 50
0.0
 51
90.00000000000019
  0
ARC
  5
297
330
22
100
AcDbEntity
  8
0
  6
Continuous
 62
     7
100
AcDbCircle
 10
-292.1656799316406
 20
313.3280029296875
 30
0.0
 40
3.099999904632568
100
AcDbArc
 50
0.0
 51
180.0000000000004
  0
ARC
  5
298
330
22
100
AcDbEntity
  8
0
  6
Continuous
 62
     7
100
AcDbCircle
 10
-279.1656799316406
 20
314.927978515625
 30
0.0
 40
1.5
100
AcDbArc
 50
0.0
 51
90.00000000000019
  0
ARC
  5
299
330
22
100
AcDbEntity
  8
0
  6
Continuous
 62
     7
100
AcDbCircle
 10
-282.3656921386719
 20
314.927978515625
 30
0.0
 40
1.5
100
AcDbArc
 50
90.00000000000019
 51
180.0000000000004
  0
ARC
  5
29A
330
22
100
AcDbEntity
  8
0
  6
Continuous
 62
     7
100
AcDbCircle
 10
-303.565673828125
 20
313.3280029296875
 30
0.0
 40
3.099999904632568
100
AcDbArc
 50
0.0
 51
180.0000000000004
  0
ARC
  5
29B
330
22
100
AcDbEntity
  8
0
  6
Continuous
 62
     7
100
AcDbCircle
 10
-284.3146667480469
 20
200.5140533447266
 30
0.0
 40
5.0
100
AcDbArc
 50
309.5892839918552
 51
354.9998431283868
  0
ARC
  5
29C
330
22
100
AcDbEntity
  8
0
  6
Continuous
 62
     7
100
AcDbCircle
 10
-295.9156799316406
 20
168.2240142822266
 30
0.0
 40
5.0
100
AcDbArc
 50
128.6387815192986
 51
180.0000000000004
  0
ARC
  5
29D
330
22
100
AcDbEntity
  8
0
  6
Continuous
 62
     7
100
AcDbCircle
 10
-301.9156799316406
 20
143.6282653808594
 30
0.0
 40
1.0
100
AcDbArc
 50
270.0000000000005
 51
0.0
  0
ARC
  5
29E
330
22
100
AcDbEntity
  8
0
  6
Continuous
 62
     7
100
AcDbCircle
 10
-337.7656860351563
 20
319.0279846191406
 30
0.0
 40
61.70000076293945
100
AcDbArc
 50
108.6197829613457
 51
114.820250683496
  0
ARC
  5
29F
330
22
100
AcDbEntity
  8
0
  6
Continuous
 62
     7
100
AcDbCircle
 10
-360.565673828125
 20
335.5279846191406
 30
0.0
 40
3.099999904632568
100
AcDbArc
 50
0.0
 51
180.0000000000004
  0
ARC
  5
2A0
330
22
100
AcDbEntity
  8
0
  6
Continuous
 62
     7
100
AcDbCircle
 10
-349.1656799316406
 20
346.0279846191406
 30
0.0
 40
3.099999904632568
100
AcDbArc
 50
0.0
 51
180.0000000000004
  0
ARC
  5
2A1
330
22
100
AcDbEntity
  8
0
  6
Continuous
 62
     7
100
AcDbCircle
 10
-349.1656799316406
 20
357.2279968261719
 30
0.0
 40
3.099999904632568
100
AcDbArc
 50
180.0000000000004
 51
0.0
  0
ARC
  5
2A2
330
22
100
AcDbEntity
  8
0
  6
Continuous
 62
     7
100
AcDbCircle
 10
-326.3656921386719
 20
357.2279968261719
 30
0.0
 40
3.099999904632568
100
AcDbArc
 50
180.0000000000004
 51
0.0
  0
ARC
  5
2A3
330
22
100
AcDbEntity
  8
0
  6
Continuous
 62
     7
100
AcDbCircle
 10
-337.7656860351563
 20
337.6279907226563
 30
0.0
 40
3.099999904632568
100
AcDbArc
 50
0.0
 51
180.0000000000004
  0
ARC
  5
2A4
330
22
100
AcDbEntity
  8
0
  6
Continuous
 62
     7
100
AcDbCircle
 10
-337.7656860351563
 20
348.8280029296875
 30
0.0
 40
3.099999904632568
100
AcDbArc
 50
180.0000000000004
 51
0.0
  0
ARC
  5
2A5
330
22
100
AcDbEntity
  8
0
  6
Continuous
 62
     7
100
AcDbCircle
 10
-337.7656860351563
 20
337.6279907226563
 30
0.0
 40
3.099999904632568
100
AcDbArc
 50
0.0
 51
180.0000000000004
  0
ARC
  5
2A6
330
22
100
AcDbEntity
  8
0
  6
Continuous
 62
     7
100
AcDbCircle
 10
-337.7656860351563
 20
348.8280029296875
 30
0.0
 40
3.099999904632568
100
AcDbArc
 50
180.0000000000004
 51
0.0
  0
ARC
  5
2A7
330
22
100
AcDbEntity
  8
0
  6
Continuous
 62
     7
100
AcDbCircle
 10
-326.3656921386719
 20
346.0279846191406
 30
0.0
 40
3.099999904632568
100
AcDbArc
 50
0.0
 51
180.0000000000004
  0
ARC
  5
2A8
330
22
100
AcDbEntity
  8
0
  6
Continuous
 62
     7
100
AcDbCircle
 10
-337.7656860351563
 20
319.0279846191406
 30
0.0
 40
61.70000076293945
100
AcDbArc
 50
97.66152898059766
 51
103.5921023381453
  0
ARC
  5
2A9
330
22
100
AcDbEntity
  8
0
  6
Continuous
 62
     7
100
AcDbCircle
 10
-337.7656860351563
 20
319.0279846191406
 30
0.0
 40
61.70000076293945
100
AcDbArc
 50
87.12369617681302
 51
92.87630382318701
  0
ARC
  5
2AA
330
22
100
AcDbEntity
  8
0
  6
Continuous
 62
     7
100
AcDbCircle
 10
-337.7656860351563
 20
319.0279846191406
 30
0.0
 40
61.70000076293945
100
AcDbArc
 50
87.12369617681302
 51
92.87630382318701
  0
CIRCLE
  5
2AB
330
22
100
AcDbEntity
  8
0
  6
Continuous
 62
     7
100
AcDbCircle
 10
-390.5932312011719
 20
349.5279846191406
 30
0.0
 40
5.0
  0
ARC
  5
2AC
330
22
100
AcDbEntity
  8
0
  6
Continuous
 62
     7
100
AcDbCircle
 10
-337.7656860351563
 20
319.0279846191406
 30
0.0
 40
61.70000076293945
100
AcDbArc
 50
156.3447451013656
 51
166.9232883660614
  0
ARC
  5
2AD
330
22
100
AcDbEntity
  8
0
  6
Continuous
 62
     7
100
AcDbCircle
 10
-337.7656860351563
 20
319.0279846191406
 30
0.0
 40
61.70000076293945
100
AcDbArc
 50
76.40789766185469
 51
82.33844293319334
  0
ARC
  5
2AE
330
22
100
AcDbEntity
  8
0
  6
Continuous
 62
     7
100
AcDbCircle
 10
-337.7656860351563
 20
319.0279846191406
 30
0.0
 40
61.70000076293945
100
AcDbArc
 50
120.268429732153
 51
127.1955904075814
  0
ARC
  5
2AF
330
22
100
AcDbEntity
  8
0
  6
Continuous
 62
     7
100
AcDbCircle
 10
-371.9656677246094
 20
354.427978515625
 30
0.0
 40
3.099999904632568
100
AcDbArc
 50
180.0000000000004
 51
0.0
  0
ARC
  5
2B0
330
22
100
AcDbEntity
  8
0
  6
Continuous
 62
     7
100
AcDbCircle
 10
-371.9656677246094
 20
343.2279968261719
 30
0.0
 40
3.099999904632568
100
AcDbArc
 50
0.0
 51
180.0000000000004
  0
ARC
  5
2B1
330
22
100
AcDbEntity
  8
0
  6
Continuous
 62
     7
100
AcDbCircle
 10
-360.565673828125
 20
346.7279968261719
 30
0.0
 40
3.099999904632568
100
AcDbArc
 50
180.0000000000004
 51
0.0
  0
ARC
  5
2B2
330
22
100
AcDbEntity
  8
0
  6
Continuous
 62
     7
100
AcDbCircle
 10
-337.7656860351563
 20
300.427978515625
 30
0.0
 40
3.099999904632568
100
AcDbArc
 50
180.0000000000004
 51
0.0
  0
ARC
  5
2B3
330
22
100
AcDbEntity
  8
0
  6
Continuous
 62
     7
100
AcDbCircle
 10
-337.7656860351563
 20
310.927978515625
 30
0.0
 40
3.099999904632568
100
AcDbArc
 50
0.0
 51
180.0000000000004
  0
ARC
  5
2B4
330
22
100
AcDbEntity
  8
0
  6
Continuous
 62
     7
100
AcDbCircle
 10
-337.7656860351563
 20
289.2279968261719
 30
0.0
 40
3.099999904632568
100
AcDbArc
 50
0.0
 51
180.0000000000004
  0
ARC
  5
2B5
330
22
100
AcDbEntity
  8
0
  6
Continuous
 62
     7
100
AcDbCircle
 10
-337.7656860351563
 20
266.927978515625
 30
0.0
 40
3.099999904632568
100
AcDbArc
 50
180.0000000000004
 51
0.0
  0
ARC
  5
2B6
330
22
100
AcDbEntity
  8
0
  6
Continuous
 62
     7
100
AcDbCircle
 10
-337.7656860351563
 20
319.0279846191406
 30
0.0
 40
61.70000076293945
100
AcDbArc
 50
272.7247069238183
 51
272.8799366251151
  0
ARC
  5
2B7
330
22
100
AcDbEntity
  8
0
  6
Continuous
 62
     7
100
AcDbCircle
 10
-349.1656799316406
 20
292.0279846191406
 30
0.0
 40
3.099999904632568
100
AcDbArc
 50
180.0000000000004
 51
0.0
  0
ARC
  5
2B8
330
22
100
AcDbEntity
  8
0
  6
Continuous
 62
     7
100
AcDbCircle
 10
-393.1990051269531
 20
342.697998046875
 30
0.0
 40
1.533328056335449
100
AcDbArc
 50
0.0
 51
134.9040434679127
  0
CIRCLE
  5
2B9
330
22
100
AcDbEntity
  8
0
  6
Continuous
 62
     7
100
AcDbCircle
 10
-390.5932312011719
 20
349.5279846191406
 30
0.0
 40
5.25
  0
CIRCLE
  5
2BA
330
22
100
AcDbEntity
  8
0
  6
Continuous
 62
     7
100
AcDbCircle
 10
-337.7656860351563
 20
258.0279846191406
 30
0.0
 40
5.0
  0
CIRCLE
  5
2BB
330
22
100
AcDbEntity
  8
0
  6
Continuous
 62
     7
100
AcDbCircle
 10
-337.7656860351563
 20
258.0279846191406
 30
0.0
 40
5.25
  0
ARC
  5
2BC
330
22
100
AcDbEntity
  8
0
  6
Continuous
 62
     7
100
AcDbCircle
 10
-371.9656677246094
 20
283.6279907226563
 30
0.0
 40
3.099999904632568
100
AcDbArc
 50
0.0
 51
180.0000000000004
  0
ARC
  5
2BD
330
22
100
AcDbEntity
  8
0
  6
Continuous
 62
     7
100
AcDbCircle
 10
-337.7656860351563
 20
319.0279846191406
 30
0.0
 40
61.70000076293945
100
AcDbArc
 50
232.804392460299
 51
239.7315559834226
  0
ARC
  5
2BE
330
22
100
AcDbEntity
  8
0
  6
Continuous
 62
     7
100
AcDbCircle
 10
-371.9656677246094
 20
294.8280029296875
 30
0.0
 40
3.099999904632568
100
AcDbArc
 50
180.0000000000004
 51
0.0
  0
ARC
  5
2BF
330
22
100
AcDbEntity
  8
0
  6
Continuous
 62
     7
100
AcDbCircle
 10
-337.7656860351563
 20
319.0279846191406
 30
0.0
 40
61.70000076293945
100
AcDbArc
 50
256.4078976618554
 51
262.3384710194031
  0
ARC
  5
2C0
330
22
100
AcDbEntity
  8
0
  6
Continuous
 62
     7
100
AcDbCircle
 10
-349.1656799316406
 20
280.8280029296875
 30
0.0
 40
3.099999904632568
100
AcDbArc
 50
0.0
 51
180.0000000000004
  0
ARC
  5
2C1
330
22
100
AcDbEntity
  8
0
  6
Continuous
 62
     7
100
AcDbCircle
 10
-360.565673828125
 20
313.3280029296875
 30
0.0
 40
3.099999904632568
100
AcDbArc
 50
0.0
 51
180.0000000000004
  0
ARC
  5
2C2
330
22
100
AcDbEntity
  8
0
  6
Continuous
 62
     7
100
AcDbCircle
 10
-360.565673828125
 20
302.5279846191406
 30
0.0
 40
3.099999904632568
100
AcDbArc
 50
180.0000000000004
 51
0.0
  0
ARC
  5
2C3
330
22
100
AcDbEntity
  8
0
  6
Continuous
 62
     7
100
AcDbCircle
 10
-337.7656860351563
 20
319.0279846191406
 30
0.0
 40
61.70000076293945
100
AcDbArc
 50
245.1797374204752
 51
251.3802079903282
  0
ARC
  5
2C4
330
22
100
AcDbEntity
  8
0
  6
Continuous
 62
     7
100
AcDbCircle
 10
-360.565673828125
 20
291.3280029296875
 30
0.0
 40
3.099999904632568
100
AcDbArc
 50
0.0
 51
180.0000000000004
  0
ARC
  5
2C5
330
22
100
AcDbEntity
  8
0
  6
Continuous
 62
     7
100
AcDbCircle
 10
-337.7656860351563
 20
310.927978515625
 30
0.0
 40
3.099999904632568
100
AcDbArc
 50
0.0
 51
180.0000000000004
  0
ARC
  5
2C6
330
22
100
AcDbEntity
  8
0
  6
Continuous
 62
     7
100
AcDbCircle
 10
-337.7656860351563
 20
300.427978515625
 30
0.0
 40
3.099999904632568
100
AcDbArc
 50
180.0000000000004
 51
0.0
  0
ARC
  5
2C7
330
22
100
AcDbEntity
  8
0
  6
Continuous
 62
     7
100
AcDbCircle
 10
-337.7656860351563
 20
289.2279968261719
 30
0.0
 40
3.099999904632568
100
AcDbArc
 50
0.0
 51
180.0000000000004
  0
ARC
  5
2C8
330
22
100
AcDbEntity
  8
0
  6
Continuous
 62
     7
100
AcDbCircle
 10
-326.3656921386719
 20
280.8280029296875
 30
0.0
 40
3.099999904632568
100
AcDbArc
 50
0.0
 51
180.0000000000004
  0
ARC
  5
2C9
330
22
100
AcDbEntity
  8
0
  6
Continuous
 62
     7
100
AcDbCircle
 10
-326.3656921386719
 20
292.0279846191406
 30
0.0
 40
3.099999904632568
100
AcDbArc
 50
180.0000000000004
 51
0.0
  0
ARC
  5
2CA
330
22
100
AcDbEntity
  8
0
  6
Continuous
 62
     7
100
AcDbCircle
 10
-337.7656860351563
 20
319.0279846191406
 30
0.0
 40
61.70000076293945
100
AcDbArc
 50
277.6615570668074
 51
283.5921023381461
  0
ARC
  5
2CB
330
22
100
AcDbEntity
  8
0
  6
Continuous
 62
     7
100
AcDbCircle
 10
-382.3656921386719
 20
342.7279968261719
 30
0.0
 40
2.099999904632567
100
AcDbArc
 50
180.0000000000004
 51
0.0
  0
ARC
  5
2CC
330
22
100
AcDbEntity
  8
0
  6
Continuous
 62
     7
100
AcDbCircle
 10
-337.7656860351563
 20
319.0279846191406
 30
0.0
 40
61.70000076293945
100
AcDbArc
 50
133.5365247832012
 51
139.1906105050367
  0
ARC
  5
2CD
330
22
100
AcDbEntity
  8
0
  6
Continuous
 62
     7
100
AcDbCircle
 10
-383.3656921386719
 20
332.5279846191406
 30
0.0
 40
3.099999904632568
100
AcDbArc
 50
0.0
 51
180.0000000000004
  0
ARC
  5
2CE
330
22
100
AcDbEntity
  8
0
  6
Continuous
 62
     7
100
AcDbCircle
 10
-396.3656921386719
 20
314.927978515625
 30
0.0
 40
1.5
100
AcDbArc
 50
90.00000000000019
 51
180.0000000000004
  0
ARC
  5
2CF
330
22
100
AcDbEntity
  8
0
  6
Continuous
 62
     7
100
AcDbCircle
 10
-393.1656799316406
 20
314.927978515625
 30
0.0
 40
1.5
100
AcDbArc
 50
0.0
 51
90.00000000000019
  0
ARC
  5
2D0
330
22
100
AcDbEntity
  8
0
  6
Continuous
 62
     7
100
AcDbCircle
 10
-393.1990051269531
 20
295.3580017089844
 30
0.0
 40
1.533328056335449
100
AcDbArc
 50
225.0967615261928
 51
0.0
  0
ARC
  5
2D1
330
22
100
AcDbEntity
  8
0
  6
Continuous
 62
     7
100
AcDbCircle
 10
-416.7656860351563
 20
208.6282653808594
 30
0.0
 40
1.0
100
AcDbArc
 50
180.0000000000004
 51
270.0000000000005
  0
ARC
  5
2D2
330
22
100
AcDbEntity
  8
0
  6
Continuous
 62
     7
100
AcDbCircle
 10
-409.7656860351563
 20
205.6282653808594
 30
0.0
 40
2.0
100
AcDbArc
 50
0.0
 51
90.00000000000019
  0
ARC
  5
2D3
330
22
100
AcDbEntity
  8
0
  6
Continuous
 62
     7
100
AcDbCircle
 10
-417.2656860351563
 20
212.1282653808594
 30
0.0
 40
0.5
100
AcDbArc
 50
90.00000000000019
 51
180.0000000000004
  0
ARC
  5
2D4
330
22
100
AcDbEntity
  8
0
  6
Continuous
 62
     7
100
AcDbCircle
 10
-397.7656860351563
 20
201.9367828369141
 30
0.0
 40
10.0
100
AcDbArc
 50
180.0000000000004
 51
231.3612730704741
  0
ARC
  5
2D5
330
22
100
AcDbEntity
  8
0
  6
Continuous
 62
     7
100
AcDbCircle
 10
-349.1656799316406
 20
313.3280029296875
 30
0.0
 40
3.099999904632568
100
AcDbArc
 50
0.0
 51
180.0000000000004
  0
ARC
  5
2D6
330
22
100
AcDbEntity
  8
0
  6
Continuous
 62
     7
100
AcDbCircle
 10
-326.3656921386719
 20
313.3280029296875
 30
0.0
 40
3.099999904632568
100
AcDbArc
 50
0.0
 51
180.0000000000004
  0
ARC
  5
2D7
330
22
100
AcDbEntity
  8
0
  6
Continuous
 62
     7
100
AcDbCircle
 10
-371.9656677246094
 20
313.3280029296875
 30
0.0
 40
3.099999904632568
100
AcDbArc
 50
0.0
 51
180.0000000000004
  0
ARC
  5
2D8
330
22
100
AcDbEntity
  8
0
  6
Continuous
 62
     7
100
AcDbCircle
 10
-371.9656677246094
 20
324.7279968261719
 30
0.0
 40
3.099999904632568
100
AcDbArc
 50
180.0000000000004
 51
0.0
  0
ARC
  5
2D9
330
22
100
AcDbEntity
  8
0
  6
Continuous
 62
     7
100
AcDbCircle
 10
-360.565673828125
 20
324.7279968261719
 30
0.0
 40
3.099999904632568
100
AcDbArc
 50
180.0000000000004
 51
0.0
  0
ARC
  5
2DA
330
22
100
AcDbEntity
  8
0
  6
Continuous
 62
     7
100
AcDbCircle
 10
-383.3656921386719
 20
324.7279968261719
 30
0.0
 40
3.099999904632568
100
AcDbArc
 50
180.0000000000004
 51
0.0
  0
CIRCLE
  5
2DB
330
22
100
AcDbEntity
  8
0
  6
Continuous
 62
     7
100
AcDbCircle
 10
-337.7656860351563
 20
319.0279846191406
 30
0.0
 40
3.0
  0
ARC
  5
2DC
330
22
100
AcDbEntity
  8
0
  6
Continuous
 62
     7
100
AcDbCircle
 10
-349.1656799316406
 20
324.7279968261719
 30
0.0
 40
3.099999904632568
100
AcDbArc
 50
180.0000000000004
 51
0.0
  0
ARC
  5
2DD
330
22
100
AcDbEntity
  8
0
  6
Continuous
 62
     7
100
AcDbCircle
 10
-326.3656921386719
 20
324.7279968261719
 30
0.0
 40
3.099999904632568
100
AcDbArc
 50
180.0000000000004
 51
0.0
  0
ARC
  5
2DE
330
22
100
AcDbEntity
  8
0
  6
Continuous
 62
     7
100
AcDbCircle
 10
-383.3656921386719
 20
313.3280029296875
 30
0.0
 40
3.099999904632568
100
AcDbArc
 50
0.0
 51
180.0000000000004
  0
ARC
  5
2DF
330
22
100
AcDbEntity
  8
0
  6
Continuous
 62
     7
100
AcDbCircle
 10
-383.3656921386719
 20
294.3011779785156
 30
0.0
 40
3.100116014480591
100
AcDbArc
 50
359.504220934762
 51
179.5042160543289
  0
ARC
  5
2E0
330
22
100
AcDbEntity
  8
0
  6
Continuous
 62
     7
100
AcDbCircle
 10
-337.7656860351563
 20
319.0279846191406
 30
0.0
 40
61.70000076293945
100
AcDbArc
 50
217.8795793638115
 51
226.4634752167995
  0
ARC
  5
2E1
330
22
100
AcDbEntity
  8
0
  6
Continuous
 62
     7
100
AcDbCircle
 10
-383.3656921386719
 20
305.5279846191406
 30
0.0
 40
3.099999904632568
100
AcDbArc
 50
180.0000000000004
 51
0.0
  0
ARC
  5
2E2
330
22
100
AcDbEntity
  8
0
  6
Continuous
 62
     7
100
AcDbCircle
 10
-373.6156921386719
 20
143.6282653808594
 30
0.0
 40
1.0
100
AcDbArc
 50
180.0000000000004
 51
270.0000000000005
  0
ARC
  5
2E3
330
22
100
AcDbEntity
  8
0
  6
Continuous
 62
     7
100
AcDbCircle
 10
-379.6156921386719
 20
168.2240142822266
 30
0.0
 40
5.0
100
AcDbArc
 50
0.0
 51
51.36121848070146
  0
ARC
  5
2E4
330
22
100
AcDbEntity
  8
0
  6
Continuous
 62
     7
100
AcDbCircle
 10
-396.3656921386719
 20
323.1279907226563
 30
0.0
 40
1.5
100
AcDbArc
 50
180.0000000000004
 51
270.0000000000005
  0
ARC
  5
2E5
330
22
100
AcDbEntity
  8
0
  6
Continuous
 62
     7
100
AcDbCircle
 10
-393.1656799316406
 20
323.1279907226563
 30
0.0
 40
1.5
100
AcDbArc
 50
270.0000000000005
 51
0.0
  0
ARC
  5
2E6
330
22
100
AcDbEntity
  8
0
  6
Continuous
 62
     7
100
AcDbCircle
 10
-337.7656860351563
 20
327.1279907226563
 30
0.0
 40
3.099999904632568
100
AcDbArc
 50
180.0000000000004
 51
0.0
  0
ARC
  5
2E7
330
22
100
AcDbEntity
  8
0
  6
Continuous
 62
     7
100
AcDbCircle
 10
-337.7656860351563
 20
327.1279907226563
 30
0.0
 40
3.099999904632568
100
AcDbArc
 50
180.0000000000004
 51
0.0
  0
ARC
  5
2E8
330
22
100
AcDbEntity
  8
0
  6
Continuous
 62
     7
100
AcDbCircle
 10
-314.9656677246094
 20
302.5279846191406
 30
0.0
 40
3.099999904632568
100
AcDbArc
 50
180.0000000000004
 51
0.0
  0
ARC
  5
2E9
330
22
100
AcDbEntity
  8
0
  6
Continuous
 62
     7
100
AcDbCircle
 10
-314.9656677246094
 20
291.3280029296875
 30
0.0
 40
3.099999904632568
100
AcDbArc
 50
0.0
 51
180.0000000000004
  0
ARC
  5
2EA
330
22
100
AcDbEntity
  8
0
  6
Continuous
 62
     7
100
AcDbCircle
 10
-337.7656860351563
 20
319.0279846191406
 30
0.0
 40
61.70000076293945
100
AcDbArc
 50
288.6198188655494
 51
294.8202625795262
  0
ARC
  5
2EB
330
22
100
AcDbEntity
  8
0
  6
Continuous
 62
     7
100
AcDbCircle
 10
-314.9656677246094
 20
346.7279968261719
 30
0.0
 40
3.099999904632568
100
AcDbArc
 50
180.0000000000004
 51
0.0
  0
ARC
  5
2EC
330
22
100
AcDbEntity
  8
0
  6
Continuous
 62
     7
100
AcDbCircle
 10
-337.7656860351563
 20
319.0279846191406
 30
0.0
 40
61.70000076293945
100
AcDbArc
 50
65.17974931650396
 51
71.38019018278942
  0
ARC
  5
2ED
330
22
100
AcDbEntity
  8
0
  6
Continuous
 62
     7
100
AcDbCircle
 10
-314.9656677246094
 20
335.5279846191406
 30
0.0
 40
3.099999904632568
100
AcDbArc
 50
0.0
 51
180.0000000000004
  0
ARC
  5
2EE
330
22
100
AcDbEntity
  8
0
  6
Continuous
 62
     7
100
AcDbCircle
 10
-314.9656677246094
 20
313.3280029296875
 30
0.0
 40
3.099999904632568
100
AcDbArc
 50
0.0
 51
180.0000000000004
  0
CIRCLE
  5
2EF
330
22
100
AcDbEntity
  8
0
  6
Continuous
 62
     7
100
AcDbCircle
 10
-337.7656860351563
 20
319.0279846191406
 30
0.0
 40
83.0
  0
ARC
  5
2F0
330
22
100
AcDbEntity
  8
0
  6
Continuous
 62
     7
100
AcDbCircle
 10
-337.7656860351563
 20
319.0279846191406
 30
0.0
 40
61.70000076293945
100
AcDbArc
 50
193.0766840296359
 51
203.6552548986351
  0
CIRCLE
  5
2F1
330
22
100
AcDbEntity
  8
0
  6
Continuous
 62
     7
100
AcDbCircle
 10
-337.7656860351563
 20
319.0279846191406
 30
0.0
 40
80.0
  0
CIRCLE
  5
2F2
330
22
100
AcDbEntity
  8
0
  6
Continuous
 62
     7
100
AcDbCircle
 10
-337.7656860351563
 20
319.0279846191406
 30
0.0
 40
67.5
  0
CIRCLE
  5
2F3
330
22
100
AcDbEntity
  8
0
  6
Continuous
 62
     7
100
AcDbCircle
 10
-337.7656860351563
 20
319.0279846191406
 30
0.0
 40
67.0
  0
ARC
  5
2F4
330
22
100
AcDbEntity
  8
0
  6
Continuous
 62
     7
100
AcDbCircle
 10
-314.9656677246094
 20
324.7279968261719
 30
0.0
 40
3.099999904632568
100
AcDbArc
 50
180.0000000000004
 51
0.0
  0
TEXT
  5
2F5
330
22
100
AcDbEntity
  8
0
  6
Continuous
 62
     7
100
AcDbText
 10
-236.471489906311
 20
241.7151794433594
 30
0.0
 40
7.0
  1
ＤＬ－ＳＳＰ－５０
 41
0.8448610808647003
100
AcDbText
  0
DIMENSION
  5
2F6
330
22
100
AcDbEntity
  8
0
  6
Continuous
 62
     7
100
AcDbDimension
  2
*D1
 10
-404.2756304814698
 20
269.3749153308451
 30
0.0
 11
-256.2980346679688
 21
379.8477478027344
 31
0.0
 70
     3
 71
     5
 42
-1.0
  3
DIMSTYLE1
100
AcDbDiametricDimension
 15
-271.2557415888426
 25
368.6810539074362
 35
0.0
 40
0.0
  0
DIMENSION
  5
2F7
330
22
100
AcDbEntity
  8
0
  6
Continuous
 62
     7
100
AcDbDimension
  2
*D2
 10
-415.3349379853133
 20
299.4573139128757
 30
0.0
 11
-234.6325225830078
 21
345.0484313964844
 31
0.0
 70
     3
 71
     5
 42
-1.0
  3
DIMSTYLE2
100
AcDbDiametricDimension
 15
-260.1964340849992
 25
338.5986553254056
 35
0.0
 40
0.0
  0
DIMENSION
  5
2F8
330
22
100
AcDbEntity
  8
0
  6
Continuous
 62
     7
100
AcDbDimension
  2
*D3
 10
-401.8210121828198
 20
338.6727089011568
 30
0.0
 11
-241.7047271728516
 21
289.5676574707031
 31
0.0
 70
     3
 71
     5
 42
-1.0
  3
DIMSTYLE3
100
AcDbDiametricDimension
 15
-273.7103598874926
 25
299.3832603371245
 35
0.0
 40
0.0
  0
DIMENSION
  5
2F9
330
22
100
AcDbEntity
  8
0
  6
Continuous
 62
     7
100
AcDbDimension
  2
*D4
 10
-428.1647644042968
 20
80.62827301025391
 30
0.0
 11
-428.1647644042968
 21
48.62826919555664
 31
0.0
 71
     5
 42
-1.0
  3
DIMSTYLE4
100
AcDbAlignedDimension
 13
-370.7656860351563
 23
16.62826919555664
 33
0.0
 14
-370.7656860351563
 24
80.62827301025391
 34
0.0
 50
90.0
100
AcDbRotatedDimension
  0
DIMENSION
  5
2FA
330
22
100
AcDbEntity
  8
0
  6
Continuous
 62
     7
100
AcDbDimension
  2
*D5
 10
-304.7656860351563
 20
8.507033348083496
 30
0.0
 11
-337.7656860351563
 21
8.507033348083496
 31
0.0
 71
     5
 42
-1.0
  3
DIMSTYLE5
100
AcDbAlignedDimension
 13
-370.7656860351563
 23
16.62826919555664
 33
0.0
 14
-304.7656860351563
 24
16.62826919555664
 34
0.0
100
AcDbRotatedDimension
  0
INSERT
  5
2FB
330
22
100
AcDbEntity
  8
0
  6
Continuous
 62
     7
100
AcDbBlockReference
  2
KOZU0001
 10
-308.2978515625
 20
27.27951622009277
 30
0.0
  0
DIMENSION
  5
2FC
330
22
100
AcDbEntity
  8
0
  6
Continuous
 62
     7
100
AcDbDimension
  2
*D6
 10
-225.7323303222656
 20
212.6282653808594
 30
0.0
 11
-225.7323303222656
 21
134.1282653808594
 31
0.0
 71
     5
 42
-1.0
  3
DIMSTYLE6
100
AcDbAlignedDimension
 13
-254.7656860351563
 23
55.62826919555664
 33
0.0
 14
-258.2656860351563
 24
212.6282653808594
 34
0.0
 50
90.0
100
AcDbRotatedDimension
  0
DIMENSION
  5
2FD
330
22
100
AcDbEntity
  8
0
  6
Continuous
 62
     7
100
AcDbDimension
  2
*D7
 10
-225.7323303222656
 20
52.62826919555664
 30
0.0
 11
-225.7323303222656
 21
45.16655349731445
 31
0.0
 71
     5
 42
-1.0
  3
DIMSTYLE7
100
AcDbAlignedDimension
 13
-223.4463348388672
 23
55.62826919555664
 33
0.0
 14
-254.7656860351563
 24
52.62826919555664
 34
0.0
 50
90.0
100
AcDbRotatedDimension
  0
DIMENSION
  5
2FE
330
22
100
AcDbEntity
  8
0
  6
Continuous
 62
     7
100
AcDbDimension
  2
*D8
 10
-239.8014984130859
 20
80.62827301025391
 30
0.0
 11
-239.8014984130859
 21
68.1282730102539
 31
0.0
 71
     5
 42
-1.0
  3
DIMSTYLE8
100
AcDbAlignedDimension
 13
-254.7656860351563
 23
55.62826919555664
 33
0.0
 14
-305.8074951171875
 24
80.62827301025391
 34
0.0
 50
90.0
100
AcDbRotatedDimension
  0
DIMENSION
  5
2FF
330
22
100
AcDbEntity
  8
0
  6
Continuous
 62
     7
100
AcDbDimension
  2
*D9
 10
-239.8014984130859
 20
142.6282653808594
 30
0.0
 11
-239.8014984130859
 21
177.6282653808594
 31
0.0
 71
     5
 42
-1.0
  3
DIMSTYLE9
100
AcDbAlignedDimension
 13
-223.4463348388672
 23
212.6282653808594
 33
0.0
 14
-301.9156799316406
 24
142.6282653808594
 34
0.0
 50
90.0
100
AcDbRotatedDimension
  0
DIMENSION
  5
300
330
22
100
AcDbEntity
  8
0
  6
Continuous
 62
     7
100
AcDbDimension
  2
*D10
 10
-323.1264038085938
 20
160.6282653808594
 30
0.0
 11
-323.1264038085938
 21
110.6282730102539
 31
0.0
 71
     5
 42
-1.0
  3
DIMSTYLE10
100
AcDbAlignedDimension
 13
-309.4156799316406
 23
60.62826919555664
 33
0.0
 14
-309.9125671386719
 24
160.6282653808594
 34
0.0
 50
90.0
100
AcDbRotatedDimension
  0
ENDSEC
  0
SECTION
  2
OBJECTS
  0
DICTIONARY
  5
C
330
0
100
AcDbDictionary
281
     1
  3
ACAD_COLOR
350
1B
  3
ACAD_GROUP
350
D
  3
ACAD_LAYOUT
350
19
  3
ACAD_MATERIAL
350
1A
  3
ACAD_MLINESTYLE
350
16
  3
ACAD_PLOTSETTINGS
350
18
  3
ACAD_PLOTSTYLENAME
350
E
  3
ACAD_TABLESTYLE
350
1C
  3
AcDbVariableDictionary
350
30C
  0
DICTIONARY
  5
1B
102
{ACAD_REACTORS
330
C
102
}
330
C
100
AcDbDictionary
281
     1
  0
DICTIONARY
  5
D
102
{ACAD_REACTORS
330
C
102
}
330
C
100
AcDbDictionary
281
     1
  0
DICTIONARY
  5
19
102
{ACAD_REACTORS
330
C
102
}
330
C
100
AcDbDictionary
281
     1
  3
Model
350
25
  3
レイアウト1
350
21
  0
DICTIONARY
  5
1A
102
{ACAD_REACTORS
330
C
102
}
330
C
100
AcDbDictionary
281
     1
  0
DICTIONARY
  5
16
102
{ACAD_REACTORS
330
C
102
}
330
C
100
AcDbDictionary
281
     1
  3
Standard
350
17
  0
DICTIONARY
  5
18
102
{ACAD_REACTORS
330
C
102
}
330
C
100
AcDbDictionary
281
     1
  0
ACDBDICTIONARYWDFLT
  5
E
102
{ACAD_REACTORS
330
C
102
}
330
C
100
AcDbDictionary
281
     1
  3
Normal
350
F
100
AcDbDictionaryWithDefault
340
F
  0
DICTIONARY
  5
1C
102
{ACAD_REACTORS
330
C
102
}
330
C
100
AcDbDictionary
281
     1
  3
Standard
350
1D
  0
DICTIONARY
  5
30C
102
{ACAD_REACTORS
330
C
102
}
330
C
100
AcDbDictionary
281
     1
  3
CTABLESTYLE
350
30D
  0
LAYOUT
  5
25
102
{ACAD_REACTORS
330
19
102
}
330
19
100
AcDbPlotSettings
  1

  2
PDF reDirect v2
  4
User66
  6

 40
3.174999952316284
 41
3.174999952316284
 42
3.17498779296875
 43
3.17498779296875
 44
420.0
 45
594.0
 46
0.0
 47
0.0
 48
0.0
 49
0.0
140
0.0
141
0.0
142
1.0
143
1.0
 70
 11952
 72
     1
 73
     1
 74
     2
  7
C:\Users\ck\AppData\Roaming\Autodesk\AutoCAD 2005\R16.1\jpn\Plot Styles\black.ctb
 75
    16
147
1.0
 76
     0
 77
     2
 78
   300
148
592.0
149
0.0
100
AcDbLayout
  1
Model
 70
     1
 71
     0
 10
0.0
 20
0.0
 11
12.0
 21
9.0
 12
0.0
 22
0.0
 32
0.0
 14
0.0
 24
0.0
 34
0.0
 15
0.0
 25
0.0
 35
0.0
146
0.0
 13
0.0
 23
0.0
 33
0.0
 16
1.0
 26
0.0
 36
0.0
 17
0.0
 27
1.0
 37
0.0
 76
     0
330
22
1001
ACAD_PSEXT
1000
PDF reDirect v2
1000
PDF reDirect Pro
1000
PDF_REDIRECT_PORT:
1000
PDF reDirect provided by EXP Systems
1070
     0
  0
LAYOUT
  5
21
102
{ACAD_REACTORS
330
19
102
}
330
19
100
AcDbPlotSettings
  1

  2
PDF reDirect v2
  4

  6

 40
0.0
 41
0.0
 42
0.0
 43
0.0
 44
0.0
 45
0.0
 46
0.0
 47
0.0
 48
0.0
 49
0.0
140
0.0
141
0.0
142
1.0
143
1.0
 70
   688
 72
     0
 73
     0
 74
     5
  7
C:\Users\ck\AppData\Roaming\Autodesk\AutoCAD 2005\R16.1\jpn\Plot Styles\black.ctb
 75
    16
147
1.0
 76
     0
 77
     2
 78
   300
148
0.0
149
0.0
100
AcDbLayout
  1
レイアウト1
 70
     1
 71
     1
 10
-592.0
 20
0.0
 11
0.0
 21
418.0
 12
0.0
 22
0.0
 32
0.0
 14
1.000000000000000E+20
 24
1.000000000000000E+20
 34
1.000000000000000E+20
 15
-1.000000000000000E+20
 25
-1.000000000000000E+20
 35
-1.000000000000000E+20
146
0.0
 13
0.0
 23
0.0
 33
0.0
 16
1.0
 26
0.0
 36
0.0
 17
0.0
 27
1.0
 37
0.0
 76
     0
330
1E
  0
MLINESTYLE
  5
17
102
{ACAD_REACTORS
330
16
102
}
330
16
100
AcDbMlineStyle
  2
STANDARD
 70
     0
  3

 62
   256
 51
90.0
 52
90.0
 71
     2
 49
0.5
 62
   256
  6
BYLAYER
 49
-0.5
 62
   256
  6
BYLAYER
  0
ACDBPLACEHOLDER
  5
F
102
{ACAD_REACTORS
330
E
102
}
330
E
  0
TABLESTYLE
  5
1D
102
{ACAD_REACTORS
330
1C
102
}
330
1C
100
AcDbTableStyle
  3
Standard
 70
     0
 71
     0
 40
0.06
 41
0.06
280
     0
281
     0
  7
STANDARD
140
0.18
170
     2
 62
     0
 63
     7
283
     0
274
    -2
284
     1
 64
     0
275
    -2
285
     1
 65
     0
276
    -2
286
     1
 66
     0
277
    -2
287
     1
 67
     0
278
    -2
288
     1
 68
     0
279
    -2
289
     1
 69
     0
  7
STANDARD
140
0.25
170
     5
 62
     0
 63
     7
283
     0
274
    -2
284
     1
 64
     0
275
    -2
285
     1
 65
     0
276
    -2
286
     1
 66
     0
277
    -2
287
     1
 67
     0
278
    -2
288
     1
 68
     0
279
    -2
289
     1
 69
     0
  7
STANDARD
140
0.18
170
     5
 62
     0
 63
     7
283
     0
274
    -2
284
     1
 64
     0
275
    -2
285
     1
 65
     0
276
    -2
286
     1
 66
     0
277
    -2
287
     1
 67
     0
278
    -2
288
     1
 68
     0
279
    -2
289
     1
 69
     0
  0
DICTIONARYVAR
  5
30D
102
{ACAD_REACTORS
330
30C
102
}
330
30C
100
DictionaryVariables
280
     0
  1
STANDARD
  0
ENDSEC
  0
EOF
