  0
SECTION
  2
HEADER
  9
$ACADVER
  1
AC1018
  9
$ACADMAINTVER
 70
    39
  9
$DWGCODEPAGE
  3
ANSI_932
  9
$INSBASE
 10
0.0
 20
0.0
 30
0.0
  9
$EXTMIN
 10
-434.2983382818036
 20
8.661561041909294
 30
-0.0015258207003583
  9
$EXTMAX
 10
-194.7377918170971
 20
397.5707101779649
 30
0.0000000349246037
  9
$LIMMIN
 10
-592.0
 20
0.0
  9
$LIMMAX
 10
0.0
 20
418.0
  9
$ORTHOMODE
 70
     0
  9
$REGENMODE
 70
     1
  9
$FILLMODE
 70
     1
  9
$QTEXTMODE
 70
     0
  9
$MIRRTEXT
 70
     0
  9
$LTSCALE
 40
1.0
  9
$ATTMODE
 70
     1
  9
$TEXTSIZE
 40
0.2
  9
$TRACEWID
 40
0.05
  9
$TEXTSTYLE
  7
STANDARD
  9
$CLAYER
  8
0
  9
$CELTYPE
  6
CONTINUOUS
  9
$CECOLOR
 62
   256
  9
$CELTSCALE
 40
1.0
  9
$DISPSILH
 70
     0
  9
$DIMSCALE
 40
1.0
  9
$DIMASZ
 40
1.0
  9
$DIMEXO
 40
2.54
  9
$DIMDLI
 40
0.38
  9
$DIMRND
 40
0.0
  9
$DIMDLE
 40
0.0
  9
$DIMEXE
 40
2.54
  9
$DIMTP
 40
0.0
  9
$DIMTM
 40
0.0
  9
$DIMTXT
 40
3.0
  9
$DIMCEN
 40
0.09
  9
$DIMTSZ
 40
0.0
  9
$DIMTOL
 70
     0
  9
$DIMLIM
 70
     0
  9
$DIMTIH
 70
     0
  9
$DIMTOH
 70
     0
  9
$DIMSE1
 70
     0
  9
$DIMSE2
 70
     0
  9
$DIMTAD
 70
     1
  9
$DIMZIN
 70
     0
  9
$DIMBLK
  1

  9
$DIMASO
 70
     1
  9
$DIMSHO
 70
     0
  9
$DIMPOST
  1

  9
$DIMAPOST
  1

  9
$DIMALT
 70
     0
  9
$DIMALTD
 70
     2
  9
$DIMALTF
 40
25.4
  9
$DIMLFAC
 40
1.0
  9
$DIMTOFL
 70
     0
  9
$DIMTVP
 40
1.0
  9
$DIMTIX
 70
     0
  9
$DIMSOXD
 70
     0
  9
$DIMSAH
 70
     1
  9
$DIMBLK1
  1

  9
$DIMBLK2
  1

  9
$DIMSTYLE
  2
DIMSTYLE1
  9
$DIMCLRD
 70
     0
  9
$DIMCLRE
 70
     0
  9
$DIMCLRT
 70
     0
  9
$DIMTFAC
 40
1.0
  9
$DIMGAP
 40
1.5
  9
$DIMJUST
 70
     0
  9
$DIMSD1
 70
     0
  9
$DIMSD2
 70
     0
  9
$DIMTOLJ
 70
     1
  9
$DIMTZIN
 70
     0
  9
$DIMALTZ
 70
     0
  9
$DIMALTTZ
 70
     0
  9
$DIMUPT
 70
     0
  9
$DIMDEC
 70
     4
  9
$DIMTDEC
 70
     4
  9
$DIMALTU
 70
     2
  9
$DIMALTTD
 70
     2
  9
$DIMTXSTY
  7
STANDARD
  9
$DIMAUNIT
 70
     0
  9
$DIMADEC
 70
     0
  9
$DIMALTRND
 40
0.0
  9
$DIMAZIN
 70
     0
  9
$DIMDSEP
 70
    46
  9
$DIMATFIT
 70
     3
  9
$DIMFRAC
 70
     0
  9
$DIMLDRBLK
  1

  9
$DIMLUNIT
 70
     2
  9
$DIMLWD
 70
    -2
  9
$DIMLWE
 70
    -2
  9
$DIMTMOVE
 70
     0
  9
$LUNITS
 70
     2
  9
$LUPREC
 70
     4
  9
$SKETCHINC
 40
0.1
  9
$FILLETRAD
 40
0.0
  9
$AUNITS
 70
     0
  9
$AUPREC
 70
     0
  9
$MENU
  1
.
  9
$ELEVATION
 40
0.0
  9
$PELEVATION
 40
0.0
  9
$THICKNESS
 40
0.0
  9
$LIMCHECK
 70
     0
  9
$CHAMFERA
 40
0.0
  9
$CHAMFERB
 40
0.0
  9
$CHAMFERC
 40
0.0
  9
$CHAMFERD
 40
0.0
  9
$SKPOLY
 70
     0
  9
$TDCREATE
 40
2457842.992274097
  9
$TDUCREATE
 40
2457842.617274097
  9
$TDUPDATE
 40
2457842.992801805
  9
$TDUUPDATE
 40
2457842.617801806
  9
$TDINDWG
 40
0.0005287500
  9
$TDUSRTIMER
 40
0.0005287500
  9
$USRTIMER
 70
     1
  9
$ANGBASE
 50
0.0
  9
$ANGDIR
 70
     0
  9
$PDMODE
 70
     0
  9
$PDSIZE
 40
0.0
  9
$PLINEWID
 40
0.0
  9
$SPLFRAME
 70
     0
  9
$SPLINETYPE
 70
     6
  9
$SPLINESEGS
 70
     8
  9
$HANDSEED
  5
2B5
  9
$SURFTAB1
 70
     6
  9
$SURFTAB2
 70
     6
  9
$SURFTYPE
 70
     6
  9
$SURFU
 70
     6
  9
$SURFV
 70
     6
  9
$UCSBASE
  2

  9
$UCSNAME
  2

  9
$UCSORG
 10
0.0
 20
0.0
 30
0.0
  9
$UCSXDIR
 10
1.0
 20
0.0
 30
0.0
  9
$UCSYDIR
 10
0.0
 20
1.0
 30
0.0
  9
$UCSORTHOREF
  2

  9
$UCSORTHOVIEW
 70
     0
  9
$UCSORGTOP
 10
0.0
 20
0.0
 30
0.0
  9
$UCSORGBOTTOM
 10
0.0
 20
0.0
 30
0.0
  9
$UCSORGLEFT
 10
0.0
 20
0.0
 30
0.0
  9
$UCSORGRIGHT
 10
0.0
 20
0.0
 30
0.0
  9
$UCSORGFRONT
 10
0.0
 20
0.0
 30
0.0
  9
$UCSORGBACK
 10
0.0
 20
0.0
 30
0.0
  9
$PUCSBASE
  2

  9
$PUCSNAME
  2

  9
$PUCSORG
 10
0.0
 20
0.0
 30
0.0
  9
$PUCSXDIR
 10
1.0
 20
0.0
 30
0.0
  9
$PUCSYDIR
 10
0.0
 20
1.0
 30
0.0
  9
$PUCSORTHOREF
  2

  9
$PUCSORTHOVIEW
 70
     0
  9
$PUCSORGTOP
 10
0.0
 20
0.0
 30
0.0
  9
$PUCSORGBOTTOM
 10
0.0
 20
0.0
 30
0.0
  9
$PUCSORGLEFT
 10
0.0
 20
0.0
 30
0.0
  9
$PUCSORGRIGHT
 10
0.0
 20
0.0
 30
0.0
  9
$PUCSORGFRONT
 10
0.0
 20
0.0
 30
0.0
  9
$PUCSORGBACK
 10
0.0
 20
0.0
 30
0.0
  9
$USERI1
 70
     0
  9
$USERI2
 70
     0
  9
$USERI3
 70
     0
  9
$USERI4
 70
     0
  9
$USERI5
 70
     0
  9
$USERR1
 40
0.0
  9
$USERR2
 40
0.0
  9
$USERR3
 40
0.0
  9
$USERR4
 40
0.0
  9
$USERR5
 40
0.0
  9
$WORLDVIEW
 70
     1
  9
$SHADEDGE
 70
     3
  9
$SHADEDIF
 70
    70
  9
$TILEMODE
 70
     1
  9
$MAXACTVP
 70
    64
  9
$PINSBASE
 10
0.0
 20
0.0
 30
0.0
  9
$PLIMCHECK
 70
     0
  9
$PEXTMIN
 10
1.000000000000000E+20
 20
1.000000000000000E+20
 30
1.000000000000000E+20
  9
$PEXTMAX
 10
-1.000000000000000E+20
 20
-1.000000000000000E+20
 30
-1.000000000000000E+20
  9
$PLIMMIN
 10
-592.0
 20
0.0
  9
$PLIMMAX
 10
0.0
 20
418.0
  9
$UNITMODE
 70
     0
  9
$VISRETAIN
 70
     1
  9
$PLINEGEN
 70
     0
  9
$PSLTSCALE
 70
     1
  9
$TREEDEPTH
 70
  3020
  9
$CMLSTYLE
  2
Standard
  9
$CMLJUST
 70
     0
  9
$CMLSCALE
 40
1.0
  9
$PROXYGRAPHICS
 70
     1
  9
$MEASUREMENT
 70
     0
  9
$CELWEIGHT
370
    -1
  9
$ENDCAPS
280
     0
  9
$JOINSTYLE
280
     0
  9
$LWDISPLAY
290
     0
  9
$INSUNITS
 70
     0
  9
$HYPERLINKBASE
  1

  9
$STYLESHEET
  1

  9
$XEDIT
290
     1
  9
$CEPSNTYPE
380
     0
  9
$PSTYLEMODE
290
     1
  9
$FINGERPRINTGUID
  2
{6B216EF1-1368-45BB-9A59-9E6D4C8B324E}
  9
$VERSIONGUID
  2
{B04B1374-84F9-4242-AB81-4920FB63D95F}
  9
$EXTNAMES
290
     1
  9
$PSVPSCALE
 40
0.0
  9
$OLESTARTUP
290
     0
  9
$SORTENTS
280
   127
  9
$INDEXCTL
280
     0
  9
$HIDETEXT
280
     0
  9
$XCLIPFRAME
290
     0
  9
$HALOGAP
280
     0
  9
$OBSCOLOR
 70
   257
  9
$OBSLTYPE
280
     0
  9
$INTERSECTIONDISPLAY
280
     0
  9
$INTERSECTIONCOLOR
 70
   257
  9
$DIMASSOC
280
     1
  9
$PROJECTNAME
  1

  0
ENDSEC
  0
SECTION
  2
CLASSES
  0
CLASS
  1
ACDBDICTIONARYWDFLT
  2
AcDbDictionaryWithDefault
  3
ObjectDBX Classes
 90
        0
 91
        1
280
     0
281
     0
  0
CLASS
  1
TABLESTYLE
  2
AcDbTableStyle
  3
ObjectDBX Classes
 90
     2047
 91
        1
280
     0
281
     0
  0
CLASS
  1
DICTIONARYVAR
  2
AcDbDictionaryVar
  3
ObjectDBX Classes
 90
        0
 91
        1
280
     0
281
     0
  0
ENDSEC
  0
SECTION
  2
TABLES
  0
TABLE
  2
VPORT
  5
8
330
0
100
AcDbSymbolTable
 70
     2
  0
VPORT
  5
2B4
330
8
100
AcDbSymbolTableRecord
100
AcDbViewportTableRecord
  2
*Active
 70
     0
 10
0.0
 20
0.0
 11
1.0
 21
1.0
 12
-296.0
 22
209.0
 13
0.0
 23
0.0
 14
1.0
 24
1.0
 15
0.0
 25
0.0
 16
0.0
 26
0.0
 36
1.0
 17
0.0
 27
0.0
 37
0.0
 40
421.3043478260869
 41
1.707124010554089
 42
50.0
 43
0.0
 44
0.0
 50
0.0
 51
0.0
 71
     0
 72
   100
 73
     1
 74
     1
 75
     0
 76
     0
 77
     0
 78
     0
281
     0
 65
     1
110
0.0
120
0.0
130
0.0
111
1.0
121
0.0
131
0.0
112
0.0
122
1.0
132
0.0
 79
     0
146
0.0
  0
ENDTAB
  0
TABLE
  2
LTYPE
  5
5
330
0
100
AcDbSymbolTable
 70
     6
  0
LTYPE
  5
13
330
5
100
AcDbSymbolTableRecord
100
AcDbLinetypeTableRecord
  2
ByBlock
 70
     0
  3

 72
    65
 73
     0
 40
0.0
  0
LTYPE
  5
14
330
5
100
AcDbSymbolTableRecord
100
AcDbLinetypeTableRecord
  2
ByLayer
 70
     0
  3

 72
    65
 73
     0
 40
0.0
  0
LTYPE
  5
15
330
5
100
AcDbSymbolTableRecord
100
AcDbLinetypeTableRecord
  2
CONTINUOUS
 70
     0
  3
Solid line
 72
    65
 73
     0
 40
0.0
  0
LTYPE
  5
26
330
5
100
AcDbSymbolTableRecord
100
AcDbLinetypeTableRecord
  2
DASHED
 70
     0
  3
__ __ __ __ __ __ __ __ __ __ __ __ __ __ __
 72
    65
 73
     2
 40
3.5
 49
2.0
 74
     0
 49
-1.5
 74
     0
  0
LTYPE
  5
27
330
5
100
AcDbSymbolTableRecord
100
AcDbLinetypeTableRecord
  2
CENTER
 70
     0
  3
____ _ ____ _ ____ _ ____ _ ____ _ ____ _ ____
 72
    65
 73
     4
 40
17.5
 49
13.0
 74
     0
 49
-1.5
 74
     0
 49
1.5
 74
     0
 49
-1.5
 74
     0
  0
LTYPE
  5
28
330
5
100
AcDbSymbolTableRecord
100
AcDbLinetypeTableRecord
  2
PHANTOM
 70
     0
  3
_____ _ _ _____ _ _ _____ _ _ _____ _ _ ____  
 72
    65
 73
     6
 40
15.5
 49
8.0
 74
     0
 49
-1.5
 74
     0
 49
1.5
 74
     0
 49
-1.5
 74
     0
 49
1.5
 74
     0
 49
-1.5
 74
     0
  0
LTYPE
  5
29
330
5
100
AcDbSymbolTableRecord
100
AcDbLinetypeTableRecord
  2
DOT
 70
     0
  3
. . . . . . . . . . . . . . . . . . . . . . . .
 72
    65
 73
     2
 40
0.25
 49
0.0
 74
     0
 49
-0.25
 74
     0
  0
LTYPE
  5
2A
330
5
100
AcDbSymbolTableRecord
100
AcDbLinetypeTableRecord
  2
HIDDEN
 70
     0
  3
__ __ __ __ __ __ __ __ __ __ __ __ __ __ __
 72
    65
 73
     2
 40
3.5
 49
2.0
 74
     0
 49
-1.5
 74
     0
  0
ENDTAB
  0
TABLE
  2
LAYER
  5
2
330
0
100
AcDbSymbolTable
 70
     2
  0
LAYER
  5
10
330
2
100
AcDbSymbolTableRecord
100
AcDbLayerTableRecord
  2
0
 70
     0
 62
     7
  6
CONTINUOUS
370
    -3
390
F
  0
LAYER
  5
2B
330
2
100
AcDbSymbolTableRecord
100
AcDbLayerTableRecord
  2
DEFPOINTS
 70
     0
 62
     7
  6
CONTINUOUS
290
     0
370
    -3
390
F
  0
ENDTAB
  0
TABLE
  2
STYLE
  5
3
330
0
100
AcDbSymbolTable
 70
     2
  0
STYLE
  5
11
330
3
100
AcDbSymbolTableRecord
100
AcDbTextStyleTableRecord
  2
STANDARD
 70
     0
 40
0.0
 41
1.0
 50
0.0
 71
     0
 42
0.2
  3

  4

1001
ACAD
1000
MS Gothic
1071
    32817
  0
ENDTAB
  0
TABLE
  2
VIEW
  5
6
330
0
100
AcDbSymbolTable
 70
     0
  0
ENDTAB
  0
TABLE
  2
UCS
  5
7
330
0
100
AcDbSymbolTable
 70
     0
  0
ENDTAB
  0
TABLE
  2
APPID
  5
9
330
0
100
AcDbSymbolTable
 70
     2
  0
APPID
  5
12
330
9
100
AcDbSymbolTableRecord
100
AcDbRegAppTableRecord
  2
ACAD
 70
     0
  0
APPID
  5
2A9
330
9
100
AcDbSymbolTableRecord
100
AcDbRegAppTableRecord
  2
ACAD_PSEXT
 70
     0
  0
ENDTAB
  0
TABLE
  2
DIMSTYLE
  5
A
330
0
100
AcDbSymbolTable
 70
    11
100
AcDbDimStyleTable
 71
     1
340
2C
  0
DIMSTYLE
105
2C
102
{ACAD_REACTORS
330
29C
102
}
330
A
100
AcDbSymbolTableRecord
100
AcDbDimStyleTableRecord
  2
DIMSTYLE1
 70
     0
 41
1.0
 42
2.54
 44
2.54
 73
     0
 74
     0
 75
     1
 76
     1
 77
     1
140
3.0
145
1.0
147
1.5
172
     1
173
     1
279
     2
340
11
  0
DIMSTYLE
105
2D
102
{ACAD_REACTORS
330
29D
102
}
330
A
100
AcDbSymbolTableRecord
100
AcDbDimStyleTableRecord
  2
DIMSTYLE2
 70
     0
 41
1.0
 42
2.54
 44
2.54
 73
     0
 74
     0
 75
     1
 76
     1
 77
     1
140
3.0
145
1.0
147
1.5
172
     1
173
     1
279
     2
340
11
  0
DIMSTYLE
105
2E
102
{ACAD_REACTORS
330
29E
102
}
330
A
100
AcDbSymbolTableRecord
100
AcDbDimStyleTableRecord
  2
DIMSTYLE3
 70
     0
 41
1.0
 42
2.54
 44
2.54
 73
     0
 74
     0
 75
     1
 76
     1
 77
     1
140
3.0
145
1.0
147
1.5
172
     1
173
     1
279
     2
340
11
  0
DIMSTYLE
105
2F
102
{ACAD_REACTORS
330
29F
102
}
330
A
100
AcDbSymbolTableRecord
100
AcDbDimStyleTableRecord
  2
DIMSTYLE4
 70
     0
 41
1.0
 42
2.54
 44
2.54
 73
     0
 74
     0
 77
     1
140
3.0
145
1.0
147
1.5
172
     1
173
     1
279
     2
340
11
  0
DIMSTYLE
105
30
102
{ACAD_REACTORS
330
2A0
102
}
330
A
100
AcDbSymbolTableRecord
100
AcDbDimStyleTableRecord
  2
DIMSTYLE5
 70
     0
 41
1.0
 42
2.54
 44
2.54
 73
     0
 74
     0
 77
     1
140
3.0
145
1.0
147
1.5
172
     1
173
     1
279
     2
340
11
  0
DIMSTYLE
105
31
102
{ACAD_REACTORS
330
2A1
102
}
330
A
100
AcDbSymbolTableRecord
100
AcDbDimStyleTableRecord
  2
DIMSTYLE6
 70
     0
 41
1.0
 42
2.54
 44
2.54
 73
     0
 74
     0
 77
     1
140
3.0
145
1.0
147
1.5
172
     1
173
     1
279
     2
340
11
  0
DIMSTYLE
105
32
102
{ACAD_REACTORS
330
2A2
102
}
330
A
100
AcDbSymbolTableRecord
100
AcDbDimStyleTableRecord
  2
DIMSTYLE7
 70
     0
 41
1.0
 42
2.54
 44
2.54
 73
     0
 74
     0
 77
     1
140
3.0
145
1.0
147
1.5
172
     1
173
     1
279
     2
340
11
  0
DIMSTYLE
105
33
102
{ACAD_REACTORS
330
2A4
102
}
330
A
100
AcDbSymbolTableRecord
100
AcDbDimStyleTableRecord
  2
DIMSTYLE8
 70
     0
 41
1.0
 42
2.54
 44
2.54
 73
     0
 74
     0
 77
     1
140
3.0
145
1.0
147
1.5
172
     1
173
     1
279
     2
340
11
  0
DIMSTYLE
105
34
102
{ACAD_REACTORS
330
2A5
102
}
330
A
100
AcDbSymbolTableRecord
100
AcDbDimStyleTableRecord
  2
DIMSTYLE9
 70
     0
 41
1.0
 42
2.54
 44
2.54
 73
     0
 74
     0
 77
     1
140
3.0
145
1.0
147
1.5
172
     1
173
     1
279
     2
340
11
  0
DIMSTYLE
105
35
102
{ACAD_REACTORS
330
2A6
102
}
330
A
100
AcDbSymbolTableRecord
100
AcDbDimStyleTableRecord
  2
DIMSTYLE10
 70
     0
 41
1.0
 42
2.54
 44
2.54
 73
     0
 74
     0
 77
     1
140
3.0
145
1.0
147
1.5
172
     1
173
     1
279
     2
340
11
  0
ENDTAB
  0
TABLE
  2
BLOCK_RECORD
  5
1
330
0
100
AcDbSymbolTable
 70
    13
  0
BLOCK_RECORD
  5
22
330
1
100
AcDbSymbolTableRecord
100
AcDbBlockTableRecord
  2
*Model_Space
340
25
  0
BLOCK_RECORD
  5
1E
330
1
100
AcDbSymbolTableRecord
100
AcDbBlockTableRecord
  2
*Paper_Space
340
21
  0
BLOCK_RECORD
  5
39
330
1
100
AcDbSymbolTableRecord
100
AcDbBlockTableRecord
  2
_OPEN30
340
0
102
{BLKREFS
331
43
331
44
331
4D
331
4E
331
57
331
58
331
60
331
61
331
6D
331
6F
331
7A
331
7B
331
85
331
86
331
91
331
92
331
9B
331
9C
331
A6
331
A7
102
}
  0
BLOCK_RECORD
  5
3F
330
1
100
AcDbSymbolTableRecord
100
AcDbBlockTableRecord
  2
*D1
340
0
  0
BLOCK_RECORD
  5
49
330
1
100
AcDbSymbolTableRecord
100
AcDbBlockTableRecord
  2
*D2
340
0
  0
BLOCK_RECORD
  5
53
330
1
100
AcDbSymbolTableRecord
100
AcDbBlockTableRecord
  2
*D3
340
0
  0
BLOCK_RECORD
  5
5D
330
1
100
AcDbSymbolTableRecord
100
AcDbBlockTableRecord
  2
*D4
340
0
  0
BLOCK_RECORD
  5
69
330
1
100
AcDbSymbolTableRecord
100
AcDbBlockTableRecord
  2
*D5
340
0
  0
BLOCK_RECORD
  5
77
330
1
100
AcDbSymbolTableRecord
100
AcDbBlockTableRecord
  2
*D6
340
0
  0
BLOCK_RECORD
  5
82
330
1
100
AcDbSymbolTableRecord
100
AcDbBlockTableRecord
  2
*D7
340
0
  0
BLOCK_RECORD
  5
8E
330
1
100
AcDbSymbolTableRecord
100
AcDbBlockTableRecord
  2
*D8
340
0
  0
BLOCK_RECORD
  5
98
330
1
100
AcDbSymbolTableRecord
100
AcDbBlockTableRecord
  2
*D9
340
0
  0
BLOCK_RECORD
  5
A3
330
1
100
AcDbSymbolTableRecord
100
AcDbBlockTableRecord
  2
*D10
340
0
  0
BLOCK_RECORD
  5
AF
330
1
100
AcDbSymbolTableRecord
100
AcDbBlockTableRecord
  2
KOZU0001
340
0
102
{BLKREFS
331
2A3
102
}
  0
ENDTAB
  0
ENDSEC
  0
SECTION
  2
BLOCKS
  0
BLOCK
  5
23
330
22
100
AcDbEntity
  8
0
100
AcDbBlockBegin
  2
*Model_Space
 70
     0
 10
0.0
 20
0.0
 30
0.0
  3
*Model_Space
  1

  0
ENDBLK
  5
24
330
22
100
AcDbEntity
  8
0
100
AcDbBlockEnd
  0
BLOCK
  5
1F
330
1E
100
AcDbEntity
 67
     1
  8
0
100
AcDbBlockBegin
  2
*Paper_Space
 70
     0
 10
0.0
 20
0.0
 30
0.0
  3
*Paper_Space
  1

  0
ENDBLK
  5
20
330
1E
100
AcDbEntity
 67
     1
  8
0
100
AcDbBlockEnd
  0
BLOCK
  5
3A
330
39
100
AcDbEntity
  8
0
100
AcDbBlockBegin
  2
_OPEN30
 70
     0
 10
0.0
 20
0.0
 30
0.0
  3
_OPEN30
  1

  0
LINE
  5
3B
330
39
100
AcDbEntity
  8
0
  6
ByBlock
 62
     0
100
AcDbLine
 10
0.0
 20
0.0
 30
0.0
 11
-2.999999999999993
 21
-1.000000000000017
 31
0.0
  0
LINE
  5
3C
330
39
100
AcDbEntity
  8
0
  6
ByBlock
 62
     0
100
AcDbLine
 10
0.0
 20
0.0
 30
0.0
 11
-3.000000000000006
 21
0.9999999999999815
 31
0.0
  0
LINE
  5
3D
330
39
100
AcDbEntity
  8
0
  6
ByBlock
 62
     0
100
AcDbLine
 10
0.0
 20
0.0
 30
0.0
 11
-3.0
 21
0.0
 31
0.0
  0
ENDBLK
  5
3E
330
39
100
AcDbEntity
  8
0
100
AcDbBlockEnd
  0
BLOCK
  5
40
330
3F
100
AcDbEntity
  8
0
100
AcDbBlockBegin
  2
*D1
 70
     1
 10
0.0
 20
0.0
 30
0.0
  3
*D1
  1

  0
LINE
  5
41
330
3F
100
AcDbEntity
  8
0
  6
Continuous
 62
     7
100
AcDbLine
 10
-274.7406616210938
 20
334.9291687011719
 30
0.0
 11
-228.996826171875
 21
346.4703063964844
 31
0.0
  0
LINE
  5
42
330
3F
100
AcDbEntity
  8
0
  6
Continuous
 62
     7
100
AcDbLine
 10
-397.8818634688655
 20
303.8607310784574
 30
0.0
 11
-277.6495086014471
 21
334.195268677402
 31
0.0
  0
INSERT
  5
43
330
3F
100
AcDbEntity
  8
0
  6
Continuous
 62
     7
100
AcDbBlockReference
  2
_OPEN30
 10
-400.7907104492188
 20
303.1268310546875
 30
0.0
 50
194.1601663791918
  0
INSERT
  5
44
330
3F
100
AcDbEntity
  8
0
  6
Continuous
 62
     7
100
AcDbBlockReference
  2
_OPEN30
 10
-274.7406616210938
 20
334.9291687011719
 30
0.0
 50
14.16016637919114
  0
TEXT
  5
45
330
3F
100
AcDbEntity
  8
0
  6
Continuous
 62
     7
100
AcDbText
 10
-260.3415201871854
 20
339.3240261455908
 30
0.0
 40
3.0
  1
%%C１３０（目皿受外径）
 50
14.1999999967233
 41
0.8440126077968535
100
AcDbText
  0
POINT
  5
46
330
3F
100
AcDbEntity
  8
DEFPOINTS
  6
Continuous
 62
     7
100
AcDbPoint
 10
-400.7907104492188
 20
303.1268310546875
 30
0.0
  0
POINT
  5
47
330
3F
100
AcDbEntity
  8
DEFPOINTS
  6
Continuous
 62
     7
100
AcDbPoint
 10
-274.7406616210938
 20
334.9291687011719
 30
0.0
  0
ENDBLK
  5
48
330
3F
100
AcDbEntity
  8
0
100
AcDbBlockEnd
  0
BLOCK
  5
4A
330
49
100
AcDbEntity
  8
0
100
AcDbBlockBegin
  2
*D2
 70
     1
 10
0.0
 20
0.0
 30
0.0
  3
*D2
  1

  0
LINE
  5
4B
330
49
100
AcDbEntity
  8
0
  6
Continuous
 62
     7
100
AcDbLine
 10
-285.6609802246094
 20
303.04833984375
 30
0.0
 11
-228.5345306396484
 21
285.528564453125
 31
0.0
  0
LINE
  5
4C
330
49
100
AcDbEntity
  8
0
  6
Continuous
 62
     7
100
AcDbLine
 10
-387.0022428548864
 20
334.1280455838514
 30
0.0
 11
-288.5291292154262
 21
303.9279541720081
 31
0.0
  0
INSERT
  5
4D
330
49
100
AcDbEntity
  8
0
  6
Continuous
 62
     7
100
AcDbBlockReference
  2
_OPEN30
 10
-389.8703918457031
 20
335.0076599121094
 30
0.0
 50
162.9500809372559
  0
INSERT
  5
4E
330
49
100
AcDbEntity
  8
0
  6
Continuous
 62
     7
100
AcDbBlockReference
  2
_OPEN30
 10
-285.6609802246094
 20
303.04833984375
 30
0.0
 50
342.9500809372566
  0
TEXT
  5
4F
330
49
100
AcDbEntity
  8
0
  6
Continuous
 62
     7
100
AcDbText
 10
-256.1782545000747
 20
294.7776519446689
 30
0.0
 40
3.0
  1
%%C１０９（目皿外径）
 50
343.0000006652968
 41
0.8443929326254473
100
AcDbText
  0
POINT
  5
50
330
49
100
AcDbEntity
  8
DEFPOINTS
  6
Continuous
 62
     7
100
AcDbPoint
 10
-389.8703918457031
 20
335.0076599121094
 30
0.0
  0
POINT
  5
51
330
49
100
AcDbEntity
  8
DEFPOINTS
  6
Continuous
 62
     7
100
AcDbPoint
 10
-285.6609802246094
 20
303.04833984375
 30
0.0
  0
ENDBLK
  5
52
330
49
100
AcDbEntity
  8
0
100
AcDbBlockEnd
  0
BLOCK
  5
54
330
53
100
AcDbEntity
  8
0
100
AcDbBlockBegin
  2
*D3
 70
     1
 10
0.0
 20
0.0
 30
0.0
  3
*D3
  1

  0
LINE
  5
55
330
53
100
AcDbEntity
  8
0
  6
Continuous
 62
     7
100
AcDbLine
 10
-276.7151794433594
 20
365.9517211914063
 30
0.0
 11
-249.1073455810547
 21
387.1712951660157
 31
0.0
  0
LINE
  5
56
330
53
100
AcDbEntity
  8
0
  6
Continuous
 62
     7
100
AcDbLine
 10
-396.4375714468724
 20
273.9324456456743
 30
0.0
 11
-279.093770105862
 21
364.1235235926069
 31
0.0
  0
INSERT
  5
57
330
53
100
AcDbEntity
  8
0
  6
Continuous
 62
     7
100
AcDbBlockReference
  2
_OPEN30
 10
-398.816162109375
 20
272.104248046875
 30
0.0
 50
217.5460738519726
  0
INSERT
  5
58
330
53
100
AcDbEntity
  8
0
  6
Continuous
 62
     7
100
AcDbBlockReference
  2
_OPEN30
 10
-276.7151794433594
 20
365.9517211914063
 30
0.0
 50
37.5460738519719
  0
TEXT
  5
59
330
53
100
AcDbEntity
  8
0
  6
Continuous
 62
     7
100
AcDbText
 10
-275.0544232012828
 20
368.1904534625934
 30
0.0
 40
3.0
  1
%%C１５４（防水皿外径）
 50
37.49999933598528
 41
0.8440126077968535
100
AcDbText
  0
POINT
  5
5A
330
53
100
AcDbEntity
  8
DEFPOINTS
  6
Continuous
 62
     7
100
AcDbPoint
 10
-398.816162109375
 20
272.104248046875
 30
0.0
  0
POINT
  5
5B
330
53
100
AcDbEntity
  8
DEFPOINTS
  6
Continuous
 62
     7
100
AcDbPoint
 10
-276.7151794433594
 20
365.9517211914063
 30
0.0
  0
ENDBLK
  5
5C
330
53
100
AcDbEntity
  8
0
100
AcDbBlockEnd
  0
BLOCK
  5
5E
330
5D
100
AcDbEntity
  8
0
100
AcDbBlockBegin
  2
*D4
 70
     1
 10
0.0
 20
0.0
 30
0.0
  3
*D4
  1

  0
LINE
  5
5F
330
5D
100
AcDbEntity
  8
0
  6
Continuous
 62
     7
100
AcDbLine
 10
-225.7323303222656
 20
58.88356781005859
 30
0.0
 11
-225.7323303222656
 21
200.8835754394531
 31
0.0
  0
INSERT
  5
60
330
5D
100
AcDbEntity
  8
0
  6
Continuous
 62
     7
100
AcDbBlockReference
  2
_OPEN30
 10
-225.7323303222656
 20
55.8835678100586
 30
0.0
 50
270.0000000000005
  0
INSERT
  5
61
330
5D
100
AcDbEntity
  8
0
  6
Continuous
 62
     7
100
AcDbBlockReference
  2
_OPEN30
 10
-225.7323303222656
 20
203.8835754394531
 30
0.0
 50
90.00000000000019
  0
LINE
  5
62
330
5D
100
AcDbEntity
  8
0
  6
Continuous
 62
     7
100
AcDbLine
 10
-258.1016625976562
 20
55.8835678100586
 30
0.0
 11
-223.4463348388672
 21
55.8835678100586
 31
0.0
  0
LINE
  5
63
330
5D
100
AcDbEntity
  8
0
  6
Continuous
 62
     7
100
AcDbLine
 10
-271.6547937011719
 20
203.8835754394531
 30
0.0
 11
-223.4463348388672
 21
203.8835754394531
 31
0.0
  0
TEXT
  5
64
330
5D
100
AcDbEntity
  8
0
  6
Continuous
 62
     7
100
AcDbText
 10
-226.4823294886894
 20
110.8135746389618
 30
0.0
 40
3.0
  1
１４８　（１３６～１５６）
 50
90.00000250447815
 41
0.8434321120058422
100
AcDbText
  0
POINT
  5
65
330
5D
100
AcDbEntity
  8
DEFPOINTS
  6
Continuous
 62
     7
100
AcDbPoint
 10
-260.6416625976563
 20
55.8835678100586
 30
0.0
  0
POINT
  5
66
330
5D
100
AcDbEntity
  8
DEFPOINTS
  6
Continuous
 62
     7
100
AcDbPoint
 10
-274.1947937011719
 20
203.8835754394531
 30
0.0
  0
POINT
  5
67
330
5D
100
AcDbEntity
  8
DEFPOINTS
  6
Continuous
 62
     7
100
AcDbPoint
 10
-225.7323303222656
 20
203.8835754394531
 30
0.0
  0
ENDBLK
  5
68
330
5D
100
AcDbEntity
  8
0
100
AcDbBlockEnd
  0
BLOCK
  5
6A
330
69
100
AcDbEntity
  8
0
100
AcDbBlockBegin
  2
*D5
 70
     1
 10
0.0
 20
0.0
 30
0.0
  3
*D5
  1

  0
LINE
  5
6B
330
69
100
AcDbEntity
  8
0
  6
Continuous
 62
     7
100
AcDbLine
 10
-225.7323303222656
 20
52.88356781005859
 30
0.0
 11
-225.7323303222656
 21
44.7755012512207
 31
0.0
  0
LINE
  5
6C
330
69
100
AcDbEntity
  8
0
  6
Continuous
 62
     7
100
AcDbLine
 10
-225.7323303222656
 20
55.8835678100586
 30
0.0
 11
-225.7323303222656
 21
52.88356781005859
 31
0.0
  0
INSERT
  5
6D
330
69
100
AcDbEntity
  8
0
  6
Continuous
 62
     7
100
AcDbBlockReference
  2
_OPEN30
 10
-225.7323303222656
 20
55.8835678100586
 30
0.0
 50
270.0000000000002
  0
LINE
  5
6E
330
69
100
AcDbEntity
  8
0
  6
Continuous
 62
     7
100
AcDbLine
 10
-225.7323303222656
 20
58.88356781005859
 30
0.0
 11
-225.7323303222657
 21
62.2335678100586
 31
0.0
  0
INSERT
  5
6F
330
69
100
AcDbEntity
  8
0
  6
Continuous
 62
     7
100
AcDbBlockReference
  2
_OPEN30
 10
-225.7323303222656
 20
52.88356781005859
 30
0.0
 50
90.00000000000049
  0
LINE
  5
70
330
69
100
AcDbEntity
  8
0
  6
Continuous
 62
     7
100
AcDbLine
 10
-225.7323303222656
 20
49.88356781005859
 30
0.0
 11
-225.7323303222656
 21
46.53356781005859
 31
0.0
  0
LINE
  5
71
330
69
100
AcDbEntity
  8
0
  6
Continuous
 62
     7
100
AcDbLine
 10
-258.1016625976562
 20
52.88356781005859
 30
0.0
 11
-223.4463348388672
 21
52.88356781005859
 31
0.0
  0
TEXT
  5
72
330
69
100
AcDbEntity
  8
0
  6
Continuous
 62
     7
100
AcDbText
 10
-226.4823302754944
 20
44.77550086080929
 30
0.0
 40
3.0
  1
3
 50
90.00000250447815
100
AcDbText
  0
POINT
  5
73
330
69
100
AcDbEntity
  8
DEFPOINTS
  6
Continuous
 62
     7
100
AcDbPoint
 10
-223.4463348388672
 20
55.8835678100586
 30
0.0
  0
POINT
  5
74
330
69
100
AcDbEntity
  8
DEFPOINTS
  6
Continuous
 62
     7
100
AcDbPoint
 10
-260.6416625976563
 20
52.88356781005859
 30
0.0
  0
POINT
  5
75
330
69
100
AcDbEntity
  8
DEFPOINTS
  6
Continuous
 62
     7
100
AcDbPoint
 10
-225.7323303222656
 20
52.88356781005859
 30
0.0
  0
ENDBLK
  5
76
330
69
100
AcDbEntity
  8
0
100
AcDbBlockEnd
  0
BLOCK
  5
78
330
77
100
AcDbEntity
  8
0
100
AcDbBlockBegin
  2
*D6
 70
     1
 10
0.0
 20
0.0
 30
0.0
  3
*D6
  1

  0
LINE
  5
79
330
77
100
AcDbEntity
  8
0
  6
Continuous
 62
     7
100
AcDbLine
 10
-239.8014984130859
 20
58.88356781005859
 30
0.0
 11
-239.8014984130859
 21
74.88356781005859
 31
0.0
  0
INSERT
  5
7A
330
77
100
AcDbEntity
  8
0
  6
Continuous
 62
     7
100
AcDbBlockReference
  2
_OPEN30
 10
-239.8014984130859
 20
55.8835678100586
 30
0.0
 50
270.0000000000005
  0
INSERT
  5
7B
330
77
100
AcDbEntity
  8
0
  6
Continuous
 62
     7
100
AcDbBlockReference
  2
_OPEN30
 10
-239.8014984130859
 20
77.88356781005859
 30
0.0
 50
90.00000000000019
  0
LINE
  5
7C
330
77
100
AcDbEntity
  8
0
  6
Continuous
 62
     7
100
AcDbLine
 10
-307.1016625976562
 20
77.88356781005859
 30
0.0
 11
-237.5155029296875
 21
77.88356781005859
 31
0.0
  0
TEXT
  5
7D
330
77
100
AcDbEntity
  8
0
  6
Continuous
 62
     7
100
AcDbText
 10
-240.5514983007477
 20
64.31356766521833
 30
0.0
 40
3.0
  1
22
 50
90.00000250447815
 41
1.028000020980834
100
AcDbText
  0
POINT
  5
7E
330
77
100
AcDbEntity
  8
DEFPOINTS
  6
Continuous
 62
     7
100
AcDbPoint
 10
-223.4463348388672
 20
55.8835678100586
 30
0.0
  0
POINT
  5
7F
330
77
100
AcDbEntity
  8
DEFPOINTS
  6
Continuous
 62
     7
100
AcDbPoint
 10
-309.6416625976563
 20
77.88356781005859
 30
0.0
  0
POINT
  5
80
330
77
100
AcDbEntity
  8
DEFPOINTS
  6
Continuous
 62
     7
100
AcDbPoint
 10
-239.8014984130859
 20
77.88356781005859
 30
0.0
  0
ENDBLK
  5
81
330
77
100
AcDbEntity
  8
0
100
AcDbBlockEnd
  0
BLOCK
  5
83
330
82
100
AcDbEntity
  8
0
100
AcDbBlockBegin
  2
*D7
 70
     1
 10
0.0
 20
0.0
 30
0.0
  3
*D7
  1

  0
LINE
  5
84
330
82
100
AcDbEntity
  8
0
  6
Continuous
 62
     7
100
AcDbLine
 10
-362.6416625976563
 20
10.97070789337158
 30
0.0
 11
-312.6416625976563
 21
10.97070789337156
 31
0.0
  0
INSERT
  5
85
330
82
100
AcDbEntity
  8
0
  6
Continuous
 62
     7
100
AcDbBlockReference
  2
_OPEN30
 10
-365.6416625976563
 20
10.97070789337158
 30
0.0
 50
180.0000000000004
  0
INSERT
  5
86
330
82
100
AcDbEntity
  8
0
  6
Continuous
 62
     7
100
AcDbBlockReference
  2
_OPEN30
 10
-309.6416625976563
 20
10.97070789337158
 30
0.0
  0
LINE
  5
87
330
82
100
AcDbEntity
  8
0
  6
Continuous
 62
     7
100
AcDbLine
 10
-365.6416625976563
 20
21.34356971740723
 30
0.0
 11
-365.6416625976563
 21
8.684708595275878
 31
0.0
  0
LINE
  5
88
330
82
100
AcDbEntity
  8
0
  6
Continuous
 62
     7
100
AcDbLine
 10
-309.6416625976563
 20
21.34356971740723
 30
0.0
 11
-309.6416625976563
 21
8.684708595275878
 31
0.0
  0
TEXT
  5
89
330
82
100
AcDbEntity
  8
0
  6
Continuous
 62
     7
100
AcDbText
 10
-341.7116627693176
 20
11.72070789337158
 30
0.0
 40
3.0
  1
%%C56
 41
0.9498249830693319
100
AcDbText
  0
POINT
  5
8A
330
82
100
AcDbEntity
  8
DEFPOINTS
  6
Continuous
 62
     7
100
AcDbPoint
 10
-365.6416625976563
 20
23.88356971740723
 30
0.0
  0
POINT
  5
8B
330
82
100
AcDbEntity
  8
DEFPOINTS
  6
Continuous
 62
     7
100
AcDbPoint
 10
-309.6416625976563
 20
23.88356971740723
 30
0.0
  0
POINT
  5
8C
330
82
100
AcDbEntity
  8
DEFPOINTS
  6
Continuous
 62
     7
100
AcDbPoint
 10
-309.6416625976563
 20
10.97070789337158
 30
0.0
  0
ENDBLK
  5
8D
330
82
100
AcDbEntity
  8
0
100
AcDbBlockEnd
  0
BLOCK
  5
8F
330
8E
100
AcDbEntity
  8
0
100
AcDbBlockBegin
  2
*D8
 70
     1
 10
0.0
 20
0.0
 30
0.0
  3
*D8
  1

  0
LINE
  5
90
330
8E
100
AcDbEntity
  8
0
  6
Continuous
 62
     7
100
AcDbLine
 10
-326.18115234375
 20
60.8835678100586
 30
0.0
 11
-326.18115234375
 21
154.8835754394531
 31
0.0
  0
INSERT
  5
91
330
8E
100
AcDbEntity
  8
0
  6
Continuous
 62
     7
100
AcDbBlockReference
  2
_OPEN30
 10
-326.18115234375
 20
57.88356781005859
 30
0.0
 50
270.0000000000005
  0
INSERT
  5
92
330
8E
100
AcDbEntity
  8
0
  6
Continuous
 62
     7
100
AcDbBlockReference
  2
_OPEN30
 10
-326.18115234375
 20
157.8835754394531
 30
0.0
 50
90.00000000000019
  0
TEXT
  5
93
330
8E
100
AcDbEntity
  8
0
  6
Continuous
 62
     7
100
AcDbText
 10
-326.9311521658447
 20
103.8135676056137
 30
0.0
 40
3.0
  1
100
 50
90.00000250447815
 41
1.320000017011488
100
AcDbText
  0
POINT
  5
94
330
8E
100
AcDbEntity
  8
DEFPOINTS
  6
Continuous
 62
     7
100
AcDbPoint
 10
-315.1416625976563
 20
57.88356781005859
 30
0.0
  0
POINT
  5
95
330
8E
100
AcDbEntity
  8
DEFPOINTS
  6
Continuous
 62
     7
100
AcDbPoint
 10
-315.5772705078125
 20
157.8835754394531
 30
0.0
  0
POINT
  5
96
330
8E
100
AcDbEntity
  8
DEFPOINTS
  6
Continuous
 62
     7
100
AcDbPoint
 10
-326.18115234375
 20
157.8835754394531
 30
0.0
  0
ENDBLK
  5
97
330
8E
100
AcDbEntity
  8
0
100
AcDbBlockEnd
  0
BLOCK
  5
99
330
98
100
AcDbEntity
  8
0
100
AcDbBlockBegin
  2
*D9
 70
     1
 10
0.0
 20
0.0
 30
0.0
  3
*D9
  1

  0
LINE
  5
9A
330
98
100
AcDbEntity
  8
0
  6
Continuous
 62
     7
100
AcDbLine
 10
-239.8014984130859
 20
200.8835754394531
 30
0.0
 11
-239.8014984130859
 21
147.8835754394531
 31
0.0
  0
INSERT
  5
9B
330
98
100
AcDbEntity
  8
0
  6
Continuous
 62
     7
100
AcDbBlockReference
  2
_OPEN30
 10
-239.8014984130859
 20
203.8835754394531
 30
0.0
 50
90.00000000000019
  0
INSERT
  5
9C
330
98
100
AcDbEntity
  8
0
  6
Continuous
 62
     7
100
AcDbBlockReference
  2
_OPEN30
 10
-239.8014984130859
 20
144.8835754394531
 30
0.0
 50
270.0000000000005
  0
LINE
  5
9D
330
98
100
AcDbEntity
  8
0
  6
Continuous
 62
     7
100
AcDbLine
 10
-306.3516625976562
 20
144.8835754394531
 30
0.0
 11
-237.5155029296875
 21
144.8835754394531
 31
0.0
  0
TEXT
  5
9E
330
98
100
AcDbEntity
  8
0
  6
Continuous
 62
     7
100
AcDbText
 10
-240.5514983007477
 20
171.8135752946129
 30
0.0
 40
3.0
  1
59
 50
90.00000250447815
 41
1.028000020980834
100
AcDbText
  0
POINT
  5
9F
330
98
100
AcDbEntity
  8
DEFPOINTS
  6
Continuous
 62
     7
100
AcDbPoint
 10
-223.4463348388672
 20
203.8835754394531
 30
0.0
  0
POINT
  5
A0
330
98
100
AcDbEntity
  8
DEFPOINTS
  6
Continuous
 62
     7
100
AcDbPoint
 10
-308.8916625976563
 20
144.8835754394531
 30
0.0
  0
POINT
  5
A1
330
98
100
AcDbEntity
  8
DEFPOINTS
  6
Continuous
 62
     7
100
AcDbPoint
 10
-239.8014984130859
 20
144.8835754394531
 30
0.0
  0
ENDBLK
  5
A2
330
98
100
AcDbEntity
  8
0
100
AcDbBlockEnd
  0
BLOCK
  5
A4
330
A3
100
AcDbEntity
  8
0
100
AcDbBlockBegin
  2
*D10
 70
     1
 10
0.0
 20
0.0
 30
0.0
  3
*D10
  1

  0
LINE
  5
A5
330
A3
100
AcDbEntity
  8
0
  6
Continuous
 62
     7
100
AcDbLine
 10
-430.1869506835938
 20
26.88356971740723
 30
0.0
 11
-430.1869506835938
 21
74.88356781005859
 31
0.0
  0
INSERT
  5
A6
330
A3
100
AcDbEntity
  8
0
  6
Continuous
 62
     7
100
AcDbBlockReference
  2
_OPEN30
 10
-430.1869506835938
 20
23.88356971740723
 30
0.0
 50
270.0000000000005
  0
INSERT
  5
A7
330
A3
100
AcDbEntity
  8
0
  6
Continuous
 62
     7
100
AcDbBlockReference
  2
_OPEN30
 10
-430.1869506835938
 20
77.88356781005859
 30
0.0
 50
90.00000000000019
  0
LINE
  5
A8
330
A3
100
AcDbEntity
  8
0
  6
Continuous
 62
     7
100
AcDbLine
 10
-368.1816625976563
 20
23.88356971740721
 30
0.0
 11
-432.4729614257813
 21
23.88356971740723
 31
0.0
  0
LINE
  5
A9
330
A3
100
AcDbEntity
  8
0
  6
Continuous
 62
     7
100
AcDbLine
 10
-368.1816625976563
 20
77.88356781005858
 30
0.0
 11
-432.4729614257813
 21
77.88356781005859
 31
0.0
  0
TEXT
  5
AA
330
A3
100
AcDbEntity
  8
0
  6
Continuous
 62
     7
100
AcDbText
 10
-430.9369505712554
 20
48.31356766521832
 30
0.0
 40
3.0
  1
54
 50
90.00000250447815
 41
1.028000020980834
100
AcDbText
  0
POINT
  5
AB
330
A3
100
AcDbEntity
  8
DEFPOINTS
  6
Continuous
 62
     7
100
AcDbPoint
 10
-365.6416625976563
 20
23.88356971740723
 30
0.0
  0
POINT
  5
AC
330
A3
100
AcDbEntity
  8
DEFPOINTS
  6
Continuous
 62
     7
100
AcDbPoint
 10
-365.6416625976563
 20
77.88356781005859
 30
0.0
  0
POINT
  5
AD
330
A3
100
AcDbEntity
  8
DEFPOINTS
  6
Continuous
 62
     7
100
AcDbPoint
 10
-430.1869506835938
 20
77.88356781005859
 30
0.0
  0
ENDBLK
  5
AE
330
A3
100
AcDbEntity
  8
0
100
AcDbBlockEnd
  0
BLOCK
  5
B0
330
AF
100
AcDbEntity
  8
0
100
AcDbBlockBegin
  2
KOZU0001
 70
     0
 10
0.0
 20
0.0
 30
0.0
  3
KOZU0001
  1

  0
LINE
  5
B1
330
AF
100
AcDbEntity
  8
0
  6
Continuous
 62
     7
100
AcDbLine
 10
0.0
 20
0.0
 30
0.0
 11
17.552490234375
 21
-12.81081199645996
 31
0.0
  0
LINE
  5
B2
330
AF
100
AcDbEntity
  8
0
  6
Continuous
 62
     7
100
AcDbLine
 10
17.552490234375
 20
-12.81081199645996
 30
0.0
 11
56.21270751953125
 21
-12.81081199645996
 31
0.0
  0
LINE
  5
B3
330
AF
100
AcDbEntity
  8
0
  6
Continuous
 62
     7
100
AcDbLine
 10
0.0
 20
0.0
 30
0.0
 11
3.012761984042338
 21
-0.9608669145668786
 31
0.0
  0
LINE
  5
B4
330
AF
100
AcDbEntity
  8
0
  6
Continuous
 62
     7
100
AcDbLine
 10
0.0
 20
0.0
 30
0.0
 11
1.833689438493744
 21
-2.576350722078905
 31
0.0
  0
TEXT
  5
B5
330
AF
100
AcDbEntity
  8
0
  6
Continuous
 62
     7
100
AcDbText
 10
19.35270619392395
 20
-12.06081199645996
 30
0.0
 40
3.0
  1
配管接続口
 41
0.8487395020950888
100
AcDbText
  0
TEXT
  5
B6
330
AF
100
AcDbEntity
  8
0
  6
Continuous
 62
     7
100
AcDbText
 10
19.35270619392395
 20
-17.32581199645996
 30
0.0
 40
3.0
  1
Ｒｃ１　１／２（４０Ａ）
 41
0.8436974815103043
100
AcDbText
  0
ENDBLK
  5
B7
330
AF
100
AcDbEntity
  8
0
100
AcDbBlockEnd
  0
ENDSEC
  0
SECTION
  2
ENTITIES
  0
LINE
  5
B8
330
22
100
AcDbEntity
  8
0
  6
Continuous
 62
     7
100
AcDbLine
 10
-311.7656860351563
 20
277.2002258300781
 30
0.0
 11
-311.7656860351563
 21
314.156982421875
 31
0.0
  0
LINE
  5
B9
330
22
100
AcDbEntity
  8
0
  6
Continuous
 62
     7
100
AcDbLine
 10
-317.1416625976563
 20
169.8835754394531
 30
0.0
 11
-317.1416625976563
 21
172.4835662841797
 31
0.0
  0
LINE
  5
BA
330
22
100
AcDbEntity
  8
0
  6
Continuous
 62
     7
100
AcDbLine
 10
-317.1416625976563
 20
169.8835754394531
 30
0.0
 11
-314.52294921875
 21
169.8835754394531
 31
0.0
  0
LINE
  5
BB
330
22
100
AcDbEntity
  8
0
  6
Continuous
 62
     7
100
AcDbLine
 10
-273.694793701172
 20
203.3835754394531
 30
0.0
 11
-273.694793701172
 21
199.8835754394531
 31
0.0
  0
LINE
  5
BC
330
22
100
AcDbEntity
  8
0
  6
Continuous
 62
     7
100
AcDbLine
 10
-282.6416625976563
 20
203.8835754394531
 30
0.0
 11
-282.6416625976563
 21
200.6835632324219
 31
0.0
  0
LINE
  5
BD
330
22
100
AcDbEntity
  8
0
  6
Continuous
 62
     7
100
AcDbLine
 10
-290.4166870117188
 20
191.0040435791016
 30
0.0
 11
-289.6416625976563
 21
200.6835632324219
 31
0.0
  0
LINE
  5
BE
330
22
100
AcDbEntity
  8
0
  6
Continuous
 62
     7
100
AcDbLine
 10
-293.9683532714844
 20
200.6835632324219
 30
0.0
 11
-294.7572937011719
 21
190.8786468505859
 31
0.0
  0
LINE
  5
BF
330
22
100
AcDbEntity
  8
0
  6
Continuous
 62
     7
100
AcDbLine
 10
-299.9697265625
 20
200.6835632324219
 30
0.0
 11
-299.9697265625
 21
182.8178253173828
 31
0.0
  0
LINE
  5
C0
330
22
100
AcDbEntity
  8
0
  6
Continuous
 62
     7
100
AcDbLine
 10
-282.6416625976563
 20
196.8835754394531
 30
0.0
 11
-282.6416625976563
 21
189.72900390625
 31
0.0
  0
LINE
  5
C1
330
22
100
AcDbEntity
  8
0
  6
Continuous
 62
     7
100
AcDbLine
 10
-292.6416625976563
 20
203.8835754394531
 30
0.0
 11
-292.6416625976563
 21
200.6835632324219
 31
0.0
  0
LINE
  5
C2
330
22
100
AcDbEntity
  8
0
  6
Continuous
 62
     7
100
AcDbLine
 10
-288.3922729492188
 20
203.8835754394531
 30
0.0
 11
-288.3922729492188
 21
200.6835632324219
 31
0.0
  0
LINE
  5
C3
330
22
100
AcDbEntity
  8
0
  6
Continuous
 62
     7
100
AcDbLine
 10
-297.1289367675781
 20
203.8835754394531
 30
0.0
 11
-297.1289367675781
 21
200.6835632324219
 31
0.0
  0
LINE
  5
C4
330
22
100
AcDbEntity
  8
0
  6
Continuous
 62
     7
100
AcDbLine
 10
-302.2294616699219
 20
203.8835754394531
 30
0.0
 11
-302.2318725585938
 21
200.6835632324219
 31
0.0
  0
LINE
  5
C5
330
22
100
AcDbEntity
  8
0
  6
Continuous
 62
     7
100
AcDbLine
 10
-316.12890625
 20
203.8835754394531
 30
0.0
 11
-316.12890625
 21
200.6835632324219
 31
0.0
  0
LINE
  5
C6
330
22
100
AcDbEntity
  8
0
  6
Continuous
 62
     7
100
AcDbLine
 10
-321.12890625
 20
203.8835754394531
 30
0.0
 11
-321.12890625
 21
200.6835632324219
 31
0.0
  0
LINE
  5
C7
330
22
100
AcDbEntity
  8
0
  6
Continuous
 62
     7
100
AcDbLine
 10
-280.6416625976563
 20
198.8835754394531
 30
0.0
 11
-274.6947937011719
 21
198.8835754394531
 31
0.0
  0
LINE
  5
C8
330
22
100
AcDbEntity
  8
0
  6
Continuous
 62
     7
100
AcDbLine
 10
-297.2529602050781
 20
319.0407104492188
 30
0.0
 11
-297.2656860351563
 21
291.0045776367188
 31
0.0
  0
LINE
  5
C9
330
22
100
AcDbEntity
  8
0
  6
Continuous
 62
     7
100
AcDbLine
 10
-302.2656860351563
 20
319.0279846191406
 30
0.0
 11
-302.2656860351563
 21
284.8913269042969
 31
0.0
  0
LINE
  5
CA
330
22
100
AcDbEntity
  8
0
  6
Continuous
 62
     7
100
AcDbLine
 10
-306.7656860351563
 20
280.7583923339844
 30
0.0
 11
-306.7656860351563
 21
314.156982421875
 31
0.0
  0
LINE
  5
CB
330
22
100
AcDbEntity
  8
0
  6
Continuous
 62
     7
100
AcDbLine
 10
-297.2529602050781
 20
319.0152893066406
 30
0.0
 11
-297.2529296875
 21
335.7684631347656
 31
0.0
  0
LINE
  5
CC
330
22
100
AcDbEntity
  8
0
  6
Continuous
 62
     7
100
AcDbLine
 10
-302.2656860351563
 20
319.0279846191406
 30
0.0
 11
-302.2529296875
 21
335.7811584472656
 31
0.0
  0
LINE
  5
CD
330
22
100
AcDbEntity
  8
0
  6
Continuous
 62
     7
100
AcDbLine
 10
-321.2529296875
 20
319.0279846191406
 30
0.0
 11
-321.2529296875
 21
330.1781921386719
 31
0.0
  0
LINE
  5
CE
330
22
100
AcDbEntity
  8
0
  6
Continuous
 62
     7
100
AcDbLine
 10
-321.2529296875
 20
319.0279846191406
 30
0.0
 11
-321.2529296875
 21
307.8778076171875
 31
0.0
  0
LINE
  5
CF
330
22
100
AcDbEntity
  8
0
  6
Continuous
 62
     7
100
AcDbLine
 10
-316.2529296875
 20
319.0152893066406
 30
0.0
 11
-316.2529296875
 21
307.8650817871094
 31
0.0
  0
LINE
  5
D0
330
22
100
AcDbEntity
  8
0
  6
Continuous
 62
     7
100
AcDbLine
 10
-292.7656860351563
 20
304.4306335449219
 30
0.0
 11
-292.7656860351563
 21
319.0279846191406
 31
0.0
  0
LINE
  5
D1
330
22
100
AcDbEntity
  8
0
  6
Continuous
 62
     7
100
AcDbLine
 10
-292.7656860351563
 20
333.6253662109375
 30
0.0
 11
-292.7656860351563
 21
319.0279846191406
 31
0.0
  0
LINE
  5
D2
330
22
100
AcDbEntity
  8
0
  6
Continuous
 62
     7
100
AcDbLine
 10
-316.2529296875
 20
319.0152893066406
 30
0.0
 11
-316.2529296875
 21
330.1654663085938
 31
0.0
  0
LINE
  5
D3
330
22
100
AcDbEntity
  8
0
  6
Continuous
 62
     7
100
AcDbLine
 10
-299.6287231445313
 20
345.3096313476563
 30
0.0
 11
-299.3972473144531
 21
345.7106018066406
 31
0.0
  0
LINE
  5
D4
330
22
100
AcDbEntity
  8
0
  6
Continuous
 62
     7
100
AcDbLine
 10
-299.3972473144531
 20
345.7106018066406
 30
0.0
 11
-296.2735290527344
 21
344.4352416992188
 31
0.0
  0
LINE
  5
D5
330
22
100
AcDbEntity
  8
0
  6
Continuous
 62
     7
100
AcDbLine
 10
-321.2656860351563
 20
339.6527099609375
 30
0.0
 11
-321.2784118652344
 21
365.4363098144531
 31
0.0
  0
LINE
  5
D6
330
22
100
AcDbEntity
  8
0
  6
Continuous
 62
     7
100
AcDbLine
 10
-316.2656860351563
 20
363.3372802734375
 30
0.0
 11
-316.2656860351563
 21
339.6527099609375
 31
0.0
  0
LINE
  5
D7
330
22
100
AcDbEntity
  8
0
  6
Continuous
 62
     7
100
AcDbLine
 10
-294.2182922363281
 20
347.07958984375
 30
0.0
 11
-293.817626953125
 21
346.8482666015625
 31
0.0
  0
LINE
  5
D8
330
22
100
AcDbEntity
  8
0
  6
Continuous
 62
     7
100
AcDbLine
 10
-299.8602294921875
 20
344.9086608886719
 30
0.0
 11
-297.1939086914063
 21
342.8411254882813
 31
0.0
  0
LINE
  5
D9
330
22
100
AcDbEntity
  8
0
  6
Continuous
 62
     7
100
AcDbLine
 10
-299.6287231445313
 20
345.3096313476563
 30
0.0
 11
-299.8602294921875
 21
344.9086608886719
 31
0.0
  0
LINE
  5
DA
330
22
100
AcDbEntity
  8
0
  6
Continuous
 62
     7
100
AcDbLine
 10
-294.2182922363281
 20
347.07958984375
 30
0.0
 11
-296.2735290527344
 21
344.4352416992188
 31
0.0
  0
LINE
  5
DB
330
22
100
AcDbEntity
  8
0
  6
Continuous
 62
     7
100
AcDbLine
 10
-293.4169616699218
 20
346.616943359375
 30
0.0
 11
-293.817626953125
 21
346.8482666015625
 31
0.0
  0
LINE
  5
DC
330
22
100
AcDbEntity
  8
0
  6
Continuous
 62
     7
100
AcDbLine
 10
-293.4169616699218
 20
346.616943359375
 30
0.0
 11
-294.6794128417969
 21
343.5148620605469
 31
0.0
  0
LINE
  5
DD
330
22
100
AcDbEntity
  8
0
  6
Continuous
 62
     7
100
AcDbLine
 10
-316.2656860351563
 20
274.7187194824219
 30
0.0
 11
-316.2656860351563
 21
298.4032592773438
 31
0.0
  0
LINE
  5
DE
330
22
100
AcDbEntity
  8
0
  6
Continuous
 62
     7
100
AcDbLine
 10
-321.2656860351563
 20
298.4032592773438
 30
0.0
 11
-321.2784118652344
 21
272.6196594238281
 31
0.0
  0
LINE
  5
DF
330
22
100
AcDbEntity
  8
0
  6
Continuous
 62
     7
100
AcDbLine
 10
-305.4453430175781
 20
173.3368377685547
 30
0.0
 11
-285.0879821777344
 21
185.4303131103516
 31
0.0
  0
LINE
  5
E0
330
22
100
AcDbEntity
  8
0
  6
Continuous
 62
     7
100
AcDbLine
 10
-317.1416625976563
 20
172.4835662841797
 30
0.0
 11
-292.8225708007813
 21
187.1190795898438
 31
0.0
  0
LINE
  5
E1
330
22
100
AcDbEntity
  8
0
  6
Continuous
 62
     7
100
AcDbLine
 10
-309.6416625976563
 20
52.88356781005859
 30
0.0
 11
-260.6416625976563
 21
52.88356781005859
 31
0.0
  0
LINE
  5
E2
330
22
100
AcDbEntity
  8
0
  6
Continuous
 62
     7
100
AcDbLine
 10
-309.6416625976563
 20
55.8835678100586
 30
0.0
 11
-260.6416625976563
 21
55.8835678100586
 31
0.0
  0
LINE
  5
E3
330
22
100
AcDbEntity
  8
0
  6
Continuous
 62
     7
100
AcDbLine
 10
-261.0319519042969
 20
55.8835678100586
 30
0.0
 11
-260.6416625976563
 21
55.49327087402343
 31
0.0
  0
LINE
  5
E4
330
22
100
AcDbEntity
  8
0
  6
Continuous
 62
     7
100
AcDbLine
 10
-261.7390747070313
 20
55.8835678100586
 30
0.0
 11
-260.6416625976563
 21
54.78616333007813
 31
0.0
  0
LINE
  5
E5
330
22
100
AcDbEntity
  8
0
  6
Continuous
 62
     7
100
AcDbLine
 10
-263.8603820800781
 20
55.8835678100586
 30
0.0
 11
-260.8603820800781
 21
52.88356781005859
 31
0.0
  0
LINE
  5
E6
330
22
100
AcDbEntity
  8
0
  6
Continuous
 62
     7
100
AcDbLine
 10
-264.5674743652344
 20
55.8835678100586
 30
0.0
 11
-261.5674743652344
 21
52.88356781005859
 31
0.0
  0
LINE
  5
E7
330
22
100
AcDbEntity
  8
0
  6
Continuous
 62
     7
100
AcDbLine
 10
-266.1652221679688
 20
55.35999298095703
 30
0.0
 11
-263.6888122558594
 21
52.88356781005859
 31
0.0
  0
LINE
  5
E8
330
22
100
AcDbEntity
  8
0
  6
Continuous
 62
     7
100
AcDbLine
 10
-266.518798828125
 20
55.00643920898438
 30
0.0
 11
-264.3959045410156
 21
52.88356781005859
 31
0.0
  0
LINE
  5
E9
330
22
100
AcDbEntity
  8
0
  6
Continuous
 62
     7
100
AcDbLine
 10
-267.5794372558594
 20
53.94577789306641
 30
0.0
 11
-266.5172424316406
 21
52.88356781005859
 31
0.0
  0
LINE
  5
EA
330
22
100
AcDbEntity
  8
0
  6
Continuous
 62
     7
100
AcDbLine
 10
-267.8916625976563
 20
53.55088043212891
 30
0.0
 11
-267.2243347167969
 21
52.88356781005859
 31
0.0
  0
LINE
  5
EB
330
22
100
AcDbEntity
  8
0
  6
Continuous
 62
     7
100
AcDbLine
 10
-275.8811950683594
 20
55.8835678100586
 30
0.0
 11
-273.3916625976563
 21
53.39402770996094
 31
0.0
  0
LINE
  5
EC
330
22
100
AcDbEntity
  8
0
  6
Continuous
 62
     7
100
AcDbLine
 10
-277.3220825195313
 20
55.2031364440918
 30
0.0
 11
-275.0025329589844
 21
52.88356781005859
 31
0.0
  0
LINE
  5
ED
330
22
100
AcDbEntity
  8
0
  6
Continuous
 62
     7
100
AcDbLine
 10
-278.7096252441406
 20
55.8835678100586
 30
0.0
 11
-275.7096252441406
 21
52.88356781005859
 31
0.0
  0
LINE
  5
EE
330
22
100
AcDbEntity
  8
0
  6
Continuous
 62
     7
100
AcDbLine
 10
-280.8309326171875
 20
55.8835678100586
 30
0.0
 11
-277.8309326171875
 21
52.88356781005859
 31
0.0
  0
LINE
  5
EF
330
22
100
AcDbEntity
  8
0
  6
Continuous
 62
     7
100
AcDbLine
 10
-281.5380554199219
 20
55.8835678100586
 30
0.0
 11
-278.5380554199219
 21
52.88356781005859
 31
0.0
  0
LINE
  5
F0
330
22
100
AcDbEntity
  8
0
  6
Continuous
 62
     7
100
AcDbLine
 10
-283.6593627929688
 20
55.8835678100586
 30
0.0
 11
-280.6593627929688
 21
52.88356781005859
 31
0.0
  0
LINE
  5
F1
330
22
100
AcDbEntity
  8
0
  6
Continuous
 62
     7
100
AcDbLine
 10
-284.3664855957031
 20
55.8835678100586
 30
0.0
 11
-281.3664855957031
 21
52.88356781005859
 31
0.0
  0
LINE
  5
F2
330
22
100
AcDbEntity
  8
0
  6
Continuous
 62
     7
100
AcDbLine
 10
-286.48779296875
 20
55.8835678100586
 30
0.0
 11
-283.48779296875
 21
52.88356781005859
 31
0.0
  0
LINE
  5
F3
330
22
100
AcDbEntity
  8
0
  6
Continuous
 62
     7
100
AcDbLine
 10
-287.1949157714844
 20
55.8835678100586
 30
0.0
 11
-284.1949157714844
 21
52.88356781005859
 31
0.0
  0
LINE
  5
F4
330
22
100
AcDbEntity
  8
0
  6
Continuous
 62
     7
100
AcDbLine
 10
-289.3162231445313
 20
55.8835678100586
 30
0.0
 11
-286.3162231445313
 21
52.88356781005859
 31
0.0
  0
LINE
  5
F5
330
22
100
AcDbEntity
  8
0
  6
Continuous
 62
     7
100
AcDbLine
 10
-290.0233459472656
 20
55.8835678100586
 30
0.0
 11
-287.0233459472656
 21
52.88356781005859
 31
0.0
  0
LINE
  5
F6
330
22
100
AcDbEntity
  8
0
  6
Continuous
 62
     7
100
AcDbLine
 10
-292.1446533203125
 20
55.8835678100586
 30
0.0
 11
-289.1446533203125
 21
52.88356781005859
 31
0.0
  0
LINE
  5
F7
330
22
100
AcDbEntity
  8
0
  6
Continuous
 62
     7
100
AcDbLine
 10
-292.8517456054688
 20
55.8835678100586
 30
0.0
 11
-289.8517456054688
 21
52.88356781005859
 31
0.0
  0
LINE
  5
F8
330
22
100
AcDbEntity
  8
0
  6
Continuous
 62
     7
100
AcDbLine
 10
-294.057373046875
 20
54.96785736083984
 30
0.0
 11
-291.9730834960938
 21
52.88356781005859
 31
0.0
  0
LINE
  5
F9
330
22
100
AcDbEntity
  8
0
  6
Continuous
 62
     7
100
AcDbLine
 10
-295.68017578125
 20
55.8835678100586
 30
0.0
 11
-292.68017578125
 21
52.88356781005859
 31
0.0
  0
LINE
  5
FA
330
22
100
AcDbEntity
  8
0
  6
Continuous
 62
     7
100
AcDbLine
 10
-297.801513671875
 20
55.8835678100586
 30
0.0
 11
-294.801513671875
 21
52.88356781005859
 31
0.0
  0
LINE
  5
FB
330
22
100
AcDbEntity
  8
0
  6
Continuous
 62
     7
100
AcDbLine
 10
-298.5086059570313
 20
55.8835678100586
 30
0.0
 11
-295.5086059570313
 21
52.88356781005859
 31
0.0
  0
LINE
  5
FC
330
22
100
AcDbEntity
  8
0
  6
Continuous
 62
     7
100
AcDbLine
 10
-300.6299438476563
 20
55.8835678100586
 30
0.0
 11
-297.6299438476563
 21
52.88356781005859
 31
0.0
  0
LINE
  5
FD
330
22
100
AcDbEntity
  8
0
  6
Continuous
 62
     7
100
AcDbLine
 10
-301.3370361328125
 20
55.8835678100586
 30
0.0
 11
-298.3370361328125
 21
52.88356781005859
 31
0.0
  0
LINE
  5
FE
330
22
100
AcDbEntity
  8
0
  6
Continuous
 62
     7
100
AcDbLine
 10
-303.4583740234375
 20
55.8835678100586
 30
0.0
 11
-300.4583740234375
 21
52.88356781005859
 31
0.0
  0
LINE
  5
FF
330
22
100
AcDbEntity
  8
0
  6
Continuous
 62
     7
100
AcDbLine
 10
-304.1654663085938
 20
55.8835678100586
 30
0.0
 11
-301.1654663085938
 21
52.88356781005859
 31
0.0
  0
LINE
  5
100
330
22
100
AcDbEntity
  8
0
  6
Continuous
 62
     7
100
AcDbLine
 10
-306.2868041992188
 20
55.8835678100586
 30
0.0
 11
-303.2868041992188
 21
52.88356781005859
 31
0.0
  0
LINE
  5
101
330
22
100
AcDbEntity
  8
0
  6
Continuous
 62
     7
100
AcDbLine
 10
-309.1152038574219
 20
55.8835678100586
 30
0.0
 11
-306.1152038574219
 21
52.88356781005859
 31
0.0
  0
LINE
  5
102
330
22
100
AcDbEntity
  8
0
  6
Continuous
 62
     7
100
AcDbLine
 10
-309.6416625976563
 20
55.70289993286133
 30
0.0
 11
-306.8223266601563
 21
52.88356781005859
 31
0.0
  0
LINE
  5
103
330
22
100
AcDbEntity
  8
0
  6
Continuous
 62
     7
100
AcDbLine
 10
-309.6416625976563
 20
53.58158111572265
 30
0.0
 11
-308.9436340332031
 21
52.88356781005859
 31
0.0
  0
LINE
  5
104
330
22
100
AcDbEntity
  8
0
  6
Continuous
 62
     7
100
AcDbLine
 10
-267.8916625976563
 20
52.88356781005859
 30
0.0
 11
-267.8916625976563
 21
53.63356781005859
 31
0.0
  0
LINE
  5
105
330
22
100
AcDbEntity
  8
0
  6
Continuous
 62
     7
100
AcDbLine
 10
-265.6416625976563
 20
55.8835678100586
 30
0.0
 11
-267.8916625976563
 21
53.63356781005859
 31
0.0
  0
LINE
  5
106
330
22
100
AcDbEntity
  8
0
  6
CENTER
 62
     7
100
AcDbLine
 10
-270.6416625976563
 20
57.06584548950195
 30
0.0
 11
-270.6416625976563
 21
51.63613510131836
 31
0.0
  0
LINE
  5
107
330
22
100
AcDbEntity
  8
0
  6
Continuous
 62
     7
100
AcDbLine
 10
-275.6416625976563
 20
55.8835678100586
 30
0.0
 11
-273.3916625976563
 21
53.63356781005859
 31
0.0
  0
LINE
  5
108
330
22
100
AcDbEntity
  8
0
  6
Continuous
 62
     7
100
AcDbLine
 10
-273.3916625976563
 20
52.88356781005859
 30
0.0
 11
-273.3916625976563
 21
53.63356781005859
 31
0.0
  0
LINE
  5
109
330
22
100
AcDbEntity
  8
0
  6
Continuous
 62
     7
100
AcDbLine
 10
-292.2445678710938
 20
341.0463562011719
 30
0.0
 11
-292.47607421875
 21
340.6453857421875
 31
0.0
  0
LINE
  5
10A
330
22
100
AcDbEntity
  8
0
  6
Continuous
 62
     7
100
AcDbLine
 10
-306.7656860351563
 20
357.297607421875
 30
0.0
 11
-306.7656860351563
 21
323.656982421875
 31
0.0
  0
LINE
  5
10B
330
22
100
AcDbEntity
  8
0
  6
Continuous
 62
     7
100
AcDbLine
 10
-311.7656860351563
 20
360.8557739257813
 30
0.0
 11
-311.7656860351563
 21
323.656982421875
 31
0.0
  0
LINE
  5
10C
330
22
100
AcDbEntity
  8
0
  6
Continuous
 62
     7
100
AcDbLine
 10
-298.4563598632813
 20
339.7390441894531
 30
0.0
 11
-298.0556945800781
 21
339.5077209472656
 31
0.0
  0
LINE
  5
10D
330
22
100
AcDbEntity
  8
0
  6
Continuous
 62
     7
100
AcDbLine
 10
-298.4563598632813
 20
339.7390441894531
 30
0.0
 11
-297.1939086914063
 21
342.8411254882813
 31
0.0
  0
LINE
  5
10E
330
22
100
AcDbEntity
  8
0
  6
Continuous
 62
     7
100
AcDbLine
 10
-297.655029296875
 20
339.2763977050781
 30
0.0
 11
-295.5997619628906
 21
341.9207458496094
 31
0.0
  0
LINE
  5
10F
330
22
100
AcDbEntity
  8
0
  6
Continuous
 62
     7
100
AcDbLine
 10
-297.655029296875
 20
339.2763977050781
 30
0.0
 11
-298.0556945800781
 21
339.5077209472656
 31
0.0
  0
LINE
  5
110
330
22
100
AcDbEntity
  8
0
  6
Continuous
 62
     7
100
AcDbLine
 10
-292.0130615234375
 20
341.4473266601563
 30
0.0
 11
-294.6794128417969
 21
343.5148620605469
 31
0.0
  0
LINE
  5
111
330
22
100
AcDbEntity
  8
0
  6
Continuous
 62
     7
100
AcDbLine
 10
-292.47607421875
 20
340.6453857421875
 30
0.0
 11
-295.5997619628906
 21
341.9207458496094
 31
0.0
  0
LINE
  5
112
330
22
100
AcDbEntity
  8
0
  6
Continuous
 62
     7
100
AcDbLine
 10
-292.2445678710938
 20
341.0463562011719
 30
0.0
 11
-292.0130615234375
 21
341.4473266601563
 31
0.0
  0
LINE
  5
113
330
22
100
AcDbEntity
  8
0
  6
Continuous
 62
     7
100
AcDbLine
 10
-313.7416687011719
 20
144.8835754394531
 30
0.0
 11
-315.2908020019531
 21
146.4327087402344
 31
0.0
  0
LINE
  5
114
330
22
100
AcDbEntity
  8
0
  6
Continuous
 62
     7
100
AcDbLine
 10
-315.5772705078125
 20
157.8835754394531
 30
0.0
 11
-315.0019836425781
 21
143.1071472167969
 31
0.0
  0
LINE
  5
115
330
22
100
AcDbEntity
  8
0
  6
Continuous
 62
     7
100
AcDbLine
 10
-314.0520629882813
 20
156.3583526611328
 30
0.0
 11
-313.6416625976563
 21
142.0176544189453
 31
0.0
  0
LINE
  5
116
330
22
100
AcDbEntity
  8
0
  6
Continuous
 62
     7
100
AcDbLine
 10
-318.6416625976563
 20
57.88356781005859
 30
0.0
 11
-318.6416625976563
 21
157.8835754394531
 31
0.0
  0
LINE
  5
117
330
22
100
AcDbEntity
  8
0
  6
Continuous
 62
     7
100
AcDbLine
 10
-315.7507629394531
 20
157.8835754394531
 30
0.0
 11
-315.6453552246094
 21
157.7781829833984
 31
0.0
  0
LINE
  5
118
330
22
100
AcDbEntity
  8
0
  6
Continuous
 62
     7
100
AcDbLine
 10
-318.6416625976563
 20
156.5318298339844
 30
0.0
 11
-315.5084838867188
 21
153.398681640625
 31
0.0
  0
LINE
  5
119
330
22
100
AcDbEntity
  8
0
  6
Continuous
 62
     7
100
AcDbLine
 10
-318.6416625976563
 20
152.2891998291016
 30
0.0
 11
-315.3716430664063
 21
149.0191650390625
 31
0.0
  0
LINE
  5
11A
330
22
100
AcDbEntity
  8
0
  6
Continuous
 62
     7
100
AcDbLine
 10
-318.6416625976563
 20
148.0465545654297
 30
0.0
 11
-315.0546264648438
 21
144.4595336914063
 31
0.0
  0
LINE
  5
11B
330
22
100
AcDbEntity
  8
0
  6
Continuous
 62
     7
100
AcDbLine
 10
-318.6416625976563
 20
143.8039093017578
 30
0.0
 11
-313.6416625976563
 21
138.8039093017578
 31
0.0
  0
LINE
  5
11C
330
22
100
AcDbEntity
  8
0
  6
Continuous
 62
     7
100
AcDbLine
 10
-318.6416625976563
 20
139.5612640380859
 30
0.0
 11
-313.6416625976563
 21
134.5612640380859
 31
0.0
  0
LINE
  5
11D
330
22
100
AcDbEntity
  8
0
  6
Continuous
 62
     7
100
AcDbLine
 10
-318.6416625976563
 20
135.3186340332031
 30
0.0
 11
-313.6416625976563
 21
130.3186340332031
 31
0.0
  0
LINE
  5
11E
330
22
100
AcDbEntity
  8
0
  6
Continuous
 62
     7
100
AcDbLine
 10
-318.6416625976563
 20
131.0759887695313
 30
0.0
 11
-313.6416625976563
 21
126.0759887695313
 31
0.0
  0
LINE
  5
11F
330
22
100
AcDbEntity
  8
0
  6
Continuous
 62
     7
100
AcDbLine
 10
-318.6416625976563
 20
126.8333511352539
 30
0.0
 11
-313.6416625976563
 21
121.8333511352539
 31
0.0
  0
LINE
  5
120
330
22
100
AcDbEntity
  8
0
  6
Continuous
 62
     7
100
AcDbLine
 10
-318.6416625976563
 20
122.590705871582
 30
0.0
 11
-314.5380859375
 21
118.4871368408203
 31
0.0
  0
LINE
  5
121
330
22
100
AcDbEntity
  8
0
  6
Continuous
 62
     7
100
AcDbLine
 10
-318.6416625976563
 20
118.3480682373047
 30
0.0
 11
-315.1416625976563
 21
114.8480682373047
 31
0.0
  0
LINE
  5
122
330
22
100
AcDbEntity
  8
0
  6
Continuous
 62
     7
100
AcDbLine
 10
-318.6416625976563
 20
114.1054229736328
 30
0.0
 11
-315.1416625976563
 21
110.6054229736328
 31
0.0
  0
LINE
  5
123
330
22
100
AcDbEntity
  8
0
  6
Continuous
 62
     7
100
AcDbLine
 10
-318.6416625976563
 20
109.8627853393555
 30
0.0
 11
-315.1416625976563
 21
106.3627853393555
 31
0.0
  0
LINE
  5
124
330
22
100
AcDbEntity
  8
0
  6
Continuous
 62
     7
100
AcDbLine
 10
-318.6416625976563
 20
105.6201477050781
 30
0.0
 11
-315.1416625976563
 21
102.1201477050781
 31
0.0
  0
LINE
  5
125
330
22
100
AcDbEntity
  8
0
  6
Continuous
 62
     7
100
AcDbLine
 10
-318.6416625976563
 20
101.3775024414063
 30
0.0
 11
-315.1416625976563
 21
97.87750244140625
 31
0.0
  0
LINE
  5
126
330
22
100
AcDbEntity
  8
0
  6
Continuous
 62
     7
100
AcDbLine
 10
-318.6416625976563
 20
97.13486480712893
 30
0.0
 11
-315.1416625976563
 21
93.63486480712891
 31
0.0
  0
LINE
  5
127
330
22
100
AcDbEntity
  8
0
  6
Continuous
 62
     7
100
AcDbLine
 10
-318.6416625976563
 20
92.89221954345704
 30
0.0
 11
-315.1416625976563
 21
89.39221954345702
 31
0.0
  0
LINE
  5
128
330
22
100
AcDbEntity
  8
0
  6
Continuous
 62
     7
100
AcDbLine
 10
-318.6416625976563
 20
88.64958190917969
 30
0.0
 11
-315.1416625976563
 21
85.14958190917969
 31
0.0
  0
LINE
  5
129
330
22
100
AcDbEntity
  8
0
  6
Continuous
 62
     7
100
AcDbLine
 10
-318.6416625976563
 20
84.40694427490234
 30
0.0
 11
-315.1416625976563
 21
80.90694427490234
 31
0.0
  0
LINE
  5
12A
330
22
100
AcDbEntity
  8
0
  6
Continuous
 62
     7
100
AcDbLine
 10
-318.6416625976563
 20
80.16429901123046
 30
0.0
 11
-315.1416625976563
 21
76.66429901123047
 31
0.0
  0
LINE
  5
12B
330
22
100
AcDbEntity
  8
0
  6
Continuous
 62
     7
100
AcDbLine
 10
-318.6416625976563
 20
75.92166137695312
 30
0.0
 11
-315.1416625976563
 21
72.42166137695313
 31
0.0
  0
LINE
  5
12C
330
22
100
AcDbEntity
  8
0
  6
Continuous
 62
     7
100
AcDbLine
 10
-318.6416625976563
 20
71.67901611328125
 30
0.0
 11
-315.1416625976563
 21
68.17901611328125
 31
0.0
  0
LINE
  5
12D
330
22
100
AcDbEntity
  8
0
  6
Continuous
 62
     7
100
AcDbLine
 10
-318.6416625976563
 20
67.43637847900391
 30
0.0
 11
-315.1416625976563
 21
63.9363784790039
 31
0.0
  0
LINE
  5
12E
330
22
100
AcDbEntity
  8
0
  6
Continuous
 62
     7
100
AcDbLine
 10
-318.6416625976563
 20
63.1937370300293
 30
0.0
 11
-315.1416625976563
 21
59.69373703002929
 31
0.0
  0
LINE
  5
12F
330
22
100
AcDbEntity
  8
0
  6
Continuous
 62
     7
100
AcDbLine
 10
-318.6416625976563
 20
58.95109939575196
 30
0.0
 11
-317.5741271972656
 21
57.88356781005859
 31
0.0
  0
LINE
  5
130
330
22
100
AcDbEntity
  8
0
  6
Continuous
 62
     7
100
AcDbLine
 10
-317.8720703125
 20
157.8835754394531
 30
0.0
 11
-315.5769348144531
 21
155.5884246826172
 31
0.0
  0
LINE
  5
131
330
22
100
AcDbEntity
  8
0
  6
Continuous
 62
     7
100
AcDbLine
 10
-318.6416625976563
 20
154.4105072021484
 30
0.0
 11
-315.4400634765625
 21
151.2089233398438
 31
0.0
  0
LINE
  5
132
330
22
100
AcDbEntity
  8
0
  6
Continuous
 62
     7
100
AcDbLine
 10
-318.6416625976563
 20
150.1678771972656
 30
0.0
 11
-315.3031921386719
 21
146.8294219970703
 31
0.0
  0
LINE
  5
133
330
22
100
AcDbEntity
  8
0
  6
Continuous
 62
     7
100
AcDbLine
 10
-318.6416625976563
 20
145.9252319335938
 30
0.0
 11
-313.6416625976563
 21
140.9252319335938
 31
0.0
  0
LINE
  5
134
330
22
100
AcDbEntity
  8
0
  6
Continuous
 62
     7
100
AcDbLine
 10
-318.6416625976563
 20
141.6825866699219
 30
0.0
 11
-313.6416625976563
 21
136.6825866699219
 31
0.0
  0
LINE
  5
135
330
22
100
AcDbEntity
  8
0
  6
Continuous
 62
     7
100
AcDbLine
 10
-318.6416625976563
 20
137.4399566650391
 30
0.0
 11
-313.6416625976563
 21
132.4399566650391
 31
0.0
  0
LINE
  5
136
330
22
100
AcDbEntity
  8
0
  6
Continuous
 62
     7
100
AcDbLine
 10
-318.6416625976563
 20
133.1973114013672
 30
0.0
 11
-313.6416625976563
 21
128.1973114013672
 31
0.0
  0
LINE
  5
137
330
22
100
AcDbEntity
  8
0
  6
Continuous
 62
     7
100
AcDbLine
 10
-318.6416625976563
 20
128.9546661376953
 30
0.0
 11
-313.6416625976563
 21
123.9546661376953
 31
0.0
  0
LINE
  5
138
330
22
100
AcDbEntity
  8
0
  6
Continuous
 62
     7
100
AcDbLine
 10
-318.6416625976563
 20
124.712028503418
 30
0.0
 11
-313.6416625976563
 21
119.712028503418
 31
0.0
  0
LINE
  5
139
330
22
100
AcDbEntity
  8
0
  6
Continuous
 62
     7
100
AcDbLine
 10
-318.6416625976563
 20
120.4693908691406
 30
0.0
 11
-315.1416625976563
 21
116.9693908691405
 31
0.0
  0
LINE
  5
13A
330
22
100
AcDbEntity
  8
0
  6
Continuous
 62
     7
100
AcDbLine
 10
-318.6416625976563
 20
116.2267456054688
 30
0.0
 11
-315.1416625976563
 21
112.7267456054688
 31
0.0
  0
LINE
  5
13B
330
22
100
AcDbEntity
  8
0
  6
Continuous
 62
     7
100
AcDbLine
 10
-318.6416625976563
 20
111.9841079711914
 30
0.0
 11
-315.1416625976563
 21
108.4841079711914
 31
0.0
  0
LINE
  5
13C
330
22
100
AcDbEntity
  8
0
  6
Continuous
 62
     7
100
AcDbLine
 10
-318.6416625976563
 20
107.7414627075195
 30
0.0
 11
-315.1416625976563
 21
104.2414627075195
 31
0.0
  0
LINE
  5
13D
330
22
100
AcDbEntity
  8
0
  6
Continuous
 62
     7
100
AcDbLine
 10
-318.6416625976563
 20
103.4988250732422
 30
0.0
 11
-315.1416625976563
 21
99.99882507324221
 31
0.0
  0
LINE
  5
13E
330
22
100
AcDbEntity
  8
0
  6
Continuous
 62
     7
100
AcDbLine
 10
-318.6416625976563
 20
99.25618743896485
 30
0.0
 11
-315.1416625976563
 21
95.75618743896484
 31
0.0
  0
LINE
  5
13F
330
22
100
AcDbEntity
  8
0
  6
Continuous
 62
     7
100
AcDbLine
 10
-318.6416625976563
 20
95.01354217529295
 30
0.0
 11
-315.1416625976563
 21
91.51354217529295
 31
0.0
  0
LINE
  5
140
330
22
100
AcDbEntity
  8
0
  6
Continuous
 62
     7
100
AcDbLine
 10
-318.6416625976563
 20
90.77090454101563
 30
0.0
 11
-315.1416625976563
 21
87.27090454101562
 31
0.0
  0
LINE
  5
141
330
22
100
AcDbEntity
  8
0
  6
Continuous
 62
     7
100
AcDbLine
 10
-318.6416625976563
 20
86.52825927734374
 30
0.0
 11
-315.1416625976563
 21
83.02825927734375
 31
0.0
  0
LINE
  5
142
330
22
100
AcDbEntity
  8
0
  6
Continuous
 62
     7
100
AcDbLine
 10
-318.6416625976563
 20
82.28562164306641
 30
0.0
 11
-315.1416625976563
 21
78.7856216430664
 31
0.0
  0
LINE
  5
143
330
22
100
AcDbEntity
  8
0
  6
Continuous
 62
     7
100
AcDbLine
 10
-318.6416625976563
 20
78.04298400878906
 30
0.0
 11
-315.1416625976563
 21
74.54298400878906
 31
0.0
  0
LINE
  5
144
330
22
100
AcDbEntity
  8
0
  6
Continuous
 62
     7
100
AcDbLine
 10
-318.6416625976563
 20
73.80033874511719
 30
0.0
 11
-315.1416625976563
 21
70.30033874511719
 31
0.0
  0
LINE
  5
145
330
22
100
AcDbEntity
  8
0
  6
Continuous
 62
     7
100
AcDbLine
 10
-318.6416625976563
 20
69.55770111083984
 30
0.0
 11
-315.1416625976563
 21
66.05770111083984
 31
0.0
  0
LINE
  5
146
330
22
100
AcDbEntity
  8
0
  6
Continuous
 62
     7
100
AcDbLine
 10
-318.6416625976563
 20
65.31505584716796
 30
0.0
 11
-315.1416625976563
 21
61.81505966186523
 31
0.0
  0
LINE
  5
147
330
22
100
AcDbEntity
  8
0
  6
Continuous
 62
     7
100
AcDbLine
 10
-318.6416625976563
 20
61.07241821289063
 30
0.0
 11
-315.4528198242188
 21
57.88356781005859
 31
0.0
  0
LINE
  5
148
330
22
100
AcDbEntity
  8
0
  6
Continuous
 62
     7
100
AcDbLine
 10
-315.1416625976563
 20
117.8835678100586
 30
0.0
 11
-315.1416625976563
 21
57.88356781005859
 31
0.0
  0
LINE
  5
149
330
22
100
AcDbEntity
  8
0
  6
Continuous
 62
     7
100
AcDbLine
 10
-313.6416625976563
 20
59.38356781005859
 30
0.0
 11
-313.6703796386719
 21
119.3548431396484
 31
0.0
  0
LINE
  5
14A
330
22
100
AcDbEntity
  8
0
  6
Continuous
 62
     7
100
AcDbLine
 10
-315.2416687011719
 20
77.88356781005859
 30
0.0
 11
-315.2416687011719
 21
52.88356781005859
 31
0.0
  0
LINE
  5
14B
330
22
100
AcDbEntity
  8
0
  6
Continuous
 62
     7
100
AcDbLine
 10
-313.7416687011719
 20
77.88356781005859
 30
0.0
 11
-313.7416687011719
 21
54.38356781005859
 31
0.0
  0
LINE
  5
14C
330
22
100
AcDbEntity
  8
0
  6
Continuous
 62
     7
100
AcDbLine
 10
-293.1416625976563
 20
55.8835678100586
 30
0.0
 11
-294.1416625976563
 21
54.88356781005859
 31
0.0
  0
LINE
  5
14D
330
22
100
AcDbEntity
  8
0
  6
Continuous
 62
     7
100
AcDbLine
 10
-295.1416625976563
 20
55.8835678100586
 30
0.0
 11
-294.1416625976563
 21
54.88356781005859
 31
0.0
  0
LINE
  5
14E
330
22
100
AcDbEntity
  8
0
  6
Continuous
 62
     7
100
AcDbLine
 10
-315.2416687011719
 20
52.88356781005859
 30
0.0
 11
-313.7416687011719
 21
54.38356781005859
 31
0.0
  0
LINE
  5
14F
330
22
100
AcDbEntity
  8
0
  6
Continuous
 62
     7
100
AcDbLine
 10
-315.820556640625
 20
52.88356781005859
 30
0.0
 11
-315.2416687011719
 21
52.88356781005859
 31
0.0
  0
LINE
  5
150
330
22
100
AcDbEntity
  8
0
  6
Continuous
 62
     7
100
AcDbLine
 10
-315.1416625976563
 20
57.88356781005859
 30
0.0
 11
-313.6416625976563
 21
59.38356781005859
 31
0.0
  0
LINE
  5
151
330
22
100
AcDbEntity
  8
0
  6
Continuous
 62
     7
100
AcDbLine
 10
-276.6416625976563
 20
55.8835678100586
 30
0.0
 11
-277.6416625976563
 21
54.88356781005859
 31
0.0
  0
LINE
  5
152
330
22
100
AcDbEntity
  8
0
  6
Continuous
 62
     7
100
AcDbLine
 10
-278.6416625976563
 20
55.8835678100586
 30
0.0
 11
-277.6416625976563
 21
54.88356781005859
 31
0.0
  0
LINE
  5
153
330
22
100
AcDbEntity
  8
0
  6
Continuous
 62
     7
100
AcDbLine
 10
-313.7416687011719
 20
23.88356971740723
 30
0.0
 11
-315.2908020019531
 21
25.43271446228027
 31
0.0
  0
LINE
  5
154
330
22
100
AcDbEntity
  8
0
  6
Continuous
 62
     7
100
AcDbLine
 10
-313.7416687011719
 20
76.35154724121093
 30
0.0
 11
-312.2096252441406
 21
77.88356781005859
 31
0.0
  0
LINE
  5
155
330
22
100
AcDbEntity
  8
0
  6
Continuous
 62
     7
100
AcDbLine
 10
-313.7416687011719
 20
73.52311706542969
 30
0.0
 11
-309.6416625976563
 21
77.62311553955078
 31
0.0
  0
LINE
  5
156
330
22
100
AcDbEntity
  8
0
  6
Continuous
 62
     7
100
AcDbLine
 10
-313.7416687011719
 20
70.69468688964843
 30
0.0
 11
-309.6416625976563
 21
74.79469299316406
 31
0.0
  0
LINE
  5
157
330
22
100
AcDbEntity
  8
0
  6
Continuous
 62
     7
100
AcDbLine
 10
-313.7416687011719
 20
67.86626434326172
 30
0.0
 11
-309.6416625976563
 21
71.96626281738281
 31
0.0
  0
LINE
  5
158
330
22
100
AcDbEntity
  8
0
  6
Continuous
 62
     7
100
AcDbLine
 10
-313.7416687011719
 20
65.03783416748047
 30
0.0
 11
-309.6416625976563
 21
69.13783264160156
 31
0.0
  0
LINE
  5
159
330
22
100
AcDbEntity
  8
0
  6
Continuous
 62
     7
100
AcDbLine
 10
-313.7416687011719
 20
62.20940780639647
 30
0.0
 11
-309.6416625976563
 21
66.30941009521484
 31
0.0
  0
LINE
  5
15A
330
22
100
AcDbEntity
  8
0
  6
Continuous
 62
     7
100
AcDbLine
 10
-313.7416687011719
 20
59.3809814453125
 30
0.0
 11
-309.6416625976563
 21
63.48097991943359
 31
0.0
  0
LINE
  5
15B
330
22
100
AcDbEntity
  8
0
  6
Continuous
 62
     7
100
AcDbLine
 10
-313.7416687011719
 20
56.55255508422852
 30
0.0
 11
-309.6416625976563
 21
60.65255355834961
 31
0.0
  0
LINE
  5
15C
330
22
100
AcDbEntity
  8
0
  6
Continuous
 62
     7
100
AcDbLine
 10
-315.820556640625
 20
51.6452407836914
 30
0.0
 11
-309.6416625976563
 21
57.82412719726563
 31
0.0
  0
LINE
  5
15D
330
22
100
AcDbEntity
  8
0
  6
Continuous
 62
     7
100
AcDbLine
 10
-315.820556640625
 20
48.81681442260742
 30
0.0
 11
-309.6416625976563
 21
54.99570083618164
 31
0.0
  0
LINE
  5
15E
330
22
100
AcDbEntity
  8
0
  6
Continuous
 62
     7
100
AcDbLine
 10
-315.820556640625
 20
45.98838424682617
 30
0.0
 11
-309.6416625976563
 21
52.16727066040039
 31
0.0
  0
LINE
  5
15F
330
22
100
AcDbEntity
  8
0
  6
Continuous
 62
     7
100
AcDbLine
 10
-315.820556640625
 20
43.15995788574219
 30
0.0
 11
-309.6416625976563
 21
49.33884429931641
 31
0.0
  0
LINE
  5
160
330
22
100
AcDbEntity
  8
0
  6
Continuous
 62
     7
100
AcDbLine
 10
-314.6216430664063
 20
41.53042602539063
 30
0.0
 11
-309.6416625976563
 21
46.51041793823242
 31
0.0
  0
LINE
  5
161
330
22
100
AcDbEntity
  8
0
  6
Continuous
 62
     7
100
AcDbLine
 10
-314.2173767089844
 20
39.10625839233398
 30
0.0
 11
-309.6416625976563
 21
43.68199157714843
 31
0.0
  0
LINE
  5
162
330
22
100
AcDbEntity
  8
0
  6
Continuous
 62
     7
100
AcDbLine
 10
-314.1316833496094
 20
36.36354446411133
 30
0.0
 11
-309.6416625976563
 21
40.85356521606445
 31
0.0
  0
LINE
  5
163
330
22
100
AcDbEntity
  8
0
  6
Continuous
 62
     7
100
AcDbLine
 10
-314.0459594726563
 20
33.62083053588867
 30
0.0
 11
-309.6416625976563
 21
38.02513504028321
 31
0.0
  0
LINE
  5
164
330
22
100
AcDbEntity
  8
0
  6
Continuous
 62
     7
100
AcDbLine
 10
-313.9602355957031
 20
30.87811851501465
 30
0.0
 11
-309.6416625976563
 21
35.19670867919922
 31
0.0
  0
LINE
  5
165
330
22
100
AcDbEntity
  8
0
  6
Continuous
 62
     7
100
AcDbLine
 10
-313.8745422363281
 20
28.13540649414063
 30
0.0
 11
-309.6416625976563
 21
32.36828231811523
 31
0.0
  0
LINE
  5
166
330
22
100
AcDbEntity
  8
0
  6
Continuous
 62
     7
100
AcDbLine
 10
-313.788818359375
 20
25.39269256591797
 30
0.0
 11
-309.6416625976563
 21
29.53985595703125
 31
0.0
  0
LINE
  5
167
330
22
100
AcDbEntity
  8
0
  6
Continuous
 62
     7
100
AcDbLine
 10
-312.4695129394531
 20
23.88356971740723
 30
0.0
 11
-309.6416625976563
 21
26.71142768859863
 31
0.0
  0
LINE
  5
168
330
22
100
AcDbEntity
  8
0
  6
Continuous
 62
     7
100
AcDbLine
 10
-309.6416625976563
 20
77.88356781005859
 30
0.0
 11
-309.6416625976563
 21
23.88356971740723
 31
0.0
  0
LINE
  5
169
330
22
100
AcDbEntity
  8
0
  6
Continuous
 62
     7
100
AcDbLine
 10
-314.2856750488281
 20
41.29134368896484
 30
0.0
 11
-313.7416687011719
 21
23.88356971740723
 31
0.0
  0
LINE
  5
16A
330
22
100
AcDbEntity
  8
0
  6
Continuous
 62
     7
100
AcDbLine
 10
-315.820556640625
 20
42.38356781005859
 30
0.0
 11
-315.2908020019531
 21
25.43271446228027
 31
0.0
  0
LINE
  5
16B
330
22
100
AcDbEntity
  8
0
  6
Continuous
 62
     7
100
AcDbLine
 10
-315.820556640625
 20
42.38356781005859
 30
0.0
 11
-315.820556640625
 21
52.88356781005859
 31
0.0
  0
LINE
  5
16C
330
22
100
AcDbEntity
  8
0
  6
Continuous
 62
     7
100
AcDbLine
 10
-315.820556640625
 20
42.38356781005859
 30
0.0
 11
-314.2856750488281
 21
41.29134368896484
 31
0.0
  0
LINE
  5
16D
330
22
100
AcDbEntity
  8
0
  6
Continuous
 62
     7
100
AcDbLine
 10
-363.7656860351563
 20
277.2002258300781
 30
0.0
 11
-363.7656860351563
 21
314.2779846191406
 31
0.0
  0
LINE
  5
16E
330
22
100
AcDbEntity
  8
0
  6
Continuous
 62
     7
100
AcDbLine
 10
-368.7656860351563
 20
280.7583923339844
 30
0.0
 11
-368.7656860351563
 21
314.2779846191406
 31
0.0
  0
LINE
  5
16F
330
22
100
AcDbEntity
  8
0
  6
Continuous
 62
     7
100
AcDbLine
 10
-378.2783813476563
 20
319.0407104492188
 30
0.0
 11
-378.2784423828125
 21
291.0230102539063
 31
0.0
  0
LINE
  5
170
330
22
100
AcDbEntity
  8
0
  6
Continuous
 62
     7
100
AcDbLine
 10
-373.2656860351563
 20
319.0279846191406
 30
0.0
 11
-373.2656860351563
 21
284.8913269042969
 31
0.0
  0
LINE
  5
171
330
22
100
AcDbEntity
  8
0
  6
Continuous
 62
     7
100
AcDbLine
 10
-373.2656860351563
 20
319.0279846191406
 30
0.0
 11
-373.2784118652344
 21
335.7811584472656
 31
0.0
  0
LINE
  5
172
330
22
100
AcDbEntity
  8
0
  6
Continuous
 62
     7
100
AcDbLine
 10
-382.7656860351563
 20
304.4306335449219
 30
0.0
 11
-382.7656860351563
 21
319.0279846191406
 31
0.0
  0
LINE
  5
173
330
22
100
AcDbEntity
  8
0
  6
Continuous
 62
     7
100
AcDbLine
 10
-378.2783813476563
 20
319.0152893066406
 30
0.0
 11
-378.2784118652344
 21
335.7684631347656
 31
0.0
  0
LINE
  5
174
330
22
100
AcDbEntity
  8
0
  6
Continuous
 62
     7
100
AcDbLine
 10
-382.7656860351563
 20
333.6253662109375
 30
0.0
 11
-382.7656860351563
 21
319.0279846191406
 31
0.0
  0
LINE
  5
175
330
22
100
AcDbEntity
  8
0
  6
Continuous
 62
     7
100
AcDbLine
 10
-359.2656860351563
 20
319.0279846191406
 30
0.0
 11
-359.2656860351563
 21
330.1781921386719
 31
0.0
  0
LINE
  5
176
330
22
100
AcDbEntity
  8
0
  6
Continuous
 62
     7
100
AcDbLine
 10
-354.2784118652344
 20
319.0279846191406
 30
0.0
 11
-354.2784118652344
 21
307.8778076171875
 31
0.0
  0
LINE
  5
177
330
22
100
AcDbEntity
  8
0
  6
Continuous
 62
     7
100
AcDbLine
 10
-349.7656860351563
 20
271.2622985839844
 30
0.0
 11
-349.7656860351563
 21
314.2779846191406
 31
0.0
  0
LINE
  5
178
330
22
100
AcDbEntity
  8
0
  6
CENTER
 62
     7
100
AcDbLine
 10
-337.7656860351563
 20
236.7044982910156
 30
0.0
 11
-337.7656860351563
 21
397.5535888671875
 31
0.0
  0
LINE
  5
179
330
22
100
AcDbEntity
  8
0
  6
Continuous
 62
     7
100
AcDbLine
 10
-260.6416625976563
 20
55.8835678100586
 30
0.0
 11
-260.6416625976563
 21
52.88356781005859
 31
0.0
  0
LINE
  5
17A
330
22
100
AcDbEntity
  8
0
  6
Continuous
 62
     7
100
AcDbLine
 10
-313.6416625976563
 20
142.0176544189453
 30
0.0
 11
-313.6416625976563
 21
119.3835678100586
 31
0.0
  0
LINE
  5
17B
330
22
100
AcDbEntity
  8
0
  6
Continuous
 62
     7
100
AcDbLine
 10
-315.0019836425781
 20
143.1071472167969
 30
0.0
 11
-313.6416625976563
 21
142.0176544189453
 31
0.0
  0
LINE
  5
17C
330
22
100
AcDbEntity
  8
0
  6
Continuous
 62
     7
100
AcDbLine
 10
-315.5772705078125
 20
157.8835754394531
 30
0.0
 11
-314.0520629882813
 21
156.3583526611328
 31
0.0
  0
LINE
  5
17D
330
22
100
AcDbEntity
  8
0
  6
Continuous
 62
     7
100
AcDbLine
 10
-313.6416625976563
 20
77.88356781005859
 30
0.0
 11
-315.1416625976563
 21
76.32985687255859
 31
0.0
  0
LINE
  5
17E
330
22
100
AcDbEntity
  8
0
  6
Continuous
 62
     7
100
AcDbLine
 10
-313.6505126953125
 20
77.88356781005859
 30
0.0
 11
-309.6416625976563
 21
77.88356781005859
 31
0.0
  0
LINE
  5
17F
330
22
100
AcDbEntity
  8
0
  6
Continuous
 62
     7
100
AcDbLine
 10
-315.1416625976563
 20
117.8835678100586
 30
0.0
 11
-313.6416625976563
 21
119.3835678100586
 31
0.0
  0
LINE
  5
180
330
22
100
AcDbEntity
  8
0
  6
Continuous
 62
     7
100
AcDbLine
 10
-313.7236633300781
 20
144.8835754394531
 30
0.0
 11
-308.8916625976563
 21
144.8835754394531
 31
0.0
  0
LINE
  5
181
330
22
100
AcDbEntity
  8
0
  6
Continuous
 62
     7
100
AcDbLine
 10
-354.2529296875
 20
272.6196594238281
 30
0.0
 11
-354.2784118652344
 21
298.4032592773438
 31
0.0
  0
LINE
  5
182
330
22
100
AcDbEntity
  8
0
  6
Continuous
 62
     7
100
AcDbLine
 10
-390.1953430175781
 20
185.4303131103516
 30
0.0
 11
-369.8379821777344
 21
173.3368377685547
 31
0.0
  0
LINE
  5
183
330
22
100
AcDbEntity
  8
0
  6
Continuous
 62
     7
100
AcDbLine
 10
-387.6416625976563
 20
186.8835754394531
 30
0.0
 11
-337.6416625976563
 21
186.8835754394531
 31
0.0
  0
LINE
  5
184
330
22
100
AcDbEntity
  8
0
  6
Continuous
 62
     7
100
AcDbLine
 10
-366.2888793945313
 20
171.8835754394531
 30
0.0
 11
-337.6416625976563
 21
171.8835754394531
 31
0.0
  0
LINE
  5
185
330
22
100
AcDbEntity
  8
0
  6
Continuous
 62
     7
100
AcDbLine
 10
-334.6416625976563
 20
203.8835754394531
 30
0.0
 11
-334.6416625976563
 21
200.6835632324219
 31
0.0
  0
LINE
  5
186
330
22
100
AcDbEntity
  8
0
  6
Continuous
 62
     7
100
AcDbLine
 10
-403.6947937011718
 20
203.3835754394531
 30
0.0
 11
-403.6947937011718
 21
199.8835754394531
 31
0.0
  0
LINE
  5
187
330
22
100
AcDbEntity
  8
0
  6
Continuous
 62
     7
100
AcDbLine
 10
-392.6416625976563
 20
196.8835754394531
 30
0.0
 11
-392.6416625976563
 21
189.72900390625
 31
0.0
  0
LINE
  5
188
330
22
100
AcDbEntity
  8
0
  6
Continuous
 62
     7
100
AcDbLine
 10
-394.6416625976563
 20
198.8835754394531
 30
0.0
 11
-337.6416625976563
 21
198.8835754394531
 31
0.0
  0
LINE
  5
189
330
22
100
AcDbEntity
  8
0
  6
Continuous
 62
     7
100
AcDbLine
 10
-402.6947937011718
 20
198.8835754394531
 30
0.0
 11
-394.6416625976563
 21
198.8835754394531
 31
0.0
  0
LINE
  5
18A
330
22
100
AcDbEntity
  8
0
  6
Continuous
 62
     7
100
AcDbLine
 10
-340.2656860351563
 20
303.8280029296875
 30
0.0
 11
-340.2656860351563
 21
310.3280029296875
 31
0.0
  0
LINE
  5
18B
330
22
100
AcDbEntity
  8
0
  6
Continuous
 62
     7
100
AcDbLine
 10
-335.2656860351563
 20
303.8280029296875
 30
0.0
 11
-335.2656860351563
 21
310.3280029296875
 31
0.0
  0
LINE
  5
18C
330
22
100
AcDbEntity
  8
0
  6
Continuous
 62
     7
100
AcDbLine
 10
-344.7656860351563
 20
270.2779846191406
 30
0.0
 11
-344.7656860351563
 21
314.2779846191406
 31
0.0
  0
LINE
  5
18D
330
22
100
AcDbEntity
  8
0
  6
Continuous
 62
     7
100
AcDbLine
 10
-359.2656860351563
 20
319.0279846191406
 30
0.0
 11
-359.2656860351563
 21
307.8778076171875
 31
0.0
  0
LINE
  5
18E
330
22
100
AcDbEntity
  8
0
  6
Continuous
 62
     7
100
AcDbLine
 10
-354.2784118652344
 20
319.0279846191406
 30
0.0
 11
-354.2784118652344
 21
330.1781921386719
 31
0.0
  0
LINE
  5
18F
330
22
100
AcDbEntity
  8
0
  6
Continuous
 62
     7
100
AcDbLine
 10
-336.0473022460938
 20
274.2633972167969
 30
0.0
 11
-335.6466369628906
 21
274.0320739746094
 31
0.0
  0
LINE
  5
190
330
22
100
AcDbEntity
  8
0
  6
Continuous
 62
     7
100
AcDbLine
 10
-336.0473022460938
 20
274.2633972167969
 30
0.0
 11
-338.1025695800781
 21
271.6190490722656
 31
0.0
  0
LINE
  5
191
330
22
100
AcDbEntity
  8
0
  6
Continuous
 62
     7
100
AcDbLine
 10
-341.2262573242188
 20
272.8943786621094
 30
0.0
 11
-338.1025695800781
 21
271.6190490722656
 31
0.0
  0
LINE
  5
192
330
22
100
AcDbEntity
  8
0
  6
Continuous
 62
     7
100
AcDbLine
 10
-341.457763671875
 20
272.493408203125
 30
0.0
 11
-341.2262573242188
 21
272.8943786621094
 31
0.0
  0
LINE
  5
193
330
22
100
AcDbEntity
  8
0
  6
Continuous
 62
     7
100
AcDbLine
 10
-341.457763671875
 20
272.493408203125
 30
0.0
 11
-341.6892700195313
 21
272.0924377441406
 31
0.0
  0
LINE
  5
194
330
22
100
AcDbEntity
  8
0
  6
Continuous
 62
     7
100
AcDbLine
 10
-341.6892700195313
 20
272.0924377441406
 30
0.0
 11
-339.0229187011719
 21
270.02490234375
 31
0.0
  0
LINE
  5
195
330
22
100
AcDbEntity
  8
0
  6
Continuous
 62
     7
100
AcDbLine
 10
-335.2656860351563
 20
294.3280029296875
 30
0.0
 11
-335.2656860351563
 21
278.6412353515625
 31
0.0
  0
LINE
  5
196
330
22
100
AcDbEntity
  8
0
  6
Continuous
 62
     7
100
AcDbLine
 10
-334.0736083984375
 20
268.2301635742188
 30
0.0
 11
-334.3050842285156
 21
267.8291931152344
 31
0.0
  0
LINE
  5
197
330
22
100
AcDbEntity
  8
0
  6
Continuous
 62
     7
100
AcDbLine
 10
-340.2853698730469
 20
266.9228515625
 30
0.0
 11
-339.8847045898438
 21
266.6915283203125
 31
0.0
  0
LINE
  5
198
330
22
100
AcDbEntity
  8
0
  6
Continuous
 62
     7
100
AcDbLine
 10
-333.8421020507813
 20
268.6311340332031
 30
0.0
 11
-336.5084228515625
 21
270.6986694335938
 31
0.0
  0
LINE
  5
199
330
22
100
AcDbEntity
  8
0
  6
Continuous
 62
     7
100
AcDbLine
 10
-339.4840393066406
 20
266.460174560547
 30
0.0
 11
-339.8847045898438
 21
266.6915283203125
 31
0.0
  0
LINE
  5
19A
330
22
100
AcDbEntity
  8
0
  6
Continuous
 62
     7
100
AcDbLine
 10
-339.4840393066406
 20
266.460174560547
 30
0.0
 11
-337.4288024902344
 21
269.1045532226563
 31
0.0
  0
LINE
  5
19B
330
22
100
AcDbEntity
  8
0
  6
Continuous
 62
     7
100
AcDbLine
 10
-340.2853698730469
 20
266.9228515625
 30
0.0
 11
-339.0229187011719
 21
270.02490234375
 31
0.0
  0
LINE
  5
19C
330
22
100
AcDbEntity
  8
0
  6
Continuous
 62
     7
100
AcDbLine
 10
-334.3050842285156
 20
267.8291931152344
 30
0.0
 11
-337.4288024902344
 21
269.1045532226563
 31
0.0
  0
LINE
  5
19D
330
22
100
AcDbEntity
  8
0
  6
Continuous
 62
     7
100
AcDbLine
 10
-359.2656860351563
 20
274.7187194824219
 30
0.0
 11
-359.2656860351563
 21
298.4032592773438
 31
0.0
  0
LINE
  5
19E
330
22
100
AcDbEntity
  8
0
  6
Continuous
 62
     7
100
AcDbLine
 10
-383.2868041992188
 20
345.3096313476563
 30
0.0
 11
-383.5182800292969
 21
344.9086608886719
 31
0.0
  0
LINE
  5
19F
330
22
100
AcDbEntity
  8
0
  6
Continuous
 62
     7
100
AcDbLine
 10
-383.5182800292969
 20
344.9086608886719
 30
0.0
 11
-380.8519592285156
 21
342.8411254882813
 31
0.0
  0
LINE
  5
1A0
330
22
100
AcDbEntity
  8
0
  6
Continuous
 62
     7
100
AcDbLine
 10
-383.0552978515625
 20
345.7106018066406
 30
0.0
 11
-379.9315795898438
 21
344.4352416992188
 31
0.0
  0
LINE
  5
1A1
330
22
100
AcDbEntity
  8
0
  6
Continuous
 62
     7
100
AcDbLine
 10
-377.0750122070313
 20
346.616943359375
 30
0.0
 11
-378.3374633789063
 21
343.5148620605469
 31
0.0
  0
LINE
  5
1A2
330
22
100
AcDbEntity
  8
0
  6
Continuous
 62
     7
100
AcDbLine
 10
-368.7656860351563
 20
357.297607421875
 30
0.0
 11
-368.7656860351563
 21
323.7779846191406
 31
0.0
  0
LINE
  5
1A3
330
22
100
AcDbEntity
  8
0
  6
Continuous
 62
     7
100
AcDbLine
 10
-377.8763427734375
 20
347.07958984375
 30
0.0
 11
-379.9315795898438
 21
344.4352416992188
 31
0.0
  0
LINE
  5
1A4
330
22
100
AcDbEntity
  8
0
  6
Continuous
 62
     7
100
AcDbLine
 10
-377.8763427734375
 20
347.07958984375
 30
0.0
 11
-377.4756774902344
 21
346.8482666015625
 31
0.0
  0
LINE
  5
1A5
330
22
100
AcDbEntity
  8
0
  6
Continuous
 62
     7
100
AcDbLine
 10
-377.0750122070313
 20
346.616943359375
 30
0.0
 11
-377.4756774902344
 21
346.8482666015625
 31
0.0
  0
LINE
  5
1A6
330
22
100
AcDbEntity
  8
0
  6
Continuous
 62
     7
100
AcDbLine
 10
-359.2656860351563
 20
363.3372802734375
 30
0.0
 11
-359.2656860351563
 21
339.6527099609375
 31
0.0
  0
LINE
  5
1A7
330
22
100
AcDbEntity
  8
0
  6
Continuous
 62
     7
100
AcDbLine
 10
-363.7656860351563
 20
360.8557739257813
 30
0.0
 11
-363.7656860351563
 21
323.7779846191406
 31
0.0
  0
LINE
  5
1A8
330
22
100
AcDbEntity
  8
0
  6
Continuous
 62
     7
100
AcDbLine
 10
-340.2656860351563
 20
343.7279968261719
 30
0.0
 11
-340.2656860351563
 21
368.2145080566406
 31
0.0
  0
LINE
  5
1A9
330
22
100
AcDbEntity
  8
0
  6
Continuous
 62
     7
100
AcDbLine
 10
-335.2656860351563
 20
343.7279968261719
 30
0.0
 11
-335.2656860351563
 21
368.2145080566406
 31
0.0
  0
LINE
  5
1AA
330
22
100
AcDbEntity
  8
0
  6
Continuous
 62
     7
100
AcDbLine
 10
-354.2529296875
 20
365.4363098144531
 30
0.0
 11
-354.2784118652344
 21
339.6527099609375
 31
0.0
  0
LINE
  5
1AB
330
22
100
AcDbEntity
  8
0
  6
Continuous
 62
     7
100
AcDbLine
 10
-349.7656860351563
 20
366.793701171875
 30
0.0
 11
-349.7656860351563
 21
323.7779846191406
 31
0.0
  0
LINE
  5
1AC
330
22
100
AcDbEntity
  8
0
  6
Continuous
 62
     7
100
AcDbLine
 10
-383.2868041992188
 20
345.3096313476563
 30
0.0
 11
-383.0552978515625
 21
345.7106018066406
 31
0.0
  0
LINE
  5
1AD
330
22
100
AcDbEntity
  8
0
  6
Continuous
 62
     7
100
AcDbLine
 10
-334.0736083984375
 20
268.2301635742188
 30
0.0
 11
-333.8421020507813
 21
268.6311340332031
 31
0.0
  0
LINE
  5
1AE
330
22
100
AcDbEntity
  8
0
  6
Continuous
 62
     7
100
AcDbLine
 10
-340.2656860351563
 20
294.3280029296875
 30
0.0
 11
-340.2656860351563
 21
278.6412353515625
 31
0.0
  0
LINE
  5
1AF
330
22
100
AcDbEntity
  8
0
  6
Continuous
 62
     7
100
AcDbLine
 10
-335.2459716796875
 20
273.8007507324219
 30
0.0
 11
-336.5084228515625
 21
270.6986694335938
 31
0.0
  0
LINE
  5
1B0
330
22
100
AcDbEntity
  8
0
  6
Continuous
 62
     7
100
AcDbLine
 10
-335.2459716796875
 20
273.8007507324219
 30
0.0
 11
-335.6466369628906
 21
274.0320739746094
 31
0.0
  0
LINE
  5
1B1
330
22
100
AcDbEntity
  8
0
  6
Continuous
 62
     7
100
AcDbLine
 10
-340.2656860351563
 20
334.2279968261719
 30
0.0
 11
-340.2656860351563
 21
327.7279968261719
 31
0.0
  0
LINE
  5
1B2
330
22
100
AcDbEntity
  8
0
  6
Continuous
 62
     7
100
AcDbLine
 10
-335.2656860351563
 20
334.2279968261719
 30
0.0
 11
-335.2656860351563
 21
327.7279968261719
 31
0.0
  0
LINE
  5
1B3
330
22
100
AcDbEntity
  8
0
  6
Continuous
 62
     7
100
AcDbLine
 10
-344.7656860351563
 20
367.7779846191406
 30
0.0
 11
-344.7656860351563
 21
323.7779846191406
 31
0.0
  0
LINE
  5
1B4
330
22
100
AcDbEntity
  8
0
  6
Continuous
 62
     7
100
AcDbLine
 10
-375.9026184082031
 20
341.0463562011719
 30
0.0
 11
-376.1341247558594
 21
340.6453857421875
 31
0.0
  0
LINE
  5
1B5
330
22
100
AcDbEntity
  8
0
  6
Continuous
 62
     7
100
AcDbLine
 10
-381.3130798339844
 20
339.2763977050781
 30
0.0
 11
-381.7137451171875
 21
339.5077209472656
 31
0.0
  0
LINE
  5
1B6
330
22
100
AcDbEntity
  8
0
  6
Continuous
 62
     7
100
AcDbLine
 10
-381.3130798339844
 20
339.2763977050781
 30
0.0
 11
-379.2578125
 21
341.9207458496094
 31
0.0
  0
LINE
  5
1B7
330
22
100
AcDbEntity
  8
0
  6
Continuous
 62
     7
100
AcDbLine
 10
-375.9026184082031
 20
341.0463562011719
 30
0.0
 11
-375.6711120605469
 21
341.4473266601563
 31
0.0
  0
LINE
  5
1B8
330
22
100
AcDbEntity
  8
0
  6
Continuous
 62
     7
100
AcDbLine
 10
-375.6711120605469
 20
341.4473266601563
 30
0.0
 11
-378.3374633789063
 21
343.5148620605469
 31
0.0
  0
LINE
  5
1B9
330
22
100
AcDbEntity
  8
0
  6
Continuous
 62
     7
100
AcDbLine
 10
-382.1144104003906
 20
339.7390441894531
 30
0.0
 11
-381.7137451171875
 21
339.5077209472656
 31
0.0
  0
LINE
  5
1BA
330
22
100
AcDbEntity
  8
0
  6
Continuous
 62
     7
100
AcDbLine
 10
-382.1144104003906
 20
339.7390441894531
 30
0.0
 11
-380.8519592285156
 21
342.8411254882813
 31
0.0
  0
LINE
  5
1BB
330
22
100
AcDbEntity
  8
0
  6
Continuous
 62
     7
100
AcDbLine
 10
-376.1341247558594
 20
340.6453857421875
 30
0.0
 11
-379.2578125
 21
341.9207458496094
 31
0.0
  0
LINE
  5
1BC
330
22
100
AcDbEntity
  8
0
  6
Continuous
 62
     7
100
AcDbLine
 10
-361.6416625976563
 20
77.88356781005859
 30
0.0
 11
-361.6416625976563
 21
119.3835678100586
 31
0.0
  0
LINE
  5
1BD
330
22
100
AcDbEntity
  8
0
  6
Continuous
 62
     7
100
AcDbLine
 10
-360.1416625976563
 20
77.88356781005859
 30
0.0
 11
-360.1416625976563
 21
117.8835678100586
 31
0.0
  0
LINE
  5
1BE
330
22
100
AcDbEntity
  8
0
  6
Continuous
 62
     7
100
AcDbLine
 10
-360.1416625976563
 20
117.8835678100586
 30
0.0
 11
-361.6416625976563
 21
119.3835678100586
 31
0.0
  0
LINE
  5
1BF
330
22
100
AcDbEntity
  8
0
  6
Continuous
 62
     7
100
AcDbLine
 10
-361.5596313476563
 20
144.8835754394531
 30
0.0
 11
-361.6416625976563
 21
142.0176544189453
 31
0.0
  0
LINE
  5
1C0
330
22
100
AcDbEntity
  8
0
  6
Continuous
 62
     7
100
AcDbLine
 10
-360.212158203125
 20
144.8835754394531
 30
0.0
 11
-360.2813415527344
 21
143.1071472167969
 31
0.0
  0
LINE
  5
1C1
330
22
100
AcDbEntity
  8
0
  6
Continuous
 62
     7
100
AcDbLine
 10
-360.2813415527344
 20
143.1071472167969
 30
0.0
 11
-361.6416625976563
 21
142.0176544189453
 31
0.0
  0
LINE
  5
1C2
330
22
100
AcDbEntity
  8
0
  6
Continuous
 62
     7
100
AcDbLine
 10
-365.6416625976563
 20
77.88356781005859
 30
0.0
 11
-337.6416625976563
 21
77.88356781005859
 31
0.0
  0
LINE
  5
1C3
330
22
100
AcDbEntity
  8
0
  6
Continuous
 62
     7
100
AcDbLine
 10
-360.1416625976563
 20
117.8835678100586
 30
0.0
 11
-337.6416625976563
 21
117.8835678100586
 31
0.0
  0
LINE
  5
1C4
330
22
100
AcDbEntity
  8
0
  6
Continuous
 62
     7
100
AcDbLine
 10
-366.3916625976563
 20
144.8835754394531
 30
0.0
 11
-337.6416625976563
 21
144.8835754394531
 31
0.0
  0
LINE
  5
1C5
330
22
100
AcDbEntity
  8
0
  6
Continuous
 62
     7
100
AcDbLine
 10
-360.2813415527344
 20
143.1071472167969
 30
0.0
 11
-337.6416625976563
 21
143.1071472167969
 31
0.0
  0
LINE
  5
1C6
330
22
100
AcDbEntity
  8
0
  6
Continuous
 62
     7
100
AcDbLine
 10
-365.6416625976563
 20
23.88356971740723
 30
0.0
 11
-365.6416625976563
 21
52.88356781005859
 31
0.0
  0
LINE
  5
1C7
330
22
100
AcDbEntity
  8
0
  6
Continuous
 62
     7
100
AcDbLine
 10
-414.6416625976563
 20
55.8835678100586
 30
0.0
 11
-414.6416625976563
 21
52.88356781005859
 31
0.0
  0
LINE
  5
1C8
330
22
100
AcDbEntity
  8
0
  6
Continuous
 62
     7
100
AcDbLine
 10
-414.6416625976563
 20
52.88356781005859
 30
0.0
 11
-337.6416625976563
 21
52.88356781005859
 31
0.0
  0
LINE
  5
1C9
330
22
100
AcDbEntity
  8
0
  6
Continuous
 62
     7
100
AcDbLine
 10
-414.6416625976563
 20
55.8835678100586
 30
0.0
 11
-337.6416625976563
 21
55.8835678100586
 31
0.0
  0
LINE
  5
1CA
330
22
100
AcDbEntity
  8
0
  6
Continuous
 62
     7
100
AcDbLine
 10
-315.9782104492188
 20
168.4283142089844
 30
0.0
 11
-337.6416625976563
 21
168.4283142089844
 31
0.0
  0
LINE
  5
1CB
330
22
100
AcDbEntity
  8
0
  6
Continuous
 62
     7
100
AcDbLine
 10
-317.1416625976563
 20
169.8835754394531
 30
0.0
 11
-337.6416625976563
 21
169.8835754394531
 31
0.0
  0
LINE
  5
1CC
330
22
100
AcDbEntity
  8
0
  6
CENTER
 62
     7
100
AcDbLine
 10
-255.2562408447266
 20
319.0279846191406
 30
0.0
 11
-418.1503906249999
 21
319.0279846191406
 31
0.0
  0
LINE
  5
1CD
330
22
100
AcDbEntity
  8
0
  6
Continuous
 62
     7
100
AcDbLine
 10
-367.3916625976563
 20
145.8835754394531
 30
0.0
 11
-367.3916625976563
 21
169.0381469726563
 31
0.0
  0
LINE
  5
1CE
330
22
100
AcDbEntity
  8
0
  6
CENTER
 62
     7
100
AcDbLine
 10
-337.6416625976563
 20
214.1527099609375
 30
0.0
 11
-337.6416625976563
 21
16.23087120056152
 31
0.0
  0
LINE
  5
1CF
330
22
100
AcDbEntity
  8
0
  6
Continuous
 62
     7
100
AcDbLine
 10
-314.52294921875
 20
169.8835754394531
 30
0.0
 11
-315.9782104492188
 21
168.4283142089844
 31
0.0
  0
LINE
  5
1D0
330
22
100
AcDbEntity
  8
0
  6
Continuous
 62
     7
100
AcDbLine
 10
-315.2908020019531
 20
146.4327087402344
 30
0.0
 11
-315.9782104492188
 21
168.4283142089844
 31
0.0
  0
LINE
  5
1D1
330
22
100
AcDbEntity
  8
0
  6
Continuous
 62
     7
100
AcDbLine
 10
-307.8916625976563
 20
145.8835754394531
 30
0.0
 11
-307.8916625976563
 21
169.0381469726563
 31
0.0
  0
LINE
  5
1D2
330
22
100
AcDbEntity
  8
0
  6
Continuous
 62
     7
100
AcDbLine
 10
-313.7416687011719
 20
144.8835754394531
 30
0.0
 11
-314.52294921875
 21
169.8835754394531
 31
0.0
  0
LINE
  5
1D3
330
22
100
AcDbEntity
  8
0
  6
Continuous
 62
     7
100
AcDbLine
 10
-277.4614868164063
 20
203.8835754394531
 30
0.0
 11
-273.694793701172
 21
200.1168670654297
 31
0.0
  0
LINE
  5
1D4
330
22
100
AcDbEntity
  8
0
  6
Continuous
 62
     7
100
AcDbLine
 10
-278.6989135742188
 20
203.8835754394531
 30
0.0
 11
-273.9901428222656
 21
199.1748046875
 31
0.0
  0
LINE
  5
1D5
330
22
100
AcDbEntity
  8
0
  6
Continuous
 62
     7
100
AcDbLine
 10
-282.4112243652344
 20
203.8835754394531
 30
0.0
 11
-277.4112243652344
 21
198.8835754394531
 31
0.0
  0
LINE
  5
1D6
330
22
100
AcDbEntity
  8
0
  6
Continuous
 62
     7
100
AcDbLine
 10
-282.6416625976563
 20
202.8765563964844
 30
0.0
 11
-278.648681640625
 21
198.8835754394531
 31
0.0
  0
LINE
  5
1D7
330
22
100
AcDbEntity
  8
0
  6
Continuous
 62
     7
100
AcDbLine
 10
-284.1609802246093
 20
200.6835632324219
 30
0.0
 11
-281.8876037597656
 21
198.4102020263672
 31
0.0
  0
LINE
  5
1D8
330
22
100
AcDbEntity
  8
0
  6
Continuous
 62
     7
100
AcDbLine
 10
-285.3984069824219
 20
200.6835632324219
 30
0.0
 11
-282.4390869140625
 21
197.7242431640625
 31
0.0
  0
LINE
  5
1D9
330
22
100
AcDbEntity
  8
0
  6
Continuous
 62
     7
100
AcDbLine
 10
-289.1107177734375
 20
200.6835632324219
 30
0.0
 11
-282.6416625976563
 21
194.2144927978516
 31
0.0
  0
LINE
  5
1DA
330
22
100
AcDbEntity
  8
0
  6
Continuous
 62
     7
100
AcDbLine
 10
-289.6940307617188
 20
200.0294342041016
 30
0.0
 11
-282.6416625976563
 21
192.9770660400391
 31
0.0
  0
LINE
  5
1DB
330
22
100
AcDbEntity
  8
0
  6
Continuous
 62
     7
100
AcDbLine
 10
-289.96923828125
 20
196.5923309326172
 30
0.0
 11
-282.6781921386719
 21
189.3013000488281
 31
0.0
  0
LINE
  5
1DC
330
22
100
AcDbEntity
  8
0
  6
Continuous
 62
     7
100
AcDbLine
 10
-290.0609741210938
 20
195.4466400146484
 30
0.0
 11
-282.8822021484375
 21
188.2678680419921
 31
0.0
  0
LINE
  5
1DD
330
22
100
AcDbEntity
  8
0
  6
Continuous
 62
     7
100
AcDbLine
 10
-290.336181640625
 20
192.0095367431641
 30
0.0
 11
-284.3260192871094
 21
185.9993591308594
 31
0.0
  0
LINE
  5
1DE
330
22
100
AcDbEntity
  8
0
  6
Continuous
 62
     7
100
AcDbLine
 10
-290.429931640625
 20
190.8658447265625
 30
0.0
 11
-285.0297241210938
 21
185.4656372070313
 31
0.0
  0
LINE
  5
1DF
330
22
100
AcDbEntity
  8
0
  6
Continuous
 62
     7
100
AcDbLine
 10
-291.5284423828125
 20
188.2520446777344
 30
0.0
 11
-287.3581237792969
 21
184.0817108154297
 31
0.0
  0
LINE
  5
1E0
330
22
100
AcDbEntity
  8
0
  6
Continuous
 62
     7
100
AcDbLine
 10
-292.1433410644531
 20
187.6295166015625
 30
0.0
 11
-288.1343994140625
 21
183.6205596923828
 31
0.0
  0
LINE
  5
1E1
330
22
100
AcDbEntity
  8
0
  6
Continuous
 62
     7
100
AcDbLine
 10
-294.3974304199219
 20
186.1712951660156
 30
0.0
 11
-290.4632263183594
 21
182.2370910644531
 31
0.0
  0
LINE
  5
1E2
330
22
100
AcDbEntity
  8
0
  6
Continuous
 62
     7
100
AcDbLine
 10
-295.1699523925782
 20
185.7063751220703
 30
0.0
 11
-291.239501953125
 21
181.7759246826172
 31
0.0
  0
LINE
  5
1E3
330
22
100
AcDbEntity
  8
0
  6
Continuous
 62
     7
100
AcDbLine
 10
-297.4875183105469
 20
184.3116455078125
 30
0.0
 11
-293.568359375
 21
180.3924560546875
 31
0.0
  0
LINE
  5
1E4
330
22
100
AcDbEntity
  8
0
  6
Continuous
 62
     7
100
AcDbLine
 10
-298.2600708007813
 20
183.8467254638672
 30
0.0
 11
-294.3446350097656
 21
179.9313049316406
 31
0.0
  0
LINE
  5
1E5
330
22
100
AcDbEntity
  8
0
  6
Continuous
 62
     7
100
AcDbLine
 10
-300.57763671875
 20
182.4519805908203
 30
0.0
 11
-296.6734619140625
 21
178.5478363037109
 31
0.0
  0
LINE
  5
1E6
330
22
100
AcDbEntity
  8
0
  6
Continuous
 62
     7
100
AcDbLine
 10
-301.3501586914063
 20
181.9870758056641
 30
0.0
 11
-297.4497680664063
 21
178.0866851806641
 31
0.0
  0
LINE
  5
1E7
330
22
100
AcDbEntity
  8
0
  6
Continuous
 62
     7
100
AcDbLine
 10
-303.667724609375
 20
180.5923309326172
 30
0.0
 11
-299.7785949707031
 21
176.7032012939453
 31
0.0
  0
LINE
  5
1E8
330
22
100
AcDbEntity
  8
0
  6
Continuous
 62
     7
100
AcDbLine
 10
-304.4402465820313
 20
180.1274261474609
 30
0.0
 11
-300.5548706054688
 21
176.2420501708984
 31
0.0
  0
LINE
  5
1E9
330
22
100
AcDbEntity
  8
0
  6
Continuous
 62
     7
100
AcDbLine
 10
-306.7578125
 20
178.7326812744141
 30
0.0
 11
-302.8837280273438
 21
174.8585815429688
 31
0.0
  0
LINE
  5
1EA
330
22
100
AcDbEntity
  8
0
  6
Continuous
 62
     7
100
AcDbLine
 10
-307.5303344726563
 20
178.2677612304688
 30
0.0
 11
-303.6600036621094
 21
174.3974304199219
 31
0.0
  0
LINE
  5
1EB
330
22
100
AcDbEntity
  8
0
  6
Continuous
 62
     7
100
AcDbLine
 10
-309.847900390625
 20
176.8730316162109
 30
0.0
 11
-305.9446105957031
 21
172.9697265625
 31
0.0
  0
LINE
  5
1EC
330
22
100
AcDbEntity
  8
0
  6
Continuous
 62
     7
100
AcDbLine
 10
-310.6204223632813
 20
176.4081115722656
 30
0.0
 11
-306.5889282226563
 21
172.3766021728516
 31
0.0
  0
LINE
  5
1ED
330
22
100
AcDbEntity
  8
0
  6
Continuous
 62
     7
100
AcDbLine
 10
-312.9380187988281
 20
175.0133666992188
 30
0.0
 11
-307.8083801269531
 21
169.8837432861328
 31
0.0
  0
LINE
  5
1EE
330
22
100
AcDbEntity
  8
0
  6
Continuous
 62
     7
100
AcDbLine
 10
-313.7105407714844
 20
174.5484619140625
 30
0.0
 11
-307.8916625976563
 21
168.7295837402344
 31
0.0
  0
LINE
  5
1EF
330
22
100
AcDbEntity
  8
0
  6
Continuous
 62
     7
100
AcDbLine
 10
-316.0281066894531
 20
173.1537170410156
 30
0.0
 11
-307.8916625976563
 21
165.0172729492188
 31
0.0
  0
LINE
  5
1F0
330
22
100
AcDbEntity
  8
0
  6
Continuous
 62
     7
100
AcDbLine
 10
-316.8006286621094
 20
172.6888122558594
 30
0.0
 11
-307.8916625976563
 21
163.7798461914063
 31
0.0
  0
LINE
  5
1F1
330
22
100
AcDbEntity
  8
0
  6
Continuous
 62
     7
100
AcDbLine
 10
-314.4201965332031
 20
166.5960845947266
 30
0.0
 11
-307.8916625976563
 21
160.0675354003906
 31
0.0
  0
LINE
  5
1F2
330
22
100
AcDbEntity
  8
0
  6
Continuous
 62
     7
100
AcDbLine
 10
-314.3802795410156
 20
165.3187255859375
 30
0.0
 11
-307.8916625976563
 21
158.8300933837891
 31
0.0
  0
LINE
  5
1F3
330
22
100
AcDbEntity
  8
0
  6
Continuous
 62
     7
100
AcDbLine
 10
-314.2605285644531
 20
161.4866485595703
 30
0.0
 11
-307.8916625976563
 21
155.1177825927734
 31
0.0
  0
LINE
  5
1F4
330
22
100
AcDbEntity
  8
0
  6
Continuous
 62
     7
100
AcDbLine
 10
-314.2206115722656
 20
160.2093048095703
 30
0.0
 11
-307.8916625976563
 21
153.8803405761719
 31
0.0
  0
LINE
  5
1F5
330
22
100
AcDbEntity
  8
0
  6
Continuous
 62
     7
100
AcDbLine
 10
-314.1008605957031
 20
156.3772277832031
 30
0.0
 11
-307.8916625976563
 21
150.1680297851563
 31
0.0
  0
LINE
  5
1F6
330
22
100
AcDbEntity
  8
0
  6
Continuous
 62
     7
100
AcDbLine
 10
-314.0609436035156
 20
155.0998687744141
 30
0.0
 11
-307.8916625976563
 21
148.9306030273438
 31
0.0
  0
LINE
  5
1F7
330
22
100
AcDbEntity
  8
0
  6
Continuous
 62
     7
100
AcDbLine
 10
-313.941162109375
 20
151.2678070068359
 30
0.0
 11
-308.0504760742188
 21
145.3771057128906
 31
0.0
  0
LINE
  5
1F8
330
22
100
AcDbEntity
  8
0
  6
Continuous
 62
     7
100
AcDbLine
 10
-313.9012451171875
 20
149.9904479980469
 30
0.0
 11
-308.8105163574219
 21
144.8997039794922
 31
0.0
  0
LINE
  5
1F9
330
22
100
AcDbEntity
  8
0
  6
Continuous
 62
     7
100
AcDbLine
 10
-313.781494140625
 20
146.1583862304688
 30
0.0
 11
-312.5066833496094
 21
144.8835754394531
 31
0.0
  0
LINE
  5
1FA
330
22
100
AcDbEntity
  8
0
  6
Continuous
 62
     7
100
AcDbLine
 10
-365.6416625976563
 20
77.88356781005859
 30
0.0
 11
-365.6416625976563
 21
55.8835678100586
 31
0.0
  0
LINE
  5
1FB
330
22
100
AcDbEntity
  8
0
  6
Continuous
 62
     7
100
AcDbLine
 10
-365.6416625976563
 20
55.8835678100586
 30
0.0
 11
-365.6416625976563
 21
77.88356781005859
 31
0.0
  0
LINE
  5
1FC
330
22
100
AcDbEntity
  8
0
  6
Continuous
 62
     7
100
AcDbLine
 10
-361.6416625976563
 20
142.0176544189453
 30
0.0
 11
-361.6416625976563
 21
119.3835678100586
 31
0.0
  0
LINE
  5
1FD
330
22
100
AcDbEntity
  8
0
  6
Continuous
 62
     7
100
AcDbLine
 10
-330.7656860351563
 20
367.7779846191406
 30
0.0
 11
-330.7656860351563
 21
323.7779846191406
 31
0.0
  0
LINE
  5
1FE
330
22
100
AcDbEntity
  8
0
  6
Continuous
 62
     7
100
AcDbLine
 10
-325.7656860351563
 20
366.793701171875
 30
0.0
 11
-325.7656860351563
 21
323.7779846191406
 31
0.0
  0
LINE
  5
1FF
330
22
100
AcDbEntity
  8
0
  6
Continuous
 62
     7
100
AcDbLine
 10
-317.1416625976563
 20
172.4835662841797
 30
0.0
 11
-337.6416625976563
 21
172.4835662841797
 31
0.0
  0
LINE
  5
200
330
22
100
AcDbEntity
  8
0
  6
Continuous
 62
     7
100
AcDbLine
 10
-283.8805236816406
 20
203.8835754394531
 30
0.0
 11
-282.6416625976563
 21
202.6446990966797
 31
0.0
  0
LINE
  5
201
330
22
100
AcDbEntity
  8
0
  6
Continuous
 62
     7
100
AcDbLine
 10
-284.37548828125
 20
203.8835754394531
 30
0.0
 11
-282.6416625976563
 21
202.1497344970703
 31
0.0
  0
LINE
  5
202
330
22
100
AcDbEntity
  8
0
  6
Continuous
 62
     7
100
AcDbLine
 10
-285.8604125976563
 20
203.8835754394531
 30
0.0
 11
-282.6604309082031
 21
200.6835632324219
 31
0.0
  0
LINE
  5
203
330
22
100
AcDbEntity
  8
0
  6
Continuous
 62
     7
100
AcDbLine
 10
-286.3554077148438
 20
203.8835754394531
 30
0.0
 11
-283.1553955078125
 21
200.6835632324219
 31
0.0
  0
LINE
  5
204
330
22
100
AcDbEntity
  8
0
  6
Continuous
 62
     7
100
AcDbLine
 10
-287.84033203125
 20
203.8835754394531
 30
0.0
 11
-284.6403198242188
 21
200.6835632324219
 31
0.0
  0
LINE
  5
205
330
22
100
AcDbEntity
  8
0
  6
Continuous
 62
     7
100
AcDbLine
 10
-288.3352966308594
 20
203.8835754394531
 30
0.0
 11
-285.1352844238281
 21
200.6835632324219
 31
0.0
  0
LINE
  5
206
330
22
100
AcDbEntity
  8
0
  6
Continuous
 62
     7
100
AcDbLine
 10
-288.3922729492188
 20
202.4556121826172
 30
0.0
 11
-286.6202087402344
 21
200.6835632324219
 31
0.0
  0
LINE
  5
207
330
22
100
AcDbEntity
  8
0
  6
Continuous
 62
     7
100
AcDbLine
 10
-288.3922729492188
 20
201.9606475830078
 30
0.0
 11
-287.1152038574219
 21
200.6835632324219
 31
0.0
  0
LINE
  5
208
330
22
100
AcDbEntity
  8
0
  6
Continuous
 62
     7
100
AcDbLine
 10
-293.780029296875
 20
203.8835754394531
 30
0.0
 11
-292.6416625976563
 21
202.7452087402344
 31
0.0
  0
LINE
  5
209
330
22
100
AcDbEntity
  8
0
  6
Continuous
 62
     7
100
AcDbLine
 10
-294.2749938964844
 20
203.8835754394531
 30
0.0
 11
-292.6416625976563
 21
202.2502288818359
 31
0.0
  0
LINE
  5
20A
330
22
100
AcDbEntity
  8
0
  6
Continuous
 62
     7
100
AcDbLine
 10
-295.7599182128906
 20
203.8835754394531
 30
0.0
 11
-292.6416625976563
 21
200.7653045654297
 31
0.0
  0
LINE
  5
20B
330
22
100
AcDbEntity
  8
0
  6
Continuous
 62
     7
100
AcDbLine
 10
-296.2548828125
 20
203.8835754394531
 30
0.0
 11
-293.0549011230469
 21
200.6835632324219
 31
0.0
  0
LINE
  5
20C
330
22
100
AcDbEntity
  8
0
  6
Continuous
 62
     7
100
AcDbLine
 10
-297.1289367675781
 20
203.2726898193359
 30
0.0
 11
-294.5398254394531
 21
200.6835632324219
 31
0.0
  0
LINE
  5
20D
330
22
100
AcDbEntity
  8
0
  6
Continuous
 62
     7
100
AcDbLine
 10
-297.1289367675781
 20
202.7777252197266
 30
0.0
 11
-295.0347900390625
 21
200.6835632324219
 31
0.0
  0
LINE
  5
20E
330
22
100
AcDbEntity
  8
0
  6
Continuous
 62
     7
100
AcDbLine
 10
-297.1289367675781
 20
201.2928009033203
 30
0.0
 11
-296.5197143554688
 21
200.6835632324219
 31
0.0
  0
LINE
  5
20F
330
22
100
AcDbEntity
  8
0
  6
Continuous
 62
     7
100
AcDbLine
 10
-297.1289367675781
 20
200.7978210449219
 30
0.0
 11
-297.0146789550781
 21
200.6835632324219
 31
0.0
  0
LINE
  5
210
330
22
100
AcDbEntity
  8
0
  6
Continuous
 62
     7
100
AcDbLine
 10
-303.6795043945313
 20
203.8835754394531
 30
0.0
 11
-302.2305603027344
 21
202.4346160888672
 31
0.0
  0
LINE
  5
211
330
22
100
AcDbEntity
  8
0
  6
Continuous
 62
     7
100
AcDbLine
 10
-304.1744995117188
 20
203.8835754394531
 30
0.0
 11
-302.2309265136719
 21
201.9400177001953
 31
0.0
  0
LINE
  5
212
330
22
100
AcDbEntity
  8
0
  6
Continuous
 62
     7
100
AcDbLine
 10
-305.659423828125
 20
203.8835754394531
 30
0.0
 11
-302.4594116210938
 21
200.6835632324219
 31
0.0
  0
LINE
  5
213
330
22
100
AcDbEntity
  8
0
  6
Continuous
 62
     7
100
AcDbLine
 10
-306.1543884277344
 20
203.8835754394531
 30
0.0
 11
-302.9543762207031
 21
200.6835632324219
 31
0.0
  0
LINE
  5
214
330
22
100
AcDbEntity
  8
0
  6
Continuous
 62
     7
100
AcDbLine
 10
-307.6393127441406
 20
203.8835754394531
 30
0.0
 11
-304.4393005371094
 21
200.6835632324219
 31
0.0
  0
LINE
  5
215
330
22
100
AcDbEntity
  8
0
  6
Continuous
 62
     7
100
AcDbLine
 10
-308.13427734375
 20
203.8835754394531
 30
0.0
 11
-304.9342956542969
 21
200.6835632324219
 31
0.0
  0
LINE
  5
216
330
22
100
AcDbEntity
  8
0
  6
Continuous
 62
     7
100
AcDbLine
 10
-309.6192016601563
 20
203.8835754394531
 30
0.0
 11
-306.4192199707031
 21
200.6835632324219
 31
0.0
  0
LINE
  5
217
330
22
100
AcDbEntity
  8
0
  6
Continuous
 62
     7
100
AcDbLine
 10
-310.1141967773438
 20
203.8835754394531
 30
0.0
 11
-306.9141845703125
 21
200.6835632324219
 31
0.0
  0
LINE
  5
218
330
22
100
AcDbEntity
  8
0
  6
Continuous
 62
     7
100
AcDbLine
 10
-311.59912109375
 20
203.8835754394531
 30
0.0
 11
-308.3991088867188
 21
200.6835632324219
 31
0.0
  0
LINE
  5
219
330
22
100
AcDbEntity
  8
0
  6
Continuous
 62
     7
100
AcDbLine
 10
-312.0940856933594
 20
203.8835754394531
 30
0.0
 11
-308.8940734863281
 21
200.6835632324219
 31
0.0
  0
LINE
  5
21A
330
22
100
AcDbEntity
  8
0
  6
Continuous
 62
     7
100
AcDbLine
 10
-313.5790100097656
 20
203.8835754394531
 30
0.0
 11
-310.3789978027344
 21
200.6835632324219
 31
0.0
  0
LINE
  5
21B
330
22
100
AcDbEntity
  8
0
  6
Continuous
 62
     7
100
AcDbLine
 10
-314.073974609375
 20
203.8835754394531
 30
0.0
 11
-310.8739929199219
 21
200.6835632324219
 31
0.0
  0
LINE
  5
21C
330
22
100
AcDbEntity
  8
0
  6
Continuous
 62
     7
100
AcDbLine
 10
-315.5588989257813
 20
203.8835754394531
 30
0.0
 11
-312.3589172363281
 21
200.6835632324219
 31
0.0
  0
LINE
  5
21D
330
22
100
AcDbEntity
  8
0
  6
Continuous
 62
     7
100
AcDbLine
 10
-316.0538940429688
 20
203.8835754394531
 30
0.0
 11
-312.8538818359375
 21
200.6835632324219
 31
0.0
  0
LINE
  5
21E
330
22
100
AcDbEntity
  8
0
  6
Continuous
 62
     7
100
AcDbLine
 10
-316.12890625
 20
202.4736785888672
 30
0.0
 11
-314.3388061523438
 21
200.6835632324219
 31
0.0
  0
LINE
  5
21F
330
22
100
AcDbEntity
  8
0
  6
Continuous
 62
     7
100
AcDbLine
 10
-316.12890625
 20
201.9786987304688
 30
0.0
 11
-314.8337707519531
 21
200.6835632324219
 31
0.0
  0
LINE
  5
220
330
22
100
AcDbEntity
  8
0
  6
Continuous
 62
     7
100
AcDbLine
 10
-321.4985961914063
 20
203.8835754394531
 30
0.0
 11
-321.12890625
 21
203.5138854980469
 31
0.0
  0
LINE
  5
221
330
22
100
AcDbEntity
  8
0
  6
Continuous
 62
     7
100
AcDbLine
 10
-321.9935913085938
 20
203.8835754394531
 30
0.0
 11
-321.12890625
 21
203.0189056396484
 31
0.0
  0
LINE
  5
222
330
22
100
AcDbEntity
  8
0
  6
Continuous
 62
     7
100
AcDbLine
 10
-323.478515625
 20
203.8835754394531
 30
0.0
 11
-321.12890625
 21
201.5339813232422
 31
0.0
  0
LINE
  5
223
330
22
100
AcDbEntity
  8
0
  6
Continuous
 62
     7
100
AcDbLine
 10
-323.9734802246094
 20
203.8835754394531
 30
0.0
 11
-321.12890625
 21
201.0390167236328
 31
0.0
  0
LINE
  5
224
330
22
100
AcDbEntity
  8
0
  6
Continuous
 62
     7
100
AcDbLine
 10
-325.4584045410156
 20
203.8835754394531
 30
0.0
 11
-322.2583923339844
 21
200.6835632324219
 31
0.0
  0
LINE
  5
225
330
22
100
AcDbEntity
  8
0
  6
Continuous
 62
     7
100
AcDbLine
 10
-325.953369140625
 20
203.8835754394531
 30
0.0
 11
-322.7533874511719
 21
200.6835632324219
 31
0.0
  0
LINE
  5
226
330
22
100
AcDbEntity
  8
0
  6
Continuous
 62
     7
100
AcDbLine
 10
-327.4382934570313
 20
203.8835754394531
 30
0.0
 11
-324.2383117675781
 21
200.6835632324219
 31
0.0
  0
LINE
  5
227
330
22
100
AcDbEntity
  8
0
  6
Continuous
 62
     7
100
AcDbLine
 10
-327.9332885742188
 20
203.8835754394531
 30
0.0
 11
-324.7332763671875
 21
200.6835632324219
 31
0.0
  0
LINE
  5
228
330
22
100
AcDbEntity
  8
0
  6
Continuous
 62
     7
100
AcDbLine
 10
-329.418212890625
 20
203.8835754394531
 30
0.0
 11
-326.2182006835938
 21
200.6835632324219
 31
0.0
  0
LINE
  5
229
330
22
100
AcDbEntity
  8
0
  6
Continuous
 62
     7
100
AcDbLine
 10
-329.9131774902344
 20
203.8835754394531
 30
0.0
 11
-326.7131652832031
 21
200.6835632324219
 31
0.0
  0
LINE
  5
22A
330
22
100
AcDbEntity
  8
0
  6
Continuous
 62
     7
100
AcDbLine
 10
-331.3981018066406
 20
203.8835754394531
 30
0.0
 11
-328.1980895996094
 21
200.6835632324219
 31
0.0
  0
LINE
  5
22B
330
22
100
AcDbEntity
  8
0
  6
Continuous
 62
     7
100
AcDbLine
 10
-331.89306640625
 20
203.8835754394531
 30
0.0
 11
-328.6930847167969
 21
200.6835632324219
 31
0.0
  0
LINE
  5
22C
330
22
100
AcDbEntity
  8
0
  6
Continuous
 62
     7
100
AcDbLine
 10
-333.3779907226563
 20
203.8835754394531
 30
0.0
 11
-330.1780090332031
 21
200.6835632324219
 31
0.0
  0
LINE
  5
22D
330
22
100
AcDbEntity
  8
0
  6
Continuous
 62
     7
100
AcDbLine
 10
-333.8729858398438
 20
203.8835754394531
 30
0.0
 11
-330.6729736328125
 21
200.6835632324219
 31
0.0
  0
LINE
  5
22E
330
22
100
AcDbEntity
  8
0
  6
Continuous
 62
     7
100
AcDbLine
 10
-334.6416625976563
 20
203.1673278808594
 30
0.0
 11
-332.1578979492188
 21
200.6835632324219
 31
0.0
  0
LINE
  5
22F
330
22
100
AcDbEntity
  8
0
  6
Continuous
 62
     7
100
AcDbLine
 10
-334.6416625976563
 20
202.6723480224609
 30
0.0
 11
-332.6528625488281
 21
200.6835632324219
 31
0.0
  0
LINE
  5
230
330
22
100
AcDbEntity
  8
0
  6
Continuous
 62
     7
100
AcDbLine
 10
-334.6416625976563
 20
201.1874237060547
 30
0.0
 11
-334.1377868652344
 21
200.6835632324219
 31
0.0
  0
LINE
  5
231
330
22
100
AcDbEntity
  8
0
  6
Continuous
 62
     7
100
AcDbLine
 10
-334.6416625976563
 20
200.6924591064453
 30
0.0
 11
-334.6327819824219
 21
200.6835632324219
 31
0.0
  0
LINE
  5
232
330
22
100
AcDbEntity
  8
0
  6
Continuous
 62
     7
100
AcDbLine
 10
-337.6416625976563
 20
200.6835632324219
 30
0.0
 11
-282.6416625976563
 21
200.6835632324219
 31
0.0
  0
LINE
  5
233
330
22
100
AcDbEntity
  8
0
  6
Continuous
 62
     7
100
AcDbLine
 10
-326.6094665527344
 20
57.88356781005859
 30
0.0
 11
-322.369384765625
 21
57.88356781005859
 31
0.0
  0
LINE
  5
234
330
22
100
AcDbEntity
  8
0
  6
Continuous
 62
     7
100
AcDbLine
 10
-326.6094665527344
 20
157.8835754394531
 30
0.0
 11
-322.369384765625
 21
157.8835754394531
 31
0.0
  0
LINE
  5
235
330
22
100
AcDbEntity
  8
0
  6
Continuous
 62
     7
100
AcDbLine
 10
-315.820556640625
 20
52.88356781005859
 30
0.0
 11
-337.6416625976563
 21
52.88356781005859
 31
0.0
  0
LINE
  5
236
330
22
100
AcDbEntity
  8
0
  6
Continuous
 62
     7
100
AcDbLine
 10
-313.7416687011719
 20
54.38356781005859
 30
0.0
 11
-337.6416625976563
 21
54.38356781005859
 31
0.0
  0
LINE
  5
237
330
22
100
AcDbEntity
  8
0
  6
Continuous
 62
     7
100
AcDbLine
 10
-315.1416625976563
 20
57.88356781005859
 30
0.0
 11
-337.6416625976563
 21
57.88356781005859
 31
0.0
  0
LINE
  5
238
330
22
100
AcDbEntity
  8
0
  6
Continuous
 62
     7
100
AcDbLine
 10
-315.5772705078125
 20
157.8835754394531
 30
0.0
 11
-337.6416625976563
 21
157.8835754394531
 31
0.0
  0
LINE
  5
239
330
22
100
AcDbEntity
  8
0
  6
Continuous
 62
     7
100
AcDbLine
 10
-365.6416625976563
 20
23.88356971740723
 30
0.0
 11
-309.6416625976563
 21
23.88356971740723
 31
0.0
  0
LINE
  5
23A
330
22
100
AcDbEntity
  8
0
  6
Continuous
 62
     7
100
AcDbLine
 10
-315.2908020019531
 20
25.43271446228027
 30
0.0
 11
-337.6416625976563
 21
25.43271446228027
 31
0.0
  0
LINE
  5
23B
330
22
100
AcDbEntity
  8
0
  6
Continuous
 62
     7
100
AcDbLine
 10
-314.2856750488281
 20
41.29134368896484
 30
0.0
 11
-337.6416625976563
 21
41.29134368896484
 31
0.0
  0
LINE
  5
23C
330
22
100
AcDbEntity
  8
0
  6
Continuous
 62
     7
100
AcDbLine
 10
-403.1947937011718
 20
203.8835754394531
 30
0.0
 11
-274.1947937011719
 21
203.8835754394531
 31
0.0
  0
LINE
  5
23D
330
22
100
AcDbEntity
  8
0
  6
Continuous
 62
     7
100
AcDbLine
 10
-325.7656860351563
 20
271.2622985839844
 30
0.0
 11
-325.7656860351563
 21
314.2779846191406
 31
0.0
  0
LINE
  5
23E
330
22
100
AcDbEntity
  8
0
  6
Continuous
 62
     7
100
AcDbLine
 10
-330.7656860351563
 20
270.2779846191406
 30
0.0
 11
-330.7656860351563
 21
314.2779846191406
 31
0.0
  0
LINE
  5
23F
330
22
100
AcDbEntity
  8
0
  6
Continuous
 62
     7
100
AcDbLine
 10
-273.3916625976563
 20
53.63356781005859
 30
0.0
 11
-267.8916625976563
 21
53.63356781005859
 31
0.0
  0
ARC
  5
240
330
22
100
AcDbEntity
  8
0
  6
Continuous
 62
     7
100
AcDbCircle
 10
-337.7656860351563
 20
319.0279846191406
 30
0.0
 40
49.25
100
AcDbArc
 50
342.2235445458755
 51
0.0
  0
ARC
  5
241
330
22
100
AcDbEntity
  8
0
  6
Continuous
 62
     7
100
AcDbCircle
 10
-337.7656860351563
 20
319.0279846191406
 30
0.0
 40
49.25
100
AcDbArc
 50
0.0
 51
17.77648926213235
  0
ARC
  5
242
330
22
100
AcDbEntity
  8
0
  6
Continuous
 62
     7
100
AcDbCircle
 10
-270.7656860351563
 20
319.0279846191406
 30
0.0
 40
5.0
100
AcDbArc
 50
244.4471811927678
 51
115.5526679644769
  0
ARC
  5
243
330
22
100
AcDbEntity
  8
0
  6
Continuous
 62
     7
100
AcDbCircle
 10
-270.7656860351563
 20
319.0279846191406
 30
0.0
 40
2.75
100
AcDbArc
 50
222.5286874735857
 51
137.4713125264151
  0
ARC
  5
244
330
22
100
AcDbEntity
  8
0
  6
Continuous
 62
     7
100
AcDbCircle
 10
-274.1947937011719
 20
203.3835754394531
 30
0.0
 40
0.5
100
AcDbArc
 50
0.0
 51
90.00000000000019
  0
ARC
  5
245
330
22
100
AcDbEntity
  8
0
  6
Continuous
 62
     7
100
AcDbCircle
 10
-274.6947937011719
 20
199.8835754394531
 30
0.0
 40
1.0
100
AcDbArc
 50
270.0000000000005
 51
0.0
  0
ARC
  5
246
330
22
100
AcDbEntity
  8
0
  6
Continuous
 62
     7
100
AcDbCircle
 10
-280.6416625976563
 20
196.8835754394531
 30
0.0
 40
2.0
100
AcDbArc
 50
90.00000000000019
 51
180.0000000000004
  0
ARC
  5
247
330
22
100
AcDbEntity
  8
0
  6
Continuous
 62
     7
100
AcDbCircle
 10
-309.2656860351563
 20
314.156982421875
 30
0.0
 40
2.5
100
AcDbArc
 50
0.0
 51
180.0000000000004
  0
CIRCLE
  5
248
330
22
100
AcDbEntity
  8
0
  6
Continuous
 62
     7
100
AcDbCircle
 10
-295.9366455078125
 20
343.177978515625
 30
0.0
 40
5.25
  0
CIRCLE
  5
249
330
22
100
AcDbEntity
  8
0
  6
Continuous
 62
     7
100
AcDbCircle
 10
-295.9366455078125
 20
343.177978515625
 30
0.0
 40
5.0
  0
ARC
  5
24A
330
22
100
AcDbEntity
  8
0
  6
Continuous
 62
     7
100
AcDbCircle
 10
-337.7656860351563
 20
319.0279846191406
 30
0.0
 40
49.25
100
AcDbArc
 50
316.1215900303892
 51
325.3192463134134
  0
ARC
  5
24B
330
22
100
AcDbEntity
  8
0
  6
Continuous
 62
     7
100
AcDbCircle
 10
-318.7529296875
 20
307.8905029296875
 30
0.0
 40
2.5
100
AcDbArc
 50
180.0000000000004
 51
0.0
  0
ARC
  5
24C
330
22
100
AcDbEntity
  8
0
  6
Continuous
 62
     7
100
AcDbCircle
 10
-318.7656860351563
 20
298.4032592773438
 30
0.0
 40
2.5
100
AcDbArc
 50
0.0
 51
180.0000000000004
  0
ARC
  5
24D
330
22
100
AcDbEntity
  8
0
  6
Continuous
 62
     7
100
AcDbCircle
 10
-291.7656860351563
 20
304.4306335449219
 30
0.0
 40
1.0
100
AcDbArc
 50
180.0000000000004
 51
333.9682520364829
  0
ARC
  5
24E
330
22
100
AcDbEntity
  8
0
  6
Continuous
 62
     7
100
AcDbCircle
 10
-337.7656860351563
 20
319.0279846191406
 30
0.0
 40
49.25
100
AcDbArc
 50
289.558367747856
 51
295.8838594473753
  0
ARC
  5
24F
330
22
100
AcDbEntity
  8
0
  6
Continuous
 62
     7
100
AcDbCircle
 10
-337.7656860351563
 20
319.0279846191406
 30
0.0
 40
49.25
100
AcDbArc
 50
301.8649508861765
 51
309.0089463133943
  0
ARC
  5
250
330
22
100
AcDbEntity
  8
0
  6
Continuous
 62
     7
100
AcDbCircle
 10
-295.4007568359375
 20
191.4031066894531
 30
0.0
 40
5.0
100
AcDbArc
 50
301.040103599929
 51
355.4222233285875
  0
ARC
  5
251
330
22
100
AcDbEntity
  8
0
  6
Continuous
 62
     7
100
AcDbCircle
 10
-287.6416625976563
 20
189.72900390625
 30
0.0
 40
5.0
100
AcDbArc
 50
300.7128545062072
 51
0.0
  0
ARC
  5
252
330
22
100
AcDbEntity
  8
0
  6
Continuous
 62
     7
100
AcDbCircle
 10
-306.1206970214844
 20
191.8837432861328
 30
0.0
 40
11.40778350830078
100
AcDbArc
 50
317.5152104486495
 51
354.9453253849554
  0
ARC
  5
253
330
22
100
AcDbEntity
  8
0
  6
Continuous
 62
     7
100
AcDbCircle
 10
-337.7656860351563
 20
319.0279846191406
 30
0.0
 40
49.25
100
AcDbArc
 50
64.11615605144835
 51
70.44163225214474
  0
ARC
  5
254
330
22
100
AcDbEntity
  8
0
  6
Continuous
 62
     7
100
AcDbCircle
 10
-337.7656860351563
 20
319.0279846191406
 30
0.0
 40
49.25
100
AcDbArc
 50
50.99107603374166
 51
58.13506785658424
  0
ARC
  5
255
330
22
100
AcDbEntity
  8
0
  6
Continuous
 62
     7
100
AcDbCircle
 10
-318.7529296875
 20
330.1654663085938
 30
0.0
 40
2.5
100
AcDbArc
 50
0.0
 51
180.0000000000004
  0
ARC
  5
256
330
22
100
AcDbEntity
  8
0
  6
Continuous
 62
     7
100
AcDbCircle
 10
-299.7529296875
 20
335.7684631347656
 30
0.0
 40
2.5
100
AcDbArc
 50
0.0
 51
180.0000000000004
  0
ARC
  5
257
330
22
100
AcDbEntity
  8
0
  6
Continuous
 62
     7
100
AcDbCircle
 10
-309.2656860351563
 20
323.656982421875
 30
0.0
 40
2.5
100
AcDbArc
 50
180.0000000000004
 51
0.0
  0
ARC
  5
258
330
22
100
AcDbEntity
  8
0
  6
Continuous
 62
     7
100
AcDbCircle
 10
-291.7656860351563
 20
333.6253662109375
 30
0.0
 40
1.0
100
AcDbArc
 50
26.03174796351784
 51
180.0000000000004
  0
ARC
  5
259
330
22
100
AcDbEntity
  8
0
  6
Continuous
 62
     7
100
AcDbCircle
 10
-318.7656860351563
 20
339.6527099609375
 30
0.0
 40
2.5
100
AcDbArc
 50
180.0000000000004
 51
0.0
  0
ARC
  5
25A
330
22
100
AcDbEntity
  8
0
  6
Continuous
 62
     7
100
AcDbCircle
 10
-308.8916625976563
 20
145.8835754394531
 30
0.0
 40
1.0
100
AcDbArc
 50
270.0000000000005
 51
0.0
  0
ARC
  5
25B
330
22
100
AcDbEntity
  8
0
  6
Continuous
 62
     7
100
AcDbCircle
 10
-337.7656860351563
 20
319.0279846191406
 30
0.0
 40
49.25
100
AcDbArc
 50
180.0000000000004
 51
197.7764662933751
  0
ARC
  5
25C
330
22
100
AcDbEntity
  8
0
  6
Continuous
 62
     7
100
AcDbCircle
 10
-337.7656860351563
 20
319.0279846191406
 30
0.0
 40
49.25
100
AcDbArc
 50
162.2234998986005
 51
180.0000000000004
  0
ARC
  5
25D
330
22
100
AcDbEntity
  8
0
  6
Continuous
 62
     7
100
AcDbCircle
 10
-366.2656860351563
 20
314.2779846191406
 30
0.0
 40
2.5
100
AcDbArc
 50
0.0
 51
180.0000000000004
  0
ARC
  5
25E
330
22
100
AcDbEntity
  8
0
  6
Continuous
 62
     7
100
AcDbCircle
 10
-347.2656860351563
 20
314.2779846191406
 30
0.0
 40
2.5
100
AcDbArc
 50
0.0
 51
180.0000000000004
  0
ARC
  5
25F
330
22
100
AcDbEntity
  8
0
  6
Continuous
 62
     7
100
AcDbCircle
 10
-337.7656860351563
 20
319.0279846191406
 30
0.0
 40
49.25
100
AcDbArc
 50
244.1161405526261
 51
250.4416657067692
  0
ARC
  5
260
330
22
100
AcDbEntity
  8
0
  6
Continuous
 62
     7
100
AcDbCircle
 10
-356.7784118652344
 20
307.8905029296875
 30
0.0
 40
2.5
100
AcDbArc
 50
180.0000000000004
 51
0.0
  0
ARC
  5
261
330
22
100
AcDbEntity
  8
0
  6
Continuous
 62
     7
100
AcDbCircle
 10
-356.7784118652344
 20
298.4032592773438
 30
0.0
 40
2.5
100
AcDbArc
 50
0.0
 51
180.0000000000004
  0
ARC
  5
262
330
22
100
AcDbEntity
  8
0
  6
Continuous
 62
     7
100
AcDbCircle
 10
-337.7656860351563
 20
319.0279846191406
 30
0.0
 40
49.25
100
AcDbArc
 50
255.8976429997034
 51
261.828766440051
  0
ARC
  5
263
330
22
100
AcDbEntity
  8
0
  6
Continuous
 62
     7
100
AcDbCircle
 10
-403.1947937011718
 20
203.3835754394531
 30
0.0
 40
0.5
100
AcDbArc
 50
90.00000000000019
 51
180.0000000000004
  0
ARC
  5
264
330
22
100
AcDbEntity
  8
0
  6
Continuous
 62
     7
100
AcDbCircle
 10
-387.6416625976563
 20
189.72900390625
 30
0.0
 40
5.0
100
AcDbArc
 50
180.0000000000004
 51
239.2871454937942
  0
ARC
  5
265
330
22
100
AcDbEntity
  8
0
  6
Continuous
 62
     7
100
AcDbCircle
 10
-394.6416625976563
 20
196.8835754394531
 30
0.0
 40
2.0
100
AcDbArc
 50
0.0
 51
90.00000000000019
  0
ARC
  5
266
330
22
100
AcDbEntity
  8
0
  6
Continuous
 62
     7
100
AcDbCircle
 10
-402.6947937011718
 20
199.8835754394531
 30
0.0
 40
1.0
100
AcDbArc
 50
180.0000000000004
 51
270.0000000000005
  0
ARC
  5
267
330
22
100
AcDbEntity
  8
0
  6
Continuous
 62
     7
100
AcDbCircle
 10
-337.7656860351563
 20
310.3280029296875
 30
0.0
 40
2.5
100
AcDbArc
 50
90.00000000000019
 51
180.0000000000004
  0
ARC
  5
268
330
22
100
AcDbEntity
  8
0
  6
Continuous
 62
     7
100
AcDbCircle
 10
-337.7656860351563
 20
310.3280029296875
 30
0.0
 40
2.5
100
AcDbArc
 50
0.0
 51
90.00000000000019
  0
CIRCLE
  5
269
330
22
100
AcDbEntity
  8
0
  6
Continuous
 62
     7
100
AcDbCircle
 10
-337.7656860351563
 20
319.0279846191406
 30
0.0
 40
3.0
  0
CIRCLE
  5
26A
330
22
100
AcDbEntity
  8
0
  6
Continuous
 62
     7
100
AcDbCircle
 10
-337.7656860351563
 20
270.3617858886719
 30
0.0
 40
5.0
  0
ARC
  5
26B
330
22
100
AcDbEntity
  8
0
  6
Continuous
 62
     7
100
AcDbCircle
 10
-337.7656860351563
 20
294.3280029296875
 30
0.0
 40
2.5
100
AcDbArc
 50
0.0
 51
90.00000000000019
  0
ARC
  5
26C
330
22
100
AcDbEntity
  8
0
  6
Continuous
 62
     7
100
AcDbCircle
 10
-337.7656860351563
 20
294.3280029296875
 30
0.0
 40
2.5
100
AcDbArc
 50
90.00000000000019
 51
180.0000000000004
  0
ARC
  5
26D
330
22
100
AcDbEntity
  8
0
  6
Continuous
 62
     7
100
AcDbCircle
 10
-337.7656860351563
 20
319.0279846191406
 30
0.0
 40
49.25
100
AcDbArc
 50
230.9910536866071
 51
238.135049113825
  0
ARC
  5
26E
330
22
100
AcDbEntity
  8
0
  6
Continuous
 62
     7
100
AcDbCircle
 10
-383.7656860351563
 20
304.4306335449219
 30
0.0
 40
1.0
100
AcDbArc
 50
206.0325153523554
 51
0.0
  0
ARC
  5
26F
330
22
100
AcDbEntity
  8
0
  6
Continuous
 62
     7
100
AcDbCircle
 10
-371.2658996582031
 20
261.0046997070313
 30
0.0
 40
5.0
100
AcDbArc
 50
124.4499160095703
 51
355.5493688067604
  0
ARC
  5
270
330
22
100
AcDbEntity
  8
0
  6
Continuous
 62
     7
100
AcDbCircle
 10
-371.2658996582031
 20
261.0046997070313
 30
0.0
 40
5.0
100
AcDbArc
 50
124.4499160095703
 51
355.5493688067604
  0
ARC
  5
271
330
22
100
AcDbEntity
  8
0
  6
Continuous
 62
     7
100
AcDbCircle
 10
-371.2658996582031
 20
261.0046997070313
 30
0.0
 40
2.75
100
AcDbArc
 50
102.5352904427975
 51
150.0002285196981
  0
ARC
  5
272
330
22
100
AcDbEntity
  8
0
  6
Continuous
 62
     7
100
AcDbCircle
 10
-371.2658996582031
 20
261.0046997070313
 30
0.0
 40
2.75
100
AcDbArc
 50
150.0002285196981
 51
17.46394733644988
  0
ARC
  5
273
330
22
100
AcDbEntity
  8
0
  6
Continuous
 62
     7
100
AcDbCircle
 10
-337.7656860351563
 20
319.0279846191406
 30
0.0
 40
49.25
100
AcDbArc
 50
214.6807536865881
 51
223.8784099696123
  0
CIRCLE
  5
274
330
22
100
AcDbEntity
  8
0
  6
Continuous
 62
     7
100
AcDbCircle
 10
-379.5946960449219
 20
343.177978515625
 30
0.0
 40
5.25
  0
ARC
  5
275
330
22
100
AcDbEntity
  8
0
  6
Continuous
 62
     7
100
AcDbCircle
 10
-337.7656860351563
 20
303.8280029296875
 30
0.0
 40
2.5
100
AcDbArc
 50
180.0000000000004
 51
270.0000000000005
  0
ARC
  5
276
330
22
100
AcDbEntity
  8
0
  6
Continuous
 62
     7
100
AcDbCircle
 10
-337.7656860351563
 20
303.8280029296875
 30
0.0
 40
2.5
100
AcDbArc
 50
270.0000000000005
 51
0.0
  0
CIRCLE
  5
277
330
22
100
AcDbEntity
  8
0
  6
Continuous
 62
     7
100
AcDbCircle
 10
-337.7656860351563
 20
270.3617858886719
 30
0.0
 40
5.25
  0
ARC
  5
278
330
22
100
AcDbEntity
  8
0
  6
Continuous
 62
     7
100
AcDbCircle
 10
-337.7656860351563
 20
278.6412353515625
 30
0.0
 40
2.5
100
AcDbArc
 50
180.0000000000004
 51
270.0000000000005
  0
ARC
  5
279
330
22
100
AcDbEntity
  8
0
  6
Continuous
 62
     7
100
AcDbCircle
 10
-337.7656860351563
 20
278.6412353515625
 30
0.0
 40
2.5
100
AcDbArc
 50
270.0000000000005
 51
0.0
  0
ARC
  5
27A
330
22
100
AcDbEntity
  8
0
  6
Continuous
 62
     7
100
AcDbCircle
 10
-337.7656860351563
 20
334.2279968261719
 30
0.0
 40
2.5
100
AcDbArc
 50
90.00000000000019
 51
180.0000000000004
  0
ARC
  5
27B
330
22
100
AcDbEntity
  8
0
  6
Continuous
 62
     7
100
AcDbCircle
 10
-337.7656860351563
 20
334.2279968261719
 30
0.0
 40
2.5
100
AcDbArc
 50
0.0
 51
90.00000000000019
  0
ARC
  5
27C
330
22
100
AcDbEntity
  8
0
  6
Continuous
 62
     7
100
AcDbCircle
 10
-337.7656860351563
 20
327.7279968261719
 30
0.0
 40
2.5
100
AcDbArc
 50
270.0000000000005
 51
0.0
  0
ARC
  5
27D
330
22
100
AcDbEntity
  8
0
  6
Continuous
 62
     7
100
AcDbCircle
 10
-337.7656860351563
 20
327.7279968261719
 30
0.0
 40
2.5
100
AcDbArc
 50
180.0000000000004
 51
270.0000000000005
  0
ARC
  5
27E
330
22
100
AcDbEntity
  8
0
  6
Continuous
 62
     7
100
AcDbCircle
 10
-383.7656860351563
 20
333.6253662109375
 30
0.0
 40
1.0
100
AcDbArc
 50
0.0
 51
153.9674846476453
  0
ARC
  5
27F
330
22
100
AcDbEntity
  8
0
  6
Continuous
 62
     7
100
AcDbCircle
 10
-375.7784118652344
 20
335.7684631347656
 30
0.0
 40
2.5
100
AcDbArc
 50
0.0
 51
180.0000000000004
  0
ARC
  5
280
330
22
100
AcDbEntity
  8
0
  6
Continuous
 62
     7
100
AcDbCircle
 10
-366.2656860351563
 20
323.7779846191406
 30
0.0
 40
2.5
100
AcDbArc
 50
180.0000000000004
 51
0.0
  0
ARC
  5
281
330
22
100
AcDbEntity
  8
0
  6
Continuous
 62
     7
100
AcDbCircle
 10
-356.7784118652344
 20
330.1654663085938
 30
0.0
 40
2.5
100
AcDbArc
 50
0.0
 51
180.0000000000004
  0
ARC
  5
282
330
22
100
AcDbEntity
  8
0
  6
Continuous
 62
     7
100
AcDbCircle
 10
-347.2656860351563
 20
323.7779846191406
 30
0.0
 40
2.5
100
AcDbArc
 50
180.0000000000004
 51
0.0
  0
ARC
  5
283
330
22
100
AcDbEntity
  8
0
  6
Continuous
 62
     7
100
AcDbCircle
 10
-337.7656860351563
 20
319.0279846191406
 30
0.0
 40
49.25
100
AcDbArc
 50
98.17123355994976
 51
104.1023483497911
  0
ARC
  5
284
330
22
100
AcDbEntity
  8
0
  6
Continuous
 62
     7
100
AcDbCircle
 10
-356.7784118652344
 20
339.6527099609375
 30
0.0
 40
2.5
100
AcDbArc
 50
180.0000000000004
 51
0.0
  0
ARC
  5
285
330
22
100
AcDbEntity
  8
0
  6
Continuous
 62
     7
100
AcDbCircle
 10
-337.7656860351563
 20
343.7279968261719
 30
0.0
 40
2.5
100
AcDbArc
 50
180.0000000000004
 51
270.0000000000005
  0
ARC
  5
286
330
22
100
AcDbEntity
  8
0
  6
Continuous
 62
     7
100
AcDbCircle
 10
-337.7656860351563
 20
343.7279968261719
 30
0.0
 40
2.5
100
AcDbArc
 50
270.0000000000005
 51
0.0
  0
CIRCLE
  5
287
330
22
100
AcDbEntity
  8
0
  6
Continuous
 62
     7
100
AcDbCircle
 10
-379.5946960449219
 20
343.177978515625
 30
0.0
 40
5.0
  0
ARC
  5
288
330
22
100
AcDbEntity
  8
0
  6
Continuous
 62
     7
100
AcDbCircle
 10
-366.3916625976563
 20
145.8835754394531
 30
0.0
 40
1.0
100
AcDbArc
 50
180.0000000000004
 51
270.0000000000005
  0
ARC
  5
289
330
22
100
AcDbEntity
  8
0
  6
Continuous
 62
     7
100
AcDbCircle
 10
-371.2654418945313
 20
377.0520935058594
 30
0.0
 40
2.75
100
AcDbArc
 50
30.0000893932244
 51
257.4776750557077
  0
ARC
  5
28A
330
22
100
AcDbEntity
  8
0
  6
Continuous
 62
     7
100
AcDbCircle
 10
-371.2654418945313
 20
377.0520935058594
 30
0.0
 40
5.0
100
AcDbArc
 50
30.00010528903092
 51
235.5551270762719
  0
ARC
  5
28B
330
22
100
AcDbEntity
  8
0
  6
Continuous
 62
     7
100
AcDbCircle
 10
-337.7656860351563
 20
319.0279846191406
 30
0.0
 40
49.25
100
AcDbArc
 50
109.5583342932316
 51
115.8838439485517
  0
ARC
  5
28C
330
22
100
AcDbEntity
  8
0
  6
Continuous
 62
     7
100
AcDbCircle
 10
-337.7656860351563
 20
319.0279846191406
 30
0.0
 40
49.25
100
AcDbArc
 50
121.8649321434157
 51
129.0089239662584
  0
ARC
  5
28D
330
22
100
AcDbEntity
  8
0
  6
Continuous
 62
     7
100
AcDbCircle
 10
-371.2654418945313
 20
377.0520935058594
 30
0.0
 40
5.0
100
AcDbArc
 50
4.443979666409606
 51
30.00010528903092
  0
ARC
  5
28E
330
22
100
AcDbEntity
  8
0
  6
Continuous
 62
     7
100
AcDbCircle
 10
-337.7656860351563
 20
319.0279846191406
 30
0.0
 40
49.25
100
AcDbArc
 50
90.00000000000019
 51
92.90966473052867
  0
ARC
  5
28F
330
22
100
AcDbEntity
  8
0
  6
Continuous
 62
     7
100
AcDbCircle
 10
-337.7656860351563
 20
319.0279846191406
 30
0.0
 40
49.25
100
AcDbArc
 50
87.09033526947138
 51
90.00000000000019
  0
ARC
  5
290
330
22
100
AcDbEntity
  8
0
  6
Continuous
 62
     7
100
AcDbCircle
 10
-371.2654418945313
 20
377.0520935058594
 30
0.0
 40
2.75
100
AcDbArc
 50
342.5213734237826
 51
30.0000893932244
  0
CIRCLE
  5
291
330
22
100
AcDbEntity
  8
0
  6
Continuous
 62
     7
100
AcDbCircle
 10
-337.7656860351563
 20
319.0279846191406
 30
0.0
 40
55.25
  0
CIRCLE
  5
292
330
22
100
AcDbEntity
  8
0
  6
Continuous
 62
     7
100
AcDbCircle
 10
-337.7656860351563
 20
319.0279846191406
 30
0.0
 40
77.0
  0
CIRCLE
  5
293
330
22
100
AcDbEntity
  8
0
  6
Continuous
 62
     7
100
AcDbCircle
 10
-337.7656860351563
 20
319.0279846191406
 30
0.0
 40
65.0
  0
ARC
  5
294
330
22
100
AcDbEntity
  8
0
  6
Continuous
 62
     7
100
AcDbCircle
 10
-372.3916625976563
 20
169.0381469726563
 30
0.0
 40
5.0
100
AcDbArc
 50
0.0
 51
59.28714549379349
  0
ARC
  5
295
330
22
100
AcDbEntity
  8
0
  6
Continuous
 62
     7
100
AcDbCircle
 10
-302.8916625976563
 20
169.0381469726563
 30
0.0
 40
5.0
100
AcDbArc
 50
120.7128545062065
 51
180.0000000000004
  0
ARC
  5
296
330
22
100
AcDbEntity
  8
0
  6
Continuous
 62
     7
100
AcDbCircle
 10
-337.7656860351563
 20
319.0279846191406
 30
0.0
 40
49.25
100
AcDbArc
 50
75.89765165020894
 51
81.82876644005027
  0
ARC
  5
297
330
22
100
AcDbEntity
  8
0
  6
Continuous
 62
     7
100
AcDbCircle
 10
-328.2656860351563
 20
323.7779846191406
 30
0.0
 40
2.5
100
AcDbArc
 50
180.0000000000004
 51
0.0
  0
ARC
  5
298
330
22
100
AcDbEntity
  8
0
  6
Continuous
 62
     7
100
AcDbCircle
 10
-337.7656860351563
 20
319.0279846191406
 30
0.0
 40
49.25
100
AcDbArc
 50
278.1712335599505
 51
284.102357000298
  0
ARC
  5
299
330
22
100
AcDbEntity
  8
0
  6
Continuous
 62
     7
100
AcDbCircle
 10
-328.2656860351563
 20
314.2779846191406
 30
0.0
 40
2.5
100
AcDbArc
 50
0.0
 51
180.0000000000004
  0
CIRCLE
  5
29A
330
22
100
AcDbEntity
  8
0
  6
Continuous
 62
     7
100
AcDbCircle
 10
-337.7656860351563
 20
319.1520080566406
 30
0.0
 40
54.5
  0
TEXT
  5
29B
330
22
100
AcDbEntity
  8
0
  6
Continuous
 62
     7
100
AcDbText
 10
-236.471489906311
 20
241.7151794433594
 30
0.0
 40
7.0
  1
DL-SSP-40
 41
1.018441630205992
100
AcDbText
  0
DIMENSION
  5
29C
330
22
100
AcDbEntity
  8
0
  6
Continuous
 62
     7
100
AcDbDimension
  2
*D1
 10
-400.7907032446588
 20
303.1268146703003
 30
0.0
 11
-244.5785522460938
 21
342.5390319824219
 31
0.0
 70
     3
 71
     5
 42
-1.0
  3
DIMSTYLE1
100
AcDbDiametricDimension
 15
-274.7406688256536
 25
334.9291545679809
 35
0.0
 40
0.0
  0
DIMENSION
  5
29D
330
22
100
AcDbEntity
  8
0
  6
Continuous
 62
     7
100
AcDbDimension
  2
*D2
 10
-389.8703916328827
 20
335.0076484007806
 30
0.0
 11
-242.4641723632813
 21
289.8005676269531
 31
0.0
 70
     3
 71
     5
 42
-1.0
  3
DIMSTYLE2
100
AcDbDiametricDimension
 15
-285.6609804374298
 25
303.0483208375006
 35
0.0
 40
0.0
  0
DIMENSION
  5
29E
330
22
100
AcDbEntity
  8
0
  6
Continuous
 62
     7
100
AcDbDimension
  2
*D3
 10
-398.8161753202476
 20
272.1042405437692
 30
0.0
 11
-261.8486633300781
 21
377.3782348632813
 31
0.0
 70
     3
 71
     5
 42
-1.0
  3
DIMSTYLE3
100
AcDbDiametricDimension
 15
-276.715196750065
 25
365.9517286945121
 35
0.0
 40
0.0
  0
DIMENSION
  5
29F
330
22
100
AcDbEntity
  8
0
  6
Continuous
 62
     7
100
AcDbDimension
  2
*D4
 10
-225.7323303222656
 20
203.8835754394531
 30
0.0
 11
-225.7323303222656
 21
129.8835754394531
 31
0.0
 71
     5
 42
-1.0
  3
DIMSTYLE4
100
AcDbAlignedDimension
 13
-260.6416625976563
 23
55.8835678100586
 33
0.0
 14
-274.1947937011719
 24
203.8835754394531
 34
0.0
 50
90.0
100
AcDbRotatedDimension
  0
DIMENSION
  5
2A0
330
22
100
AcDbEntity
  8
0
  6
Continuous
 62
     7
100
AcDbDimension
  2
*D5
 10
-225.7323303222656
 20
52.88356781005859
 30
0.0
 11
-225.7323303222656
 21
45.84550094604492
 31
0.0
 71
     5
 42
-1.0
  3
DIMSTYLE5
100
AcDbAlignedDimension
 13
-223.4463348388672
 23
55.8835678100586
 33
0.0
 14
-260.6416625976563
 24
52.88356781005859
 34
0.0
 50
90.0
100
AcDbRotatedDimension
  0
DIMENSION
  5
2A1
330
22
100
AcDbEntity
  8
0
  6
Continuous
 62
     7
100
AcDbDimension
  2
*D6
 10
-239.8014984130859
 20
77.88356781005859
 30
0.0
 11
-239.8014984130859
 21
66.88356781005859
 31
0.0
 71
     5
 42
-1.0
  3
DIMSTYLE6
100
AcDbAlignedDimension
 13
-223.4463348388672
 23
55.8835678100586
 33
0.0
 14
-309.6416625976563
 24
77.88356781005859
 34
0.0
 50
90.0
100
AcDbRotatedDimension
  0
DIMENSION
  5
2A2
330
22
100
AcDbEntity
  8
0
  6
Continuous
 62
     7
100
AcDbDimension
  2
*D7
 10
-309.6416625976563
 20
10.97070789337158
 30
0.0
 11
-337.6416625976563
 21
10.97070789337158
 31
0.0
 71
     5
 42
-1.0
  3
DIMSTYLE7
100
AcDbAlignedDimension
 13
-365.6416625976563
 23
23.88356971740723
 33
0.0
 14
-309.6416625976563
 24
23.88356971740723
 34
0.0
100
AcDbRotatedDimension
  0
INSERT
  5
2A3
330
22
100
AcDbEntity
  8
0
  6
Continuous
 62
     7
100
AcDbBlockReference
  2
KOZU0001
 10
-314.0680541992188
 20
34.3282356262207
 30
0.0
  0
DIMENSION
  5
2A4
330
22
100
AcDbEntity
  8
0
  6
Continuous
 62
     7
100
AcDbDimension
  2
*D8
 10
-326.18115234375
 20
157.8835754394531
 30
0.0
 11
-326.18115234375
 21
107.8835678100586
 31
0.0
 71
     5
 42
-1.0
  3
DIMSTYLE8
100
AcDbAlignedDimension
 13
-315.1416625976563
 23
57.88356781005859
 33
0.0
 14
-315.5772705078125
 24
157.8835754394531
 34
0.0
 50
90.0
100
AcDbRotatedDimension
  0
DIMENSION
  5
2A5
330
22
100
AcDbEntity
  8
0
  6
Continuous
 62
     7
100
AcDbDimension
  2
*D9
 10
-239.8014984130859
 20
144.8835754394531
 30
0.0
 11
-239.8014984130859
 21
174.3835754394531
 31
0.0
 71
     5
 42
-1.0
  3
DIMSTYLE9
100
AcDbAlignedDimension
 13
-223.4463348388672
 23
203.8835754394531
 33
0.0
 14
-308.8916625976563
 24
144.8835754394531
 34
0.0
 50
90.0
100
AcDbRotatedDimension
  0
DIMENSION
  5
2A6
330
22
100
AcDbEntity
  8
0
  6
Continuous
 62
     7
100
AcDbDimension
  2
*D10
 10
-430.1869506835938
 20
77.88356781005859
 30
0.0
 11
-430.1869506835938
 21
50.8835678100586
 31
0.0
 71
     5
 42
-1.0
  3
DIMSTYLE10
100
AcDbAlignedDimension
 13
-365.6416625976563
 23
23.88356971740723
 33
0.0
 14
-365.6416625976563
 24
77.88356781005859
 34
0.0
 50
90.0
100
AcDbRotatedDimension
  0
ENDSEC
  0
SECTION
  2
OBJECTS
  0
DICTIONARY
  5
C
330
0
100
AcDbDictionary
281
     1
  3
ACAD_COLOR
350
1B
  3
ACAD_GROUP
350
D
  3
ACAD_LAYOUT
350
19
  3
ACAD_MATERIAL
350
1A
  3
ACAD_MLINESTYLE
350
16
  3
ACAD_PLOTSETTINGS
350
18
  3
ACAD_PLOTSTYLENAME
350
E
  3
ACAD_TABLESTYLE
350
1C
  3
AcDbVariableDictionary
350
2B2
  0
DICTIONARY
  5
1B
102
{ACAD_REACTORS
330
C
102
}
330
C
100
AcDbDictionary
281
     1
  0
DICTIONARY
  5
D
102
{ACAD_REACTORS
330
C
102
}
330
C
100
AcDbDictionary
281
     1
  0
DICTIONARY
  5
19
102
{ACAD_REACTORS
330
C
102
}
330
C
100
AcDbDictionary
281
     1
  3
Model
350
25
  3
レイアウト1
350
21
  0
DICTIONARY
  5
1A
102
{ACAD_REACTORS
330
C
102
}
330
C
100
AcDbDictionary
281
     1
  0
DICTIONARY
  5
16
102
{ACAD_REACTORS
330
C
102
}
330
C
100
AcDbDictionary
281
     1
  3
Standard
350
17
  0
DICTIONARY
  5
18
102
{ACAD_REACTORS
330
C
102
}
330
C
100
AcDbDictionary
281
     1
  0
ACDBDICTIONARYWDFLT
  5
E
102
{ACAD_REACTORS
330
C
102
}
330
C
100
AcDbDictionary
281
     1
  3
Normal
350
F
100
AcDbDictionaryWithDefault
340
F
  0
DICTIONARY
  5
1C
102
{ACAD_REACTORS
330
C
102
}
330
C
100
AcDbDictionary
281
     1
  3
Standard
350
1D
  0
DICTIONARY
  5
2B2
102
{ACAD_REACTORS
330
C
102
}
330
C
100
AcDbDictionary
281
     1
  3
CTABLESTYLE
350
2B3
  0
LAYOUT
  5
25
102
{ACAD_REACTORS
330
19
102
}
330
19
100
AcDbPlotSettings
  1

  2
PDF reDirect v2
  4
User66
  6

 40
3.174999952316284
 41
3.174999952316284
 42
3.17498779296875
 43
3.17498779296875
 44
420.0
 45
594.0
 46
0.0
 47
0.0
 48
0.0
 49
0.0
140
0.0
141
0.0
142
1.0
143
1.0
 70
 11952
 72
     1
 73
     1
 74
     2
  7
C:\Users\ck\AppData\Roaming\Autodesk\AutoCAD 2005\R16.1\jpn\Plot Styles\black.ctb
 75
    16
147
1.0
 76
     0
 77
     2
 78
   300
148
592.0
149
0.0
100
AcDbLayout
  1
Model
 70
     1
 71
     0
 10
0.0
 20
0.0
 11
12.0
 21
9.0
 12
0.0
 22
0.0
 32
0.0
 14
0.0
 24
0.0
 34
0.0
 15
0.0
 25
0.0
 35
0.0
146
0.0
 13
0.0
 23
0.0
 33
0.0
 16
1.0
 26
0.0
 36
0.0
 17
0.0
 27
1.0
 37
0.0
 76
     0
330
22
1001
ACAD_PSEXT
1000
PDF reDirect v2
1000
PDF reDirect Pro
1000
PDF_REDIRECT_PORT:
1000
PDF reDirect provided by EXP Systems
1070
     0
  0
LAYOUT
  5
21
102
{ACAD_REACTORS
330
19
102
}
330
19
100
AcDbPlotSettings
  1

  2
PDF reDirect v2
  4

  6

 40
0.0
 41
0.0
 42
0.0
 43
0.0
 44
0.0
 45
0.0
 46
0.0
 47
0.0
 48
0.0
 49
0.0
140
0.0
141
0.0
142
1.0
143
1.0
 70
   688
 72
     0
 73
     0
 74
     5
  7
C:\Users\ck\AppData\Roaming\Autodesk\AutoCAD 2005\R16.1\jpn\Plot Styles\black.ctb
 75
    16
147
1.0
 76
     0
 77
     2
 78
   300
148
0.0
149
0.0
100
AcDbLayout
  1
レイアウト1
 70
     1
 71
     1
 10
-592.0
 20
0.0
 11
0.0
 21
418.0
 12
0.0
 22
0.0
 32
0.0
 14
1.000000000000000E+20
 24
1.000000000000000E+20
 34
1.000000000000000E+20
 15
-1.000000000000000E+20
 25
-1.000000000000000E+20
 35
-1.000000000000000E+20
146
0.0
 13
0.0
 23
0.0
 33
0.0
 16
1.0
 26
0.0
 36
0.0
 17
0.0
 27
1.0
 37
0.0
 76
     0
330
1E
  0
MLINESTYLE
  5
17
102
{ACAD_REACTORS
330
16
102
}
330
16
100
AcDbMlineStyle
  2
STANDARD
 70
     0
  3

 62
   256
 51
90.0
 52
90.0
 71
     2
 49
0.5
 62
   256
  6
BYLAYER
 49
-0.5
 62
   256
  6
BYLAYER
  0
ACDBPLACEHOLDER
  5
F
102
{ACAD_REACTORS
330
E
102
}
330
E
  0
TABLESTYLE
  5
1D
102
{ACAD_REACTORS
330
1C
102
}
330
1C
100
AcDbTableStyle
  3
Standard
 70
     0
 71
     0
 40
0.06
 41
0.06
280
     0
281
     0
  7
STANDARD
140
0.18
170
     2
 62
     0
 63
     7
283
     0
274
    -2
284
     1
 64
     0
275
    -2
285
     1
 65
     0
276
    -2
286
     1
 66
     0
277
    -2
287
     1
 67
     0
278
    -2
288
     1
 68
     0
279
    -2
289
     1
 69
     0
  7
STANDARD
140
0.25
170
     5
 62
     0
 63
     7
283
     0
274
    -2
284
     1
 64
     0
275
    -2
285
     1
 65
     0
276
    -2
286
     1
 66
     0
277
    -2
287
     1
 67
     0
278
    -2
288
     1
 68
     0
279
    -2
289
     1
 69
     0
  7
STANDARD
140
0.18
170
     5
 62
     0
 63
     7
283
     0
274
    -2
284
     1
 64
     0
275
    -2
285
     1
 65
     0
276
    -2
286
     1
 66
     0
277
    -2
287
     1
 67
     0
278
    -2
288
     1
 68
     0
279
    -2
289
     1
 69
     0
  0
DICTIONARYVAR
  5
2B3
102
{ACAD_REACTORS
330
2B2
102
}
330
2B2
100
DictionaryVariables
280
     0
  1
STANDARD
  0
ENDSEC
  0
EOF
