  0
SECTION
  2
HEADER
  9
$ACADVER
  1
AC1018
  9
$ACADMAINTVER
 70
    39
  9
$DWGCODEPAGE
  3
ANSI_932
  9
$INSBASE
 10
0.0
 20
0.0
 30
0.0
  9
$EXTMIN
 10
-579.0784736961109
 20
12.9678053462037
 30
-0.0015258207003583
  9
$EXTMAX
 10
-202.5039960850309
 20
575.3719038236559
 30
0.0000000349246037
  9
$LIMMIN
 10
-839.0
 20
0.0
  9
$LIMMAX
 10
0.0
 20
591.0
  9
$ORTHOMODE
 70
     0
  9
$REGENMODE
 70
     1
  9
$FILLMODE
 70
     1
  9
$QTEXTMODE
 70
     0
  9
$MIRRTEXT
 70
     0
  9
$LTSCALE
 40
1.0
  9
$ATTMODE
 70
     1
  9
$TEXTSIZE
 40
0.2
  9
$TRACEWID
 40
0.05
  9
$TEXTSTYLE
  7
STANDARD
  9
$CLAYER
  8
0
  9
$CELTYPE
  6
CONTINUOUS
  9
$CECOLOR
 62
   256
  9
$CELTSCALE
 40
1.0
  9
$DISPSILH
 70
     0
  9
$DIMSCALE
 40
1.0
  9
$DIMASZ
 40
1.0
  9
$DIMEXO
 40
2.54
  9
$DIMDLI
 40
0.38
  9
$DIMRND
 40
0.0
  9
$DIMDLE
 40
0.0
  9
$DIMEXE
 40
2.54
  9
$DIMTP
 40
0.0
  9
$DIMTM
 40
0.0
  9
$DIMTXT
 40
3.0
  9
$DIMCEN
 40
0.09
  9
$DIMTSZ
 40
0.0
  9
$DIMTOL
 70
     0
  9
$DIMLIM
 70
     0
  9
$DIMTIH
 70
     0
  9
$DIMTOH
 70
     0
  9
$DIMSE1
 70
     0
  9
$DIMSE2
 70
     0
  9
$DIMTAD
 70
     1
  9
$DIMZIN
 70
     0
  9
$DIMBLK
  1

  9
$DIMASO
 70
     1
  9
$DIMSHO
 70
     0
  9
$DIMPOST
  1

  9
$DIMAPOST
  1

  9
$DIMALT
 70
     0
  9
$DIMALTD
 70
     2
  9
$DIMALTF
 40
25.4
  9
$DIMLFAC
 40
1.0
  9
$DIMTOFL
 70
     0
  9
$DIMTVP
 40
1.0
  9
$DIMTIX
 70
     0
  9
$DIMSOXD
 70
     0
  9
$DIMSAH
 70
     1
  9
$DIMBLK1
  1

  9
$DIMBLK2
  1

  9
$DIMSTYLE
  2
DIMSTYLE1
  9
$DIMCLRD
 70
     0
  9
$DIMCLRE
 70
     0
  9
$DIMCLRT
 70
     0
  9
$DIMTFAC
 40
1.0
  9
$DIMGAP
 40
1.5
  9
$DIMJUST
 70
     0
  9
$DIMSD1
 70
     0
  9
$DIMSD2
 70
     0
  9
$DIMTOLJ
 70
     1
  9
$DIMTZIN
 70
     0
  9
$DIMALTZ
 70
     0
  9
$DIMALTTZ
 70
     0
  9
$DIMUPT
 70
     0
  9
$DIMDEC
 70
     4
  9
$DIMTDEC
 70
     4
  9
$DIMALTU
 70
     2
  9
$DIMALTTD
 70
     2
  9
$DIMTXSTY
  7
STANDARD
  9
$DIMAUNIT
 70
     0
  9
$DIMADEC
 70
     0
  9
$DIMALTRND
 40
0.0
  9
$DIMAZIN
 70
     0
  9
$DIMDSEP
 70
    46
  9
$DIMATFIT
 70
     3
  9
$DIMFRAC
 70
     0
  9
$DIMLDRBLK
  1

  9
$DIMLUNIT
 70
     2
  9
$DIMLWD
 70
    -2
  9
$DIMLWE
 70
    -2
  9
$DIMTMOVE
 70
     0
  9
$LUNITS
 70
     2
  9
$LUPREC
 70
     4
  9
$SKETCHINC
 40
0.1
  9
$FILLETRAD
 40
0.0
  9
$AUNITS
 70
     0
  9
$AUPREC
 70
     0
  9
$MENU
  1
.
  9
$ELEVATION
 40
0.0
  9
$PELEVATION
 40
0.0
  9
$THICKNESS
 40
0.0
  9
$LIMCHECK
 70
     0
  9
$CHAMFERA
 40
0.0
  9
$CHAMFERB
 40
0.0
  9
$CHAMFERC
 40
0.0
  9
$CHAMFERD
 40
0.0
  9
$SKPOLY
 70
     0
  9
$TDCREATE
 40
2457843.049200394
  9
$TDUCREATE
 40
2457842.674200394
  9
$TDUPDATE
 40
2457843.049753206
  9
$TDUUPDATE
 40
2457842.674753206
  9
$TDINDWG
 40
0.0005542593
  9
$TDUSRTIMER
 40
0.0005542593
  9
$USRTIMER
 70
     1
  9
$ANGBASE
 50
0.0
  9
$ANGDIR
 70
     0
  9
$PDMODE
 70
     0
  9
$PDSIZE
 40
0.0
  9
$PLINEWID
 40
0.0
  9
$SPLFRAME
 70
     0
  9
$SPLINETYPE
 70
     6
  9
$SPLINESEGS
 70
     8
  9
$HANDSEED
  5
395
  9
$SURFTAB1
 70
     6
  9
$SURFTAB2
 70
     6
  9
$SURFTYPE
 70
     6
  9
$SURFU
 70
     6
  9
$SURFV
 70
     6
  9
$UCSBASE
  2

  9
$UCSNAME
  2

  9
$UCSORG
 10
0.0
 20
0.0
 30
0.0
  9
$UCSXDIR
 10
1.0
 20
0.0
 30
0.0
  9
$UCSYDIR
 10
0.0
 20
1.0
 30
0.0
  9
$UCSORTHOREF
  2

  9
$UCSORTHOVIEW
 70
     0
  9
$UCSORGTOP
 10
0.0
 20
0.0
 30
0.0
  9
$UCSORGBOTTOM
 10
0.0
 20
0.0
 30
0.0
  9
$UCSORGLEFT
 10
0.0
 20
0.0
 30
0.0
  9
$UCSORGRIGHT
 10
0.0
 20
0.0
 30
0.0
  9
$UCSORGFRONT
 10
0.0
 20
0.0
 30
0.0
  9
$UCSORGBACK
 10
0.0
 20
0.0
 30
0.0
  9
$PUCSBASE
  2

  9
$PUCSNAME
  2

  9
$PUCSORG
 10
0.0
 20
0.0
 30
0.0
  9
$PUCSXDIR
 10
1.0
 20
0.0
 30
0.0
  9
$PUCSYDIR
 10
0.0
 20
1.0
 30
0.0
  9
$PUCSORTHOREF
  2

  9
$PUCSORTHOVIEW
 70
     0
  9
$PUCSORGTOP
 10
0.0
 20
0.0
 30
0.0
  9
$PUCSORGBOTTOM
 10
0.0
 20
0.0
 30
0.0
  9
$PUCSORGLEFT
 10
0.0
 20
0.0
 30
0.0
  9
$PUCSORGRIGHT
 10
0.0
 20
0.0
 30
0.0
  9
$PUCSORGFRONT
 10
0.0
 20
0.0
 30
0.0
  9
$PUCSORGBACK
 10
0.0
 20
0.0
 30
0.0
  9
$USERI1
 70
     0
  9
$USERI2
 70
     0
  9
$USERI3
 70
     0
  9
$USERI4
 70
     0
  9
$USERI5
 70
     0
  9
$USERR1
 40
0.0
  9
$USERR2
 40
0.0
  9
$USERR3
 40
0.0
  9
$USERR4
 40
0.0
  9
$USERR5
 40
0.0
  9
$WORLDVIEW
 70
     1
  9
$SHADEDGE
 70
     3
  9
$SHADEDIF
 70
    70
  9
$TILEMODE
 70
     1
  9
$MAXACTVP
 70
    64
  9
$PINSBASE
 10
0.0
 20
0.0
 30
0.0
  9
$PLIMCHECK
 70
     0
  9
$PEXTMIN
 10
1.000000000000000E+20
 20
1.000000000000000E+20
 30
1.000000000000000E+20
  9
$PEXTMAX
 10
-1.000000000000000E+20
 20
-1.000000000000000E+20
 30
-1.000000000000000E+20
  9
$PLIMMIN
 10
-839.0
 20
0.0
  9
$PLIMMAX
 10
0.0
 20
591.0
  9
$UNITMODE
 70
     0
  9
$VISRETAIN
 70
     1
  9
$PLINEGEN
 70
     0
  9
$PSLTSCALE
 70
     1
  9
$TREEDEPTH
 70
  3020
  9
$CMLSTYLE
  2
Standard
  9
$CMLJUST
 70
     0
  9
$CMLSCALE
 40
1.0
  9
$PROXYGRAPHICS
 70
     1
  9
$MEASUREMENT
 70
     0
  9
$CELWEIGHT
370
    -1
  9
$ENDCAPS
280
     0
  9
$JOINSTYLE
280
     0
  9
$LWDISPLAY
290
     0
  9
$INSUNITS
 70
     0
  9
$HYPERLINKBASE
  1

  9
$STYLESHEET
  1

  9
$XEDIT
290
     1
  9
$CEPSNTYPE
380
     0
  9
$PSTYLEMODE
290
     1
  9
$FINGERPRINTGUID
  2
{EEE8DE3E-8199-4D05-BD1E-29C575FD7EF4}
  9
$VERSIONGUID
  2
{B122DBB1-864C-4B96-A8F7-2D4D97DB831B}
  9
$EXTNAMES
290
     1
  9
$PSVPSCALE
 40
0.0
  9
$OLESTARTUP
290
     0
  9
$SORTENTS
280
   127
  9
$INDEXCTL
280
     0
  9
$HIDETEXT
280
     0
  9
$XCLIPFRAME
290
     0
  9
$HALOGAP
280
     0
  9
$OBSCOLOR
 70
   257
  9
$OBSLTYPE
280
     0
  9
$INTERSECTIONDISPLAY
280
     0
  9
$INTERSECTIONCOLOR
 70
   257
  9
$DIMASSOC
280
     1
  9
$PROJECTNAME
  1

  0
ENDSEC
  0
SECTION
  2
CLASSES
  0
CLASS
  1
ACDBDICTIONARYWDFLT
  2
AcDbDictionaryWithDefault
  3
ObjectDBX Classes
 90
        0
 91
        1
280
     0
281
     0
  0
CLASS
  1
TABLESTYLE
  2
AcDbTableStyle
  3
ObjectDBX Classes
 90
     2047
 91
        1
280
     0
281
     0
  0
CLASS
  1
DICTIONARYVAR
  2
AcDbDictionaryVar
  3
ObjectDBX Classes
 90
        0
 91
        1
280
     0
281
     0
  0
ENDSEC
  0
SECTION
  2
TABLES
  0
TABLE
  2
VPORT
  5
8
330
0
100
AcDbSymbolTable
 70
     2
  0
VPORT
  5
394
330
8
100
AcDbSymbolTableRecord
100
AcDbViewportTableRecord
  2
*Active
 70
     0
 10
0.0
 20
0.0
 11
1.0
 21
1.0
 12
-419.5
 22
295.5
 13
0.0
 23
0.0
 14
1.0
 24
1.0
 15
0.0
 25
0.0
 16
0.0
 26
0.0
 36
1.0
 17
0.0
 27
0.0
 37
0.0
 40
595.6719367588932
 41
1.707124010554089
 42
50.0
 43
0.0
 44
0.0
 50
0.0
 51
0.0
 71
     0
 72
   100
 73
     1
 74
     1
 75
     0
 76
     0
 77
     0
 78
     0
281
     0
 65
     1
110
0.0
120
0.0
130
0.0
111
1.0
121
0.0
131
0.0
112
0.0
122
1.0
132
0.0
 79
     0
146
0.0
  0
ENDTAB
  0
TABLE
  2
LTYPE
  5
5
330
0
100
AcDbSymbolTable
 70
     6
  0
LTYPE
  5
13
330
5
100
AcDbSymbolTableRecord
100
AcDbLinetypeTableRecord
  2
ByBlock
 70
     0
  3

 72
    65
 73
     0
 40
0.0
  0
LTYPE
  5
14
330
5
100
AcDbSymbolTableRecord
100
AcDbLinetypeTableRecord
  2
ByLayer
 70
     0
  3

 72
    65
 73
     0
 40
0.0
  0
LTYPE
  5
15
330
5
100
AcDbSymbolTableRecord
100
AcDbLinetypeTableRecord
  2
CONTINUOUS
 70
     0
  3
Solid line
 72
    65
 73
     0
 40
0.0
  0
LTYPE
  5
26
330
5
100
AcDbSymbolTableRecord
100
AcDbLinetypeTableRecord
  2
DASHED
 70
     0
  3
__ __ __ __ __ __ __ __ __ __ __ __ __ __ __
 72
    65
 73
     2
 40
3.5
 49
2.0
 74
     0
 49
-1.5
 74
     0
  0
LTYPE
  5
27
330
5
100
AcDbSymbolTableRecord
100
AcDbLinetypeTableRecord
  2
CENTER
 70
     0
  3
____ _ ____ _ ____ _ ____ _ ____ _ ____ _ ____
 72
    65
 73
     4
 40
17.5
 49
13.0
 74
     0
 49
-1.5
 74
     0
 49
1.5
 74
     0
 49
-1.5
 74
     0
  0
LTYPE
  5
28
330
5
100
AcDbSymbolTableRecord
100
AcDbLinetypeTableRecord
  2
PHANTOM
 70
     0
  3
_____ _ _ _____ _ _ _____ _ _ _____ _ _ ____  
 72
    65
 73
     6
 40
15.5
 49
8.0
 74
     0
 49
-1.5
 74
     0
 49
1.5
 74
     0
 49
-1.5
 74
     0
 49
1.5
 74
     0
 49
-1.5
 74
     0
  0
LTYPE
  5
29
330
5
100
AcDbSymbolTableRecord
100
AcDbLinetypeTableRecord
  2
DOT
 70
     0
  3
. . . . . . . . . . . . . . . . . . . . . . . .
 72
    65
 73
     2
 40
0.25
 49
0.0
 74
     0
 49
-0.25
 74
     0
  0
LTYPE
  5
2A
330
5
100
AcDbSymbolTableRecord
100
AcDbLinetypeTableRecord
  2
HIDDEN
 70
     0
  3
__ __ __ __ __ __ __ __ __ __ __ __ __ __ __
 72
    65
 73
     2
 40
3.5
 49
2.0
 74
     0
 49
-1.5
 74
     0
  0
ENDTAB
  0
TABLE
  2
LAYER
  5
2
330
0
100
AcDbSymbolTable
 70
     2
  0
LAYER
  5
10
330
2
100
AcDbSymbolTableRecord
100
AcDbLayerTableRecord
  2
0
 70
     0
 62
     7
  6
CONTINUOUS
370
    -3
390
F
  0
LAYER
  5
2B
330
2
100
AcDbSymbolTableRecord
100
AcDbLayerTableRecord
  2
DEFPOINTS
 70
     0
 62
     7
  6
CONTINUOUS
290
     0
370
    -3
390
F
  0
ENDTAB
  0
TABLE
  2
STYLE
  5
3
330
0
100
AcDbSymbolTable
 70
     2
  0
STYLE
  5
11
330
3
100
AcDbSymbolTableRecord
100
AcDbTextStyleTableRecord
  2
STANDARD
 70
     0
 40
0.0
 41
1.0
 50
0.0
 71
     0
 42
0.2
  3

  4

1001
ACAD
1000
MS Gothic
1071
    32817
  0
ENDTAB
  0
TABLE
  2
VIEW
  5
6
330
0
100
AcDbSymbolTable
 70
     0
  0
ENDTAB
  0
TABLE
  2
UCS
  5
7
330
0
100
AcDbSymbolTable
 70
     0
  0
ENDTAB
  0
TABLE
  2
APPID
  5
9
330
0
100
AcDbSymbolTable
 70
     2
  0
APPID
  5
12
330
9
100
AcDbSymbolTableRecord
100
AcDbRegAppTableRecord
  2
ACAD
 70
     0
  0
APPID
  5
389
330
9
100
AcDbSymbolTableRecord
100
AcDbRegAppTableRecord
  2
ACAD_PSEXT
 70
     0
  0
ENDTAB
  0
TABLE
  2
DIMSTYLE
  5
A
330
0
100
AcDbSymbolTable
 70
    11
100
AcDbDimStyleTable
 71
     1
340
2C
  0
DIMSTYLE
105
2C
102
{ACAD_REACTORS
330
37C
102
}
330
A
100
AcDbSymbolTableRecord
100
AcDbDimStyleTableRecord
  2
DIMSTYLE1
 70
     0
 41
1.0
 42
2.54
 44
2.54
 73
     0
 74
     0
 75
     1
 76
     1
 77
     1
140
3.0
145
1.0
147
1.5
172
     1
173
     1
279
     2
340
11
  0
DIMSTYLE
105
2D
102
{ACAD_REACTORS
330
37D
102
}
330
A
100
AcDbSymbolTableRecord
100
AcDbDimStyleTableRecord
  2
DIMSTYLE2
 70
     0
 41
1.0
 42
2.54
 44
2.54
 73
     0
 74
     0
 75
     1
 76
     1
 77
     1
140
3.0
145
1.0
147
1.5
172
     1
173
     1
279
     2
340
11
  0
DIMSTYLE
105
2E
102
{ACAD_REACTORS
330
37E
102
}
330
A
100
AcDbSymbolTableRecord
100
AcDbDimStyleTableRecord
  2
DIMSTYLE3
 70
     0
 41
1.0
 42
2.54
 44
2.54
 73
     0
 74
     0
 75
     1
 76
     1
 77
     1
140
3.0
145
1.0
147
1.5
172
     1
173
     1
279
     2
340
11
  0
DIMSTYLE
105
2F
102
{ACAD_REACTORS
330
37F
102
}
330
A
100
AcDbSymbolTableRecord
100
AcDbDimStyleTableRecord
  2
DIMSTYLE4
 70
     0
 41
1.0
 42
2.54
 44
2.54
 73
     0
 74
     0
 77
     1
140
3.0
145
1.0
147
1.5
172
     1
173
     1
279
     2
340
11
  0
DIMSTYLE
105
30
102
{ACAD_REACTORS
330
380
102
}
330
A
100
AcDbSymbolTableRecord
100
AcDbDimStyleTableRecord
  2
DIMSTYLE5
 70
     0
 41
1.0
 42
2.54
 44
2.54
 73
     0
 74
     0
 77
     1
140
3.0
145
1.0
147
1.5
172
     1
173
     1
279
     2
340
11
  0
DIMSTYLE
105
31
102
{ACAD_REACTORS
330
381
102
}
330
A
100
AcDbSymbolTableRecord
100
AcDbDimStyleTableRecord
  2
DIMSTYLE6
 70
     0
 41
1.0
 42
2.54
 44
2.54
 73
     0
 74
     0
 77
     1
140
3.0
145
1.0
147
1.5
172
     1
173
     1
279
     2
340
11
  0
DIMSTYLE
105
32
102
{ACAD_REACTORS
330
382
102
}
330
A
100
AcDbSymbolTableRecord
100
AcDbDimStyleTableRecord
  2
DIMSTYLE7
 70
     0
 41
1.0
 42
2.54
 44
2.54
 73
     0
 74
     0
 77
     1
140
3.0
145
1.0
147
1.5
172
     1
173
     1
279
     2
340
11
  0
DIMSTYLE
105
33
102
{ACAD_REACTORS
330
383
102
}
330
A
100
AcDbSymbolTableRecord
100
AcDbDimStyleTableRecord
  2
DIMSTYLE8
 70
     0
 41
1.0
 42
2.54
 44
2.54
 73
     0
 74
     0
 77
     1
140
3.0
145
1.0
147
1.5
172
     1
173
     1
279
     2
340
11
  0
DIMSTYLE
105
34
102
{ACAD_REACTORS
330
384
102
}
330
A
100
AcDbSymbolTableRecord
100
AcDbDimStyleTableRecord
  2
DIMSTYLE9
 70
     0
 41
1.0
 42
2.54
 44
2.54
 73
     0
 74
     0
 77
     1
140
3.0
145
1.0
147
1.5
172
     1
173
     1
279
     2
340
11
  0
DIMSTYLE
105
35
102
{ACAD_REACTORS
330
386
102
}
330
A
100
AcDbSymbolTableRecord
100
AcDbDimStyleTableRecord
  2
DIMSTYLE10
 70
     0
 41
1.0
 42
2.54
 44
2.54
 73
     0
 74
     0
 77
     1
140
3.0
145
1.0
147
1.5
172
     1
173
     1
279
     2
340
11
  0
ENDTAB
  0
TABLE
  2
BLOCK_RECORD
  5
1
330
0
100
AcDbSymbolTable
 70
    13
  0
BLOCK_RECORD
  5
22
330
1
100
AcDbSymbolTableRecord
100
AcDbBlockTableRecord
  2
*Model_Space
340
25
  0
BLOCK_RECORD
  5
1E
330
1
100
AcDbSymbolTableRecord
100
AcDbBlockTableRecord
  2
*Paper_Space
340
21
  0
BLOCK_RECORD
  5
39
330
1
100
AcDbSymbolTableRecord
100
AcDbBlockTableRecord
  2
_OPEN30
340
0
102
{BLKREFS
331
43
331
44
331
4D
331
4E
331
57
331
58
331
60
331
61
331
6D
331
6F
331
7A
331
7B
331
85
331
86
331
90
331
91
331
9A
331
9B
331
A6
331
A7
102
}
  0
BLOCK_RECORD
  5
3F
330
1
100
AcDbSymbolTableRecord
100
AcDbBlockTableRecord
  2
*D1
340
0
  0
BLOCK_RECORD
  5
49
330
1
100
AcDbSymbolTableRecord
100
AcDbBlockTableRecord
  2
*D2
340
0
  0
BLOCK_RECORD
  5
53
330
1
100
AcDbSymbolTableRecord
100
AcDbBlockTableRecord
  2
*D3
340
0
  0
BLOCK_RECORD
  5
5D
330
1
100
AcDbSymbolTableRecord
100
AcDbBlockTableRecord
  2
*D4
340
0
  0
BLOCK_RECORD
  5
69
330
1
100
AcDbSymbolTableRecord
100
AcDbBlockTableRecord
  2
*D5
340
0
  0
BLOCK_RECORD
  5
77
330
1
100
AcDbSymbolTableRecord
100
AcDbBlockTableRecord
  2
*D6
340
0
  0
BLOCK_RECORD
  5
82
330
1
100
AcDbSymbolTableRecord
100
AcDbBlockTableRecord
  2
*D7
340
0
  0
BLOCK_RECORD
  5
8D
330
1
100
AcDbSymbolTableRecord
100
AcDbBlockTableRecord
  2
*D8
340
0
  0
BLOCK_RECORD
  5
97
330
1
100
AcDbSymbolTableRecord
100
AcDbBlockTableRecord
  2
*D9
340
0
  0
BLOCK_RECORD
  5
A3
330
1
100
AcDbSymbolTableRecord
100
AcDbBlockTableRecord
  2
*D10
340
0
  0
BLOCK_RECORD
  5
AF
330
1
100
AcDbSymbolTableRecord
100
AcDbBlockTableRecord
  2
KOZU0001
340
0
102
{BLKREFS
331
385
102
}
  0
ENDTAB
  0
ENDSEC
  0
SECTION
  2
BLOCKS
  0
BLOCK
  5
23
330
22
100
AcDbEntity
  8
0
100
AcDbBlockBegin
  2
*Model_Space
 70
     0
 10
0.0
 20
0.0
 30
0.0
  3
*Model_Space
  1

  0
ENDBLK
  5
24
330
22
100
AcDbEntity
  8
0
100
AcDbBlockEnd
  0
BLOCK
  5
1F
330
1E
100
AcDbEntity
 67
     1
  8
0
100
AcDbBlockBegin
  2
*Paper_Space
 70
     0
 10
0.0
 20
0.0
 30
0.0
  3
*Paper_Space
  1

  0
ENDBLK
  5
20
330
1E
100
AcDbEntity
 67
     1
  8
0
100
AcDbBlockEnd
  0
BLOCK
  5
3A
330
39
100
AcDbEntity
  8
0
100
AcDbBlockBegin
  2
_OPEN30
 70
     0
 10
0.0
 20
0.0
 30
0.0
  3
_OPEN30
  1

  0
LINE
  5
3B
330
39
100
AcDbEntity
  8
0
  6
ByBlock
 62
     0
100
AcDbLine
 10
0.0
 20
0.0
 30
0.0
 11
-2.999999999999993
 21
-1.000000000000017
 31
0.0
  0
LINE
  5
3C
330
39
100
AcDbEntity
  8
0
  6
ByBlock
 62
     0
100
AcDbLine
 10
0.0
 20
0.0
 30
0.0
 11
-3.000000000000006
 21
0.9999999999999815
 31
0.0
  0
LINE
  5
3D
330
39
100
AcDbEntity
  8
0
  6
ByBlock
 62
     0
100
AcDbLine
 10
0.0
 20
0.0
 30
0.0
 11
-3.0
 21
0.0
 31
0.0
  0
ENDBLK
  5
3E
330
39
100
AcDbEntity
  8
0
100
AcDbBlockEnd
  0
BLOCK
  5
40
330
3F
100
AcDbEntity
  8
0
100
AcDbBlockBegin
  2
*D1
 70
     1
 10
0.0
 20
0.0
 30
0.0
  3
*D1
  1

  0
LINE
  5
41
330
3F
100
AcDbEntity
  8
0
  6
Continuous
 62
     7
100
AcDbLine
 10
-345.3561401367188
 20
515.7965698242188
 30
0.0
 11
-315.6980895996094
 21
538.341552734375
 31
0.0
  0
LINE
  5
42
330
3F
100
AcDbEntity
  8
0
  6
Continuous
 62
     7
100
AcDbLine
 10
-534.0318055189727
 20
372.3723807535627
 30
0.0
 11
-347.7444395982147
 21
513.981073836281
 31
0.0
  0
INSERT
  5
43
330
3F
100
AcDbEntity
  8
0
  6
Continuous
 62
     7
100
AcDbBlockReference
  2
_OPEN30
 10
-536.4201049804688
 20
370.556884765625
 30
0.0
 50
217.2407397854552
  0
INSERT
  5
44
330
3F
100
AcDbEntity
  8
0
  6
Continuous
 62
     7
100
AcDbBlockReference
  2
_OPEN30
 10
-345.3561401367188
 20
515.7965698242188
 30
0.0
 50
37.24073978545447
  0
TEXT
  5
45
330
3F
100
AcDbEntity
  8
0
  6
Continuous
 62
     7
100
AcDbText
 10
-341.7451101398445
 20
519.4980053024163
 30
0.0
 40
3.0
  1
%%C２４０（目皿受外径）
 50
37.20000035216539
 41
0.8440126077968535
100
AcDbText
  0
POINT
  5
46
330
3F
100
AcDbEntity
  8
DEFPOINTS
  6
Continuous
 62
     7
100
AcDbPoint
 10
-536.4201049804688
 20
370.556884765625
 30
0.0
  0
POINT
  5
47
330
3F
100
AcDbEntity
  8
DEFPOINTS
  6
Continuous
 62
     7
100
AcDbPoint
 10
-345.3561401367188
 20
515.7965698242188
 30
0.0
  0
ENDBLK
  5
48
330
3F
100
AcDbEntity
  8
0
100
AcDbBlockEnd
  0
BLOCK
  5
4A
330
49
100
AcDbEntity
  8
0
100
AcDbBlockBegin
  2
*D2
 70
     1
 10
0.0
 20
0.0
 30
0.0
  3
*D2
  1

  0
LINE
  5
4B
330
49
100
AcDbEntity
  8
0
  6
Continuous
 62
     7
100
AcDbLine
 10
-337.153564453125
 20
427.9300842285156
 30
0.0
 11
-285.5539245605469
 21
420.3201904296874
 31
0.0
  0
LINE
  5
4C
330
49
100
AcDbEntity
  8
0
  6
Continuous
 62
     7
100
AcDbLine
 10
-540.9492166817064
 20
457.9856978086136
 30
0.0
 11
-340.1214620292311
 21
428.3677872988083
 31
0.0
  0
INSERT
  5
4D
330
49
100
AcDbEntity
  8
0
  6
Continuous
 62
     7
100
AcDbBlockReference
  2
_OPEN30
 10
-543.9171142578125
 20
458.4234008789063
 30
0.0
 50
171.6105410653334
  0
INSERT
  5
4E
330
49
100
AcDbEntity
  8
0
  6
Continuous
 62
     7
100
AcDbBlockReference
  2
_OPEN30
 10
-337.153564453125
 20
427.9300842285156
 30
0.0
 50
351.6105410653341
  0
TEXT
  5
4F
330
49
100
AcDbEntity
  8
0
  6
Continuous
 62
     7
100
AcDbText
 10
-314.2721537945032
 20
425.3163678790908
 30
0.0
 40
3.0
  1
%%C２０９（目皿外径）
 50
351.6000002785129
 41
0.8443929326254473
100
AcDbText
  0
POINT
  5
50
330
49
100
AcDbEntity
  8
DEFPOINTS
  6
Continuous
 62
     7
100
AcDbPoint
 10
-543.9171142578125
 20
458.4234008789063
 30
0.0
  0
POINT
  5
51
330
49
100
AcDbEntity
  8
DEFPOINTS
  6
Continuous
 62
     7
100
AcDbPoint
 10
-337.153564453125
 20
427.9300842285156
 30
0.0
  0
ENDBLK
  5
52
330
49
100
AcDbEntity
  8
0
100
AcDbBlockEnd
  0
BLOCK
  5
54
330
53
100
AcDbEntity
  8
0
100
AcDbBlockBegin
  2
*D3
 70
     1
 10
0.0
 20
0.0
 30
0.0
  3
*D3
  1

  0
LINE
  5
55
330
53
100
AcDbEntity
  8
0
  6
Continuous
 62
     7
100
AcDbLine
 10
-337.163818359375
 20
482.7023315429688
 30
0.0
 11
-290.1033935546875
 21
500.6353759765625
 31
0.0
  0
LINE
  5
56
330
53
100
AcDbEntity
  8
0
  6
Continuous
 62
     7
100
AcDbLine
 10
-541.8090675792283
 20
404.7194125760456
 30
0.0
 11
-339.9671775379591
 21
481.6340725313762
 31
0.0
  0
INSERT
  5
57
330
53
100
AcDbEntity
  8
0
  6
Continuous
 62
     7
100
AcDbBlockReference
  2
_OPEN30
 10
-544.6124267578125
 20
403.6511535644531
 30
0.0
 50
200.8600381695674
  0
INSERT
  5
58
330
53
100
AcDbEntity
  8
0
  6
Continuous
 62
     7
100
AcDbBlockReference
  2
_OPEN30
 10
-337.163818359375
 20
482.7023315429688
 30
0.0
 50
20.86003816956663
  0
TEXT
  5
59
330
53
100
AcDbEntity
  8
0
  6
Continuous
 62
     7
100
AcDbText
 10
-320.4002761789083
 20
489.8809289526599
 30
0.0
 40
3.0
  1
%%C２２２（防水皿外径）
 50
20.89999978474008
 41
0.8440126077968535
100
AcDbText
  0
POINT
  5
5A
330
53
100
AcDbEntity
  8
DEFPOINTS
  6
Continuous
 62
     7
100
AcDbPoint
 10
-544.6124267578125
 20
403.6511535644531
 30
0.0
  0
POINT
  5
5B
330
53
100
AcDbEntity
  8
DEFPOINTS
  6
Continuous
 62
     7
100
AcDbPoint
 10
-337.163818359375
 20
482.7023315429688
 30
0.0
  0
ENDBLK
  5
5C
330
53
100
AcDbEntity
  8
0
100
AcDbBlockEnd
  0
BLOCK
  5
5E
330
5D
100
AcDbEntity
  8
0
100
AcDbBlockBegin
  2
*D4
 70
     1
 10
0.0
 20
0.0
 30
0.0
  3
*D4
  1

  0
LINE
  5
5F
330
5D
100
AcDbEntity
  8
0
  6
Continuous
 62
     7
100
AcDbLine
 10
-276.3771667480469
 20
95.65958404541015
 30
0.0
 11
-276.3771667480469
 21
262.6595764160156
 31
0.0
  0
INSERT
  5
60
330
5D
100
AcDbEntity
  8
0
  6
Continuous
 62
     7
100
AcDbBlockReference
  2
_OPEN30
 10
-276.3771667480469
 20
92.65958404541015
 30
0.0
 50
270.0000000000005
  0
INSERT
  5
61
330
5D
100
AcDbEntity
  8
0
  6
Continuous
 62
     7
100
AcDbBlockReference
  2
_OPEN30
 10
-276.3771667480469
 20
265.6595764160156
 30
0.0
 50
90.00000000000019
  0
LINE
  5
62
330
5D
100
AcDbEntity
  8
0
  6
Continuous
 62
     7
100
AcDbLine
 10
-327.3481225585937
 20
92.65958404541015
 30
0.0
 11
-274.0911560058594
 21
92.65958404541015
 31
0.0
  0
LINE
  5
63
330
5D
100
AcDbEntity
  8
0
  6
Continuous
 62
     7
100
AcDbLine
 10
-318.5481042480469
 20
265.6595764160156
 30
0.0
 11
-274.0911560058594
 21
265.6595764160156
 31
0.0
  0
TEXT
  5
64
330
5D
100
AcDbEntity
  8
0
  6
Continuous
 62
     7
100
AcDbText
 10
-277.1271659144706
 20
160.0895756155243
 30
0.0
 40
3.0
  1
１７３　（１６０～１９０）
 50
90.00000250447815
 41
0.8434321120058422
100
AcDbText
  0
POINT
  5
65
330
5D
100
AcDbEntity
  8
DEFPOINTS
  6
Continuous
 62
     7
100
AcDbPoint
 10
-329.8881225585938
 20
92.65958404541015
 30
0.0
  0
POINT
  5
66
330
5D
100
AcDbEntity
  8
DEFPOINTS
  6
Continuous
 62
     7
100
AcDbPoint
 10
-321.0881042480469
 20
265.6595764160156
 30
0.0
  0
POINT
  5
67
330
5D
100
AcDbEntity
  8
DEFPOINTS
  6
Continuous
 62
     7
100
AcDbPoint
 10
-276.3771667480469
 20
265.6595764160156
 30
0.0
  0
ENDBLK
  5
68
330
5D
100
AcDbEntity
  8
0
100
AcDbBlockEnd
  0
BLOCK
  5
6A
330
69
100
AcDbEntity
  8
0
100
AcDbBlockBegin
  2
*D5
 70
     1
 10
0.0
 20
0.0
 30
0.0
  3
*D5
  1

  0
LINE
  5
6B
330
69
100
AcDbEntity
  8
0
  6
Continuous
 62
     7
100
AcDbLine
 10
-276.3771667480469
 20
89.65958404541016
 30
0.0
 11
-276.3771667480469
 21
80.95127868652344
 31
0.0
  0
LINE
  5
6C
330
69
100
AcDbEntity
  8
0
  6
Continuous
 62
     7
100
AcDbLine
 10
-276.3771667480469
 20
92.65958404541015
 30
0.0
 11
-276.3771667480469
 21
89.65958404541016
 31
0.0
  0
INSERT
  5
6D
330
69
100
AcDbEntity
  8
0
  6
Continuous
 62
     7
100
AcDbBlockReference
  2
_OPEN30
 10
-276.3771667480469
 20
92.65958404541015
 30
0.0
 50
270.0000000000002
  0
LINE
  5
6E
330
69
100
AcDbEntity
  8
0
  6
Continuous
 62
     7
100
AcDbLine
 10
-276.3771667480469
 20
95.65958404541015
 30
0.0
 11
-276.3771667480469
 21
99.00958404541015
 31
0.0
  0
INSERT
  5
6F
330
69
100
AcDbEntity
  8
0
  6
Continuous
 62
     7
100
AcDbBlockReference
  2
_OPEN30
 10
-276.3771667480469
 20
89.65958404541016
 30
0.0
 50
90.00000000000049
  0
LINE
  5
70
330
69
100
AcDbEntity
  8
0
  6
Continuous
 62
     7
100
AcDbLine
 10
-276.3771667480469
 20
86.65958404541015
 30
0.0
 11
-276.3771667480468
 21
83.30958404541016
 31
0.0
  0
LINE
  5
71
330
69
100
AcDbEntity
  8
0
  6
Continuous
 62
     7
100
AcDbLine
 10
-327.3481225585937
 20
89.65958404541016
 30
0.0
 11
-274.0911560058594
 21
89.65958404541016
 31
0.0
  0
TEXT
  5
72
330
69
100
AcDbEntity
  8
0
  6
Continuous
 62
     7
100
AcDbText
 10
-277.1271667012757
 20
80.951278296112
 30
0.0
 40
3.0
  1
3
 50
90.00000250447815
100
AcDbText
  0
POINT
  5
73
330
69
100
AcDbEntity
  8
DEFPOINTS
  6
Continuous
 62
     7
100
AcDbPoint
 10
-274.0911560058594
 20
92.65958404541015
 30
0.0
  0
POINT
  5
74
330
69
100
AcDbEntity
  8
DEFPOINTS
  6
Continuous
 62
     7
100
AcDbPoint
 10
-329.8881225585938
 20
89.65958404541016
 30
0.0
  0
POINT
  5
75
330
69
100
AcDbEntity
  8
DEFPOINTS
  6
Continuous
 62
     7
100
AcDbPoint
 10
-276.3771667480469
 20
89.65958404541016
 30
0.0
  0
ENDBLK
  5
76
330
69
100
AcDbEntity
  8
0
100
AcDbBlockEnd
  0
BLOCK
  5
78
330
77
100
AcDbEntity
  8
0
100
AcDbBlockBegin
  2
*D6
 70
     1
 10
0.0
 20
0.0
 30
0.0
  3
*D6
  1

  0
LINE
  5
79
330
77
100
AcDbEntity
  8
0
  6
Continuous
 62
     7
100
AcDbLine
 10
-290.1045227050781
 20
95.65958404541015
 30
0.0
 11
-290.1045227050781
 21
127.6595764160155
 31
0.0
  0
INSERT
  5
7A
330
77
100
AcDbEntity
  8
0
  6
Continuous
 62
     7
100
AcDbBlockReference
  2
_OPEN30
 10
-290.1045227050781
 20
92.65958404541015
 30
0.0
 50
270.0000000000005
  0
INSERT
  5
7B
330
77
100
AcDbEntity
  8
0
  6
Continuous
 62
     7
100
AcDbBlockReference
  2
_OPEN30
 10
-290.1045227050781
 20
130.6595764160156
 30
0.0
 50
90.00000000000019
  0
LINE
  5
7C
330
77
100
AcDbEntity
  8
0
  6
Continuous
 62
     7
100
AcDbLine
 10
-375.8481225585937
 20
130.6595764160156
 30
0.0
 11
-287.8185119628906
 21
130.6595764160156
 31
0.0
  0
TEXT
  5
7D
330
77
100
AcDbEntity
  8
0
  6
Continuous
 62
     7
100
AcDbText
 10
-290.8545225927398
 20
109.0895839005699
 30
0.0
 40
3.0
  1
38
 50
90.00000250447815
 41
1.028000020980834
100
AcDbText
  0
POINT
  5
7E
330
77
100
AcDbEntity
  8
DEFPOINTS
  6
Continuous
 62
     7
100
AcDbPoint
 10
-274.0911560058594
 20
92.65958404541015
 30
0.0
  0
POINT
  5
7F
330
77
100
AcDbEntity
  8
DEFPOINTS
  6
Continuous
 62
     7
100
AcDbPoint
 10
-378.3881225585938
 20
130.6595764160156
 30
0.0
  0
POINT
  5
80
330
77
100
AcDbEntity
  8
DEFPOINTS
  6
Continuous
 62
     7
100
AcDbPoint
 10
-290.1045227050781
 20
130.6595764160156
 30
0.0
  0
ENDBLK
  5
81
330
77
100
AcDbEntity
  8
0
100
AcDbBlockEnd
  0
BLOCK
  5
83
330
82
100
AcDbEntity
  8
0
100
AcDbBlockBegin
  2
*D7
 70
     1
 10
0.0
 20
0.0
 30
0.0
  3
*D7
  1

  0
LINE
  5
84
330
82
100
AcDbEntity
  8
0
  6
Continuous
 62
     7
100
AcDbLine
 10
-290.1045227050781
 20
262.6595764160156
 30
0.0
 11
-290.1045227050781
 21
183.6595764160156
 31
0.0
  0
INSERT
  5
85
330
82
100
AcDbEntity
  8
0
  6
Continuous
 62
     7
100
AcDbBlockReference
  2
_OPEN30
 10
-290.1045227050781
 20
265.6595764160156
 30
0.0
 50
90.00000000000019
  0
INSERT
  5
86
330
82
100
AcDbEntity
  8
0
  6
Continuous
 62
     7
100
AcDbBlockReference
  2
_OPEN30
 10
-290.1045227050781
 20
180.6595764160156
 30
0.0
 50
270.0000000000005
  0
LINE
  5
87
330
82
100
AcDbEntity
  8
0
  6
Continuous
 62
     7
100
AcDbLine
 10
-373.3481225585937
 20
180.6595764160156
 30
0.0
 11
-287.8185119628906
 21
180.6595764160156
 31
0.0
  0
TEXT
  5
88
330
82
100
AcDbEntity
  8
0
  6
Continuous
 62
     7
100
AcDbText
 10
-290.8545225927398
 20
220.5895762711754
 30
0.0
 40
3.0
  1
85
 50
90.00000250447815
 41
1.028000020980834
100
AcDbText
  0
POINT
  5
89
330
82
100
AcDbEntity
  8
DEFPOINTS
  6
Continuous
 62
     7
100
AcDbPoint
 10
-274.0911560058594
 20
265.6595764160156
 30
0.0
  0
POINT
  5
8A
330
82
100
AcDbEntity
  8
DEFPOINTS
  6
Continuous
 62
     7
100
AcDbPoint
 10
-375.8881225585938
 20
180.6595764160156
 30
0.0
  0
POINT
  5
8B
330
82
100
AcDbEntity
  8
DEFPOINTS
  6
Continuous
 62
     7
100
AcDbPoint
 10
-290.1045227050781
 20
180.6595764160156
 30
0.0
  0
ENDBLK
  5
8C
330
82
100
AcDbEntity
  8
0
100
AcDbBlockEnd
  0
BLOCK
  5
8E
330
8D
100
AcDbEntity
  8
0
100
AcDbBlockBegin
  2
*D8
 70
     1
 10
0.0
 20
0.0
 30
0.0
  3
*D8
  1

  0
LINE
  5
8F
330
8D
100
AcDbEntity
  8
0
  6
Continuous
 62
     7
100
AcDbLine
 10
-414.9949951171874
 20
108.6595840454102
 30
0.0
 11
-414.9949951171874
 21
202.6595764160156
 31
0.0
  0
INSERT
  5
90
330
8D
100
AcDbEntity
  8
0
  6
Continuous
 62
     7
100
AcDbBlockReference
  2
_OPEN30
 10
-414.9949951171874
 20
105.6595840454102
 30
0.0
 50
270.0000000000005
  0
INSERT
  5
91
330
8D
100
AcDbEntity
  8
0
  6
Continuous
 62
     7
100
AcDbBlockReference
  2
_OPEN30
 10
-414.9949951171874
 20
205.6595764160156
 30
0.0
 50
90.00000000000019
  0
TEXT
  5
92
330
8D
100
AcDbEntity
  8
0
  6
Continuous
 62
     7
100
AcDbText
 10
-415.7449949392821
 20
151.5895762115707
 30
0.0
 40
3.0
  1
100
 50
90.00000250447815
 41
1.320000017011488
100
AcDbText
  0
POINT
  5
93
330
8D
100
AcDbEntity
  8
DEFPOINTS
  6
Continuous
 62
     7
100
AcDbPoint
 10
-440.8881225585938
 20
105.6595840454102
 30
0.0
  0
POINT
  5
94
330
8D
100
AcDbEntity
  8
DEFPOINTS
  6
Continuous
 62
     7
100
AcDbPoint
 10
-440.8881225585938
 20
205.6595764160156
 30
0.0
  0
POINT
  5
95
330
8D
100
AcDbEntity
  8
DEFPOINTS
  6
Continuous
 62
     7
100
AcDbPoint
 10
-414.9949951171874
 20
205.6595764160156
 30
0.0
  0
ENDBLK
  5
96
330
8D
100
AcDbEntity
  8
0
100
AcDbBlockEnd
  0
BLOCK
  5
98
330
97
100
AcDbEntity
  8
0
100
AcDbBlockBegin
  2
*D9
 70
     1
 10
0.0
 20
0.0
 30
0.0
  3
*D9
  1

  0
LINE
  5
99
330
97
100
AcDbEntity
  8
0
  6
Continuous
 62
     7
100
AcDbLine
 10
-500.3881225585938
 20
15.2586784362793
 30
0.0
 11
-381.3881225585938
 21
15.25867843627928
 31
0.0
  0
INSERT
  5
9A
330
97
100
AcDbEntity
  8
0
  6
Continuous
 62
     7
100
AcDbBlockReference
  2
_OPEN30
 10
-503.3881225585938
 20
15.2586784362793
 30
0.0
 50
180.0000000000004
  0
INSERT
  5
9B
330
97
100
AcDbEntity
  8
0
  6
Continuous
 62
     7
100
AcDbBlockReference
  2
_OPEN30
 10
-378.3881225585938
 20
15.2586784362793
 30
0.0
  0
LINE
  5
9C
330
97
100
AcDbEntity
  8
0
  6
Continuous
 62
     7
100
AcDbLine
 10
-503.3881225585938
 20
35.11958023071289
 30
0.0
 11
-503.3881225585938
 21
12.97267818450928
 31
0.0
  0
LINE
  5
9D
330
97
100
AcDbEntity
  8
0
  6
Continuous
 62
     7
100
AcDbLine
 10
-378.3881225585938
 20
35.11958023071289
 30
0.0
 11
-378.3881225585938
 21
12.97267818450928
 31
0.0
  0
TEXT
  5
9E
330
97
100
AcDbEntity
  8
0
  6
Continuous
 62
     7
100
AcDbText
 10
-446.4581227898598
 20
16.0086784362793
 30
0.0
 40
3.0
  1
%%C125
 41
1.053926216168795
100
AcDbText
  0
POINT
  5
9F
330
97
100
AcDbEntity
  8
DEFPOINTS
  6
Continuous
 62
     7
100
AcDbPoint
 10
-503.3881225585938
 20
37.65958023071289
 30
0.0
  0
POINT
  5
A0
330
97
100
AcDbEntity
  8
DEFPOINTS
  6
Continuous
 62
     7
100
AcDbPoint
 10
-378.3881225585938
 20
37.65958023071289
 30
0.0
  0
POINT
  5
A1
330
97
100
AcDbEntity
  8
DEFPOINTS
  6
Continuous
 62
     7
100
AcDbPoint
 10
-378.3881225585938
 20
15.2586784362793
 30
0.0
  0
ENDBLK
  5
A2
330
97
100
AcDbEntity
  8
0
100
AcDbBlockEnd
  0
BLOCK
  5
A4
330
A3
100
AcDbEntity
  8
0
100
AcDbBlockBegin
  2
*D10
 70
     1
 10
0.0
 20
0.0
 30
0.0
  3
*D10
  1

  0
LINE
  5
A5
330
A3
100
AcDbEntity
  8
0
  6
Continuous
 62
     7
100
AcDbLine
 10
-574.9396362304687
 20
40.65958023071289
 30
0.0
 11
-574.9396362304687
 21
127.6595764160155
 31
0.0
  0
INSERT
  5
A6
330
A3
100
AcDbEntity
  8
0
  6
Continuous
 62
     7
100
AcDbBlockReference
  2
_OPEN30
 10
-574.9396362304687
 20
37.65958023071289
 30
0.0
 50
270.0000000000005
  0
INSERT
  5
A7
330
A3
100
AcDbEntity
  8
0
  6
Continuous
 62
     7
100
AcDbBlockReference
  2
_OPEN30
 10
-574.9396362304687
 20
130.6595764160156
 30
0.0
 50
90.00000000000019
  0
LINE
  5
A8
330
A3
100
AcDbEntity
  8
0
  6
Continuous
 62
     7
100
AcDbLine
 10
-505.9281225585938
 20
37.65958023071288
 30
0.0
 11
-577.2256469726563
 21
37.65958023071289
 31
0.0
  0
LINE
  5
A9
330
A3
100
AcDbEntity
  8
0
  6
Continuous
 62
     7
100
AcDbLine
 10
-505.9281225585938
 20
130.6595764160156
 30
0.0
 11
-577.2256469726563
 21
130.6595764160156
 31
0.0
  0
TEXT
  5
AA
330
A3
100
AcDbEntity
  8
0
  6
Continuous
 62
     7
100
AcDbText
 10
-575.6896361181304
 20
81.58958390056987
 30
0.0
 40
3.0
  1
93
 50
90.00000250447815
 41
1.028000020980834
100
AcDbText
  0
POINT
  5
AB
330
A3
100
AcDbEntity
  8
DEFPOINTS
  6
Continuous
 62
     7
100
AcDbPoint
 10
-503.3881225585938
 20
37.65958023071289
 30
0.0
  0
POINT
  5
AC
330
A3
100
AcDbEntity
  8
DEFPOINTS
  6
Continuous
 62
     7
100
AcDbPoint
 10
-503.3881225585938
 20
130.6595764160156
 30
0.0
  0
POINT
  5
AD
330
A3
100
AcDbEntity
  8
DEFPOINTS
  6
Continuous
 62
     7
100
AcDbPoint
 10
-574.9396362304687
 20
130.6595764160156
 30
0.0
  0
ENDBLK
  5
AE
330
A3
100
AcDbEntity
  8
0
100
AcDbBlockEnd
  0
BLOCK
  5
B0
330
AF
100
AcDbEntity
  8
0
100
AcDbBlockBegin
  2
KOZU0001
 70
     0
 10
0.0
 20
0.0
 30
0.0
  3
KOZU0001
  1

  0
LINE
  5
B1
330
AF
100
AcDbEntity
  8
0
  6
Continuous
 62
     7
100
AcDbLine
 10
0.0
 20
0.0
 30
0.0
 11
28.36517333984375
 21
-25.69295310974121
 31
0.0
  0
LINE
  5
B2
330
AF
100
AcDbEntity
  8
0
  6
Continuous
 62
     7
100
AcDbLine
 10
28.36517333984375
 20
-25.69295310974121
 30
0.0
 11
64.5291748046875
 21
-25.69295310974121
 31
0.0
  0
LINE
  5
B3
330
AF
100
AcDbEntity
  8
0
  6
Continuous
 62
     7
100
AcDbLine
 10
0.0
 20
0.0
 30
0.0
 11
2.894800377379121
 21
-1.272843578420262
 31
0.0
  0
LINE
  5
B4
330
AF
100
AcDbEntity
  8
0
  6
Continuous
 62
     7
100
AcDbLine
 10
0.0
 20
0.0
 30
0.0
 11
1.552134154851139
 21
-2.755155089163682
 31
0.0
  0
TEXT
  5
B5
330
AF
100
AcDbEntity
  8
0
  6
Continuous
 62
     7
100
AcDbText
 10
36.66917347908021
 20
-24.94295310974121
 30
0.0
 40
3.0
  1
配管接続口
 41
0.8487395020950888
100
AcDbText
  0
TEXT
  5
B6
330
AF
100
AcDbEntity
  8
0
  6
Continuous
 62
     7
100
AcDbText
 10
36.66917347908021
 20
-30.20795310974121
 30
0.0
 40
3.0
  1
Ｒｃ４（１００Ａ）
 41
0.8448610247221777
100
AcDbText
  0
ENDBLK
  5
B7
330
AF
100
AcDbEntity
  8
0
100
AcDbBlockEnd
  0
ENDSEC
  0
SECTION
  2
ENTITIES
  0
LINE
  5
B8
330
22
100
AcDbEntity
  8
0
  6
Continuous
 62
     7
100
AcDbLine
 10
-426.1381225585938
 20
508.2431030273438
 30
0.0
 11
-426.1381225585938
 21
477.8764343261719
 31
0.0
  0
LINE
  5
B9
330
22
100
AcDbEntity
  8
0
  6
Continuous
 62
     7
100
AcDbLine
 10
-414.6381225585938
 20
476.6600646972656
 30
0.0
 11
-414.6381225585938
 21
448.993408203125
 31
0.0
  0
LINE
  5
BA
330
22
100
AcDbEntity
  8
0
  6
Continuous
 62
     7
100
AcDbLine
 10
-414.6381225585938
 20
534.8758544921874
 30
0.0
 11
-414.6381225585938
 21
507.2964477539063
 31
0.0
  0
LINE
  5
BB
330
22
100
AcDbEntity
  8
0
  6
Continuous
 62
     7
100
AcDbLine
 10
-414.6381225585938
 20
496.6600646972656
 30
0.0
 11
-414.6381225585938
 21
487.2933959960938
 31
0.0
  0
LINE
  5
BC
330
22
100
AcDbEntity
  8
0
  6
Continuous
 62
     7
100
AcDbLine
 10
-380.1381225585938
 20
518.2802734375
 30
0.0
 11
-380.1381225585938
 21
488.993408203125
 31
0.0
  0
LINE
  5
BD
330
22
100
AcDbEntity
  8
0
  6
Continuous
 62
     7
100
AcDbLine
 10
-368.6381225585938
 20
502.8600769042968
 30
0.0
 11
-368.6381225585938
 21
483.9934082031249
 31
0.0
  0
LINE
  5
BE
330
22
100
AcDbEntity
  8
0
  6
Continuous
 62
     7
100
AcDbLine
 10
-375.1381225585938
 20
502.8600769042968
 30
0.0
 11
-375.1381225585938
 21
483.9934082031249
 31
0.0
  0
LINE
  5
BF
330
22
100
AcDbEntity
  8
0
  6
Continuous
 62
     7
100
AcDbLine
 10
-369.4600219726563
 20
516.165283203125
 30
0.0
 11
-369.0590515136719
 21
515.9337768554689
 31
0.0
  0
LINE
  5
C0
330
22
100
AcDbEntity
  8
0
  6
Continuous
 62
     7
100
AcDbLine
 10
-374.1242370605469
 20
509.0126342773437
 30
0.0
 11
-372.848876953125
 21
512.1363525390624
 31
0.0
  0
LINE
  5
C1
330
22
100
AcDbEntity
  8
0
  6
Continuous
 62
     7
100
AcDbLine
 10
-373.7232666015625
 20
508.7811279296874
 30
0.0
 11
-374.1242370605469
 21
509.0126342773437
 31
0.0
  0
LINE
  5
C2
330
22
100
AcDbEntity
  8
0
  6
Continuous
 62
     7
100
AcDbLine
 10
-367.6900329589844
 20
510.7548522949218
 30
0.0
 11
-367.9213562011719
 21
510.3541870117187
 31
0.0
  0
LINE
  5
C3
330
22
100
AcDbEntity
  8
0
  6
Continuous
 62
     7
100
AcDbLine
 10
-369.0590515136719
 20
515.9337768554689
 30
0.0
 11
-370.3343811035156
 21
512.8101196289064
 31
0.0
  0
LINE
  5
C4
330
22
100
AcDbEntity
  8
0
  6
Continuous
 62
     7
100
AcDbLine
 10
-367.6900329589844
 20
510.7548522949218
 30
0.0
 11
-370.3343811035156
 21
512.8101196289064
 31
0.0
  0
LINE
  5
C5
330
22
100
AcDbEntity
  8
0
  6
Continuous
 62
     7
100
AcDbLine
 10
-375.0305786132813
 20
514.992919921875
 30
0.0
 11
-375.2619323730469
 21
514.59228515625
 31
0.0
  0
LINE
  5
C6
330
22
100
AcDbEntity
  8
0
  6
Continuous
 62
     7
100
AcDbLine
 10
-369.4600219726563
 20
516.165283203125
 30
0.0
 11
-369.8609924316406
 21
516.3967895507814
 31
0.0
  0
LINE
  5
C7
330
22
100
AcDbEntity
  8
0
  6
Continuous
 62
     7
100
AcDbLine
 10
-375.0305786132813
 20
514.992919921875
 30
0.0
 11
-371.9285278320313
 21
513.73046875
 31
0.0
  0
LINE
  5
C8
330
22
100
AcDbEntity
  8
0
  6
Continuous
 62
     7
100
AcDbLine
 10
-375.4932556152344
 20
514.1915893554688
 30
0.0
 11
-375.2619323730469
 21
514.59228515625
 31
0.0
  0
LINE
  5
C9
330
22
100
AcDbEntity
  8
0
  6
Continuous
 62
     7
100
AcDbLine
 10
-375.4932556152344
 20
514.1915893554688
 30
0.0
 11
-372.848876953125
 21
512.1363525390624
 31
0.0
  0
LINE
  5
CA
330
22
100
AcDbEntity
  8
0
  6
Continuous
 62
     7
100
AcDbLine
 10
-368.1526794433594
 20
509.9535217285156
 30
0.0
 11
-371.2547607421875
 21
511.2159729003906
 31
0.0
  0
LINE
  5
CB
330
22
100
AcDbEntity
  8
0
  6
Continuous
 62
     7
100
AcDbLine
 10
-345.6381225585938
 20
464.0018920898437
 30
0.0
 11
-345.6381225585938
 21
448.993408203125
 31
0.0
  0
LINE
  5
CC
330
22
100
AcDbEntity
  8
0
  6
Continuous
 62
     7
100
AcDbLine
 10
-426.1381225585938
 20
467.2100830078124
 30
0.0
 11
-426.1381225585938
 21
448.993408203125
 31
0.0
  0
LINE
  5
CD
330
22
100
AcDbEntity
  8
0
  6
Continuous
 62
     7
100
AcDbLine
 10
-421.1381225585937
 20
476.6600646972656
 30
0.0
 11
-421.1381225585937
 21
448.993408203125
 31
0.0
  0
LINE
  5
CE
330
22
100
AcDbEntity
  8
0
  6
Continuous
 62
     7
100
AcDbLine
 10
-421.1381225585937
 20
496.6600646972656
 30
0.0
 11
-421.1381225585937
 21
487.2933959960938
 31
0.0
  0
LINE
  5
CF
330
22
100
AcDbEntity
  8
0
  6
Continuous
 62
     7
100
AcDbLine
 10
-421.1381225585937
 20
534.8758544921874
 30
0.0
 11
-421.1381225585937
 21
507.2964477539063
 31
0.0
  0
LINE
  5
D0
330
22
100
AcDbEntity
  8
0
  6
Continuous
 62
     7
100
AcDbLine
 10
-426.1381225585938
 20
537.1795043945313
 30
0.0
 11
-426.1381225585938
 21
518.87646484375
 31
0.0
  0
LINE
  5
D1
330
22
100
AcDbEntity
  8
0
  6
Continuous
 62
     7
100
AcDbLine
 10
-403.1381225585938
 20
506.313232421875
 30
0.0
 11
-403.1381225585938
 21
473.993408203125
 31
0.0
  0
LINE
  5
D2
330
22
100
AcDbEntity
  8
0
  6
Continuous
 62
     7
100
AcDbLine
 10
-391.6381225585938
 20
492.1600646972656
 30
0.0
 11
-391.6381225585938
 21
482.7933959960938
 31
0.0
  0
LINE
  5
D3
330
22
100
AcDbEntity
  8
0
  6
Continuous
 62
     7
100
AcDbLine
 10
-403.1381225585938
 20
531.142822265625
 30
0.0
 11
-403.1381225585938
 21
516.9495849609375
 31
0.0
  0
LINE
  5
D4
330
22
100
AcDbEntity
  8
0
  6
Continuous
 62
     7
100
AcDbLine
 10
-403.1381225585938
 20
463.3600769042969
 30
0.0
 11
-403.1381225585938
 21
448.993408203125
 31
0.0
  0
LINE
  5
D5
330
22
100
AcDbEntity
  8
0
  6
Continuous
 62
     7
100
AcDbLine
 10
-363.6381225585938
 20
458.3600769042968
 30
0.0
 11
-363.6381225585938
 21
448.993408203125
 31
0.0
  0
LINE
  5
D6
330
22
100
AcDbEntity
  8
0
  6
Continuous
 62
     7
100
AcDbLine
 10
-380.1381225585938
 20
478.3600769042968
 30
0.0
 11
-380.1381225585938
 21
448.993408203125
 31
0.0
  0
LINE
  5
D7
330
22
100
AcDbEntity
  8
0
  6
Continuous
 62
     7
100
AcDbLine
 10
-368.1526794433594
 20
509.9535217285156
 30
0.0
 11
-367.9213562011719
 21
510.3541870117187
 31
0.0
  0
LINE
  5
D8
330
22
100
AcDbEntity
  8
0
  6
Continuous
 62
     7
100
AcDbLine
 10
-369.8609924316406
 20
516.3967895507814
 30
0.0
 11
-371.9285278320313
 21
513.73046875
 31
0.0
  0
LINE
  5
D9
330
22
100
AcDbEntity
  8
0
  6
Continuous
 62
     7
100
AcDbLine
 10
-386.6381225585938
 20
478.3600769042968
 30
0.0
 11
-386.6381225585938
 21
448.993408203125
 31
0.0
  0
LINE
  5
DA
330
22
100
AcDbEntity
  8
0
  6
Continuous
 62
     7
100
AcDbLine
 10
-375.1381225585938
 20
473.3600769042968
 30
0.0
 11
-375.1381225585938
 21
448.993408203125
 31
0.0
  0
LINE
  5
DB
330
22
100
AcDbEntity
  8
0
  6
Continuous
 62
     7
100
AcDbLine
 10
-368.6381225585938
 20
473.3600769042968
 30
0.0
 11
-368.6381225585938
 21
448.993408203125
 31
0.0
  0
LINE
  5
DC
330
22
100
AcDbEntity
  8
0
  6
Continuous
 62
     7
100
AcDbLine
 10
-391.6381225585938
 20
472.1600646972656
 30
0.0
 11
-391.6381225585938
 21
448.993408203125
 31
0.0
  0
LINE
  5
DD
330
22
100
AcDbEntity
  8
0
  6
Continuous
 62
     7
100
AcDbLine
 10
-363.6381225585938
 20
492.6867980957031
 30
0.0
 11
-363.6381225585938
 21
468.993408203125
 31
0.0
  0
LINE
  5
DE
330
22
100
AcDbEntity
  8
0
  6
Continuous
 62
     7
100
AcDbLine
 10
-391.6381225585938
 20
525.719970703125
 30
0.0
 11
-391.6381225585938
 21
502.7964477539063
 31
0.0
  0
LINE
  5
DF
330
22
100
AcDbEntity
  8
0
  6
Continuous
 62
     7
100
AcDbLine
 10
-386.6381225585938
 20
518.2802734375
 30
0.0
 11
-386.6381225585938
 21
488.993408203125
 31
0.0
  0
LINE
  5
E0
330
22
100
AcDbEntity
  8
0
  6
Continuous
 62
     7
100
AcDbLine
 10
-357.1381225585938
 20
492.6867980957031
 30
0.0
 11
-357.1381225585938
 21
468.993408203125
 31
0.0
  0
LINE
  5
E1
330
22
100
AcDbEntity
  8
0
  6
Continuous
 62
     7
100
AcDbLine
 10
-363.6381225585938
 20
427.993408203125
 30
0.0
 11
-363.6381225585938
 21
437.3600769042968
 31
0.0
  0
LINE
  5
E2
330
22
100
AcDbEntity
  8
0
  6
Continuous
 62
     7
100
AcDbLine
 10
-409.6381225585938
 20
463.3600769042969
 30
0.0
 11
-409.6381225585938
 21
448.993408203125
 31
0.0
  0
LINE
  5
E3
330
22
100
AcDbEntity
  8
0
  6
Continuous
 62
     7
100
AcDbLine
 10
-409.6381225585938
 20
506.313232421875
 30
0.0
 11
-409.6381225585938
 21
473.993408203125
 31
0.0
  0
LINE
  5
E4
330
22
100
AcDbEntity
  8
0
  6
Continuous
 62
     7
100
AcDbLine
 10
-409.6381225585938
 20
531.142822265625
 30
0.0
 11
-409.6381225585938
 21
516.9495849609375
 31
0.0
  0
LINE
  5
E5
330
22
100
AcDbEntity
  8
0
  6
Continuous
 62
     7
100
AcDbLine
 10
-398.1381225585938
 20
492.1600646972656
 30
0.0
 11
-398.1381225585938
 21
482.7933959960938
 31
0.0
  0
LINE
  5
E6
330
22
100
AcDbEntity
  8
0
  6
Continuous
 62
     7
100
AcDbLine
 10
-398.1381225585938
 20
525.719970703125
 30
0.0
 11
-398.1381225585938
 21
502.7964477539063
 31
0.0
  0
LINE
  5
E7
330
22
100
AcDbEntity
  8
0
  6
Continuous
 62
     7
100
AcDbLine
 10
-373.7232666015625
 20
508.7811279296874
 30
0.0
 11
-373.3222961425781
 21
508.5496215820312
 31
0.0
  0
LINE
  5
E8
330
22
100
AcDbEntity
  8
0
  6
Continuous
 62
     7
100
AcDbLine
 10
-373.3222961425781
 20
508.5496215820312
 30
0.0
 11
-371.2547607421875
 21
511.2159729003906
 31
0.0
  0
LINE
  5
E9
330
22
100
AcDbEntity
  8
0
  6
Continuous
 62
     7
100
AcDbLine
 10
-398.1381225585938
 20
472.1600646972656
 30
0.0
 11
-398.1381225585938
 21
448.993408203125
 31
0.0
  0
LINE
  5
EA
330
22
100
AcDbEntity
  8
0
  6
Continuous
 62
     7
100
AcDbLine
 10
-467.1381225585938
 20
534.8758544921874
 30
0.0
 11
-467.1381225585938
 21
507.2964477539063
 31
0.0
  0
LINE
  5
EB
330
22
100
AcDbEntity
  8
0
  6
Continuous
 62
     7
100
AcDbLine
 10
-460.6381225585938
 20
496.56005859375
 30
0.0
 11
-460.6381225585938
 21
487.0934143066405
 31
0.0
  0
LINE
  5
EC
330
22
100
AcDbEntity
  8
0
  6
Continuous
 62
     7
100
AcDbLine
 10
-455.6381225585938
 20
508.2431030273438
 30
0.0
 11
-455.6381225585938
 21
477.8764343261719
 31
0.0
  0
LINE
  5
ED
330
22
100
AcDbEntity
  8
0
  6
Continuous
 62
     7
100
AcDbLine
 10
-460.6381225585938
 20
534.8758544921874
 30
0.0
 11
-460.6381225585938
 21
507.2964477539063
 31
0.0
  0
LINE
  5
EE
330
22
100
AcDbEntity
  8
0
  6
Continuous
 62
     7
100
AcDbLine
 10
-444.1381225585938
 20
536.9267578125
 30
0.0
 11
-444.1381225585938
 21
517.0267333984375
 31
0.0
  0
LINE
  5
EF
330
22
100
AcDbEntity
  8
0
  6
Continuous
 62
     7
100
AcDbLine
 10
-357.1381225585938
 20
427.993408203125
 30
0.0
 11
-357.1381225585938
 21
437.3600769042968
 31
0.0
  0
LINE
  5
F0
330
22
100
AcDbEntity
  8
0
  6
Continuous
 62
     7
100
AcDbLine
 10
-357.1381225585938
 20
458.3600769042968
 30
0.0
 11
-357.1381225585938
 21
448.993408203125
 31
0.0
  0
LINE
  5
F1
330
22
100
AcDbEntity
  8
0
  6
Continuous
 62
     7
100
AcDbLine
 10
-352.1381225585938
 20
472.9204406738281
 30
0.0
 11
-352.1381225585938
 21
448.993408203125
 31
0.0
  0
LINE
  5
F2
330
22
100
AcDbEntity
  8
0
  6
Continuous
 62
     7
100
AcDbLine
 10
-455.6381225585938
 20
467.2100830078124
 30
0.0
 11
-455.6381225585938
 21
448.993408203125
 31
0.0
  0
LINE
  5
F3
330
22
100
AcDbEntity
  8
0
  6
Continuous
 62
     7
100
AcDbLine
 10
-467.1381225585938
 20
476.4600830078125
 30
0.0
 11
-467.1381225585938
 21
448.993408203125
 31
0.0
  0
LINE
  5
F4
330
22
100
AcDbEntity
  8
0
  6
Continuous
 62
     7
100
AcDbLine
 10
-460.6381225585938
 20
476.4600830078125
 30
0.0
 11
-460.6381225585938
 21
448.993408203125
 31
0.0
  0
LINE
  5
F5
330
22
100
AcDbEntity
  8
0
  6
Continuous
 62
     7
100
AcDbLine
 10
-472.1381225585938
 20
506.2132263183594
 30
0.0
 11
-472.1381225585938
 21
473.993408203125
 31
0.0
  0
LINE
  5
F6
330
22
100
AcDbEntity
  8
0
  6
Continuous
 62
     7
100
AcDbLine
 10
-444.1381225585938
 20
472.0767517089844
 30
0.0
 11
-444.1381225585938
 21
452.1767272949218
 31
0.0
  0
LINE
  5
F7
330
22
100
AcDbEntity
  8
0
  6
Continuous
 62
     7
100
AcDbLine
 10
-437.6381225585937
 20
472.0767517089844
 30
0.0
 11
-437.6381225585937
 21
452.1767272949218
 31
0.0
  0
LINE
  5
F8
330
22
100
AcDbEntity
  8
0
  6
Continuous
 62
     7
100
AcDbLine
 10
-437.6381225585937
 20
504.5267333984375
 30
0.0
 11
-437.6381225585937
 21
484.626739501953
 31
0.0
  0
LINE
  5
F9
330
22
100
AcDbEntity
  8
0
  6
Continuous
 62
     7
100
AcDbLine
 10
-472.1381225585938
 20
463.3600769042969
 30
0.0
 11
-472.1381225585938
 21
448.993408203125
 31
0.0
  0
LINE
  5
FA
330
22
100
AcDbEntity
  8
0
  6
Continuous
 62
     7
100
AcDbLine
 10
-444.1381225585938
 20
504.5267333984375
 30
0.0
 11
-444.1381225585938
 21
484.626739501953
 31
0.0
  0
LINE
  5
FB
330
22
100
AcDbEntity
  8
0
  6
Continuous
 62
     7
100
AcDbLine
 10
-449.1381225585937
 20
508.2431030273438
 30
0.0
 11
-449.1381225585937
 21
477.8764343261719
 31
0.0
  0
LINE
  5
FC
330
22
100
AcDbEntity
  8
0
  6
Continuous
 62
     7
100
AcDbLine
 10
-449.1381225585937
 20
537.1795043945313
 30
0.0
 11
-449.1381225585937
 21
518.87646484375
 31
0.0
  0
LINE
  5
FD
330
22
100
AcDbEntity
  8
0
  6
Continuous
 62
     7
100
AcDbLine
 10
-437.6381225585937
 20
536.9267578125
 30
0.0
 11
-437.6381225585937
 21
517.0267333984375
 31
0.0
  0
LINE
  5
FE
330
22
100
AcDbEntity
  8
0
  6
Continuous
 62
     7
100
AcDbLine
 10
-472.1381225585938
 20
531.142822265625
 30
0.0
 11
-472.1381225585938
 21
516.9495849609375
 31
0.0
  0
LINE
  5
FF
330
22
100
AcDbEntity
  8
0
  6
Continuous
 62
     7
100
AcDbLine
 10
-455.6381225585938
 20
537.1795043945313
 30
0.0
 11
-455.6381225585938
 21
518.87646484375
 31
0.0
  0
LINE
  5
100
330
22
100
AcDbEntity
  8
0
  6
Continuous
 62
     7
100
AcDbLine
 10
-467.1381225585938
 20
496.56005859375
 30
0.0
 11
-467.1381225585938
 21
487.0934143066405
 31
0.0
  0
LINE
  5
101
330
22
100
AcDbEntity
  8
0
  6
Continuous
 62
     7
100
AcDbLine
 10
-501.6381225585938
 20
478.3600769042968
 30
0.0
 11
-501.6381225585938
 21
448.993408203125
 31
0.0
  0
LINE
  5
102
330
22
100
AcDbEntity
  8
0
  6
Continuous
 62
     7
100
AcDbLine
 10
-529.6381225585938
 20
472.9204406738281
 30
0.0
 11
-529.6381225585938
 21
448.993408203125
 31
0.0
  0
LINE
  5
103
330
22
100
AcDbEntity
  8
0
  6
Continuous
 62
     7
100
AcDbLine
 10
-513.1381225585938
 20
473.3600769042968
 30
0.0
 11
-513.1381225585938
 21
448.993408203125
 31
0.0
  0
LINE
  5
104
330
22
100
AcDbEntity
  8
0
  6
Continuous
 62
     7
100
AcDbLine
 10
-518.1381225585938
 20
492.6867980957031
 30
0.0
 11
-518.1381225585938
 21
468.993408203125
 31
0.0
  0
LINE
  5
105
330
22
100
AcDbEntity
  8
0
  6
Continuous
 62
     7
100
AcDbLine
 10
-501.6381225585938
 20
518.2802734375
 30
0.0
 11
-501.6381225585938
 21
488.993408203125
 31
0.0
  0
LINE
  5
106
330
22
100
AcDbEntity
  8
0
  6
Continuous
 62
     7
100
AcDbLine
 10
-513.1381225585938
 20
502.8600769042968
 30
0.0
 11
-513.1381225585938
 21
483.9934082031249
 31
0.0
  0
LINE
  5
107
330
22
100
AcDbEntity
  8
0
  6
Continuous
 62
     7
100
AcDbLine
 10
-506.6381225585938
 20
502.8600769042968
 30
0.0
 11
-506.6381225585938
 21
483.9934082031249
 31
0.0
  0
LINE
  5
108
330
22
100
AcDbEntity
  8
0
  6
Continuous
 62
     7
100
AcDbLine
 10
-518.1381225585938
 20
458.3600769042968
 30
0.0
 11
-518.1381225585938
 21
448.993408203125
 31
0.0
  0
LINE
  5
109
330
22
100
AcDbEntity
  8
0
  6
Continuous
 62
     7
100
AcDbLine
 10
-506.4921875
 20
510.3412780761718
 30
0.0
 11
-506.7236938476563
 21
509.9403076171874
 31
0.0
  0
LINE
  5
10A
330
22
100
AcDbEntity
  8
0
  6
Continuous
 62
     7
100
AcDbLine
 10
-511.9026489257812
 20
508.5712890625
 30
0.0
 11
-509.847412109375
 21
511.2156372070312
 31
0.0
  0
LINE
  5
10B
330
22
100
AcDbEntity
  8
0
  6
Continuous
 62
     7
100
AcDbLine
 10
-506.2606811523438
 20
510.7422485351563
 30
0.0
 11
-508.9270324707031
 21
512.8097534179688
 31
0.0
  0
LINE
  5
10C
330
22
100
AcDbEntity
  8
0
  6
Continuous
 62
     7
100
AcDbLine
 10
-506.4921875
 20
510.3412780761718
 30
0.0
 11
-506.2606811523438
 21
510.7422485351563
 31
0.0
  0
LINE
  5
10D
330
22
100
AcDbEntity
  8
0
  6
Continuous
 62
     7
100
AcDbLine
 10
-490.1381225585938
 20
472.1600646972656
 30
0.0
 11
-490.1381225585938
 21
448.993408203125
 31
0.0
  0
LINE
  5
10E
330
22
100
AcDbEntity
  8
0
  6
Continuous
 62
     7
100
AcDbLine
 10
-490.1381225585938
 20
492.1600646972656
 30
0.0
 11
-490.1381225585938
 21
482.7933959960938
 31
0.0
  0
LINE
  5
10F
330
22
100
AcDbEntity
  8
0
  6
Continuous
 62
     7
100
AcDbLine
 10
-490.1381225585938
 20
525.719970703125
 30
0.0
 11
-490.1381225585938
 21
502.8964233398438
 31
0.0
  0
LINE
  5
110
330
22
100
AcDbEntity
  8
0
  6
Continuous
 62
     7
100
AcDbLine
 10
-495.1381225585937
 20
478.3600769042968
 30
0.0
 11
-495.1381225585937
 21
448.993408203125
 31
0.0
  0
LINE
  5
111
330
22
100
AcDbEntity
  8
0
  6
Continuous
 62
     7
100
AcDbLine
 10
-449.1381225585937
 20
467.2100830078124
 30
0.0
 11
-449.1381225585937
 21
448.993408203125
 31
0.0
  0
LINE
  5
112
330
22
100
AcDbEntity
  8
0
  6
Continuous
 62
     7
100
AcDbLine
 10
-507.6645812988281
 20
515.911865234375
 30
0.0
 11
-508.9270324707031
 21
512.8097534179688
 31
0.0
  0
LINE
  5
113
330
22
100
AcDbEntity
  8
0
  6
Continuous
 62
     7
100
AcDbLine
 10
-508.4659118652344
 20
516.37451171875
 30
0.0
 11
-510.5211486816406
 21
513.7301635742188
 31
0.0
  0
LINE
  5
114
330
22
100
AcDbEntity
  8
0
  6
Continuous
 62
     7
100
AcDbLine
 10
-508.4659118652344
 20
516.37451171875
 30
0.0
 11
-508.0652465820313
 21
516.1431884765625
 31
0.0
  0
LINE
  5
115
330
22
100
AcDbEntity
  8
0
  6
Continuous
 62
     7
100
AcDbLine
 10
-511.9026489257812
 20
508.5712890625
 30
0.0
 11
-512.3033447265624
 21
508.8026123046875
 31
0.0
  0
LINE
  5
116
330
22
100
AcDbEntity
  8
0
  6
Continuous
 62
     7
100
AcDbLine
 10
-512.7039794921874
 20
509.0339355468749
 30
0.0
 11
-511.4415283203125
 21
512.1360473632813
 31
0.0
  0
LINE
  5
117
330
22
100
AcDbEntity
  8
0
  6
Continuous
 62
     7
100
AcDbLine
 10
-514.1078491210938
 20
514.2035522460938
 30
0.0
 11
-511.4415283203125
 21
512.1360473632813
 31
0.0
  0
LINE
  5
118
330
22
100
AcDbEntity
  8
0
  6
Continuous
 62
     7
100
AcDbLine
 10
-513.8763427734375
 20
514.6045532226564
 30
0.0
 11
-514.1078491210938
 21
514.2035522460938
 31
0.0
  0
LINE
  5
119
330
22
100
AcDbEntity
  8
0
  6
Continuous
 62
     7
100
AcDbLine
 10
-512.7039794921874
 20
509.0339355468749
 30
0.0
 11
-512.3033447265624
 21
508.8026123046875
 31
0.0
  0
LINE
  5
11A
330
22
100
AcDbEntity
  8
0
  6
Continuous
 62
     7
100
AcDbLine
 10
-513.8763427734375
 20
514.6045532226564
 30
0.0
 11
-513.6448364257813
 21
515.0054931640625
 31
0.0
  0
LINE
  5
11B
330
22
100
AcDbEntity
  8
0
  6
Continuous
 62
     7
100
AcDbLine
 10
-513.6448364257813
 20
515.0054931640625
 30
0.0
 11
-510.5211486816406
 21
513.7301635742188
 31
0.0
  0
LINE
  5
11C
330
22
100
AcDbEntity
  8
0
  6
Continuous
 62
     7
100
AcDbLine
 10
-495.1381225585937
 20
518.2802734375
 30
0.0
 11
-495.1381225585937
 21
488.993408203125
 31
0.0
  0
LINE
  5
11D
330
22
100
AcDbEntity
  8
0
  6
Continuous
 62
     7
100
AcDbLine
 10
-524.6381225585938
 20
492.6867980957031
 30
0.0
 11
-524.6381225585938
 21
468.993408203125
 31
0.0
  0
LINE
  5
11E
330
22
100
AcDbEntity
  8
0
  6
Continuous
 62
     7
100
AcDbLine
 10
-506.6381225585938
 20
473.3600769042968
 30
0.0
 11
-506.6381225585938
 21
448.993408203125
 31
0.0
  0
LINE
  5
11F
330
22
100
AcDbEntity
  8
0
  6
Continuous
 62
     7
100
AcDbLine
 10
-524.6381225585938
 20
458.3600769042968
 30
0.0
 11
-524.6381225585938
 21
448.993408203125
 31
0.0
  0
LINE
  5
120
330
22
100
AcDbEntity
  8
0
  6
Continuous
 62
     7
100
AcDbLine
 10
-483.6381225585937
 20
472.1600646972656
 30
0.0
 11
-483.6381225585937
 21
448.993408203125
 31
0.0
  0
LINE
  5
121
330
22
100
AcDbEntity
  8
0
  6
Continuous
 62
     7
100
AcDbLine
 10
-478.6381225585937
 20
506.2132263183594
 30
0.0
 11
-478.6381225585937
 21
473.993408203125
 31
0.0
  0
LINE
  5
122
330
22
100
AcDbEntity
  8
0
  6
Continuous
 62
     7
100
AcDbLine
 10
-478.6381225585937
 20
463.3600769042969
 30
0.0
 11
-478.6381225585937
 21
448.993408203125
 31
0.0
  0
LINE
  5
123
330
22
100
AcDbEntity
  8
0
  6
Continuous
 62
     7
100
AcDbLine
 10
-483.6381225585937
 20
525.719970703125
 30
0.0
 11
-483.6381225585937
 21
502.8964233398438
 31
0.0
  0
LINE
  5
124
330
22
100
AcDbEntity
  8
0
  6
Continuous
 62
     7
100
AcDbLine
 10
-483.6381225585937
 20
492.1600646972656
 30
0.0
 11
-483.6381225585937
 21
482.7933959960938
 31
0.0
  0
LINE
  5
125
330
22
100
AcDbEntity
  8
0
  6
Continuous
 62
     7
100
AcDbLine
 10
-478.6381225585937
 20
531.142822265625
 30
0.0
 11
-478.6381225585937
 21
516.9495849609375
 31
0.0
  0
LINE
  5
126
330
22
100
AcDbEntity
  8
0
  6
Continuous
 62
     7
100
AcDbLine
 10
-536.1381225585938
 20
464.0018920898437
 30
0.0
 11
-536.1381225585938
 21
448.993408203125
 31
0.0
  0
LINE
  5
127
330
22
100
AcDbEntity
  8
0
  6
Continuous
 62
     7
100
AcDbLine
 10
-506.7236938476563
 20
509.9403076171874
 30
0.0
 11
-509.847412109375
 21
511.2156372070312
 31
0.0
  0
LINE
  5
128
330
22
100
AcDbEntity
  8
0
  6
Continuous
 62
     7
100
AcDbLine
 10
-507.6645812988281
 20
515.911865234375
 30
0.0
 11
-508.0652465820313
 21
516.1431884765625
 31
0.0
  0
LINE
  5
129
330
22
100
AcDbEntity
  8
0
  6
Continuous
 62
     7
100
AcDbLine
 10
-398.1381225585938
 20
394.1934204101563
 30
0.0
 11
-398.1381225585938
 21
403.5600585937499
 31
0.0
  0
LINE
  5
12A
330
22
100
AcDbEntity
  8
0
  6
Continuous
 62
     7
100
AcDbLine
 10
-403.1381225585938
 20
355.2106628417969
 30
0.0
 11
-403.1381225585938
 21
369.4038696289063
 31
0.0
  0
LINE
  5
12B
330
22
100
AcDbEntity
  8
0
  6
Continuous
 62
     7
100
AcDbLine
 10
-386.6381225585938
 20
368.0731811523438
 30
0.0
 11
-386.6381225585938
 21
397.3600769042969
 31
0.0
  0
LINE
  5
12C
330
22
100
AcDbEntity
  8
0
  6
Continuous
 62
     7
100
AcDbLine
 10
-391.6381225585938
 20
394.1934204101563
 30
0.0
 11
-391.6381225585938
 21
403.5600585937499
 31
0.0
  0
LINE
  5
12D
330
22
100
AcDbEntity
  8
0
  6
Continuous
 62
     7
100
AcDbLine
 10
-380.1381225585938
 20
368.0731811523438
 30
0.0
 11
-380.1381225585938
 21
397.3600769042969
 31
0.0
  0
LINE
  5
12E
330
22
100
AcDbEntity
  8
0
  6
Continuous
 62
     7
100
AcDbLine
 10
-426.1381225585938
 20
349.1739807128906
 30
0.0
 11
-426.1381225585938
 21
367.47705078125
 31
0.0
  0
LINE
  5
12F
330
22
100
AcDbEntity
  8
0
  6
Continuous
 62
     7
100
AcDbLine
 10
-421.1381225585937
 20
351.4776306152344
 30
0.0
 11
-421.1381225585937
 21
379.0570373535156
 31
0.0
  0
LINE
  5
130
330
22
100
AcDbEntity
  8
0
  6
Continuous
 62
     7
100
AcDbLine
 10
-421.1381225585937
 20
389.7933959960938
 30
0.0
 11
-421.1381225585937
 21
399.2600708007813
 31
0.0
  0
LINE
  5
131
330
22
100
AcDbEntity
  8
0
  6
Continuous
 62
     7
100
AcDbLine
 10
-426.1381225585938
 20
378.1103820800781
 30
0.0
 11
-426.1381225585938
 21
408.47705078125
 31
0.0
  0
LINE
  5
132
330
22
100
AcDbEntity
  8
0
  6
Continuous
 62
     7
100
AcDbLine
 10
-414.6381225585938
 20
389.7933959960938
 30
0.0
 11
-414.6381225585938
 21
399.2600708007813
 31
0.0
  0
LINE
  5
133
330
22
100
AcDbEntity
  8
0
  6
Continuous
 62
     7
100
AcDbLine
 10
-414.6381225585938
 20
351.4776306152344
 30
0.0
 11
-414.6381225585938
 21
379.0570373535156
 31
0.0
  0
LINE
  5
134
330
22
100
AcDbEntity
  8
0
  6
Continuous
 62
     7
100
AcDbLine
 10
-518.1381225585938
 20
427.993408203125
 30
0.0
 11
-518.1381225585938
 21
437.3600769042968
 31
0.0
  0
LINE
  5
135
330
22
100
AcDbEntity
  8
0
  6
Continuous
 62
     7
100
AcDbLine
 10
-524.6381225585938
 20
427.993408203125
 30
0.0
 11
-524.6381225585938
 21
437.3600769042968
 31
0.0
  0
LINE
  5
136
330
22
100
AcDbEntity
  8
0
  6
Continuous
 62
     7
100
AcDbLine
 10
-363.6381225585938
 20
393.6666870117188
 30
0.0
 11
-363.6381225585938
 21
417.3600769042968
 31
0.0
  0
LINE
  5
137
330
22
100
AcDbEntity
  8
0
  6
Continuous
 62
     7
100
AcDbLine
 10
-403.1381225585938
 20
380.1402282714844
 30
0.0
 11
-403.1381225585938
 21
412.3600769042968
 31
0.0
  0
LINE
  5
138
330
22
100
AcDbEntity
  8
0
  6
Continuous
 62
     7
100
AcDbLine
 10
-375.514892578125
 20
375.6112365722656
 30
0.0
 11
-372.8485717773438
 21
373.543701171875
 31
0.0
  0
LINE
  5
139
330
22
100
AcDbEntity
  8
0
  6
Continuous
 62
     7
100
AcDbLine
 10
-373.3096923828125
 20
369.9789733886719
 30
0.0
 11
-373.7103576660156
 21
370.2102966308594
 31
0.0
  0
LINE
  5
13A
330
22
100
AcDbEntity
  8
0
  6
Continuous
 62
     7
100
AcDbLine
 10
-368.1307373046875
 20
371.3479919433594
 30
0.0
 11
-371.2544555664063
 21
372.6233215332031
 31
0.0
  0
LINE
  5
13B
330
22
100
AcDbEntity
  8
0
  6
Continuous
 62
     7
100
AcDbLine
 10
-373.3096923828125
 20
369.9789733886719
 30
0.0
 11
-371.2544555664063
 21
372.6233215332031
 31
0.0
  0
LINE
  5
13C
330
22
100
AcDbEntity
  8
0
  6
Continuous
 62
     7
100
AcDbLine
 10
-367.667724609375
 20
372.1499328613281
 30
0.0
 11
-370.3340759277344
 21
374.2174682617188
 31
0.0
  0
LINE
  5
13D
330
22
100
AcDbEntity
  8
0
  6
Continuous
 62
     7
100
AcDbLine
 10
-374.1110229492188
 20
370.4416198730469
 30
0.0
 11
-372.8485717773438
 21
373.543701171875
 31
0.0
  0
LINE
  5
13E
330
22
100
AcDbEntity
  8
0
  6
Continuous
 62
     7
100
AcDbLine
 10
-374.1110229492188
 20
370.4416198730469
 30
0.0
 11
-373.7103576660156
 21
370.2102966308594
 31
0.0
  0
LINE
  5
13F
330
22
100
AcDbEntity
  8
0
  6
Continuous
 62
     7
100
AcDbLine
 10
-375.0519104003906
 20
376.4131774902344
 30
0.0
 11
-371.9281921386719
 21
375.1378173828125
 31
0.0
  0
LINE
  5
140
330
22
100
AcDbEntity
  8
0
  6
Continuous
 62
     7
100
AcDbLine
 10
-375.2834167480469
 20
376.01220703125
 30
0.0
 11
-375.0519104003906
 21
376.4131774902344
 31
0.0
  0
LINE
  5
141
330
22
100
AcDbEntity
  8
0
  6
Continuous
 62
     7
100
AcDbLine
 10
-375.2834167480469
 20
376.01220703125
 30
0.0
 11
-375.514892578125
 21
375.6112365722656
 31
0.0
  0
LINE
  5
142
330
22
100
AcDbEntity
  8
0
  6
Continuous
 62
     7
100
AcDbLine
 10
-367.8992309570313
 20
371.7489624023438
 30
0.0
 11
-368.1307373046875
 21
371.3479919433594
 31
0.0
  0
LINE
  5
143
330
22
100
AcDbEntity
  8
0
  6
Continuous
 62
     7
100
AcDbLine
 10
-369.0716247558594
 20
377.3195190429688
 30
0.0
 11
-369.4722900390625
 21
377.5508422851563
 31
0.0
  0
LINE
  5
144
330
22
100
AcDbEntity
  8
0
  6
Continuous
 62
     7
100
AcDbLine
 10
-367.8992309570313
 20
371.7489624023438
 30
0.0
 11
-367.667724609375
 21
372.1499328613281
 31
0.0
  0
LINE
  5
145
330
22
100
AcDbEntity
  8
0
  6
Continuous
 62
     7
100
AcDbLine
 10
-369.0716247558594
 20
377.3195190429688
 30
0.0
 11
-370.3340759277344
 21
374.2174682617188
 31
0.0
  0
LINE
  5
146
330
22
100
AcDbEntity
  8
0
  6
Continuous
 62
     7
100
AcDbLine
 10
-369.8729553222656
 20
377.7821960449219
 30
0.0
 11
-369.4722900390625
 21
377.5508422851563
 31
0.0
  0
LINE
  5
147
330
22
100
AcDbEntity
  8
0
  6
Continuous
 62
     7
100
AcDbLine
 10
-369.8729553222656
 20
377.7821960449219
 30
0.0
 11
-371.9281921386719
 21
375.1378173828125
 31
0.0
  0
LINE
  5
148
330
22
100
AcDbEntity
  8
0
  6
Continuous
 62
     7
100
AcDbLine
 10
-398.1381225585938
 20
360.6335144042969
 30
0.0
 11
-398.1381225585938
 21
383.45703125
 31
0.0
  0
LINE
  5
149
330
22
100
AcDbEntity
  8
0
  6
Continuous
 62
     7
100
AcDbLine
 10
-472.1381225585938
 20
355.2106628417969
 30
0.0
 11
-472.1381225585938
 21
369.4038696289063
 31
0.0
  0
LINE
  5
14A
330
22
100
AcDbEntity
  8
0
  6
Continuous
 62
     7
100
AcDbLine
 10
-467.1381225585938
 20
351.4776306152344
 30
0.0
 11
-467.1381225585938
 21
379.0570373535156
 31
0.0
  0
LINE
  5
14B
330
22
100
AcDbEntity
  8
0
  6
Continuous
 62
     7
100
AcDbLine
 10
-460.6381225585938
 20
351.4776306152344
 30
0.0
 11
-460.6381225585938
 21
379.0570373535156
 31
0.0
  0
LINE
  5
14C
330
22
100
AcDbEntity
  8
0
  6
Continuous
 62
     7
100
AcDbLine
 10
-444.1381225585938
 20
349.4267272949219
 30
0.0
 11
-444.1381225585938
 21
369.3267517089844
 31
0.0
  0
LINE
  5
14D
330
22
100
AcDbEntity
  8
0
  6
Continuous
 62
     7
100
AcDbLine
 10
-449.1381225585937
 20
378.1103820800781
 30
0.0
 11
-449.1381225585937
 21
408.47705078125
 31
0.0
  0
LINE
  5
14E
330
22
100
AcDbEntity
  8
0
  6
Continuous
 62
     7
100
AcDbLine
 10
-357.1381225585938
 20
393.6666870117188
 30
0.0
 11
-357.1381225585938
 21
417.3600769042968
 31
0.0
  0
LINE
  5
14F
330
22
100
AcDbEntity
  8
0
  6
Continuous
 62
     7
100
AcDbLine
 10
-409.6381225585938
 20
355.2106628417969
 30
0.0
 11
-409.6381225585938
 21
369.4038696289063
 31
0.0
  0
LINE
  5
150
330
22
100
AcDbEntity
  8
0
  6
Continuous
 62
     7
100
AcDbLine
 10
-409.6381225585938
 20
380.1402282714844
 30
0.0
 11
-409.6381225585938
 21
412.3600769042968
 31
0.0
  0
LINE
  5
151
330
22
100
AcDbEntity
  8
0
  6
Continuous
 62
     7
100
AcDbLine
 10
-391.6381225585938
 20
360.6335144042969
 30
0.0
 11
-391.6381225585938
 21
383.45703125
 31
0.0
  0
LINE
  5
152
330
22
100
AcDbEntity
  8
0
  6
Continuous
 62
     7
100
AcDbLine
 10
-375.1381225585938
 20
383.493408203125
 30
0.0
 11
-375.1381225585938
 21
402.3600769042968
 31
0.0
  0
LINE
  5
153
330
22
100
AcDbEntity
  8
0
  6
Continuous
 62
     7
100
AcDbLine
 10
-368.6381225585938
 20
383.493408203125
 30
0.0
 11
-368.6381225585938
 21
402.3600769042968
 31
0.0
  0
LINE
  5
154
330
22
100
AcDbEntity
  8
0
  6
Continuous
 62
     7
100
AcDbLine
 10
-513.1381225585938
 20
383.493408203125
 30
0.0
 11
-513.1381225585938
 21
402.3600769042968
 31
0.0
  0
LINE
  5
155
330
22
100
AcDbEntity
  8
0
  6
Continuous
 62
     7
100
AcDbLine
 10
-490.1381225585938
 20
360.6335144042969
 30
0.0
 11
-490.1381225585938
 21
383.45703125
 31
0.0
  0
LINE
  5
156
330
22
100
AcDbEntity
  8
0
  6
Continuous
 62
     7
100
AcDbLine
 10
-490.1381225585938
 20
394.1934204101563
 30
0.0
 11
-490.1381225585938
 21
403.5600585937499
 31
0.0
  0
LINE
  5
157
330
22
100
AcDbEntity
  8
0
  6
Continuous
 62
     7
100
AcDbLine
 10
-508.0523376464843
 20
377.5723571777344
 30
0.0
 11
-508.4533081054687
 21
377.8038330078125
 31
0.0
  0
LINE
  5
158
330
22
100
AcDbEntity
  8
0
  6
Continuous
 62
     7
100
AcDbLine
 10
-508.4533081054687
 20
377.8038330078125
 30
0.0
 11
-510.5208435058593
 21
375.1375122070313
 31
0.0
  0
LINE
  5
159
330
22
100
AcDbEntity
  8
0
  6
Continuous
 62
     7
100
AcDbLine
 10
-472.1381225585938
 20
380.1402282714844
 30
0.0
 11
-472.1381225585938
 21
412.3600769042968
 31
0.0
  0
LINE
  5
15A
330
22
100
AcDbEntity
  8
0
  6
Continuous
 62
     7
100
AcDbLine
 10
-455.6381225585938
 20
378.1103820800781
 30
0.0
 11
-455.6381225585938
 21
408.47705078125
 31
0.0
  0
LINE
  5
15B
330
22
100
AcDbEntity
  8
0
  6
Continuous
 62
     7
100
AcDbLine
 10
-455.6381225585938
 20
349.1739807128906
 30
0.0
 11
-455.6381225585938
 21
367.47705078125
 31
0.0
  0
LINE
  5
15C
330
22
100
AcDbEntity
  8
0
  6
Continuous
 62
     7
100
AcDbLine
 10
-437.6381225585937
 20
349.4267272949219
 30
0.0
 11
-437.6381225585937
 21
369.3267517089844
 31
0.0
  0
LINE
  5
15D
330
22
100
AcDbEntity
  8
0
  6
Continuous
 62
     7
100
AcDbLine
 10
-444.1381225585938
 20
381.8267517089844
 30
0.0
 11
-444.1381225585938
 21
401.7267456054687
 31
0.0
  0
LINE
  5
15E
330
22
100
AcDbEntity
  8
0
  6
Continuous
 62
     7
100
AcDbLine
 10
-460.6381225585938
 20
389.7933959960938
 30
0.0
 11
-460.6381225585938
 21
399.2600708007813
 31
0.0
  0
LINE
  5
15F
330
22
100
AcDbEntity
  8
0
  6
Continuous
 62
     7
100
AcDbLine
 10
-437.6381225585937
 20
381.8267517089844
 30
0.0
 11
-437.6381225585937
 21
401.7267456054687
 31
0.0
  0
LINE
  5
160
330
22
100
AcDbEntity
  8
0
  6
Continuous
 62
     7
100
AcDbLine
 10
-467.1381225585938
 20
389.7933959960938
 30
0.0
 11
-467.1381225585938
 21
399.2600708007813
 31
0.0
  0
LINE
  5
161
330
22
100
AcDbEntity
  8
0
  6
Continuous
 62
     7
100
AcDbLine
 10
-449.1381225585937
 20
349.1739807128906
 30
0.0
 11
-449.1381225585937
 21
367.47705078125
 31
0.0
  0
LINE
  5
162
330
22
100
AcDbEntity
  8
0
  6
Continuous
 62
     7
100
AcDbLine
 10
-518.1381225585938
 20
393.6666870117188
 30
0.0
 11
-518.1381225585938
 21
417.3600769042968
 31
0.0
  0
LINE
  5
163
330
22
100
AcDbEntity
  8
0
  6
Continuous
 62
     7
100
AcDbLine
 10
-524.6381225585938
 20
393.6666870117188
 30
0.0
 11
-524.6381225585938
 21
417.3600769042968
 31
0.0
  0
LINE
  5
164
330
22
100
AcDbEntity
  8
0
  6
Continuous
 62
     7
100
AcDbLine
 10
-508.0523376464843
 20
377.5723571777344
 30
0.0
 11
-507.6513671875
 21
377.3408508300781
 31
0.0
  0
LINE
  5
165
330
22
100
AcDbEntity
  8
0
  6
Continuous
 62
     7
100
AcDbLine
 10
-512.3156127929688
 20
370.1881713867188
 30
0.0
 11
-511.9146118164063
 21
369.9566650390625
 31
0.0
  0
LINE
  5
166
330
22
100
AcDbEntity
  8
0
  6
Continuous
 62
     7
100
AcDbLine
 10
-514.0855712890624
 20
375.5986328125
 30
0.0
 11
-513.854248046875
 21
375.9992980957031
 31
0.0
  0
LINE
  5
167
330
22
100
AcDbEntity
  8
0
  6
Continuous
 62
     7
100
AcDbLine
 10
-512.7165527343749
 20
370.419677734375
 30
0.0
 11
-511.4412231445313
 21
373.5433959960938
 31
0.0
  0
LINE
  5
168
330
22
100
AcDbEntity
  8
0
  6
Continuous
 62
     7
100
AcDbLine
 10
-514.0855712890624
 20
375.5986328125
 30
0.0
 11
-511.4412231445313
 21
373.5433959960938
 31
0.0
  0
LINE
  5
169
330
22
100
AcDbEntity
  8
0
  6
Continuous
 62
     7
100
AcDbLine
 10
-512.3156127929688
 20
370.1881713867188
 30
0.0
 11
-512.7165527343749
 21
370.419677734375
 31
0.0
  0
LINE
  5
16A
330
22
100
AcDbEntity
  8
0
  6
Continuous
 62
     7
100
AcDbLine
 10
-513.6229248046874
 20
376.3999633789063
 30
0.0
 11
-510.5208435058593
 21
375.1375122070313
 31
0.0
  0
LINE
  5
16B
330
22
100
AcDbEntity
  8
0
  6
Continuous
 62
     7
100
AcDbLine
 10
-513.6229248046874
 20
376.3999633789063
 30
0.0
 11
-513.854248046875
 21
375.9992980957031
 31
0.0
  0
LINE
  5
16C
330
22
100
AcDbEntity
  8
0
  6
Continuous
 62
     7
100
AcDbLine
 10
-511.9146118164063
 20
369.9566650390625
 30
0.0
 11
-509.8470764160156
 21
372.6230163574219
 31
0.0
  0
LINE
  5
16D
330
22
100
AcDbEntity
  8
0
  6
Continuous
 62
     7
100
AcDbLine
 10
-506.2823486328125
 20
372.1618957519531
 30
0.0
 11
-506.5136718749999
 21
371.76123046875
 31
0.0
  0
LINE
  5
16E
330
22
100
AcDbEntity
  8
0
  6
Continuous
 62
     7
100
AcDbLine
 10
-506.2823486328125
 20
372.1618957519531
 30
0.0
 11
-508.9266967773438
 21
374.2171325683594
 31
0.0
  0
LINE
  5
16F
330
22
100
AcDbEntity
  8
0
  6
Continuous
 62
     7
100
AcDbLine
 10
-507.6513671875
 20
377.3408508300781
 30
0.0
 11
-508.9266967773438
 21
374.2171325683594
 31
0.0
  0
LINE
  5
170
330
22
100
AcDbEntity
  8
0
  6
Continuous
 62
     7
100
AcDbLine
 10
-506.7449951171875
 20
371.3605651855469
 30
0.0
 11
-506.5136718749999
 21
371.76123046875
 31
0.0
  0
LINE
  5
171
330
22
100
AcDbEntity
  8
0
  6
Continuous
 62
     7
100
AcDbLine
 10
-506.7449951171875
 20
371.3605651855469
 30
0.0
 11
-509.8470764160156
 21
372.6230163574219
 31
0.0
  0
LINE
  5
172
330
22
100
AcDbEntity
  8
0
  6
Continuous
 62
     7
100
AcDbLine
 10
-495.1381225585937
 20
368.0731811523438
 30
0.0
 11
-495.1381225585937
 21
397.3600769042969
 31
0.0
  0
LINE
  5
173
330
22
100
AcDbEntity
  8
0
  6
Continuous
 62
     7
100
AcDbLine
 10
-501.6381225585938
 20
368.0731811523438
 30
0.0
 11
-501.6381225585938
 21
397.3600769042969
 31
0.0
  0
LINE
  5
174
330
22
100
AcDbEntity
  8
0
  6
Continuous
 62
     7
100
AcDbLine
 10
-506.6381225585938
 20
383.493408203125
 30
0.0
 11
-506.6381225585938
 21
402.3600769042968
 31
0.0
  0
LINE
  5
175
330
22
100
AcDbEntity
  8
0
  6
Continuous
 62
     7
100
AcDbLine
 10
-386.6826477050781
 20
205.6595764160156
 30
0.0
 11
-385.1334838867188
 21
204.1104431152344
 31
0.0
  0
LINE
  5
176
330
22
100
AcDbEntity
  8
0
  6
Continuous
 62
     7
100
AcDbLine
 10
-374.8881225585938
 20
181.6595764160156
 30
0.0
 11
-374.8881225585938
 21
222.135986328125
 31
0.0
  0
LINE
  5
177
330
22
100
AcDbEntity
  8
0
  6
Continuous
 62
     7
100
AcDbLine
 10
-327.8881225585938
 20
255.6595764160156
 30
0.0
 11
-322.8881225585938
 21
255.6595764160156
 31
0.0
  0
LINE
  5
178
330
22
100
AcDbEntity
  8
0
  6
Continuous
 62
     7
100
AcDbLine
 10
-332.8881225585938
 20
250.6595764160156
 30
0.0
 11
-332.8881225585938
 21
244.1831817626953
 31
0.0
  0
LINE
  5
179
330
22
100
AcDbEntity
  8
0
  6
Continuous
 62
     7
100
AcDbLine
 10
-478.6381225585937
 20
380.1402282714844
 30
0.0
 11
-478.6381225585937
 21
412.3600769042968
 31
0.0
  0
LINE
  5
17A
330
22
100
AcDbEntity
  8
0
  6
Continuous
 62
     7
100
AcDbLine
 10
-483.6381225585937
 20
394.1934204101563
 30
0.0
 11
-483.6381225585937
 21
403.5600585937499
 31
0.0
  0
LINE
  5
17B
330
22
100
AcDbEntity
  8
0
  6
Continuous
 62
     7
100
AcDbLine
 10
-478.6381225585937
 20
355.2106628417969
 30
0.0
 11
-478.6381225585937
 21
369.4038696289063
 31
0.0
  0
LINE
  5
17C
330
22
100
AcDbEntity
  8
0
  6
Continuous
 62
     7
100
AcDbLine
 10
-483.6381225585937
 20
360.6335144042969
 30
0.0
 11
-483.6381225585937
 21
383.45703125
 31
0.0
  0
LINE
  5
17D
330
22
100
AcDbEntity
  8
0
  6
Continuous
 62
     7
100
AcDbLine
 10
-495.8881225585938
 20
130.6595764160156
 30
0.0
 11
-495.8881225585938
 21
152.6595764160156
 31
0.0
  0
LINE
  5
17E
330
22
100
AcDbEntity
  8
0
  6
Continuous
 62
     7
100
AcDbLine
 10
-497.3881225585937
 20
130.6595764160156
 30
0.0
 11
-497.3881225585937
 21
154.1595764160156
 31
0.0
  0
LINE
  5
17F
330
22
100
AcDbEntity
  8
0
  6
Continuous
 62
     7
100
AcDbLine
 10
-498.0381164550781
 20
167.4033508300781
 30
0.0
 11
-498.0381164550781
 21
154.8095855712891
 31
0.0
  0
LINE
  5
180
330
22
100
AcDbEntity
  8
0
  6
Continuous
 62
     7
100
AcDbLine
 10
-497.3756103515625
 20
180.6595764160156
 30
0.0
 11
-497.7818908691406
 21
167.6595764160156
 31
0.0
  0
LINE
  5
181
330
22
100
AcDbEntity
  8
0
  6
Continuous
 62
     7
100
AcDbLine
 10
-506.8881225585938
 20
181.6595764160156
 30
0.0
 11
-506.8881225585938
 21
222.135986328125
 31
0.0
  0
LINE
  5
182
330
22
100
AcDbEntity
  8
0
  6
Continuous
 62
     7
100
AcDbLine
 10
-389.3881225585938
 20
230.6595764160156
 30
0.0
 11
-347.2536315917969
 21
247.8715057373047
 31
0.0
  0
LINE
  5
183
330
22
100
AcDbEntity
  8
0
  6
Continuous
 62
     7
100
AcDbLine
 10
-348.5118103027344
 20
248.9095764160156
 30
0.0
 11
-367.8396911621094
 21
248.9095764160156
 31
0.0
  0
LINE
  5
184
330
22
100
AcDbEntity
  8
0
  6
Continuous
 62
     7
100
AcDbLine
 10
-371.5697937011719
 20
226.8446960449219
 30
0.0
 11
-336.2064208984375
 21
239.4744720458984
 31
0.0
  0
LINE
  5
185
330
22
100
AcDbEntity
  8
0
  6
Continuous
 62
     7
100
AcDbLine
 10
-378.3881225585938
 20
130.6595764160156
 30
0.0
 11
-384.3881225585938
 21
130.6595764160156
 31
0.0
  0
LINE
  5
186
330
22
100
AcDbEntity
  8
0
  6
Continuous
 62
     7
100
AcDbLine
 10
-386.0043640136719
 20
128.7595825195313
 30
0.0
 11
-384.3881225585938
 21
130.6595764160156
 31
0.0
  0
LINE
  5
187
330
22
100
AcDbEntity
  8
0
  6
Continuous
 62
     7
100
AcDbLine
 10
-383.7381286621094
 20
167.4033508300781
 30
0.0
 11
-383.7381286621094
 21
154.8095855712891
 31
0.0
  0
LINE
  5
188
330
22
100
AcDbEntity
  8
0
  6
Continuous
 62
     7
100
AcDbLine
 10
-385.8881225585938
 20
152.6595764160156
 30
0.0
 11
-383.7381286621094
 21
154.8095855712891
 31
0.0
  0
LINE
  5
189
330
22
100
AcDbEntity
  8
0
  6
Continuous
 62
     7
100
AcDbLine
 10
-387.295166015625
 20
225.6595764160156
 30
0.0
 11
-385.937255859375
 21
182.2087249755859
 31
0.0
  0
LINE
  5
18A
330
22
100
AcDbEntity
  8
0
  6
Continuous
 62
     7
100
AcDbLine
 10
-385.7460327148438
 20
224.1104431152344
 30
0.0
 11
-384.3881225585938
 21
180.6595764160156
 31
0.0
  0
LINE
  5
18B
330
22
100
AcDbEntity
  8
0
  6
Continuous
 62
     7
100
AcDbLine
 10
-384.4006042480469
 20
180.6595764160156
 30
0.0
 11
-375.8881225585938
 21
180.6595764160156
 31
0.0
  0
LINE
  5
18C
330
22
100
AcDbEntity
  8
0
  6
Continuous
 62
     7
100
AcDbLine
 10
-386.6826477050781
 20
205.6595764160156
 30
0.0
 11
-385.5434875488281
 21
169.2087249755859
 31
0.0
  0
LINE
  5
18D
330
22
100
AcDbEntity
  8
0
  6
Continuous
 62
     7
100
AcDbLine
 10
-385.1334838867188
 20
204.1104431152344
 30
0.0
 11
-383.9943542480469
 21
167.6595764160156
 31
0.0
  0
LINE
  5
18E
330
22
100
AcDbEntity
  8
0
  6
Continuous
 62
     7
100
AcDbLine
 10
-383.7381286621094
 20
167.4033508300781
 30
0.0
 11
-385.5434875488281
 21
169.2087249755859
 31
0.0
  0
LINE
  5
18F
330
22
100
AcDbEntity
  8
0
  6
Continuous
 62
     7
100
AcDbLine
 10
-389.3881225585938
 20
225.6595764160156
 30
0.0
 11
-387.295166015625
 21
225.6595764160156
 31
0.0
  0
LINE
  5
190
330
22
100
AcDbEntity
  8
0
  6
Continuous
 62
     7
100
AcDbLine
 10
-387.295166015625
 20
225.6595764160156
 30
0.0
 11
-385.7460327148438
 21
224.1104431152344
 31
0.0
  0
LINE
  5
191
330
22
100
AcDbEntity
  8
0
  6
Continuous
 62
     7
100
AcDbLine
 10
-389.3881225585938
 20
225.6595764160156
 30
0.0
 11
-389.3881225585938
 21
230.6595764160156
 31
0.0
  0
LINE
  5
192
330
22
100
AcDbEntity
  8
0
  6
Continuous
 62
     7
100
AcDbLine
 10
-384.3881225585938
 20
180.6595764160156
 30
0.0
 11
-385.937255859375
 21
182.2087249755859
 31
0.0
  0
LINE
  5
193
330
22
100
AcDbEntity
  8
0
  6
Continuous
 62
     7
100
AcDbLine
 10
-334.8881225585938
 20
92.66008758544922
 30
0.0
 11
-337.1381225585938
 21
90.41008758544922
 31
0.0
  0
LINE
  5
194
330
22
100
AcDbEntity
  8
0
  6
Continuous
 62
     7
100
AcDbLine
 10
-342.6381225585938
 20
89.66008758544921
 30
0.0
 11
-342.6381225585938
 21
90.41008758544922
 31
0.0
  0
LINE
  5
195
330
22
100
AcDbEntity
  8
0
  6
Continuous
 62
     7
100
AcDbLine
 10
-337.1381225585938
 20
89.66008758544921
 30
0.0
 11
-337.1381225585938
 21
90.41008758544922
 31
0.0
  0
LINE
  5
196
330
22
100
AcDbEntity
  8
0
  6
Continuous
 62
     7
100
AcDbLine
 10
-346.954345703125
 20
92.65958404541015
 30
0.0
 11
-347.954345703125
 21
91.65958404541015
 31
0.0
  0
LINE
  5
197
330
22
100
AcDbEntity
  8
0
  6
Continuous
 62
     7
100
AcDbLine
 10
-329.8881225585938
 20
92.65958404541015
 30
0.0
 11
-329.8881225585938
 21
89.65958404541016
 31
0.0
  0
LINE
  5
198
330
22
100
AcDbEntity
  8
0
  6
CENTER
 62
     7
100
AcDbLine
 10
-339.8881225585938
 20
93.84236907958984
 30
0.0
 11
-339.8881225585938
 21
88.41265869140626
 31
0.0
  0
LINE
  5
199
330
22
100
AcDbEntity
  8
0
  6
Continuous
 62
     7
100
AcDbLine
 10
-553.8881225585938
 20
255.6595764160156
 30
0.0
 11
-440.8881225585938
 21
255.6595764160156
 31
0.0
  0
LINE
  5
19A
330
22
100
AcDbEntity
  8
0
  6
Continuous
 62
     7
100
AcDbLine
 10
-541.3253784179688
 20
242.6595764160156
 30
0.0
 11
-440.8881225585938
 21
242.6595764160156
 31
0.0
  0
LINE
  5
19B
330
22
100
AcDbEntity
  8
0
  6
Continuous
 62
     7
100
AcDbLine
 10
-495.8881225585938
 20
152.6595764160156
 30
0.0
 11
-440.8881225585938
 21
152.6595764160156
 31
0.0
  0
LINE
  5
19C
330
22
100
AcDbEntity
  8
0
  6
Continuous
 62
     7
100
AcDbLine
 10
-496.2327270507812
 20
169.2087249755859
 30
0.0
 11
-440.8881225585938
 21
169.2087249755859
 31
0.0
  0
LINE
  5
19D
330
22
100
AcDbEntity
  8
0
  6
Continuous
 62
     7
100
AcDbLine
 10
-505.8881225585937
 20
180.6595764160156
 30
0.0
 11
-440.8881225585938
 21
180.6595764160156
 31
0.0
  0
LINE
  5
19E
330
22
100
AcDbEntity
  8
0
  6
Continuous
 62
     7
100
AcDbLine
 10
-502.8253479003906
 20
224.6595764160156
 30
0.0
 11
-440.8881225585938
 21
224.6595764160156
 31
0.0
  0
LINE
  5
19F
330
22
100
AcDbEntity
  8
0
  6
Continuous
 62
     7
100
AcDbLine
 10
-440.8881225585938
 20
130.6595764160156
 30
0.0
 11
-503.3881225585938
 21
130.6595764160156
 31
0.0
  0
LINE
  5
1A0
330
22
100
AcDbEntity
  8
0
  6
Continuous
 62
     7
100
AcDbLine
 10
-510.2064208984375
 20
226.8446960449219
 30
0.0
 11
-545.56982421875
 21
239.4744720458984
 31
0.0
  0
LINE
  5
1A1
330
22
100
AcDbEntity
  8
0
  6
Continuous
 62
     7
100
AcDbLine
 10
-553.8881225585938
 20
255.6595764160156
 30
0.0
 11
-558.8881225585939
 21
255.6595764160156
 31
0.0
  0
LINE
  5
1A2
330
22
100
AcDbEntity
  8
0
  6
Continuous
 62
     7
100
AcDbLine
 10
-548.8881225585938
 20
250.6595764160156
 30
0.0
 11
-548.8881225585938
 21
244.1831817626953
 31
0.0
  0
LINE
  5
1A3
330
22
100
AcDbEntity
  8
0
  6
Continuous
 62
     7
100
AcDbLine
 10
-495.8748779296874
 20
180.6595764160156
 30
0.0
 11
-496.2327270507812
 21
169.2087249755859
 31
0.0
  0
LINE
  5
1A4
330
22
100
AcDbEntity
  8
0
  6
Continuous
 62
     7
100
AcDbLine
 10
-498.0381164550781
 20
167.4033508300781
 30
0.0
 11
-496.2327270507812
 21
169.2087249755859
 31
0.0
  0
LINE
  5
1A5
330
22
100
AcDbEntity
  8
0
  6
Continuous
 62
     7
100
AcDbLine
 10
-495.8881225585938
 20
152.6595764160156
 30
0.0
 11
-498.0381164550781
 21
154.8095855712891
 31
0.0
  0
LINE
  5
1A6
330
22
100
AcDbEntity
  8
0
  6
Continuous
 62
     7
100
AcDbLine
 10
-432.6381225585937
 20
537.1795043945313
 30
0.0
 11
-432.6381225585937
 21
518.87646484375
 31
0.0
  0
LINE
  5
1A7
330
22
100
AcDbEntity
  8
0
  6
CENTER
 62
     7
100
AcDbLine
 10
-577.0603637695312
 20
443.1767272949218
 30
0.0
 11
-304.0103454589844
 21
443.1767272949218
 31
0.0
  0
LINE
  5
1A8
330
22
100
AcDbEntity
  8
0
  6
Continuous
 62
     7
100
AcDbLine
 10
-440.8881225585938
 20
92.65958404541015
 30
0.0
 11
-551.8881225585938
 21
92.65958404541015
 31
0.0
  0
LINE
  5
1A9
330
22
100
AcDbEntity
  8
0
  6
Continuous
 62
     7
100
AcDbLine
 10
-440.8881225585938
 20
89.65958404541016
 30
0.0
 11
-551.8881225585938
 21
89.65958404541016
 31
0.0
  0
LINE
  5
1AA
330
22
100
AcDbEntity
  8
0
  6
Continuous
 62
     7
100
AcDbLine
 10
-551.8881225585938
 20
89.65958404541016
 30
0.0
 11
-551.8881225585938
 21
92.65958404541015
 31
0.0
  0
LINE
  5
1AB
330
22
100
AcDbEntity
  8
0
  6
Continuous
 62
     7
100
AcDbLine
 10
-503.3881225585938
 20
89.65958404541016
 30
0.0
 11
-503.3881225585938
 21
37.65958023071289
 31
0.0
  0
LINE
  5
1AC
330
22
100
AcDbEntity
  8
0
  6
Continuous
 62
     7
100
AcDbLine
 10
-329.8881225585938
 20
89.65958404541016
 30
0.0
 11
-378.3881225585938
 21
89.65958404541016
 31
0.0
  0
LINE
  5
1AD
330
22
100
AcDbEntity
  8
0
  6
Continuous
 62
     7
100
AcDbLine
 10
-329.8881225585938
 20
92.65958404541015
 30
0.0
 11
-378.3881225585938
 21
92.65958404541015
 31
0.0
  0
LINE
  5
1AE
330
22
100
AcDbEntity
  8
0
  6
Continuous
 62
     7
100
AcDbLine
 10
-347.954345703125
 20
91.65958404541015
 30
0.0
 11
-348.954345703125
 21
92.65958404541015
 31
0.0
  0
LINE
  5
1AF
330
22
100
AcDbEntity
  8
0
  6
Continuous
 62
     7
100
AcDbLine
 10
-330.4826354980469
 20
92.65958404541015
 30
0.0
 11
-329.8881225585938
 21
92.06506347656249
 31
0.0
  0
LINE
  5
1B0
330
22
100
AcDbEntity
  8
0
  6
Continuous
 62
     7
100
AcDbLine
 10
-332.6039428710938
 20
92.65958404541015
 30
0.0
 11
-329.8881225585938
 21
89.94374084472656
 31
0.0
  0
LINE
  5
1B1
330
22
100
AcDbEntity
  8
0
  6
Continuous
 62
     7
100
AcDbLine
 10
-333.3110656738281
 20
92.65958404541015
 30
0.0
 11
-330.3110656738281
 21
89.65958404541016
 31
0.0
  0
LINE
  5
1B2
330
22
100
AcDbEntity
  8
0
  6
Continuous
 62
     7
100
AcDbLine
 10
-335.1604919433594
 20
92.38770294189452
 30
0.0
 11
-332.432373046875
 21
89.65958404541016
 31
0.0
  0
LINE
  5
1B3
330
22
100
AcDbEntity
  8
0
  6
Continuous
 62
     7
100
AcDbLine
 10
-335.5140686035156
 20
92.03414916992187
 30
0.0
 11
-333.1394958496094
 21
89.65958404541016
 31
0.0
  0
LINE
  5
1B4
330
22
100
AcDbEntity
  8
0
  6
Continuous
 62
     7
100
AcDbLine
 10
-336.57470703125
 20
90.97348785400392
 30
0.0
 11
-335.2608032226563
 21
89.65958404541016
 31
0.0
  0
LINE
  5
1B5
330
22
100
AcDbEntity
  8
0
  6
Continuous
 62
     7
100
AcDbLine
 10
-336.9282836914063
 20
90.61993408203123
 30
0.0
 11
-335.9679260253906
 21
89.65958404541016
 31
0.0
  0
LINE
  5
1B6
330
22
100
AcDbEntity
  8
0
  6
Continuous
 62
     7
100
AcDbLine
 10
-346.74609375
 20
92.65958404541015
 30
0.0
 11
-343.74609375
 21
89.65958404541016
 31
0.0
  0
LINE
  5
1B7
330
22
100
AcDbEntity
  8
0
  6
Continuous
 62
     7
100
AcDbLine
 10
-347.2037658691406
 20
92.41016387939451
 30
0.0
 11
-344.4531860351563
 21
89.65958404541016
 31
0.0
  0
LINE
  5
1B8
330
22
100
AcDbEntity
  8
0
  6
Continuous
 62
     7
100
AcDbLine
 10
-349.5745239257813
 20
92.65958404541015
 30
0.0
 11
-346.5745239257813
 21
89.65958404541016
 31
0.0
  0
LINE
  5
1B9
330
22
100
AcDbEntity
  8
0
  6
Continuous
 62
     7
100
AcDbLine
 10
-350.2816162109375
 20
92.65958404541015
 30
0.0
 11
-347.2816162109375
 21
89.65958404541016
 31
0.0
  0
LINE
  5
1BA
330
22
100
AcDbEntity
  8
0
  6
Continuous
 62
     7
100
AcDbLine
 10
-352.4029541015625
 20
92.65958404541015
 30
0.0
 11
-349.4029541015625
 21
89.65958404541016
 31
0.0
  0
LINE
  5
1BB
330
22
100
AcDbEntity
  8
0
  6
Continuous
 62
     7
100
AcDbLine
 10
-353.1100463867188
 20
92.65958404541015
 30
0.0
 11
-350.1100463867188
 21
89.65958404541016
 31
0.0
  0
LINE
  5
1BC
330
22
100
AcDbEntity
  8
0
  6
Continuous
 62
     7
100
AcDbLine
 10
-355.2313842773438
 20
92.65958404541015
 30
0.0
 11
-352.2313842773438
 21
89.65958404541016
 31
0.0
  0
LINE
  5
1BD
330
22
100
AcDbEntity
  8
0
  6
Continuous
 62
     7
100
AcDbLine
 10
-355.9384765625
 20
92.65958404541015
 30
0.0
 11
-352.9384765625
 21
89.65958404541016
 31
0.0
  0
LINE
  5
1BE
330
22
100
AcDbEntity
  8
0
  6
Continuous
 62
     7
100
AcDbLine
 10
-358.0597839355469
 20
92.65958404541015
 30
0.0
 11
-355.0597839355469
 21
89.65958404541016
 31
0.0
  0
LINE
  5
1BF
330
22
100
AcDbEntity
  8
0
  6
Continuous
 62
     7
100
AcDbLine
 10
-358.7669067382813
 20
92.65958404541015
 30
0.0
 11
-355.7669067382813
 21
89.65958404541016
 31
0.0
  0
LINE
  5
1C0
330
22
100
AcDbEntity
  8
0
  6
Continuous
 62
     7
100
AcDbLine
 10
-360.8882141113281
 20
92.65958404541015
 30
0.0
 11
-357.8882141113281
 21
89.65958404541016
 31
0.0
  0
LINE
  5
1C1
330
22
100
AcDbEntity
  8
0
  6
Continuous
 62
     7
100
AcDbLine
 10
-361.5953369140625
 20
92.65958404541015
 30
0.0
 11
-358.5953369140625
 21
89.65958404541016
 31
0.0
  0
LINE
  5
1C2
330
22
100
AcDbEntity
  8
0
  6
Continuous
 62
     7
100
AcDbLine
 10
-363.6277160644531
 20
92.57064056396485
 30
0.0
 11
-360.7166442871094
 21
89.65958404541016
 31
0.0
  0
LINE
  5
1C3
330
22
100
AcDbEntity
  8
0
  6
Continuous
 62
     7
100
AcDbLine
 10
-363.9812622070313
 20
92.2170867919922
 30
0.0
 11
-361.4237670898438
 21
89.65958404541016
 31
0.0
  0
LINE
  5
1C4
330
22
100
AcDbEntity
  8
0
  6
Continuous
 62
     7
100
AcDbLine
 10
-366.5450744628906
 20
92.65958404541015
 30
0.0
 11
-363.5450744628906
 21
89.65958404541016
 31
0.0
  0
LINE
  5
1C5
330
22
100
AcDbEntity
  8
0
  6
Continuous
 62
     7
100
AcDbLine
 10
-367.252197265625
 20
92.65958404541015
 30
0.0
 11
-364.252197265625
 21
89.65958404541016
 31
0.0
  0
LINE
  5
1C6
330
22
100
AcDbEntity
  8
0
  6
Continuous
 62
     7
100
AcDbLine
 10
-369.3735046386719
 20
92.65958404541015
 30
0.0
 11
-366.3735046386719
 21
89.65958404541016
 31
0.0
  0
LINE
  5
1C7
330
22
100
AcDbEntity
  8
0
  6
Continuous
 62
     7
100
AcDbLine
 10
-370.0806274414063
 20
92.65958404541015
 30
0.0
 11
-367.0806274414063
 21
89.65958404541016
 31
0.0
  0
LINE
  5
1C8
330
22
100
AcDbEntity
  8
0
  6
Continuous
 62
     7
100
AcDbLine
 10
-372.2019348144531
 20
92.65958404541015
 30
0.0
 11
-369.2019348144531
 21
89.65958404541016
 31
0.0
  0
LINE
  5
1C9
330
22
100
AcDbEntity
  8
0
  6
Continuous
 62
     7
100
AcDbLine
 10
-372.9090270996094
 20
92.65958404541015
 30
0.0
 11
-369.9090270996094
 21
89.65958404541016
 31
0.0
  0
LINE
  5
1CA
330
22
100
AcDbEntity
  8
0
  6
Continuous
 62
     7
100
AcDbLine
 10
-375.0303649902344
 20
92.65958404541015
 30
0.0
 11
-372.0303649902344
 21
89.65958404541016
 31
0.0
  0
LINE
  5
1CB
330
22
100
AcDbEntity
  8
0
  6
Continuous
 62
     7
100
AcDbLine
 10
-375.7374572753906
 20
92.65958404541015
 30
0.0
 11
-372.7374572753906
 21
89.65958404541016
 31
0.0
  0
LINE
  5
1CC
330
22
100
AcDbEntity
  8
0
  6
Continuous
 62
     7
100
AcDbLine
 10
-377.8587951660156
 20
92.65958404541015
 30
0.0
 11
-374.8587951660156
 21
89.65958404541016
 31
0.0
  0
LINE
  5
1CD
330
22
100
AcDbEntity
  8
0
  6
Continuous
 62
     7
100
AcDbLine
 10
-378.3881225585938
 20
92.48180389404295
 30
0.0
 11
-375.5658874511719
 21
89.65958404541016
 31
0.0
  0
LINE
  5
1CE
330
22
100
AcDbEntity
  8
0
  6
Continuous
 62
     7
100
AcDbLine
 10
-378.3881225585938
 20
90.36048126220704
 30
0.0
 11
-377.6872253417969
 21
89.65958404541016
 31
0.0
  0
LINE
  5
1CF
330
22
100
AcDbEntity
  8
0
  6
Continuous
 62
     7
100
AcDbLine
 10
-387.1239624023438
 20
73.45957946777343
 30
0.0
 11
-386.0542297363281
 21
39.22970199584961
 31
0.0
  0
LINE
  5
1D0
330
22
100
AcDbEntity
  8
0
  6
Continuous
 62
     7
100
AcDbLine
 10
-384.3881225585938
 20
37.65958023071289
 30
0.0
 11
-386.0542297363281
 21
39.22970199584961
 31
0.0
  0
LINE
  5
1D1
330
22
100
AcDbEntity
  8
0
  6
Continuous
 62
     7
100
AcDbLine
 10
-387.1239624023438
 20
85.65958404541015
 30
0.0
 11
-386.0043640136719
 21
85.65958404541015
 31
0.0
  0
LINE
  5
1D2
330
22
100
AcDbEntity
  8
0
  6
Continuous
 62
     7
100
AcDbLine
 10
-387.1239624023438
 20
73.45957946777343
 30
0.0
 11
-387.1239624023438
 21
85.65958404541015
 31
0.0
  0
LINE
  5
1D3
330
22
100
AcDbEntity
  8
0
  6
Continuous
 62
     7
100
AcDbLine
 10
-387.1239624023438
 20
73.45957946777343
 30
0.0
 11
-385.4547424316406
 21
71.7903823852539
 31
0.0
  0
LINE
  5
1D4
330
22
100
AcDbEntity
  8
0
  6
Continuous
 62
     7
100
AcDbLine
 10
-363.5387573242188
 20
92.65958404541015
 30
0.0
 11
-364.5387573242188
 21
91.65958404541015
 31
0.0
  0
LINE
  5
1D5
330
22
100
AcDbEntity
  8
0
  6
Continuous
 62
     7
100
AcDbLine
 10
-364.5387573242188
 20
91.65958404541015
 30
0.0
 11
-365.5387573242188
 21
92.65958404541015
 31
0.0
  0
LINE
  5
1D6
330
22
100
AcDbEntity
  8
0
  6
Continuous
 62
     7
100
AcDbLine
 10
-386.0043640136719
 20
85.65958404541015
 30
0.0
 11
-384.3881225585938
 21
87.27582550048827
 31
0.0
  0
LINE
  5
1D7
330
22
100
AcDbEntity
  8
0
  6
Continuous
 62
     7
100
AcDbLine
 10
-385.4547424316406
 20
71.7903823852539
 30
0.0
 11
-384.3881225585938
 21
37.65958023071289
 31
0.0
  0
LINE
  5
1D8
330
22
100
AcDbEntity
  8
0
  6
Continuous
 62
     7
100
AcDbLine
 10
-344.8881225585938
 20
92.66008758544922
 30
0.0
 11
-342.6381225585938
 21
90.41008758544922
 31
0.0
  0
LINE
  5
1D9
330
22
100
AcDbEntity
  8
0
  6
Continuous
 62
     7
100
AcDbLine
 10
-378.3881225585938
 20
37.65958023071289
 30
0.0
 11
-503.3881225585938
 21
37.65958023071289
 31
0.0
  0
LINE
  5
1DA
330
22
100
AcDbEntity
  8
0
  6
Continuous
 62
     7
100
AcDbLine
 10
-387.1239624023438
 20
85.65958404541015
 30
0.0
 11
-440.8881225585938
 21
85.65958404541015
 31
0.0
  0
LINE
  5
1DB
330
22
100
AcDbEntity
  8
0
  6
Continuous
 62
     7
100
AcDbLine
 10
-386.0542297363281
 20
39.22970199584961
 30
0.0
 11
-440.8881225585938
 21
39.22970199584961
 31
0.0
  0
LINE
  5
1DC
330
22
100
AcDbEntity
  8
0
  6
Continuous
 62
     7
100
AcDbLine
 10
-385.4547424316406
 20
71.7903823852539
 30
0.0
 11
-440.8881225585938
 21
71.7903823852539
 31
0.0
  0
LINE
  5
1DD
330
22
100
AcDbEntity
  8
0
  6
Continuous
 62
     7
100
AcDbLine
 10
-384.3881225585938
 20
87.27582550048827
 30
0.0
 11
-440.8881225585938
 21
87.27582550048827
 31
0.0
  0
LINE
  5
1DE
330
22
100
AcDbEntity
  8
0
  6
Continuous
 62
     7
100
AcDbLine
 10
-440.8881225585938
 20
205.6595764160156
 30
0.0
 11
-386.6826477050781
 21
205.6595764160156
 31
0.0
  0
LINE
  5
1DF
330
22
100
AcDbEntity
  8
0
  6
Continuous
 62
     7
100
AcDbLine
 10
-389.3881225585938
 20
230.6595764160156
 30
0.0
 11
-440.8881225585938
 21
230.6595764160156
 31
0.0
  0
LINE
  5
1E0
330
22
100
AcDbEntity
  8
0
  6
Continuous
 62
     7
100
AcDbLine
 10
-389.3881225585938
 20
225.6595764160156
 30
0.0
 11
-440.8881225585938
 21
225.6595764160156
 31
0.0
  0
LINE
  5
1E1
330
22
100
AcDbEntity
  8
0
  6
Continuous
 62
     7
100
AcDbLine
 10
-380.5163879394531
 20
248.9095764160156
 30
0.0
 11
-440.8881225585938
 21
248.9095764160156
 31
0.0
  0
LINE
  5
1E2
330
22
100
AcDbEntity
  8
0
  6
Continuous
 62
     7
100
AcDbLine
 10
-432.6381225585937
 20
378.1103820800781
 30
0.0
 11
-432.6381225585937
 21
408.47705078125
 31
0.0
  0
LINE
  5
1E3
330
22
100
AcDbEntity
  8
0
  6
Continuous
 62
     7
100
AcDbLine
 10
-432.6381225585937
 20
349.1739807128906
 30
0.0
 11
-432.6381225585937
 21
367.47705078125
 31
0.0
  0
LINE
  5
1E4
330
22
100
AcDbEntity
  8
0
  6
Continuous
 62
     7
100
AcDbLine
 10
-432.6381225585937
 20
467.2100830078124
 30
0.0
 11
-432.6381225585937
 21
448.993408203125
 31
0.0
  0
LINE
  5
1E5
330
22
100
AcDbEntity
  8
0
  6
Continuous
 62
     7
100
AcDbLine
 10
-432.6381225585937
 20
508.2431030273438
 30
0.0
 11
-432.6381225585937
 21
477.8764343261719
 31
0.0
  0
LINE
  5
1E6
330
22
100
AcDbEntity
  8
0
  6
Continuous
 62
     7
100
AcDbLine
 10
-483.6381225585937
 20
414.1934204101563
 30
0.0
 11
-483.6381225585937
 21
437.3600769042968
 31
0.0
  0
LINE
  5
1E7
330
22
100
AcDbEntity
  8
0
  6
Continuous
 62
     7
100
AcDbLine
 10
-501.6381225585938
 20
407.9934082031249
 30
0.0
 11
-501.6381225585938
 21
437.3600769042968
 31
0.0
  0
LINE
  5
1E8
330
22
100
AcDbEntity
  8
0
  6
Continuous
 62
     7
100
AcDbLine
 10
-513.1381225585938
 20
412.9934082031249
 30
0.0
 11
-513.1381225585938
 21
437.3600769042968
 31
0.0
  0
LINE
  5
1E9
330
22
100
AcDbEntity
  8
0
  6
Continuous
 62
     7
100
AcDbLine
 10
-506.6381225585938
 20
412.9934082031249
 30
0.0
 11
-506.6381225585938
 21
437.3600769042968
 31
0.0
  0
LINE
  5
1EA
330
22
100
AcDbEntity
  8
0
  6
Continuous
 62
     7
100
AcDbLine
 10
-529.6381225585938
 20
413.4330444335938
 30
0.0
 11
-529.6381225585938
 21
437.3600769042968
 31
0.0
  0
LINE
  5
1EB
330
22
100
AcDbEntity
  8
0
  6
Continuous
 62
     7
100
AcDbLine
 10
-437.6381225585937
 20
414.2767333984375
 30
0.0
 11
-437.6381225585937
 21
434.1767272949218
 31
0.0
  0
LINE
  5
1EC
330
22
100
AcDbEntity
  8
0
  6
Continuous
 62
     7
100
AcDbLine
 10
-421.1381225585937
 20
409.8934020996093
 30
0.0
 11
-421.1381225585937
 21
437.3600769042968
 31
0.0
  0
LINE
  5
1ED
330
22
100
AcDbEntity
  8
0
  6
Continuous
 62
     7
100
AcDbLine
 10
-432.6381225585937
 20
419.1434020996093
 30
0.0
 11
-432.6381225585937
 21
437.3600769042968
 31
0.0
  0
LINE
  5
1EE
330
22
100
AcDbEntity
  8
0
  6
Continuous
 62
     7
100
AcDbLine
 10
-426.1381225585938
 20
419.1434020996093
 30
0.0
 11
-426.1381225585938
 21
437.3600769042968
 31
0.0
  0
LINE
  5
1EF
330
22
100
AcDbEntity
  8
0
  6
Continuous
 62
     7
100
AcDbLine
 10
-455.6381225585938
 20
419.1434020996093
 30
0.0
 11
-455.6381225585938
 21
437.3600769042968
 31
0.0
  0
LINE
  5
1F0
330
22
100
AcDbEntity
  8
0
  6
Continuous
 62
     7
100
AcDbLine
 10
-449.1381225585937
 20
419.1434020996093
 30
0.0
 11
-449.1381225585937
 21
437.3600769042968
 31
0.0
  0
LINE
  5
1F1
330
22
100
AcDbEntity
  8
0
  6
Continuous
 62
     7
100
AcDbLine
 10
-478.6381225585937
 20
422.993408203125
 30
0.0
 11
-478.6381225585937
 21
437.3600769042968
 31
0.0
  0
LINE
  5
1F2
330
22
100
AcDbEntity
  8
0
  6
Continuous
 62
     7
100
AcDbLine
 10
-472.1381225585938
 20
422.993408203125
 30
0.0
 11
-472.1381225585938
 21
437.3600769042968
 31
0.0
  0
LINE
  5
1F3
330
22
100
AcDbEntity
  8
0
  6
Continuous
 62
     7
100
AcDbLine
 10
-414.6381225585938
 20
409.8934020996093
 30
0.0
 11
-414.6381225585938
 21
437.3600769042968
 31
0.0
  0
LINE
  5
1F4
330
22
100
AcDbEntity
  8
0
  6
CENTER
 62
     7
100
AcDbLine
 10
-440.8881225585938
 20
575.3447265624999
 30
0.0
 11
-440.8881225585938
 21
303.705810546875
 31
0.0
  0
LINE
  5
1F5
330
22
100
AcDbEntity
  8
0
  6
Continuous
 62
     7
100
AcDbLine
 10
-384.3881225585938
 20
130.644287109375
 30
0.0
 11
-384.3728332519532
 21
130.6595764160156
 31
0.0
  0
LINE
  5
1F6
330
22
100
AcDbEntity
  8
0
  6
Continuous
 62
     7
100
AcDbLine
 10
-384.3881225585938
 20
127.8158569335938
 30
0.0
 11
-381.5444030761719
 21
130.6595764160156
 31
0.0
  0
LINE
  5
1F7
330
22
100
AcDbEntity
  8
0
  6
Continuous
 62
     7
100
AcDbLine
 10
-384.3881225585938
 20
124.987434387207
 30
0.0
 11
-378.7159729003906
 21
130.6595764160156
 31
0.0
  0
LINE
  5
1F8
330
22
100
AcDbEntity
  8
0
  6
Continuous
 62
     7
100
AcDbLine
 10
-384.3881225585938
 20
122.1590042114258
 30
0.0
 11
-378.3881225585938
 21
128.1590118408203
 31
0.0
  0
LINE
  5
1F9
330
22
100
AcDbEntity
  8
0
  6
Continuous
 62
     7
100
AcDbLine
 10
-384.3881225585938
 20
119.3305740356445
 30
0.0
 11
-378.3881225585938
 21
125.3305740356445
 31
0.0
  0
LINE
  5
1FA
330
22
100
AcDbEntity
  8
0
  6
Continuous
 62
     7
100
AcDbLine
 10
-384.3881225585938
 20
116.5021514892578
 30
0.0
 11
-378.3881225585938
 21
122.5021514892578
 31
0.0
  0
LINE
  5
1FB
330
22
100
AcDbEntity
  8
0
  6
Continuous
 62
     7
100
AcDbLine
 10
-384.3881225585938
 20
113.6737213134766
 30
0.0
 11
-378.3881225585938
 21
119.6737213134766
 31
0.0
  0
LINE
  5
1FC
330
22
100
AcDbEntity
  8
0
  6
Continuous
 62
     7
100
AcDbLine
 10
-384.3881225585938
 20
110.8452987670898
 30
0.0
 11
-378.3881225585938
 21
116.8452987670898
 31
0.0
  0
LINE
  5
1FD
330
22
100
AcDbEntity
  8
0
  6
Continuous
 62
     7
100
AcDbLine
 10
-384.3881225585938
 20
108.0168685913086
 30
0.0
 11
-378.3881225585938
 21
114.0168685913086
 31
0.0
  0
LINE
  5
1FE
330
22
100
AcDbEntity
  8
0
  6
Continuous
 62
     7
100
AcDbLine
 10
-384.3881225585938
 20
105.1884384155273
 30
0.0
 11
-378.3881225585938
 21
111.1884384155273
 31
0.0
  0
LINE
  5
1FF
330
22
100
AcDbEntity
  8
0
  6
Continuous
 62
     7
100
AcDbLine
 10
-384.3881225585938
 20
102.3600158691406
 30
0.0
 11
-378.3881225585938
 21
108.3600158691406
 31
0.0
  0
LINE
  5
200
330
22
100
AcDbEntity
  8
0
  6
Continuous
 62
     7
100
AcDbLine
 10
-384.3881225585938
 20
99.53158569335938
 30
0.0
 11
-378.3881225585938
 21
105.5315856933594
 31
0.0
  0
LINE
  5
201
330
22
100
AcDbEntity
  8
0
  6
Continuous
 62
     7
100
AcDbLine
 10
-384.3881225585938
 20
96.70316314697267
 30
0.0
 11
-378.3881225585938
 21
102.7031631469727
 31
0.0
  0
LINE
  5
202
330
22
100
AcDbEntity
  8
0
  6
Continuous
 62
     7
100
AcDbLine
 10
-384.3881225585938
 20
93.87473297119141
 30
0.0
 11
-378.3881225585938
 21
99.87473297119141
 31
0.0
  0
LINE
  5
203
330
22
100
AcDbEntity
  8
0
  6
Continuous
 62
     7
100
AcDbLine
 10
-384.3881225585938
 20
91.04630279541016
 30
0.0
 11
-378.3881225585938
 21
97.04630279541015
 31
0.0
  0
LINE
  5
204
330
22
100
AcDbEntity
  8
0
  6
Continuous
 62
     7
100
AcDbLine
 10
-384.3881225585938
 20
88.21788024902344
 30
0.0
 11
-378.3881225585938
 21
94.21788024902344
 31
0.0
  0
LINE
  5
205
330
22
100
AcDbEntity
  8
0
  6
Continuous
 62
     7
100
AcDbLine
 10
-387.1239624023438
 20
85.48204040527343
 30
0.0
 11
-386.9464111328125
 21
85.65958404541015
 31
0.0
  0
LINE
  5
206
330
22
100
AcDbEntity
  8
0
  6
Continuous
 62
     7
100
AcDbLine
 10
-387.1239624023438
 20
82.65361022949219
 30
0.0
 11
-378.3881225585938
 21
91.3894500732422
 31
0.0
  0
LINE
  5
207
330
22
100
AcDbEntity
  8
0
  6
Continuous
 62
     7
100
AcDbLine
 10
-387.1239624023438
 20
79.82518768310547
 30
0.0
 11
-378.3881225585938
 21
88.56102752685547
 31
0.0
  0
LINE
  5
208
330
22
100
AcDbEntity
  8
0
  6
Continuous
 62
     7
100
AcDbLine
 10
-387.1239624023438
 20
76.99675750732422
 30
0.0
 11
-378.3881225585938
 21
85.73259735107422
 31
0.0
  0
LINE
  5
209
330
22
100
AcDbEntity
  8
0
  6
Continuous
 62
     7
100
AcDbLine
 10
-387.1239624023438
 20
74.1683349609375
 30
0.0
 11
-378.3881225585938
 21
82.90416717529296
 31
0.0
  0
LINE
  5
20A
330
22
100
AcDbEntity
  8
0
  6
Continuous
 62
     7
100
AcDbLine
 10
-386.0641174316406
 20
72.39974212646484
 30
0.0
 11
-378.3881225585938
 21
80.07574462890625
 31
0.0
  0
LINE
  5
20B
330
22
100
AcDbEntity
  8
0
  6
Continuous
 62
     7
100
AcDbLine
 10
-385.4059753417969
 20
70.22945404052734
 30
0.0
 11
-378.3881225585938
 21
77.247314453125
 31
0.0
  0
LINE
  5
20C
330
22
100
AcDbEntity
  8
0
  6
Continuous
 62
     7
100
AcDbLine
 10
-385.3202514648438
 20
67.48674011230469
 30
0.0
 11
-378.3881225585938
 21
74.41889190673828
 31
0.0
  0
LINE
  5
20D
330
22
100
AcDbEntity
  8
0
  6
Continuous
 62
     7
100
AcDbLine
 10
-385.2345581054688
 20
64.74403381347656
 30
0.0
 11
-378.3881225585938
 21
71.59046173095703
 31
0.0
  0
LINE
  5
20E
330
22
100
AcDbEntity
  8
0
  6
Continuous
 62
     7
100
AcDbLine
 10
-385.1488342285156
 20
62.00131607055664
 30
0.0
 11
-378.3881225585938
 21
68.76203155517578
 31
0.0
  0
LINE
  5
20F
330
22
100
AcDbEntity
  8
0
  6
Continuous
 62
     7
100
AcDbLine
 10
-385.0631103515625
 20
59.25860595703125
 30
0.0
 11
-378.3881225585938
 21
65.93360900878906
 31
0.0
  0
LINE
  5
210
330
22
100
AcDbEntity
  8
0
  6
Continuous
 62
     7
100
AcDbLine
 10
-384.9774169921875
 20
56.5158920288086
 30
0.0
 11
-378.3881225585938
 21
63.10517883300781
 31
0.0
  0
LINE
  5
211
330
22
100
AcDbEntity
  8
0
  6
Continuous
 62
     7
100
AcDbLine
 10
-384.8916931152344
 20
53.77317810058594
 30
0.0
 11
-378.3881225585938
 21
60.27675247192383
 31
0.0
  0
LINE
  5
212
330
22
100
AcDbEntity
  8
0
  6
Continuous
 62
     7
100
AcDbLine
 10
-384.8059692382813
 20
51.03046417236328
 30
0.0
 11
-378.3881225585938
 21
57.44832611083984
 31
0.0
  0
LINE
  5
213
330
22
100
AcDbEntity
  8
0
  6
Continuous
 62
     7
100
AcDbLine
 10
-384.7202758789063
 20
48.28775024414063
 30
0.0
 11
-378.3881225585938
 21
54.61989974975586
 31
0.0
  0
LINE
  5
214
330
22
100
AcDbEntity
  8
0
  6
Continuous
 62
     7
100
AcDbLine
 10
-384.6345520019531
 20
45.54504013061523
 30
0.0
 11
-378.3881225585938
 21
51.79147338867188
 31
0.0
  0
LINE
  5
215
330
22
100
AcDbEntity
  8
0
  6
Continuous
 62
     7
100
AcDbLine
 10
-384.548828125
 20
42.80232620239257
 30
0.0
 11
-378.3881225585938
 21
48.96304321289063
 31
0.0
  0
LINE
  5
216
330
22
100
AcDbEntity
  8
0
  6
Continuous
 62
     7
100
AcDbLine
 10
-384.463134765625
 20
40.05961227416992
 30
0.0
 11
-378.3881225585938
 21
46.13461685180664
 31
0.0
  0
LINE
  5
217
330
22
100
AcDbEntity
  8
0
  6
Continuous
 62
     7
100
AcDbLine
 10
-384.0347290039063
 20
37.65958023071289
 30
0.0
 11
-378.3881225585938
 21
43.30619049072265
 31
0.0
  0
LINE
  5
218
330
22
100
AcDbEntity
  8
0
  6
Continuous
 62
     7
100
AcDbLine
 10
-381.206298828125
 20
37.65958023071289
 30
0.0
 11
-378.3881225585938
 21
40.47776412963867
 31
0.0
  0
LINE
  5
219
330
22
100
AcDbEntity
  8
0
  6
Continuous
 62
     7
100
AcDbLine
 10
-503.3881225585938
 20
130.6595764160156
 30
0.0
 11
-503.3881225585938
 21
92.65958404541015
 31
0.0
  0
LINE
  5
21A
330
22
100
AcDbEntity
  8
0
  6
Continuous
 62
     7
100
AcDbLine
 10
-421.4573059082031
 20
105.6595840454102
 30
0.0
 11
-411.5538024902344
 21
105.6595840454102
 31
0.0
  0
LINE
  5
21B
330
22
100
AcDbEntity
  8
0
  6
Continuous
 62
     7
100
AcDbLine
 10
-421.4573059082031
 20
205.6595764160156
 30
0.0
 11
-411.5538024902344
 21
205.6595764160156
 31
0.0
  0
LINE
  5
21C
330
22
100
AcDbEntity
  8
0
  6
Continuous
 62
     7
100
AcDbLine
 10
-440.8881225585938
 20
105.6595840454102
 30
0.0
 11
-385.8881225585938
 21
105.6595840454102
 31
0.0
  0
LINE
  5
21D
330
22
100
AcDbEntity
  8
0
  6
Continuous
 62
     7
100
AcDbLine
 10
-352.1381225585938
 20
413.4330444335938
 30
0.0
 11
-352.1381225585938
 21
437.3600769042968
 31
0.0
  0
LINE
  5
21E
330
22
100
AcDbEntity
  8
0
  6
Continuous
 62
     7
100
AcDbLine
 10
-409.6381225585938
 20
422.993408203125
 30
0.0
 11
-409.6381225585938
 21
437.3600769042968
 31
0.0
  0
LINE
  5
21F
330
22
100
AcDbEntity
  8
0
  6
Continuous
 62
     7
100
AcDbLine
 10
-375.1381225585938
 20
412.9934082031249
 30
0.0
 11
-375.1381225585938
 21
437.3600769042968
 31
0.0
  0
LINE
  5
220
330
22
100
AcDbEntity
  8
0
  6
Continuous
 62
     7
100
AcDbLine
 10
-368.6381225585938
 20
412.9934082031249
 30
0.0
 11
-368.6381225585938
 21
437.3600769042968
 31
0.0
  0
LINE
  5
221
330
22
100
AcDbEntity
  8
0
  6
Continuous
 62
     7
100
AcDbLine
 10
-391.6381225585938
 20
414.1934204101563
 30
0.0
 11
-391.6381225585938
 21
437.3600769042968
 31
0.0
  0
LINE
  5
222
330
22
100
AcDbEntity
  8
0
  6
Continuous
 62
     7
100
AcDbLine
 10
-386.6381225585938
 20
407.9934082031249
 30
0.0
 11
-386.6381225585938
 21
437.3600769042968
 31
0.0
  0
LINE
  5
223
330
22
100
AcDbEntity
  8
0
  6
Continuous
 62
     7
100
AcDbLine
 10
-398.1381225585938
 20
414.1934204101563
 30
0.0
 11
-398.1381225585938
 21
437.3600769042968
 31
0.0
  0
LINE
  5
224
330
22
100
AcDbEntity
  8
0
  6
Continuous
 62
     7
100
AcDbLine
 10
-380.1381225585938
 20
407.9934082031249
 30
0.0
 11
-380.1381225585938
 21
437.3600769042968
 31
0.0
  0
LINE
  5
225
330
22
100
AcDbEntity
  8
0
  6
Continuous
 62
     7
100
AcDbLine
 10
-403.1381225585938
 20
422.993408203125
 30
0.0
 11
-403.1381225585938
 21
437.3600769042968
 31
0.0
  0
LINE
  5
226
330
22
100
AcDbEntity
  8
0
  6
Continuous
 62
     7
100
AcDbLine
 10
-345.6381225585938
 20
422.3515625
 30
0.0
 11
-345.6381225585938
 21
437.3600769042968
 31
0.0
  0
LINE
  5
227
330
22
100
AcDbEntity
  8
0
  6
Continuous
 62
     7
100
AcDbLine
 10
-460.6381225585938
 20
409.8934020996093
 30
0.0
 11
-460.6381225585938
 21
437.3600769042968
 31
0.0
  0
LINE
  5
228
330
22
100
AcDbEntity
  8
0
  6
Continuous
 62
     7
100
AcDbLine
 10
-467.1381225585938
 20
409.8934020996093
 30
0.0
 11
-467.1381225585938
 21
437.3600769042968
 31
0.0
  0
LINE
  5
229
330
22
100
AcDbEntity
  8
0
  6
Continuous
 62
     7
100
AcDbLine
 10
-444.1381225585938
 20
414.2767333984375
 30
0.0
 11
-444.1381225585938
 21
434.1767272949218
 31
0.0
  0
LINE
  5
22A
330
22
100
AcDbEntity
  8
0
  6
Continuous
 62
     7
100
AcDbLine
 10
-536.1381225585938
 20
422.3515625
 30
0.0
 11
-536.1381225585938
 21
437.3600769042968
 31
0.0
  0
LINE
  5
22B
330
22
100
AcDbEntity
  8
0
  6
Continuous
 62
     7
100
AcDbLine
 10
-495.1381225585937
 20
407.9934082031249
 30
0.0
 11
-495.1381225585937
 21
437.3600769042968
 31
0.0
  0
LINE
  5
22C
330
22
100
AcDbEntity
  8
0
  6
Continuous
 62
     7
100
AcDbLine
 10
-490.1381225585938
 20
414.1934204101563
 30
0.0
 11
-490.1381225585938
 21
437.3600769042968
 31
0.0
  0
LINE
  5
22D
330
22
100
AcDbEntity
  8
0
  6
Continuous
 62
     7
100
AcDbLine
 10
-379.0916442871094
 20
262.4595947265625
 30
0.0
 11
-379.0916442871094
 21
246.9134674072266
 31
0.0
  0
LINE
  5
22E
330
22
100
AcDbEntity
  8
0
  6
Continuous
 62
     7
100
AcDbLine
 10
-368.6390075683594
 20
262.4595947265625
 30
0.0
 11
-368.6390075683594
 21
248.8211669921875
 31
0.0
  0
LINE
  5
22F
330
22
100
AcDbEntity
  8
0
  6
Continuous
 62
     7
100
AcDbLine
 10
-345.3881225585938
 20
262.4595947265625
 30
0.0
 11
-345.3881225585938
 21
250.6487274169922
 31
0.0
  0
LINE
  5
230
330
22
100
AcDbEntity
  8
0
  6
Continuous
 62
     7
100
AcDbLine
 10
-389.3881225585938
 20
226.1400299072266
 30
0.0
 11
-381.7472839355469
 21
233.7808532714844
 31
0.0
  0
LINE
  5
231
330
22
100
AcDbEntity
  8
0
  6
Continuous
 62
     7
100
AcDbLine
 10
-386.1069946289063
 20
224.4714050292969
 30
0.0
 11
-373.379150390625
 21
237.1992340087891
 31
0.0
  0
LINE
  5
232
330
22
100
AcDbEntity
  8
0
  6
Continuous
 62
     7
100
AcDbLine
 10
-345.3881225585938
 20
260.2405395507813
 30
0.0
 11
-343.1690673828125
 21
262.4595947265625
 31
0.0
  0
LINE
  5
233
330
22
100
AcDbEntity
  8
0
  6
Continuous
 62
     7
100
AcDbLine
 10
-385.6178894042969
 20
220.0107421875
 30
0.0
 11
-365.0110473632813
 21
240.6176147460938
 31
0.0
  0
LINE
  5
234
330
22
100
AcDbEntity
  8
0
  6
Continuous
 62
     7
100
AcDbLine
 10
-336.3881225585938
 20
264.290771484375
 30
0.0
 11
-335.0193176269531
 21
265.6595764160156
 31
0.0
  0
LINE
  5
235
330
22
100
AcDbEntity
  8
0
  6
Continuous
 62
     7
100
AcDbLine
 10
-345.3881225585938
 20
255.2907867431641
 30
0.0
 11
-338.2193298339844
 21
262.4595947265625
 31
0.0
  0
LINE
  5
236
330
22
100
AcDbEntity
  8
0
  6
Continuous
 62
     7
100
AcDbLine
 10
-385.4678955078125
 20
215.2109985351563
 30
0.0
 11
-356.6429138183594
 21
244.0359802246094
 31
0.0
  0
LINE
  5
237
330
22
100
AcDbEntity
  8
0
  6
Continuous
 62
     7
100
AcDbLine
 10
-345.4631042480469
 20
250.2660369873047
 30
0.0
 11
-330.069580078125
 21
265.6595764160156
 31
0.0
  0
LINE
  5
238
330
22
100
AcDbEntity
  8
0
  6
Continuous
 62
     7
100
AcDbLine
 10
-367.3926086425781
 20
228.3365478515625
 30
0.0
 11
-348.2747802734375
 21
247.4543609619141
 31
0.0
  0
LINE
  5
239
330
22
100
AcDbEntity
  8
0
  6
Continuous
 62
     7
100
AcDbLine
 10
-385.3179016113281
 20
210.4112548828125
 30
0.0
 11
-374.8881225585938
 21
220.8410339355469
 31
0.0
  0
LINE
  5
23A
330
22
100
AcDbEntity
  8
0
  6
Continuous
 62
     7
100
AcDbLine
 10
-359.6929931640625
 20
231.0864105224609
 30
0.0
 11
-325.1198120117188
 21
265.6595764160156
 31
0.0
  0
LINE
  5
23B
330
22
100
AcDbEntity
  8
0
  6
Continuous
 62
     7
100
AcDbLine
 10
-385.1679077148438
 20
205.6115112304688
 30
0.0
 11
-374.8881225585938
 21
215.8912963867188
 31
0.0
  0
LINE
  5
23C
330
22
100
AcDbEntity
  8
0
  6
Continuous
 62
     7
100
AcDbLine
 10
-351.9933776855469
 20
233.8362731933594
 30
0.0
 11
-320.8881225585938
 21
264.9415588378906
 31
0.0
  0
LINE
  5
23D
330
22
100
AcDbEntity
  8
0
  6
Continuous
 62
     7
100
AcDbLine
 10
-385.0179138183594
 20
200.8117523193359
 30
0.0
 11
-374.8881225585938
 21
210.9415435791016
 31
0.0
  0
LINE
  5
23E
330
22
100
AcDbEntity
  8
0
  6
Continuous
 62
     7
100
AcDbLine
 10
-325.2203369140625
 20
255.6595764160156
 30
0.0
 11
-320.8881225585938
 21
259.9917907714844
 31
0.0
  0
LINE
  5
23F
330
22
100
AcDbEntity
  8
0
  6
Continuous
 62
     7
100
AcDbLine
 10
-344.2937927246094
 20
236.5861358642578
 30
0.0
 11
-332.8881225585938
 21
247.9917907714844
 31
0.0
  0
LINE
  5
240
330
22
100
AcDbEntity
  8
0
  6
Continuous
 62
     7
100
AcDbLine
 10
-384.8678894042969
 20
196.0120086669922
 30
0.0
 11
-374.8881225585938
 21
205.9917907714844
 31
0.0
  0
LINE
  5
241
330
22
100
AcDbEntity
  8
0
  6
Continuous
 62
     7
100
AcDbLine
 10
-336.5941772460938
 20
239.3359832763672
 30
0.0
 11
-333.0915222167969
 21
242.8386535644531
 31
0.0
  0
LINE
  5
242
330
22
100
AcDbEntity
  8
0
  6
Continuous
 62
     7
100
AcDbLine
 10
-384.7178955078125
 20
191.2122650146484
 30
0.0
 11
-374.8881225585938
 21
201.0420532226564
 31
0.0
  0
LINE
  5
243
330
22
100
AcDbEntity
  8
0
  6
Continuous
 62
     7
100
AcDbLine
 10
-384.5679016113281
 20
186.4125061035156
 30
0.0
 11
-374.8881225585938
 21
196.0923004150391
 31
0.0
  0
LINE
  5
244
330
22
100
AcDbEntity
  8
0
  6
Continuous
 62
     7
100
AcDbLine
 10
-384.4179077148438
 20
181.6127624511719
 30
0.0
 11
-374.8881225585938
 21
191.1425476074219
 31
0.0
  0
LINE
  5
245
330
22
100
AcDbEntity
  8
0
  6
Continuous
 62
     7
100
AcDbLine
 10
-380.4213256835938
 20
180.6595764160156
 30
0.0
 11
-374.8881225585938
 21
186.1928100585938
 31
0.0
  0
LINE
  5
246
330
22
100
AcDbEntity
  8
0
  6
Continuous
 62
     7
100
AcDbLine
 10
-336.3881225585938
 20
265.6595764160156
 30
0.0
 11
-336.3881225585938
 21
262.4595947265625
 31
0.0
  0
LINE
  5
247
330
22
100
AcDbEntity
  8
0
  6
Continuous
 62
     7
100
AcDbLine
 10
-320.8881225585938
 20
265.4595947265625
 30
0.0
 11
-320.8881225585938
 21
257.6595764160156
 31
0.0
  0
LINE
  5
248
330
22
100
AcDbEntity
  8
0
  6
Continuous
 62
     7
100
AcDbLine
 10
-437.6381225585937
 20
265.6595764160156
 30
0.0
 11
-437.6381225585937
 21
262.4595947265625
 31
0.0
  0
LINE
  5
249
330
22
100
AcDbEntity
  8
0
  6
Continuous
 62
     7
100
AcDbLine
 10
-560.8881225585938
 20
265.4595947265625
 30
0.0
 11
-560.8881225585938
 21
257.6595764160156
 31
0.0
  0
LINE
  5
24A
330
22
100
AcDbEntity
  8
0
  6
CENTER
 62
     7
100
AcDbLine
 10
-440.8881225585938
 20
277.6224060058595
 30
0.0
 11
-440.8881225585938
 21
34.16225051879883
 31
0.0
  0
LINE
  5
24B
330
22
100
AcDbEntity
  8
0
  6
Continuous
 62
     7
100
AcDbLine
 10
-560.6881103515624
 20
265.6595764160156
 30
0.0
 11
-321.0881042480469
 21
265.6595764160156
 31
0.0
  0
LINE
  5
24C
330
22
100
AcDbEntity
  8
0
  6
Continuous
 62
     7
100
AcDbLine
 10
-437.6381225585937
 20
263.021484375
 30
0.0
 11
-435.0
 21
265.6595764160156
 31
0.0
  0
LINE
  5
24D
330
22
100
AcDbEntity
  8
0
  6
Continuous
 62
     7
100
AcDbLine
 10
-435.3715820312499
 20
262.4595947265625
 30
0.0
 11
-432.1715698242187
 21
265.6595764160156
 31
0.0
  0
LINE
  5
24E
330
22
100
AcDbEntity
  8
0
  6
Continuous
 62
     7
100
AcDbLine
 10
-432.5431518554688
 20
262.4595947265625
 30
0.0
 11
-429.3431396484375
 21
265.6595764160156
 31
0.0
  0
LINE
  5
24F
330
22
100
AcDbEntity
  8
0
  6
Continuous
 62
     7
100
AcDbLine
 10
-429.7147216796875
 20
262.4595947265625
 30
0.0
 11
-426.5147094726563
 21
265.6595764160156
 31
0.0
  0
LINE
  5
250
330
22
100
AcDbEntity
  8
0
  6
Continuous
 62
     7
100
AcDbLine
 10
-426.8862915039063
 20
262.4595947265625
 30
0.0
 11
-423.6863098144531
 21
265.6595764160156
 31
0.0
  0
LINE
  5
251
330
22
100
AcDbEntity
  8
0
  6
Continuous
 62
     7
100
AcDbLine
 10
-424.0578613281249
 20
262.4595947265625
 30
0.0
 11
-420.8578796386718
 21
265.6595764160156
 31
0.0
  0
LINE
  5
252
330
22
100
AcDbEntity
  8
0
  6
Continuous
 62
     7
100
AcDbLine
 10
-421.2294311523438
 20
262.4595947265625
 30
0.0
 11
-418.0294494628906
 21
265.6595764160156
 31
0.0
  0
LINE
  5
253
330
22
100
AcDbEntity
  8
0
  6
Continuous
 62
     7
100
AcDbLine
 10
-418.4010009765625
 20
262.4595947265625
 30
0.0
 11
-415.2010192871093
 21
265.6595764160156
 31
0.0
  0
LINE
  5
254
330
22
100
AcDbEntity
  8
0
  6
Continuous
 62
     7
100
AcDbLine
 10
-415.5726013183594
 20
262.4595947265625
 30
0.0
 11
-412.3725891113281
 21
265.6595764160156
 31
0.0
  0
LINE
  5
255
330
22
100
AcDbEntity
  8
0
  6
Continuous
 62
     7
100
AcDbLine
 10
-412.7441711425781
 20
262.4595947265625
 30
0.0
 11
-409.5441589355468
 21
265.6595764160156
 31
0.0
  0
LINE
  5
256
330
22
100
AcDbEntity
  8
0
  6
Continuous
 62
     7
100
AcDbLine
 10
-409.9157409667968
 20
262.4595947265625
 30
0.0
 11
-406.7157287597656
 21
265.6595764160156
 31
0.0
  0
LINE
  5
257
330
22
100
AcDbEntity
  8
0
  6
Continuous
 62
     7
100
AcDbLine
 10
-407.0873107910156
 20
262.4595947265625
 30
0.0
 11
-403.8872985839843
 21
265.6595764160156
 31
0.0
  0
LINE
  5
258
330
22
100
AcDbEntity
  8
0
  6
Continuous
 62
     7
100
AcDbLine
 10
-404.2588806152343
 20
262.4595947265625
 30
0.0
 11
-401.0588684082031
 21
265.6595764160156
 31
0.0
  0
LINE
  5
259
330
22
100
AcDbEntity
  8
0
  6
Continuous
 62
     7
100
AcDbLine
 10
-401.4304504394531
 20
262.4595947265625
 30
0.0
 11
-398.2304382324219
 21
265.6595764160156
 31
0.0
  0
LINE
  5
25A
330
22
100
AcDbEntity
  8
0
  6
Continuous
 62
     7
100
AcDbLine
 10
-398.6020202636719
 20
262.4595947265625
 30
0.0
 11
-395.4020385742188
 21
265.6595764160156
 31
0.0
  0
LINE
  5
25B
330
22
100
AcDbEntity
  8
0
  6
Continuous
 62
     7
100
AcDbLine
 10
-395.7735900878906
 20
262.4595947265625
 30
0.0
 11
-392.5736083984375
 21
265.6595764160156
 31
0.0
  0
LINE
  5
25C
330
22
100
AcDbEntity
  8
0
  6
Continuous
 62
     7
100
AcDbLine
 10
-392.9451599121094
 20
262.4595947265625
 30
0.0
 11
-389.7451782226563
 21
265.6595764160156
 31
0.0
  0
LINE
  5
25D
330
22
100
AcDbEntity
  8
0
  6
Continuous
 62
     7
100
AcDbLine
 10
-390.1167297363281
 20
262.4595947265625
 30
0.0
 11
-386.916748046875
 21
265.6595764160156
 31
0.0
  0
LINE
  5
25E
330
22
100
AcDbEntity
  8
0
  6
Continuous
 62
     7
100
AcDbLine
 10
-387.288330078125
 20
262.4595947265625
 30
0.0
 11
-384.0883178710938
 21
265.6595764160156
 31
0.0
  0
LINE
  5
25F
330
22
100
AcDbEntity
  8
0
  6
Continuous
 62
     7
100
AcDbLine
 10
-384.4598999023438
 20
262.4595947265625
 30
0.0
 11
-381.2598876953125
 21
265.6595764160156
 31
0.0
  0
LINE
  5
260
330
22
100
AcDbEntity
  8
0
  6
Continuous
 62
     7
100
AcDbLine
 10
-381.6314697265625
 20
262.4595947265625
 30
0.0
 11
-378.4314575195313
 21
265.6595764160156
 31
0.0
  0
LINE
  5
261
330
22
100
AcDbEntity
  8
0
  6
Continuous
 62
     7
100
AcDbLine
 10
-378.8030395507813
 20
262.4595947265625
 30
0.0
 11
-375.60302734375
 21
265.6595764160156
 31
0.0
  0
LINE
  5
262
330
22
100
AcDbEntity
  8
0
  6
Continuous
 62
     7
100
AcDbLine
 10
-375.974609375
 20
262.4595947265625
 30
0.0
 11
-372.7745971679688
 21
265.6595764160156
 31
0.0
  0
LINE
  5
263
330
22
100
AcDbEntity
  8
0
  6
Continuous
 62
     7
100
AcDbLine
 10
-373.1461791992188
 20
262.4595947265625
 30
0.0
 11
-369.9461669921875
 21
265.6595764160156
 31
0.0
  0
LINE
  5
264
330
22
100
AcDbEntity
  8
0
  6
Continuous
 62
     7
100
AcDbLine
 10
-370.3177490234375
 20
262.4595947265625
 30
0.0
 11
-367.1177673339844
 21
265.6595764160156
 31
0.0
  0
LINE
  5
265
330
22
100
AcDbEntity
  8
0
  6
Continuous
 62
     7
100
AcDbLine
 10
-367.4893188476563
 20
262.4595947265625
 30
0.0
 11
-364.2893371582031
 21
265.6595764160156
 31
0.0
  0
LINE
  5
266
330
22
100
AcDbEntity
  8
0
  6
Continuous
 62
     7
100
AcDbLine
 10
-364.660888671875
 20
262.4595947265625
 30
0.0
 11
-361.4609069824219
 21
265.6595764160156
 31
0.0
  0
LINE
  5
267
330
22
100
AcDbEntity
  8
0
  6
Continuous
 62
     7
100
AcDbLine
 10
-361.8324584960938
 20
262.4595947265625
 30
0.0
 11
-358.6324768066406
 21
265.6595764160156
 31
0.0
  0
LINE
  5
268
330
22
100
AcDbEntity
  8
0
  6
Continuous
 62
     7
100
AcDbLine
 10
-359.0040588378906
 20
262.4595947265625
 30
0.0
 11
-355.8040466308594
 21
265.6595764160156
 31
0.0
  0
LINE
  5
269
330
22
100
AcDbEntity
  8
0
  6
Continuous
 62
     7
100
AcDbLine
 10
-356.1756286621094
 20
262.4595947265625
 30
0.0
 11
-352.9756164550781
 21
265.6595764160156
 31
0.0
  0
LINE
  5
26A
330
22
100
AcDbEntity
  8
0
  6
Continuous
 62
     7
100
AcDbLine
 10
-353.3471984863281
 20
262.4595947265625
 30
0.0
 11
-350.1471862792969
 21
265.6595764160156
 31
0.0
  0
LINE
  5
26B
330
22
100
AcDbEntity
  8
0
  6
Continuous
 62
     7
100
AcDbLine
 10
-350.5187683105469
 20
262.4595947265625
 30
0.0
 11
-347.3187561035156
 21
265.6595764160156
 31
0.0
  0
LINE
  5
26C
330
22
100
AcDbEntity
  8
0
  6
Continuous
 62
     7
100
AcDbLine
 10
-347.6903381347656
 20
262.4595947265625
 30
0.0
 11
-344.4903259277344
 21
265.6595764160156
 31
0.0
  0
LINE
  5
26D
330
22
100
AcDbEntity
  8
0
  6
Continuous
 62
     7
100
AcDbLine
 10
-344.8619079589844
 20
262.4595947265625
 30
0.0
 11
-341.6618957519531
 21
265.6595764160156
 31
0.0
  0
LINE
  5
26E
330
22
100
AcDbEntity
  8
0
  6
Continuous
 62
     7
100
AcDbLine
 10
-342.0334777832031
 20
262.4595947265625
 30
0.0
 11
-338.83349609375
 21
265.6595764160156
 31
0.0
  0
LINE
  5
26F
330
22
100
AcDbEntity
  8
0
  6
Continuous
 62
     7
100
AcDbLine
 10
-339.2050476074219
 20
262.4595947265625
 30
0.0
 11
-336.3881225585938
 21
265.2765197753906
 31
0.0
  0
LINE
  5
270
330
22
100
AcDbEntity
  8
0
  6
Continuous
 62
     7
100
AcDbLine
 10
-440.8881225585938
 20
262.4595947265625
 30
0.0
 11
-336.3881225585938
 21
262.4595947265625
 31
0.0
  0
LINE
  5
271
330
22
100
AcDbEntity
  8
0
  6
Continuous
 62
     7
100
AcDbLine
 10
-354.1381225585938
 20
92.65958404541015
 30
0.0
 11
-346.0496520996094
 21
92.65958404541015
 31
0.0
  0
LINE
  5
272
330
22
100
AcDbEntity
  8
0
  6
Continuous
 62
     7
100
AcDbLine
 10
-385.8881225585938
 20
105.6595840454102
 30
0.0
 11
-384.3881225585938
 21
107.1595840454102
 31
0.0
  0
LINE
  5
273
330
22
100
AcDbEntity
  8
0
  6
Continuous
 62
     7
100
AcDbLine
 10
-390.1968078613281
 20
205.6595764160156
 30
0.0
 11
-386.5692749023438
 21
202.0320587158203
 31
0.0
  0
LINE
  5
274
330
22
100
AcDbEntity
  8
0
  6
Continuous
 62
     7
100
AcDbLine
 10
-391.3881225585938
 20
202.6082611083984
 30
0.0
 11
-386.4324035644531
 21
197.6525421142578
 31
0.0
  0
LINE
  5
275
330
22
100
AcDbEntity
  8
0
  6
Continuous
 62
     7
100
AcDbLine
 10
-391.3881225585938
 20
198.3656158447266
 30
0.0
 11
-386.2955322265625
 21
193.2730407714844
 31
0.0
  0
LINE
  5
276
330
22
100
AcDbEntity
  8
0
  6
Continuous
 62
     7
100
AcDbLine
 10
-391.3881225585938
 20
194.1229705810547
 30
0.0
 11
-386.1586608886719
 21
188.8935394287109
 31
0.0
  0
LINE
  5
277
330
22
100
AcDbEntity
  8
0
  6
Continuous
 62
     7
100
AcDbLine
 10
-391.3881225585938
 20
189.8803405761719
 30
0.0
 11
-386.0218200683594
 21
184.5140228271484
 31
0.0
  0
LINE
  5
278
330
22
100
AcDbEntity
  8
0
  6
Continuous
 62
     7
100
AcDbLine
 10
-391.3881225585938
 20
185.6376953125
 30
0.0
 11
-385.8849487304688
 21
180.134521484375
 31
0.0
  0
LINE
  5
279
330
22
100
AcDbEntity
  8
0
  6
Continuous
 62
     7
100
AcDbLine
 10
-391.3881225585938
 20
181.3950500488281
 30
0.0
 11
-385.7480773925781
 21
175.7550048828125
 31
0.0
  0
LINE
  5
27A
330
22
100
AcDbEntity
  8
0
  6
Continuous
 62
     7
100
AcDbLine
 10
-391.3881225585938
 20
177.1524200439453
 30
0.0
 11
-385.6112060546875
 21
171.3755035400391
 31
0.0
  0
LINE
  5
27B
330
22
100
AcDbEntity
  8
0
  6
Continuous
 62
     7
100
AcDbLine
 10
-391.3881225585938
 20
172.9097747802734
 30
0.0
 11
-383.7381286621094
 21
165.259765625
 31
0.0
  0
LINE
  5
27C
330
22
100
AcDbEntity
  8
0
  6
Continuous
 62
     7
100
AcDbLine
 10
-391.3881225585938
 20
168.6671295166016
 30
0.0
 11
-383.7381286621094
 21
161.0171356201172
 31
0.0
  0
LINE
  5
27D
330
22
100
AcDbEntity
  8
0
  6
Continuous
 62
     7
100
AcDbLine
 10
-391.3881225585938
 20
164.4244842529297
 30
0.0
 11
-383.7381286621094
 21
156.7744903564453
 31
0.0
  0
LINE
  5
27E
330
22
100
AcDbEntity
  8
0
  6
Continuous
 62
     7
100
AcDbLine
 10
-391.3881225585938
 20
160.1818542480469
 30
0.0
 11
-384.8769836425781
 21
153.6707153320313
 31
0.0
  0
LINE
  5
27F
330
22
100
AcDbEntity
  8
0
  6
Continuous
 62
     7
100
AcDbLine
 10
-391.3881225585938
 20
155.939208984375
 30
0.0
 11
-385.8881225585938
 21
150.439208984375
 31
0.0
  0
LINE
  5
280
330
22
100
AcDbEntity
  8
0
  6
Continuous
 62
     7
100
AcDbLine
 10
-391.3881225585938
 20
151.6965637207031
 30
0.0
 11
-385.8881225585938
 21
146.1965637207031
 31
0.0
  0
LINE
  5
281
330
22
100
AcDbEntity
  8
0
  6
Continuous
 62
     7
100
AcDbLine
 10
-391.3881225585938
 20
147.4539337158203
 30
0.0
 11
-385.8881225585938
 21
141.9539337158203
 31
0.0
  0
LINE
  5
282
330
22
100
AcDbEntity
  8
0
  6
Continuous
 62
     7
100
AcDbLine
 10
-391.3881225585938
 20
143.2112884521484
 30
0.0
 11
-385.8881225585938
 21
137.7112884521484
 31
0.0
  0
LINE
  5
283
330
22
100
AcDbEntity
  8
0
  6
Continuous
 62
     7
100
AcDbLine
 10
-391.3881225585938
 20
138.9686431884766
 30
0.0
 11
-385.8881225585938
 21
133.4686431884766
 31
0.0
  0
LINE
  5
284
330
22
100
AcDbEntity
  8
0
  6
Continuous
 62
     7
100
AcDbLine
 10
-391.3881225585938
 20
134.7260131835938
 30
0.0
 11
-385.8881225585938
 21
129.2260131835938
 31
0.0
  0
LINE
  5
285
330
22
100
AcDbEntity
  8
0
  6
Continuous
 62
     7
100
AcDbLine
 10
-391.3881225585938
 20
130.4833679199219
 30
0.0
 11
-385.8881225585938
 21
124.9833679199219
 31
0.0
  0
LINE
  5
286
330
22
100
AcDbEntity
  8
0
  6
Continuous
 62
     7
100
AcDbLine
 10
-391.3881225585938
 20
126.24072265625
 30
0.0
 11
-385.8881225585938
 21
120.74072265625
 31
0.0
  0
LINE
  5
287
330
22
100
AcDbEntity
  8
0
  6
Continuous
 62
     7
100
AcDbLine
 10
-391.3881225585938
 20
121.9980850219727
 30
0.0
 11
-385.8881225585938
 21
116.4980850219727
 31
0.0
  0
LINE
  5
288
330
22
100
AcDbEntity
  8
0
  6
Continuous
 62
     7
100
AcDbLine
 10
-391.3881225585938
 20
117.7554473876953
 30
0.0
 11
-385.8881225585938
 21
112.2554473876953
 31
0.0
  0
LINE
  5
289
330
22
100
AcDbEntity
  8
0
  6
Continuous
 62
     7
100
AcDbLine
 10
-391.3881225585938
 20
113.5128021240234
 30
0.0
 11
-385.8881225585938
 21
108.0128021240234
 31
0.0
  0
LINE
  5
28A
330
22
100
AcDbEntity
  8
0
  6
Continuous
 62
     7
100
AcDbLine
 10
-391.3881225585938
 20
109.2701644897461
 30
0.0
 11
-387.7775268554688
 21
105.6595840454102
 31
0.0
  0
LINE
  5
28B
330
22
100
AcDbEntity
  8
0
  6
Continuous
 62
     7
100
AcDbLine
 10
-388.0754699707031
 20
205.6595764160156
 30
0.0
 11
-386.6376953125
 21
204.2218017578125
 31
0.0
  0
LINE
  5
28C
330
22
100
AcDbEntity
  8
0
  6
Continuous
 62
     7
100
AcDbLine
 10
-391.3881225585938
 20
204.7295837402344
 30
0.0
 11
-386.5008239746094
 21
199.8423004150391
 31
0.0
  0
LINE
  5
28D
330
22
100
AcDbEntity
  8
0
  6
Continuous
 62
     7
100
AcDbLine
 10
-391.3881225585938
 20
200.4869384765625
 30
0.0
 11
-386.3639831542969
 21
195.4627990722656
 31
0.0
  0
LINE
  5
28E
330
22
100
AcDbEntity
  8
0
  6
Continuous
 62
     7
100
AcDbLine
 10
-391.3881225585938
 20
196.2442932128906
 30
0.0
 11
-386.2271118164063
 21
191.0832824707031
 31
0.0
  0
LINE
  5
28F
330
22
100
AcDbEntity
  8
0
  6
Continuous
 62
     7
100
AcDbLine
 10
-391.3881225585938
 20
192.0016632080078
 30
0.0
 11
-386.0902404785156
 21
186.7037811279297
 31
0.0
  0
LINE
  5
290
330
22
100
AcDbEntity
  8
0
  6
Continuous
 62
     7
100
AcDbLine
 10
-391.3881225585938
 20
187.7590179443359
 30
0.0
 11
-385.953369140625
 21
182.3242645263672
 31
0.0
  0
LINE
  5
291
330
22
100
AcDbEntity
  8
0
  6
Continuous
 62
     7
100
AcDbLine
 10
-391.3881225585938
 20
183.5163726806641
 30
0.0
 11
-385.8164978027344
 21
177.9447631835938
 31
0.0
  0
LINE
  5
292
330
22
100
AcDbEntity
  8
0
  6
Continuous
 62
     7
100
AcDbLine
 10
-391.3881225585938
 20
179.2737274169922
 30
0.0
 11
-385.6796264648438
 21
173.5652618408203
 31
0.0
  0
LINE
  5
293
330
22
100
AcDbEntity
  8
0
  6
Continuous
 62
     7
100
AcDbLine
 10
-391.3881225585938
 20
175.0310974121094
 30
0.0
 11
-383.7381286621094
 21
167.3810882568359
 31
0.0
  0
LINE
  5
294
330
22
100
AcDbEntity
  8
0
  6
Continuous
 62
     7
100
AcDbLine
 10
-391.3881225585938
 20
170.7884521484375
 30
0.0
 11
-383.7381286621094
 21
163.1384582519531
 31
0.0
  0
LINE
  5
295
330
22
100
AcDbEntity
  8
0
  6
Continuous
 62
     7
100
AcDbLine
 10
-391.3881225585938
 20
166.5458068847656
 30
0.0
 11
-383.7381286621094
 21
158.8958129882813
 31
0.0
  0
LINE
  5
296
330
22
100
AcDbEntity
  8
0
  6
Continuous
 62
     7
100
AcDbLine
 10
-391.3881225585938
 20
162.3031768798828
 30
0.0
 11
-383.8163146972656
 21
154.7313690185547
 31
0.0
  0
LINE
  5
297
330
22
100
AcDbEntity
  8
0
  6
Continuous
 62
     7
100
AcDbLine
 10
-391.3881225585938
 20
158.0605316162109
 30
0.0
 11
-385.8881225585938
 21
152.5605316162109
 31
0.0
  0
LINE
  5
298
330
22
100
AcDbEntity
  8
0
  6
Continuous
 62
     7
100
AcDbLine
 10
-391.3881225585938
 20
153.8178863525391
 30
0.0
 11
-385.8881225585938
 21
148.3178863525391
 31
0.0
  0
LINE
  5
299
330
22
100
AcDbEntity
  8
0
  6
Continuous
 62
     7
100
AcDbLine
 10
-391.3881225585938
 20
149.5752563476563
 30
0.0
 11
-385.8881225585938
 21
144.0752563476563
 31
0.0
  0
LINE
  5
29A
330
22
100
AcDbEntity
  8
0
  6
Continuous
 62
     7
100
AcDbLine
 10
-391.3881225585938
 20
145.3326110839844
 30
0.0
 11
-385.8881225585938
 21
139.8326110839844
 31
0.0
  0
LINE
  5
29B
330
22
100
AcDbEntity
  8
0
  6
Continuous
 62
     7
100
AcDbLine
 10
-391.3881225585938
 20
141.0899658203125
 30
0.0
 11
-385.8881225585938
 21
135.5899658203125
 31
0.0
  0
LINE
  5
29C
330
22
100
AcDbEntity
  8
0
  6
Continuous
 62
     7
100
AcDbLine
 10
-391.3881225585938
 20
136.8473205566406
 30
0.0
 11
-385.8881225585938
 21
131.3473205566406
 31
0.0
  0
LINE
  5
29D
330
22
100
AcDbEntity
  8
0
  6
Continuous
 62
     7
100
AcDbLine
 10
-391.3881225585938
 20
132.6046905517578
 30
0.0
 11
-385.8881225585938
 21
127.1046829223633
 31
0.0
  0
LINE
  5
29E
330
22
100
AcDbEntity
  8
0
  6
Continuous
 62
     7
100
AcDbLine
 10
-391.3881225585938
 20
128.3620452880859
 30
0.0
 11
-385.8881225585938
 21
122.8620452880859
 31
0.0
  0
LINE
  5
29F
330
22
100
AcDbEntity
  8
0
  6
Continuous
 62
     7
100
AcDbLine
 10
-391.3881225585938
 20
124.1194076538086
 30
0.0
 11
-385.8881225585938
 21
118.6194076538086
 31
0.0
  0
LINE
  5
2A0
330
22
100
AcDbEntity
  8
0
  6
Continuous
 62
     7
100
AcDbLine
 10
-391.3881225585938
 20
119.8767623901367
 30
0.0
 11
-385.8881225585938
 21
114.3767623901367
 31
0.0
  0
LINE
  5
2A1
330
22
100
AcDbEntity
  8
0
  6
Continuous
 62
     7
100
AcDbLine
 10
-391.3881225585938
 20
115.6341247558594
 30
0.0
 11
-385.8881225585938
 21
110.1341247558594
 31
0.0
  0
LINE
  5
2A2
330
22
100
AcDbEntity
  8
0
  6
Continuous
 62
     7
100
AcDbLine
 10
-391.3881225585938
 20
111.3914794921875
 30
0.0
 11
-385.8881225585938
 21
105.8914794921875
 31
0.0
  0
LINE
  5
2A3
330
22
100
AcDbEntity
  8
0
  6
Continuous
 62
     7
100
AcDbLine
 10
-391.3881225585938
 20
107.1488418579102
 30
0.0
 11
-389.8988647460938
 21
105.6595840454102
 31
0.0
  0
LINE
  5
2A4
330
22
100
AcDbEntity
  8
0
  6
Continuous
 62
     7
100
AcDbLine
 10
-391.3881225585938
 20
205.6595764160156
 30
0.0
 11
-391.3881225585938
 21
105.6595840454102
 31
0.0
  0
LINE
  5
2A5
330
22
100
AcDbEntity
  8
0
  6
Continuous
 62
     7
100
AcDbLine
 10
-385.8881225585938
 20
105.6595840454102
 30
0.0
 11
-385.8881225585938
 21
152.6595764160156
 31
0.0
  0
LINE
  5
2A6
330
22
100
AcDbEntity
  8
0
  6
Continuous
 62
     7
100
AcDbLine
 10
-384.3881225585938
 20
107.1595840454102
 30
0.0
 11
-384.3881225585938
 21
154.1595764160156
 31
0.0
  0
LINE
  5
2A7
330
22
100
AcDbEntity
  8
0
  6
Continuous
 62
     7
100
AcDbLine
 10
-384.3881225585938
 20
130.6595764160156
 30
0.0
 11
-384.3881225585938
 21
87.27582550048827
 31
0.0
  0
LINE
  5
2A8
330
22
100
AcDbEntity
  8
0
  6
Continuous
 62
     7
100
AcDbLine
 10
-386.0043640136719
 20
128.7595825195313
 30
0.0
 11
-386.0043640136719
 21
85.65958404541015
 31
0.0
  0
LINE
  5
2A9
330
22
100
AcDbEntity
  8
0
  6
Continuous
 62
     7
100
AcDbLine
 10
-378.3881225585938
 20
130.6595764160156
 30
0.0
 11
-378.3881225585938
 21
37.65958023071289
 31
0.0
  0
ARC
  5
2AA
330
22
100
AcDbEntity
  8
0
  6
Continuous
 62
     7
100
AcDbCircle
 10
-417.8881225585937
 20
449.4600830078125
 30
0.0
 40
3.283333301544189
100
AcDbArc
 50
171.8291530098779
 51
8.170846990122083
  0
ARC
  5
2AB
330
22
100
AcDbEntity
  8
0
  6
Continuous
 62
     7
100
AcDbCircle
 10
-417.8881225585937
 20
476.1934204101563
 30
0.0
 40
3.283333301544189
100
AcDbArc
 50
351.8286258693902
 51
188.1713741306112
  0
ARC
  5
2AC
330
22
100
AcDbEntity
  8
0
  6
Continuous
 62
     7
100
AcDbCircle
 10
-417.8881225585937
 20
436.8934020996094
 30
0.0
 40
3.283333301544189
100
AcDbArc
 50
351.8286258693902
 51
188.1713741306112
  0
ARC
  5
2AD
330
22
100
AcDbEntity
  8
0
  6
Continuous
 62
     7
100
AcDbCircle
 10
-417.8881225585937
 20
507.7630920410156
 30
0.0
 40
3.283333301544189
100
AcDbArc
 50
171.8286258693895
 51
8.171374130610477
  0
ARC
  5
2AE
330
22
100
AcDbEntity
  8
0
  6
Continuous
 62
     7
100
AcDbCircle
 10
-417.8881225585937
 20
534.5826416015625
 30
0.0
 40
3.283333301544189
100
AcDbArc
 50
351.8286258693902
 51
188.1713741306112
  0
ARC
  5
2AF
330
22
100
AcDbEntity
  8
0
  6
Continuous
 62
     7
100
AcDbCircle
 10
-417.8881225585937
 20
487.7600708007813
 30
0.0
 40
3.283333301544189
100
AcDbArc
 50
171.8286258693895
 51
8.171374130610477
  0
ARC
  5
2B0
330
22
100
AcDbEntity
  8
0
  6
Continuous
 62
     7
100
AcDbCircle
 10
-417.8881225585937
 20
496.1934204101563
 30
0.0
 40
3.283333301544189
100
AcDbArc
 50
351.8286258693902
 51
188.1713741306112
  0
ARC
  5
2B1
330
22
100
AcDbEntity
  8
0
  6
Continuous
 62
     7
100
AcDbCircle
 10
-371.8881225585938
 20
484.4600830078125
 30
0.0
 40
3.283333301544189
100
AcDbArc
 50
171.8291530098779
 51
8.170846990122083
  0
CIRCLE
  5
2B2
330
22
100
AcDbEntity
  8
0
  6
Continuous
 62
     7
100
AcDbCircle
 10
-371.5916442871094
 20
512.4732055664063
 30
0.0
 40
5.0
  0
CIRCLE
  5
2B3
330
22
100
AcDbEntity
  8
0
  6
Continuous
 62
     7
100
AcDbCircle
 10
-371.5916442871094
 20
512.4732055664063
 30
0.0
 40
5.25
  0
ARC
  5
2B4
330
22
100
AcDbEntity
  8
0
  6
Continuous
 62
     7
100
AcDbCircle
 10
-440.8881225585938
 20
443.1767272949218
 30
0.0
 40
97.5
100
AcDbArc
 50
12.33290294476902
 51
18.14677587832189
  0
ARC
  5
2B5
330
22
100
AcDbEntity
  8
0
  6
Continuous
 62
     7
100
AcDbCircle
 10
-394.8881225585938
 20
471.6934204101563
 30
0.0
 40
3.283333301544189
100
AcDbArc
 50
351.8286258693902
 51
188.1713741306112
  0
ARC
  5
2B6
330
22
100
AcDbEntity
  8
0
  6
Continuous
 62
     7
100
AcDbCircle
 10
-383.3881225585938
 20
449.4600830078125
 30
0.0
 40
3.283333301544189
100
AcDbArc
 50
171.8291530098779
 51
8.170846990122083
  0
ARC
  5
2B7
330
22
100
AcDbEntity
  8
0
  6
Continuous
 62
     7
100
AcDbCircle
 10
-383.3881225585938
 20
489.4600830078124
 30
0.0
 40
3.283333301544189
100
AcDbArc
 50
171.8291530098779
 51
8.170846990122083
  0
ARC
  5
2B8
330
22
100
AcDbEntity
  8
0
  6
Continuous
 62
     7
100
AcDbCircle
 10
-371.8881225585938
 20
449.4600830078125
 30
0.0
 40
3.283333301544189
100
AcDbArc
 50
171.8291530098779
 51
8.170846990122083
  0
ARC
  5
2B9
330
22
100
AcDbEntity
  8
0
  6
Continuous
 62
     7
100
AcDbCircle
 10
-371.8881225585938
 20
436.8934020996094
 30
0.0
 40
3.283333301544189
100
AcDbArc
 50
351.8286258693902
 51
188.1713741306112
  0
ARC
  5
2BA
330
22
100
AcDbEntity
  8
0
  6
Continuous
 62
     7
100
AcDbCircle
 10
-383.3881225585938
 20
436.8934020996094
 30
0.0
 40
3.283333301544189
100
AcDbArc
 50
351.8286258693902
 51
188.1713741306112
  0
ARC
  5
2BB
330
22
100
AcDbEntity
  8
0
  6
Continuous
 62
     7
100
AcDbCircle
 10
-371.8881225585938
 20
472.8934020996093
 30
0.0
 40
3.283333301544189
100
AcDbArc
 50
351.8286258693902
 51
188.1713741306112
  0
ARC
  5
2BC
330
22
100
AcDbEntity
  8
0
  6
Continuous
 62
     7
100
AcDbCircle
 10
-383.3881225585938
 20
477.8934020996094
 30
0.0
 40
3.283333301544189
100
AcDbArc
 50
351.8286258693902
 51
188.1713741306112
  0
ARC
  5
2BD
330
22
100
AcDbEntity
  8
0
  6
Continuous
 62
     7
100
AcDbCircle
 10
-371.8881225585938
 20
502.3934020996093
 30
0.0
 40
3.283333301544189
100
AcDbArc
 50
351.8286258693902
 51
188.1713741306112
  0
ARC
  5
2BE
330
22
100
AcDbEntity
  8
0
  6
Continuous
 62
     7
100
AcDbCircle
 10
-383.3881225585938
 20
517.8136596679689
 30
0.0
 40
3.283333301544189
100
AcDbArc
 50
351.8286258693902
 51
188.1713741306112
  0
ARC
  5
2BF
330
22
100
AcDbEntity
  8
0
  6
Continuous
 62
     7
100
AcDbCircle
 10
-360.3881225585938
 20
469.4600830078124
 30
0.0
 40
3.283333301544189
100
AcDbArc
 50
171.8291530098779
 51
8.170846990122083
  0
ARC
  5
2C0
330
22
100
AcDbEntity
  8
0
  6
Continuous
 62
     7
100
AcDbCircle
 10
-360.3881225585938
 20
492.2201232910156
 30
0.0
 40
3.283333301544189
100
AcDbArc
 50
351.8291530098786
 51
188.1708469901228
  0
ARC
  5
2C1
330
22
100
AcDbEntity
  8
0
  6
Continuous
 62
     7
100
AcDbCircle
 10
-406.3881225585937
 20
530.849609375
 30
0.0
 40
3.283333301544189
100
AcDbArc
 50
351.8286258693902
 51
188.1713741306112
  0
ARC
  5
2C2
330
22
100
AcDbEntity
  8
0
  6
Continuous
 62
     7
100
AcDbCircle
 10
-406.3881225585937
 20
505.8465881347656
 30
0.0
 40
3.283333301544189
100
AcDbArc
 50
351.8286258693902
 51
188.1713741306112
  0
ARC
  5
2C3
330
22
100
AcDbEntity
  8
0
  6
Continuous
 62
     7
100
AcDbCircle
 10
-406.3881225585937
 20
517.4162597656249
 30
0.0
 40
3.283333301544189
100
AcDbArc
 50
171.8286258693895
 51
8.171374130610477
  0
ARC
  5
2C4
330
22
100
AcDbEntity
  8
0
  6
Continuous
 62
     7
100
AcDbCircle
 10
-406.3881225585937
 20
462.8934020996093
 30
0.0
 40
3.283333301544189
100
AcDbArc
 50
351.8286258693902
 51
188.1713741306112
  0
ARC
  5
2C5
330
22
100
AcDbEntity
  8
0
  6
Continuous
 62
     7
100
AcDbCircle
 10
-406.3881225585937
 20
449.4600830078125
 30
0.0
 40
3.283333301544189
100
AcDbArc
 50
171.8291530098779
 51
8.170846990122083
  0
ARC
  5
2C6
330
22
100
AcDbEntity
  8
0
  6
Continuous
 62
     7
100
AcDbCircle
 10
-406.3881225585937
 20
436.8934020996094
 30
0.0
 40
3.283333301544189
100
AcDbArc
 50
351.8286258693902
 51
188.1713741306112
  0
ARC
  5
2C7
330
22
100
AcDbEntity
  8
0
  6
Continuous
 62
     7
100
AcDbCircle
 10
-406.3881225585937
 20
474.4600830078125
 30
0.0
 40
3.283333301544189
100
AcDbArc
 50
171.8291530098779
 51
8.170846990122083
  0
ARC
  5
2C8
330
22
100
AcDbEntity
  8
0
  6
Continuous
 62
     7
100
AcDbCircle
 10
-394.8881225585938
 20
483.2600708007813
 30
0.0
 40
3.283333301544189
100
AcDbArc
 50
171.8286258693895
 51
8.171374130610477
  0
ARC
  5
2C9
330
22
100
AcDbEntity
  8
0
  6
Continuous
 62
     7
100
AcDbCircle
 10
-394.8881225585938
 20
491.6934204101563
 30
0.0
 40
3.283333301544189
100
AcDbArc
 50
351.8286258693902
 51
188.1713741306112
  0
ARC
  5
2CA
330
22
100
AcDbEntity
  8
0
  6
Continuous
 62
     7
100
AcDbCircle
 10
-394.8881225585938
 20
503.2630920410156
 30
0.0
 40
3.283333301544189
100
AcDbArc
 50
171.8286258693895
 51
8.171374130610477
  0
ARC
  5
2CB
330
22
100
AcDbEntity
  8
0
  6
Continuous
 62
     7
100
AcDbCircle
 10
-394.8881225585938
 20
525.4267578124999
 30
0.0
 40
3.283333301544189
100
AcDbArc
 50
351.8286258693902
 51
188.1713741306112
  0
ARC
  5
2CC
330
22
100
AcDbEntity
  8
0
  6
Continuous
 62
     7
100
AcDbCircle
 10
-394.8881225585938
 20
436.8934020996094
 30
0.0
 40
3.283333301544189
100
AcDbArc
 50
351.8286258693902
 51
188.1713741306112
  0
ARC
  5
2CD
330
22
100
AcDbEntity
  8
0
  6
Continuous
 62
     7
100
AcDbCircle
 10
-394.8881225585938
 20
449.4600830078125
 30
0.0
 40
3.283333301544189
100
AcDbArc
 50
171.8291530098779
 51
8.170846990122083
  0
ARC
  5
2CE
330
22
100
AcDbEntity
  8
0
  6
Continuous
 62
     7
100
AcDbCircle
 10
-440.8881225585938
 20
484.1600646972656
 30
0.0
 40
3.283333301544189
100
AcDbArc
 50
171.8286258693895
 51
8.171374130610477
  0
ARC
  5
2CF
330
22
100
AcDbEntity
  8
0
  6
Continuous
 62
     7
100
AcDbCircle
 10
-440.8881225585938
 20
516.5600585937499
 30
0.0
 40
3.283333301544189
100
AcDbArc
 50
171.8286258693895
 51
8.171374130610477
  0
ARC
  5
2D0
330
22
100
AcDbEntity
  8
0
  6
Continuous
 62
     7
100
AcDbCircle
 10
-440.8881225585938
 20
537.3934326171875
 30
0.0
 40
3.283333301544189
100
AcDbArc
 50
351.8286258693902
 51
188.1713741306112
  0
ARC
  5
2D1
330
22
100
AcDbEntity
  8
0
  6
Continuous
 62
     7
100
AcDbCircle
 10
-440.8881225585938
 20
504.9934082031249
 30
0.0
 40
3.283333301544189
100
AcDbArc
 50
351.8286258693902
 51
188.1713741306112
  0
ARC
  5
2D2
330
22
100
AcDbEntity
  8
0
  6
Continuous
 62
     7
100
AcDbCircle
 10
-463.8881225585937
 20
475.9934082031249
 30
0.0
 40
3.283333301544189
100
AcDbArc
 50
351.8286258693902
 51
188.1713741306112
  0
ARC
  5
2D3
330
22
100
AcDbEntity
  8
0
  6
Continuous
 62
     7
100
AcDbCircle
 10
-452.3881225585937
 20
536.7128295898438
 30
0.0
 40
3.283333301544189
100
AcDbArc
 50
351.8286258693902
 51
188.1713741306112
  0
ARC
  5
2D4
330
22
100
AcDbEntity
  8
0
  6
Continuous
 62
     7
100
AcDbCircle
 10
-463.8881225585937
 20
487.5600585937499
 30
0.0
 40
3.283333301544189
100
AcDbArc
 50
171.8286258693895
 51
8.171374130610477
  0
ARC
  5
2D5
330
22
100
AcDbEntity
  8
0
  6
Continuous
 62
     7
100
AcDbCircle
 10
-463.8881225585937
 20
507.7630920410156
 30
0.0
 40
3.283333301544189
100
AcDbArc
 50
171.8286258693895
 51
8.171374130610477
  0
ARC
  5
2D6
330
22
100
AcDbEntity
  8
0
  6
Continuous
 62
     7
100
AcDbCircle
 10
-463.8881225585937
 20
534.5826416015625
 30
0.0
 40
3.283333301544189
100
AcDbArc
 50
351.8286258693902
 51
188.1713741306112
  0
ARC
  5
2D7
330
22
100
AcDbEntity
  8
0
  6
Continuous
 62
     7
100
AcDbCircle
 10
-452.3881225585937
 20
478.3431091308593
 30
0.0
 40
3.283333301544189
100
AcDbArc
 50
171.8286258693895
 51
8.171374130610477
  0
ARC
  5
2D8
330
22
100
AcDbEntity
  8
0
  6
Continuous
 62
     7
100
AcDbCircle
 10
-360.3881225585938
 20
428.4600830078125
 30
0.0
 40
3.283333301544189
100
AcDbArc
 50
171.8291530098779
 51
8.170846990122083
  0
ARC
  5
2D9
330
22
100
AcDbEntity
  8
0
  6
Continuous
 62
     7
100
AcDbCircle
 10
-350.1381225585938
 20
472.9204406738281
 30
0.0
 40
2.0
100
AcDbArc
 50
18.14631868123702
 51
180.0000000000004
  0
ARC
  5
2DA
330
22
100
AcDbEntity
  8
0
  6
Continuous
 62
     7
100
AcDbCircle
 10
-360.3881225585938
 20
436.8934020996094
 30
0.0
 40
3.283333301544189
100
AcDbArc
 50
351.8286258693902
 51
188.1713741306112
  0
ARC
  5
2DB
330
22
100
AcDbEntity
  8
0
  6
Continuous
 62
     7
100
AcDbCircle
 10
-348.8881225585938
 20
449.4600830078125
 30
0.0
 40
3.283333301544189
100
AcDbArc
 50
171.8291530098779
 51
8.170846990122083
  0
ARC
  5
2DC
330
22
100
AcDbEntity
  8
0
  6
Continuous
 62
     7
100
AcDbCircle
 10
-360.3881225585938
 20
449.4600830078125
 30
0.0
 40
3.283333301544189
100
AcDbArc
 50
171.8291530098779
 51
8.170846990122083
  0
ARC
  5
2DD
330
22
100
AcDbEntity
  8
0
  6
Continuous
 62
     7
100
AcDbCircle
 10
-348.8881225585938
 20
436.8934020996094
 30
0.0
 40
3.283333301544189
100
AcDbArc
 50
351.8286258693902
 51
188.1713741306112
  0
ARC
  5
2DE
330
22
100
AcDbEntity
  8
0
  6
Continuous
 62
     7
100
AcDbCircle
 10
-360.3881225585938
 20
457.8934020996094
 30
0.0
 40
3.283333301544189
100
AcDbArc
 50
351.8286258693902
 51
188.1713741306112
  0
ARC
  5
2DF
330
22
100
AcDbEntity
  8
0
  6
Continuous
 62
     7
100
AcDbCircle
 10
-452.3881225585937
 20
466.743408203125
 30
0.0
 40
3.283333301544189
100
AcDbArc
 50
351.8286258693902
 51
188.1713741306112
  0
CIRCLE
  5
2E0
330
22
100
AcDbEntity
  8
0
  6
Continuous
 62
     7
100
AcDbCircle
 10
-440.8881225585938
 20
443.1767272949218
 30
0.0
 40
3.25
  0
ARC
  5
2E1
330
22
100
AcDbEntity
  8
0
  6
Continuous
 62
     7
100
AcDbCircle
 10
-440.8881225585938
 20
451.7100830078125
 30
0.0
 40
3.283333301544189
100
AcDbArc
 50
171.8291530098779
 51
8.170846990122083
  0
ARC
  5
2E2
330
22
100
AcDbEntity
  8
0
  6
Continuous
 62
     7
100
AcDbCircle
 10
-452.3881225585937
 20
436.8934020996094
 30
0.0
 40
3.283333301544189
100
AcDbArc
 50
351.8286258693902
 51
188.1713741306112
  0
ARC
  5
2E3
330
22
100
AcDbEntity
  8
0
  6
Continuous
 62
     7
100
AcDbCircle
 10
-463.8881225585937
 20
449.4600830078125
 30
0.0
 40
3.283333301544189
100
AcDbArc
 50
171.8291530098779
 51
8.170846990122083
  0
ARC
  5
2E4
330
22
100
AcDbEntity
  8
0
  6
Continuous
 62
     7
100
AcDbCircle
 10
-440.8881225585938
 20
434.6434020996094
 30
0.0
 40
3.283333301544189
100
AcDbArc
 50
351.8286258693902
 51
188.1713741306112
  0
ARC
  5
2E5
330
22
100
AcDbEntity
  8
0
  6
Continuous
 62
     7
100
AcDbCircle
 10
-452.3881225585937
 20
449.4600830078125
 30
0.0
 40
3.283333301544189
100
AcDbArc
 50
171.8291530098779
 51
8.170846990122083
  0
ARC
  5
2E6
330
22
100
AcDbEntity
  8
0
  6
Continuous
 62
     7
100
AcDbCircle
 10
-463.8881225585937
 20
436.8934020996094
 30
0.0
 40
3.283333301544189
100
AcDbArc
 50
351.8286258693902
 51
188.1713741306112
  0
ARC
  5
2E7
330
22
100
AcDbEntity
  8
0
  6
Continuous
 62
     7
100
AcDbCircle
 10
-463.8881225585937
 20
496.0934143066406
 30
0.0
 40
3.283333301544189
100
AcDbArc
 50
351.8286258693902
 51
188.1713741306112
  0
ARC
  5
2E8
330
22
100
AcDbEntity
  8
0
  6
Continuous
 62
     7
100
AcDbCircle
 10
-452.3881225585937
 20
519.3430786132814
 30
0.0
 40
3.283333301544189
100
AcDbArc
 50
171.8286258693895
 51
8.171374130610477
  0
ARC
  5
2E9
330
22
100
AcDbEntity
  8
0
  6
Continuous
 62
     7
100
AcDbCircle
 10
-521.3881225585939
 20
469.4600830078124
 30
0.0
 40
3.283333301544189
100
AcDbArc
 50
171.8291530098779
 51
8.170846990122083
  0
ARC
  5
2EA
330
22
100
AcDbEntity
  8
0
  6
Continuous
 62
     7
100
AcDbCircle
 10
-509.8881225585937
 20
484.4600830078125
 30
0.0
 40
3.283333301544189
100
AcDbArc
 50
171.8291530098779
 51
8.170846990122083
  0
ARC
  5
2EB
330
22
100
AcDbEntity
  8
0
  6
Continuous
 62
     7
100
AcDbCircle
 10
-509.8881225585937
 20
502.3934020996093
 30
0.0
 40
3.283333301544189
100
AcDbArc
 50
351.8286258693902
 51
188.1713741306112
  0
ARC
  5
2EC
330
22
100
AcDbEntity
  8
0
  6
Continuous
 62
     7
100
AcDbCircle
 10
-509.8881225585937
 20
449.4600830078125
 30
0.0
 40
3.283333301544189
100
AcDbArc
 50
171.8291530098779
 51
8.170846990122083
  0
ARC
  5
2ED
330
22
100
AcDbEntity
  8
0
  6
Continuous
 62
     7
100
AcDbCircle
 10
-498.3881225585938
 20
449.4600830078125
 30
0.0
 40
3.283333301544189
100
AcDbArc
 50
171.8291530098779
 51
8.170846990122083
  0
ARC
  5
2EE
330
22
100
AcDbEntity
  8
0
  6
Continuous
 62
     7
100
AcDbCircle
 10
-498.3881225585938
 20
489.4600830078124
 30
0.0
 40
3.283333301544189
100
AcDbArc
 50
171.8291530098779
 51
8.170846990122083
  0
ARC
  5
2EF
330
22
100
AcDbEntity
  8
0
  6
Continuous
 62
     7
100
AcDbCircle
 10
-452.3881225585937
 20
507.7764282226563
 30
0.0
 40
3.283333301544189
100
AcDbArc
 50
351.8291530098786
 51
188.1708469901228
  0
ARC
  5
2F0
330
22
100
AcDbEntity
  8
0
  6
Continuous
 62
     7
100
AcDbCircle
 10
-440.8881225585938
 20
472.5433959960938
 30
0.0
 40
3.283333301544189
100
AcDbArc
 50
351.8291530098786
 51
188.1708469901228
  0
CIRCLE
  5
2F1
330
22
100
AcDbEntity
  8
0
  6
Continuous
 62
     7
100
AcDbCircle
 10
-510.1842651367188
 20
512.4729003906249
 30
0.0
 40
5.25
  0
CIRCLE
  5
2F2
330
22
100
AcDbEntity
  8
0
  6
Continuous
 62
     7
100
AcDbCircle
 10
-510.1842651367188
 20
512.4729003906249
 30
0.0
 40
5.0
  0
ARC
  5
2F3
330
22
100
AcDbEntity
  8
0
  6
Continuous
 62
     7
100
AcDbCircle
 10
-498.3881225585938
 20
436.8934020996094
 30
0.0
 40
3.283333301544189
100
AcDbArc
 50
351.8286258693902
 51
188.1713741306112
  0
ARC
  5
2F4
330
22
100
AcDbEntity
  8
0
  6
Continuous
 62
     7
100
AcDbCircle
 10
-521.3881225585939
 20
436.8934020996094
 30
0.0
 40
3.283333301544189
100
AcDbArc
 50
351.8286258693902
 51
188.1713741306112
  0
ARC
  5
2F5
330
22
100
AcDbEntity
  8
0
  6
Continuous
 62
     7
100
AcDbCircle
 10
-509.8881225585937
 20
436.8934020996094
 30
0.0
 40
3.283333301544189
100
AcDbArc
 50
351.8286258693902
 51
188.1713741306112
  0
ARC
  5
2F6
330
22
100
AcDbEntity
  8
0
  6
Continuous
 62
     7
100
AcDbCircle
 10
-498.3881225585938
 20
517.8136596679689
 30
0.0
 40
3.283333301544189
100
AcDbArc
 50
351.8286258693902
 51
188.1713741306112
  0
ARC
  5
2F7
330
22
100
AcDbEntity
  8
0
  6
Continuous
 62
     7
100
AcDbCircle
 10
-498.3881225585938
 20
477.8934020996094
 30
0.0
 40
3.283333301544189
100
AcDbArc
 50
351.8286258693902
 51
188.1713741306112
  0
ARC
  5
2F8
330
22
100
AcDbEntity
  8
0
  6
Continuous
 62
     7
100
AcDbCircle
 10
-509.8881225585937
 20
472.8934020996093
 30
0.0
 40
3.283333301544189
100
AcDbArc
 50
351.8286258693902
 51
188.1713741306112
  0
ARC
  5
2F9
330
22
100
AcDbEntity
  8
0
  6
Continuous
 62
     7
100
AcDbCircle
 10
-521.3881225585939
 20
492.2201232910156
 30
0.0
 40
3.283333301544189
100
AcDbArc
 50
351.8291530098786
 51
188.1708469901228
  0
ARC
  5
2FA
330
22
100
AcDbEntity
  8
0
  6
Continuous
 62
     7
100
AcDbCircle
 10
-521.3881225585939
 20
449.4600830078125
 30
0.0
 40
3.283333301544189
100
AcDbArc
 50
171.8291530098779
 51
8.170846990122083
  0
ARC
  5
2FB
330
22
100
AcDbEntity
  8
0
  6
Continuous
 62
     7
100
AcDbCircle
 10
-521.3881225585939
 20
457.8934020996094
 30
0.0
 40
3.283333301544189
100
AcDbArc
 50
351.8286258693902
 51
188.1713741306112
  0
ARC
  5
2FC
330
22
100
AcDbEntity
  8
0
  6
Continuous
 62
     7
100
AcDbCircle
 10
-475.3881225585938
 20
462.8934020996093
 30
0.0
 40
3.283333301544189
100
AcDbArc
 50
351.8286258693902
 51
188.1713741306112
  0
ARC
  5
2FD
330
22
100
AcDbEntity
  8
0
  6
Continuous
 62
     7
100
AcDbCircle
 10
-475.3881225585938
 20
436.8934020996094
 30
0.0
 40
3.283333301544189
100
AcDbArc
 50
351.8286258693902
 51
188.1713741306112
  0
ARC
  5
2FE
330
22
100
AcDbEntity
  8
0
  6
Continuous
 62
     7
100
AcDbCircle
 10
-475.3881225585938
 20
530.849609375
 30
0.0
 40
3.283333301544189
100
AcDbArc
 50
351.8286258693902
 51
188.1713741306112
  0
ARC
  5
2FF
330
22
100
AcDbEntity
  8
0
  6
Continuous
 62
     7
100
AcDbCircle
 10
-475.3881225585938
 20
517.4162597656249
 30
0.0
 40
3.283333301544189
100
AcDbArc
 50
171.8286258693895
 51
8.171374130610477
  0
ARC
  5
300
330
22
100
AcDbEntity
  8
0
  6
Continuous
 62
     7
100
AcDbCircle
 10
-475.3881225585938
 20
505.74658203125
 30
0.0
 40
3.283333301544189
100
AcDbArc
 50
351.8286258693902
 51
188.1713741306112
  0
ARC
  5
301
330
22
100
AcDbEntity
  8
0
  6
Continuous
 62
     7
100
AcDbCircle
 10
-486.8881225585938
 20
436.8934020996094
 30
0.0
 40
3.283333301544189
100
AcDbArc
 50
351.8286258693902
 51
188.1713741306112
  0
ARC
  5
302
330
22
100
AcDbEntity
  8
0
  6
Continuous
 62
     7
100
AcDbCircle
 10
-486.8881225585938
 20
471.6934204101563
 30
0.0
 40
3.283333301544189
100
AcDbArc
 50
351.8286258693902
 51
188.1713741306112
  0
ARC
  5
303
330
22
100
AcDbEntity
  8
0
  6
Continuous
 62
     7
100
AcDbCircle
 10
-486.8881225585938
 20
449.4600830078125
 30
0.0
 40
3.283333301544189
100
AcDbArc
 50
171.8291530098779
 51
8.170846990122083
  0
ARC
  5
304
330
22
100
AcDbEntity
  8
0
  6
Continuous
 62
     7
100
AcDbCircle
 10
-486.8881225585938
 20
525.4267578124999
 30
0.0
 40
3.283333301544189
100
AcDbArc
 50
351.8286258693902
 51
188.1713741306112
  0
ARC
  5
305
330
22
100
AcDbEntity
  8
0
  6
Continuous
 62
     7
100
AcDbCircle
 10
-486.8881225585938
 20
483.2600708007813
 30
0.0
 40
3.283333301544189
100
AcDbArc
 50
171.8286258693895
 51
8.171374130610477
  0
ARC
  5
306
330
22
100
AcDbEntity
  8
0
  6
Continuous
 62
     7
100
AcDbCircle
 10
-486.8881225585938
 20
503.3630981445313
 30
0.0
 40
3.283333301544189
100
AcDbArc
 50
171.8286258693895
 51
8.171374130610477
  0
ARC
  5
307
330
22
100
AcDbEntity
  8
0
  6
Continuous
 62
     7
100
AcDbCircle
 10
-486.8881225585938
 20
491.6934204101563
 30
0.0
 40
3.283333301544189
100
AcDbArc
 50
351.8286258693902
 51
188.1713741306112
  0
ARC
  5
308
330
22
100
AcDbEntity
  8
0
  6
Continuous
 62
     7
100
AcDbCircle
 10
-532.8881225585938
 20
449.4600830078125
 30
0.0
 40
3.283333301544189
100
AcDbArc
 50
171.8291530098779
 51
8.170846990122083
  0
ARC
  5
309
330
22
100
AcDbEntity
  8
0
  6
Continuous
 62
     7
100
AcDbCircle
 10
-440.8881225585938
 20
443.1767272949218
 30
0.0
 40
97.5
100
AcDbArc
 50
161.8532185362085
 51
167.667097055231
  0
ARC
  5
30A
330
22
100
AcDbEntity
  8
0
  6
Continuous
 62
     7
100
AcDbCircle
 10
-531.6381225585939
 20
472.9204406738281
 30
0.0
 40
2.0
100
AcDbArc
 50
0.0
 51
161.8534090319294
  0
ARC
  5
30B
330
22
100
AcDbEntity
  8
0
  6
Continuous
 62
     7
100
AcDbCircle
 10
-532.8881225585938
 20
436.8934020996094
 30
0.0
 40
3.283333301544189
100
AcDbArc
 50
351.8286258693902
 51
188.1713741306112
  0
ARC
  5
30C
330
22
100
AcDbEntity
  8
0
  6
Continuous
 62
     7
100
AcDbCircle
 10
-394.8881225585938
 20
403.0934143066406
 30
0.0
 40
3.283333301544189
100
AcDbArc
 50
351.8286258693902
 51
188.1713741306112
  0
ARC
  5
30D
330
22
100
AcDbEntity
  8
0
  6
Continuous
 62
     7
100
AcDbCircle
 10
-371.8881225585938
 20
401.8934020996093
 30
0.0
 40
3.283333301544189
100
AcDbArc
 50
351.8286258693902
 51
188.1713741306112
  0
ARC
  5
30E
330
22
100
AcDbEntity
  8
0
  6
Continuous
 62
     7
100
AcDbCircle
 10
-383.3881225585938
 20
408.4600830078125
 30
0.0
 40
3.283333301544189
100
AcDbArc
 50
171.8291530098779
 51
8.170846990122083
  0
CIRCLE
  5
30F
330
22
100
AcDbEntity
  8
0
  6
Continuous
 62
     7
100
AcDbCircle
 10
-371.59130859375
 20
373.8805847167969
 30
0.0
 40
5.0
  0
ARC
  5
310
330
22
100
AcDbEntity
  8
0
  6
Continuous
 62
     7
100
AcDbCircle
 10
-417.8881225585937
 20
410.3600769042968
 30
0.0
 40
3.283333301544189
100
AcDbArc
 50
171.8286258693895
 51
8.171374130610477
  0
ARC
  5
311
330
22
100
AcDbEntity
  8
0
  6
Continuous
 62
     7
100
AcDbCircle
 10
-417.8881225585937
 20
351.7708435058594
 30
0.0
 40
3.283333301544189
100
AcDbArc
 50
171.8286258693895
 51
8.171374130610477
  0
ARC
  5
312
330
22
100
AcDbEntity
  8
0
  6
Continuous
 62
     7
100
AcDbCircle
 10
-417.8881225585937
 20
378.5903930664063
 30
0.0
 40
3.283333301544189
100
AcDbArc
 50
351.8286258693902
 51
188.1713741306112
  0
ARC
  5
313
330
22
100
AcDbEntity
  8
0
  6
Continuous
 62
     7
100
AcDbCircle
 10
-417.8881225585937
 20
390.2600708007813
 30
0.0
 40
3.283333301544189
100
AcDbArc
 50
171.8286258693895
 51
8.171374130610477
  0
ARC
  5
314
330
22
100
AcDbEntity
  8
0
  6
Continuous
 62
     7
100
AcDbCircle
 10
-417.8881225585937
 20
398.7933959960938
 30
0.0
 40
3.283333301544189
100
AcDbArc
 50
351.8291530098786
 51
188.1708469901228
  0
ARC
  5
315
330
22
100
AcDbEntity
  8
0
  6
Continuous
 62
     7
100
AcDbCircle
 10
-521.3881225585939
 20
428.4600830078125
 30
0.0
 40
3.283333301544189
100
AcDbArc
 50
171.8291530098779
 51
8.170846990122083
  0
ARC
  5
316
330
22
100
AcDbEntity
  8
0
  6
Continuous
 62
     7
100
AcDbCircle
 10
-475.3881225585938
 20
474.4600830078125
 30
0.0
 40
3.283333301544189
100
AcDbArc
 50
171.8291530098779
 51
8.170846990122083
  0
ARC
  5
317
330
22
100
AcDbEntity
  8
0
  6
Continuous
 62
     7
100
AcDbCircle
 10
-475.3881225585938
 20
449.4600830078125
 30
0.0
 40
3.283333301544189
100
AcDbArc
 50
171.8291530098779
 51
8.170846990122083
  0
ARC
  5
318
330
22
100
AcDbEntity
  8
0
  6
Continuous
 62
     7
100
AcDbCircle
 10
-371.8881225585938
 20
413.4600830078125
 30
0.0
 40
3.283333301544189
100
AcDbArc
 50
171.8291530098779
 51
8.170846990122083
  0
ARC
  5
319
330
22
100
AcDbEntity
  8
0
  6
Continuous
 62
     7
100
AcDbCircle
 10
-394.8881225585938
 20
414.6600646972656
 30
0.0
 40
3.283333301544189
100
AcDbArc
 50
171.8286258693895
 51
8.171374130610477
  0
CIRCLE
  5
31A
330
22
100
AcDbEntity
  8
0
  6
Continuous
 62
     7
100
AcDbCircle
 10
-371.59130859375
 20
373.8805847167969
 30
0.0
 40
5.25
  0
ARC
  5
31B
330
22
100
AcDbEntity
  8
0
  6
Continuous
 62
     7
100
AcDbCircle
 10
-394.8881225585938
 20
360.9267272949219
 30
0.0
 40
3.283333301544189
100
AcDbArc
 50
171.8286258693895
 51
8.171374130610477
  0
ARC
  5
31C
330
22
100
AcDbEntity
  8
0
  6
Continuous
 62
     7
100
AcDbCircle
 10
-394.8881225585938
 20
382.9903869628907
 30
0.0
 40
3.283333301544189
100
AcDbArc
 50
351.8286258693902
 51
188.1713741306112
  0
ARC
  5
31D
330
22
100
AcDbEntity
  8
0
  6
Continuous
 62
     7
100
AcDbCircle
 10
-394.8881225585938
 20
394.6600646972656
 30
0.0
 40
3.283333301544189
100
AcDbArc
 50
171.8286258693895
 51
8.171374130610477
  0
ARC
  5
31E
330
22
100
AcDbEntity
  8
0
  6
Continuous
 62
     7
100
AcDbCircle
 10
-440.8881225585938
 20
369.7933959960938
 30
0.0
 40
3.283333301544189
100
AcDbArc
 50
351.8291530098786
 51
188.1708469901228
  0
ARC
  5
31F
330
22
100
AcDbEntity
  8
0
  6
Continuous
 62
     7
100
AcDbCircle
 10
-452.3881225585937
 20
367.0103759765625
 30
0.0
 40
3.283333301544189
100
AcDbArc
 50
351.8286258693902
 51
188.1713741306112
  0
ARC
  5
320
330
22
100
AcDbEntity
  8
0
  6
Continuous
 62
     7
100
AcDbCircle
 10
-452.3881225585937
 20
378.5770263671875
 30
0.0
 40
3.283333301544189
100
AcDbArc
 50
171.8286258693895
 51
8.171374130610477
  0
ARC
  5
321
330
22
100
AcDbEntity
  8
0
  6
Continuous
 62
     7
100
AcDbCircle
 10
-452.3881225585937
 20
349.6406555175781
 30
0.0
 40
3.283333301544189
100
AcDbArc
 50
171.8286258693895
 51
8.171374130610477
  0
ARC
  5
322
330
22
100
AcDbEntity
  8
0
  6
Continuous
 62
     7
100
AcDbCircle
 10
-463.8881225585937
 20
390.2600708007813
 30
0.0
 40
3.283333301544189
100
AcDbArc
 50
171.8286258693895
 51
8.171374130610477
  0
ARC
  5
323
330
22
100
AcDbEntity
  8
0
  6
Continuous
 62
     7
100
AcDbCircle
 10
-350.1381225585938
 20
413.4330444335938
 30
0.0
 40
2.0
100
AcDbArc
 50
180.0000000000004
 51
341.8536813187637
  0
ARC
  5
324
330
22
100
AcDbEntity
  8
0
  6
Continuous
 62
     7
100
AcDbCircle
 10
-360.3881225585938
 20
394.1333312988281
 30
0.0
 40
3.283333301544189
100
AcDbArc
 50
171.8286258693895
 51
8.171374130610477
  0
ARC
  5
325
330
22
100
AcDbEntity
  8
0
  6
Continuous
 62
     7
100
AcDbCircle
 10
-406.3881225585937
 20
380.6069030761719
 30
0.0
 40
3.283333301544189
100
AcDbArc
 50
171.8286258693895
 51
8.171374130610477
  0
ARC
  5
326
330
22
100
AcDbEntity
  8
0
  6
Continuous
 62
     7
100
AcDbCircle
 10
-406.3881225585937
 20
355.5038757324219
 30
0.0
 40
3.283333301544189
100
AcDbArc
 50
171.8286258693895
 51
8.171374130610477
  0
ARC
  5
327
330
22
100
AcDbEntity
  8
0
  6
Continuous
 62
     7
100
AcDbCircle
 10
-406.3881225585937
 20
368.9372253417969
 30
0.0
 40
3.283333301544189
100
AcDbArc
 50
351.8286258693902
 51
188.1713741306112
  0
ARC
  5
328
330
22
100
AcDbEntity
  8
0
  6
Continuous
 62
     7
100
AcDbCircle
 10
-406.3881225585937
 20
411.8934020996094
 30
0.0
 40
3.283333301544189
100
AcDbArc
 50
351.8286258693902
 51
188.1713741306112
  0
ARC
  5
329
330
22
100
AcDbEntity
  8
0
  6
Continuous
 62
     7
100
AcDbCircle
 10
-383.3881225585938
 20
396.8934020996094
 30
0.0
 40
3.283333301544189
100
AcDbArc
 50
351.8286258693902
 51
188.1713741306112
  0
ARC
  5
32A
330
22
100
AcDbEntity
  8
0
  6
Continuous
 62
     7
100
AcDbCircle
 10
-383.3881225585938
 20
368.5398559570313
 30
0.0
 40
3.283333301544189
100
AcDbArc
 50
171.8291530098779
 51
8.170846990122083
  0
ARC
  5
32B
330
22
100
AcDbEntity
  8
0
  6
Continuous
 62
     7
100
AcDbCircle
 10
-371.8881225585938
 20
383.9600830078125
 30
0.0
 40
3.283333301544189
100
AcDbArc
 50
171.8291530098779
 51
8.170846990122083
  0
ARC
  5
32C
330
22
100
AcDbEntity
  8
0
  6
Continuous
 62
     7
100
AcDbCircle
 10
-509.8881225585937
 20
383.9600830078125
 30
0.0
 40
3.283333301544189
100
AcDbArc
 50
171.8291530098779
 51
8.170846990122083
  0
ARC
  5
32D
330
22
100
AcDbEntity
  8
0
  6
Continuous
 62
     7
100
AcDbCircle
 10
-521.3881225585939
 20
394.1333312988281
 30
0.0
 40
3.283333301544189
100
AcDbArc
 50
171.8286258693895
 51
8.171374130610477
  0
ARC
  5
32E
330
22
100
AcDbEntity
  8
0
  6
Continuous
 62
     7
100
AcDbCircle
 10
-463.8881225585937
 20
410.3600769042968
 30
0.0
 40
3.283333301544189
100
AcDbArc
 50
171.8286258693895
 51
8.171374130610477
  0
ARC
  5
32F
330
22
100
AcDbEntity
  8
0
  6
Continuous
 62
     7
100
AcDbCircle
 10
-463.8881225585937
 20
351.7708435058594
 30
0.0
 40
3.283333301544189
100
AcDbArc
 50
171.8286258693895
 51
8.171374130610477
  0
ARC
  5
330
330
22
100
AcDbEntity
  8
0
  6
Continuous
 62
     7
100
AcDbCircle
 10
-463.8881225585937
 20
378.5903930664063
 30
0.0
 40
3.283333301544189
100
AcDbArc
 50
351.8286258693902
 51
188.1713741306112
  0
ARC
  5
331
330
22
100
AcDbEntity
  8
0
  6
Continuous
 62
     7
100
AcDbCircle
 10
-440.8881225585938
 20
413.8100585937499
 30
0.0
 40
3.283333301544189
100
AcDbArc
 50
171.8286258693895
 51
8.171374130610477
  0
ARC
  5
332
330
22
100
AcDbEntity
  8
0
  6
Continuous
 62
     7
100
AcDbCircle
 10
-452.3881225585937
 20
408.0103759765624
 30
0.0
 40
3.283333301544189
100
AcDbArc
 50
351.8286258693902
 51
188.1713741306112
  0
ARC
  5
333
330
22
100
AcDbEntity
  8
0
  6
Continuous
 62
     7
100
AcDbCircle
 10
-440.8881225585938
 20
402.1934204101563
 30
0.0
 40
3.283333301544189
100
AcDbArc
 50
351.8286258693902
 51
188.1713741306112
  0
ARC
  5
334
330
22
100
AcDbEntity
  8
0
  6
Continuous
 62
     7
100
AcDbCircle
 10
-463.8881225585937
 20
398.7933959960938
 30
0.0
 40
3.283333301544189
100
AcDbArc
 50
351.8291530098786
 51
188.1708469901228
  0
ARC
  5
335
330
22
100
AcDbEntity
  8
0
  6
Continuous
 62
     7
100
AcDbCircle
 10
-440.8881225585938
 20
348.9600830078125
 30
0.0
 40
3.283333301544189
100
AcDbArc
 50
171.8291530098779
 51
8.170846990122083
  0
ARC
  5
336
330
22
100
AcDbEntity
  8
0
  6
Continuous
 62
     7
100
AcDbCircle
 10
-440.8881225585938
 20
381.3600769042969
 30
0.0
 40
3.283333301544189
100
AcDbArc
 50
171.8286258693895
 51
8.171374130610477
  0
CIRCLE
  5
337
330
22
100
AcDbEntity
  8
0
  6
Continuous
 62
     7
100
AcDbCircle
 10
-510.1839599609375
 20
373.8802490234375
 30
0.0
 40
5.0
  0
CIRCLE
  5
338
330
22
100
AcDbEntity
  8
0
  6
Continuous
 62
     7
100
AcDbCircle
 10
-510.1839599609375
 20
373.8802490234375
 30
0.0
 40
5.25
  0
ARC
  5
339
330
22
100
AcDbEntity
  8
0
  6
Continuous
 62
     7
100
AcDbCircle
 10
-498.3881225585938
 20
408.4600830078125
 30
0.0
 40
3.283333301544189
100
AcDbArc
 50
171.8291530098779
 51
8.170846990122083
  0
ARC
  5
33A
330
22
100
AcDbEntity
  8
0
  6
Continuous
 62
     7
100
AcDbCircle
 10
-498.3881225585938
 20
396.8934020996094
 30
0.0
 40
3.283333301544189
100
AcDbArc
 50
351.8286258693902
 51
188.1713741306112
  0
ARC
  5
33B
330
22
100
AcDbEntity
  8
0
  6
Continuous
 62
     7
100
AcDbCircle
 10
-498.3881225585938
 20
368.5398559570313
 30
0.0
 40
3.283333301544189
100
AcDbArc
 50
171.8291530098779
 51
8.170846990122083
  0
ARC
  5
33C
330
22
100
AcDbEntity
  8
0
  6
Continuous
 62
     7
100
AcDbCircle
 10
-509.8881225585937
 20
401.8934020996093
 30
0.0
 40
3.283333301544189
100
AcDbArc
 50
351.8286258693902
 51
188.1713741306112
  0
ARC
  5
33D
330
22
100
AcDbEntity
  8
0
  6
Continuous
 62
     7
100
AcDbCircle
 10
-369.8881225585938
 20
222.135986328125
 30
0.0
 40
5.0
100
AcDbArc
 50
109.6537064392207
 51
180.0000000000004
  0
ARC
  5
33E
330
22
100
AcDbEntity
  8
0
  6
Continuous
 62
     7
100
AcDbCircle
 10
-348.3881225585938
 20
250.6487274169922
 30
0.0
 40
3.0
100
AcDbArc
 50
292.2199425322639
 51
0.0
  0
ARC
  5
33F
330
22
100
AcDbEntity
  8
0
  6
Continuous
 62
     7
100
AcDbCircle
 10
-322.8881225585938
 20
257.6595764160156
 30
0.0
 40
2.0
100
AcDbArc
 50
270.0000000000005
 51
0.0
  0
ARC
  5
340
330
22
100
AcDbEntity
  8
0
  6
Continuous
 62
     7
100
AcDbCircle
 10
-327.8881225585938
 20
250.6595764160156
 30
0.0
 40
5.0
100
AcDbArc
 50
90.00000000000019
 51
180.0000000000004
  0
ARC
  5
341
330
22
100
AcDbEntity
  8
0
  6
Continuous
 62
     7
100
AcDbCircle
 10
-337.8881225585938
 20
244.1831817626953
 30
0.0
 40
5.0
100
AcDbArc
 50
289.654035771518
 51
0.0
  0
ARC
  5
342
330
22
100
AcDbEntity
  8
0
  6
Continuous
 62
     7
100
AcDbCircle
 10
-475.3881225585938
 20
355.5038757324219
 30
0.0
 40
3.283333301544189
100
AcDbArc
 50
171.8286258693895
 51
8.171374130610477
  0
ARC
  5
343
330
22
100
AcDbEntity
  8
0
  6
Continuous
 62
     7
100
AcDbCircle
 10
-486.8881225585938
 20
414.6600646972656
 30
0.0
 40
3.283333301544189
100
AcDbArc
 50
171.8286258693895
 51
8.171374130610477
  0
ARC
  5
344
330
22
100
AcDbEntity
  8
0
  6
Continuous
 62
     7
100
AcDbCircle
 10
-475.3881225585938
 20
411.8934020996094
 30
0.0
 40
3.283333301544189
100
AcDbArc
 50
351.8286258693902
 51
188.1713741306112
  0
ARC
  5
345
330
22
100
AcDbEntity
  8
0
  6
Continuous
 62
     7
100
AcDbCircle
 10
-475.3881225585938
 20
368.9372253417969
 30
0.0
 40
3.283333301544189
100
AcDbArc
 50
351.8286258693902
 51
188.1713741306112
  0
ARC
  5
346
330
22
100
AcDbEntity
  8
0
  6
Continuous
 62
     7
100
AcDbCircle
 10
-475.3881225585938
 20
380.6069030761719
 30
0.0
 40
3.283333301544189
100
AcDbArc
 50
171.8286258693895
 51
8.171374130610477
  0
ARC
  5
347
330
22
100
AcDbEntity
  8
0
  6
Continuous
 62
     7
100
AcDbCircle
 10
-486.8881225585938
 20
360.9267272949219
 30
0.0
 40
3.283333301544189
100
AcDbArc
 50
171.8286258693895
 51
8.171374130610477
  0
ARC
  5
348
330
22
100
AcDbEntity
  8
0
  6
Continuous
 62
     7
100
AcDbCircle
 10
-486.8881225585938
 20
394.6600646972656
 30
0.0
 40
3.283333301544189
100
AcDbArc
 50
171.8286258693895
 51
8.171374130610477
  0
ARC
  5
349
330
22
100
AcDbEntity
  8
0
  6
Continuous
 62
     7
100
AcDbCircle
 10
-486.8881225585938
 20
403.0934143066406
 30
0.0
 40
3.283333301544189
100
AcDbArc
 50
351.8286258693902
 51
188.1713741306112
  0
ARC
  5
34A
330
22
100
AcDbEntity
  8
0
  6
Continuous
 62
     7
100
AcDbCircle
 10
-486.8881225585938
 20
382.9903869628907
 30
0.0
 40
3.283333301544189
100
AcDbArc
 50
351.8286258693902
 51
188.1713741306112
  0
ARC
  5
34B
330
22
100
AcDbEntity
  8
0
  6
Continuous
 62
     7
100
AcDbCircle
 10
-531.6381225585939
 20
413.4330444335938
 30
0.0
 40
2.0
100
AcDbArc
 50
198.1465909680713
 51
0.0
  0
ARC
  5
34C
330
22
100
AcDbEntity
  8
0
  6
Continuous
 62
     7
100
AcDbCircle
 10
-509.8881225585937
 20
413.4600830078125
 30
0.0
 40
3.283333301544189
100
AcDbArc
 50
171.8291530098779
 51
8.170846990122083
  0
ARC
  5
34D
330
22
100
AcDbEntity
  8
0
  6
Continuous
 62
     7
100
AcDbCircle
 10
-511.8881225585938
 20
222.135986328125
 30
0.0
 40
5.0
100
AcDbArc
 50
0.0
 51
70.34596422848274
  0
ARC
  5
34E
330
22
100
AcDbEntity
  8
0
  6
Continuous
 62
     7
100
AcDbCircle
 10
-505.8881225585937
 20
181.6595764160156
 30
0.0
 40
1.0
100
AcDbArc
 50
180.0000000000004
 51
270.0000000000005
  0
ARC
  5
34F
330
22
100
AcDbEntity
  8
0
  6
Continuous
 62
     7
100
AcDbCircle
 10
-375.8881225585938
 20
181.6595764160156
 30
0.0
 40
1.0
100
AcDbArc
 50
270.0000000000005
 51
0.0
  0
ARC
  5
350
330
22
100
AcDbEntity
  8
0
  6
Continuous
 62
     7
100
AcDbCircle
 10
-553.8881225585938
 20
250.6595764160156
 30
0.0
 40
5.0
100
AcDbArc
 50
0.0
 51
90.00000000000019
  0
ARC
  5
351
330
22
100
AcDbEntity
  8
0
  6
Continuous
 62
     7
100
AcDbCircle
 10
-558.8881225585939
 20
257.6595764160156
 30
0.0
 40
2.0
100
AcDbArc
 50
180.0000000000004
 51
270.0000000000005
  0
ARC
  5
352
330
22
100
AcDbEntity
  8
0
  6
Continuous
 62
     7
100
AcDbCircle
 10
-543.8881225585938
 20
244.1831817626953
 30
0.0
 40
5.0
100
AcDbArc
 50
180.0000000000004
 51
250.3459642284834
  0
ARC
  5
353
330
22
100
AcDbEntity
  8
0
  6
Continuous
 62
     7
100
AcDbCircle
 10
-429.3881225585938
 20
507.7764282226563
 30
0.0
 40
3.283333301544189
100
AcDbArc
 50
351.8291530098786
 51
188.1708469901228
  0
ARC
  5
354
330
22
100
AcDbEntity
  8
0
  6
Continuous
 62
     7
100
AcDbCircle
 10
-429.3881225585938
 20
519.3430786132814
 30
0.0
 40
3.283333301544189
100
AcDbArc
 50
171.8286258693895
 51
8.171374130610477
  0
ARC
  5
355
330
22
100
AcDbEntity
  8
0
  6
Continuous
 62
     7
100
AcDbCircle
 10
-429.3881225585938
 20
378.5770263671875
 30
0.0
 40
3.283333301544189
100
AcDbArc
 50
171.8286258693895
 51
8.171374130610477
  0
ARC
  5
356
330
22
100
AcDbEntity
  8
0
  6
Continuous
 62
     7
100
AcDbCircle
 10
-429.3881225585938
 20
349.6406555175781
 30
0.0
 40
3.283333301544189
100
AcDbArc
 50
171.8286258693895
 51
8.171374130610477
  0
ARC
  5
357
330
22
100
AcDbEntity
  8
0
  6
Continuous
 62
     7
100
AcDbCircle
 10
-429.3881225585938
 20
367.0103759765625
 30
0.0
 40
3.283333301544189
100
AcDbArc
 50
351.8286258693902
 51
188.1713741306112
  0
ARC
  5
358
330
22
100
AcDbEntity
  8
0
  6
Continuous
 62
     7
100
AcDbCircle
 10
-429.3881225585938
 20
408.0103759765624
 30
0.0
 40
3.283333301544189
100
AcDbArc
 50
351.8286258693902
 51
188.1713741306112
  0
ARC
  5
359
330
22
100
AcDbEntity
  8
0
  6
Continuous
 62
     7
100
AcDbCircle
 10
-429.3881225585938
 20
466.743408203125
 30
0.0
 40
3.283333301544189
100
AcDbArc
 50
351.8286258693902
 51
188.1713741306112
  0
ARC
  5
35A
330
22
100
AcDbEntity
  8
0
  6
Continuous
 62
     7
100
AcDbCircle
 10
-429.3881225585938
 20
449.4600830078125
 30
0.0
 40
3.283333301544189
100
AcDbArc
 50
171.8291530098779
 51
8.170846990122083
  0
ARC
  5
35B
330
22
100
AcDbEntity
  8
0
  6
Continuous
 62
     7
100
AcDbCircle
 10
-429.3881225585938
 20
436.8934020996094
 30
0.0
 40
3.283333301544189
100
AcDbArc
 50
351.8286258693902
 51
188.1713741306112
  0
ARC
  5
35C
330
22
100
AcDbEntity
  8
0
  6
Continuous
 62
     7
100
AcDbCircle
 10
-429.3881225585938
 20
478.3431091308593
 30
0.0
 40
3.283333301544189
100
AcDbArc
 50
171.8286258693895
 51
8.171374130610477
  0
ARC
  5
35D
330
22
100
AcDbEntity
  8
0
  6
Continuous
 62
     7
100
AcDbCircle
 10
-429.3881225585938
 20
536.7128295898438
 30
0.0
 40
3.283333301544189
100
AcDbArc
 50
351.8286258693902
 51
188.1713741306112
  0
ARC
  5
35E
330
22
100
AcDbEntity
  8
0
  6
Continuous
 62
     7
100
AcDbCircle
 10
-475.3881225585938
 20
423.4600830078124
 30
0.0
 40
3.283333301544189
100
AcDbArc
 50
171.8291530098779
 51
8.170846990122083
  0
ARC
  5
35F
330
22
100
AcDbEntity
  8
0
  6
Continuous
 62
     7
100
AcDbCircle
 10
-521.3881225585939
 20
416.8934020996093
 30
0.0
 40
3.283333301544189
100
AcDbArc
 50
351.8286258693902
 51
188.1713741306112
  0
ARC
  5
360
330
22
100
AcDbEntity
  8
0
  6
Continuous
 62
     7
100
AcDbCircle
 10
-429.3881225585938
 20
419.6100769042969
 30
0.0
 40
3.283333301544189
100
AcDbArc
 50
171.8286258693895
 51
8.171374130610477
  0
ARC
  5
361
330
22
100
AcDbEntity
  8
0
  6
Continuous
 62
     7
100
AcDbCircle
 10
-452.3881225585937
 20
419.6100769042969
 30
0.0
 40
3.283333301544189
100
AcDbArc
 50
171.8286258693895
 51
8.171374130610477
  0
CIRCLE
  5
362
330
22
100
AcDbEntity
  8
0
  6
Continuous
 62
     7
100
AcDbCircle
 10
-440.8881225585938
 20
443.1767272949218
 30
0.0
 40
105.0
  0
CIRCLE
  5
363
330
22
100
AcDbEntity
  8
0
  6
Continuous
 62
     7
100
AcDbCircle
 10
-440.8881225585938
 20
443.1767272949218
 30
0.0
 40
104.5
  0
CIRCLE
  5
364
330
22
100
AcDbEntity
  8
0
  6
Continuous
 62
     7
100
AcDbCircle
 10
-440.8881225585938
 20
443.1767272949218
 30
0.0
 40
120.0
  0
CIRCLE
  5
365
330
22
100
AcDbEntity
  8
0
  6
DASHED
 62
     7
100
AcDbCircle
 10
-440.8881225585938
 20
443.1767272949218
 30
0.0
 40
51.5
  0
ARC
  5
366
330
22
100
AcDbEntity
  8
0
  6
Continuous
 62
     7
100
AcDbCircle
 10
-360.3881225585938
 20
416.8934020996093
 30
0.0
 40
3.283333301544189
100
AcDbArc
 50
351.8286258693902
 51
188.1713741306112
  0
ARC
  5
367
330
22
100
AcDbEntity
  8
0
  6
Continuous
 62
     7
100
AcDbCircle
 10
-406.3881225585937
 20
423.4600830078124
 30
0.0
 40
3.283333301544189
100
AcDbArc
 50
171.8291530098779
 51
8.170846990122083
  0
ARC
  5
368
330
22
100
AcDbEntity
  8
0
  6
Continuous
 62
     7
100
AcDbCircle
 10
-440.8881225585938
 20
443.1767272949218
 30
0.0
 40
97.5
100
AcDbArc
 50
341.8532411633152
 51
347.6670970552317
  0
ARC
  5
369
330
22
100
AcDbEntity
  8
0
  6
Continuous
 62
     7
100
AcDbCircle
 10
-440.8881225585938
 20
443.1767272949218
 30
0.0
 40
97.5
100
AcDbArc
 50
192.3329029447696
 51
198.1467644221512
  0
ARC
  5
36A
330
22
100
AcDbEntity
  8
0
  6
Continuous
 62
     7
100
AcDbCircle
 10
-321.0881042480469
 20
265.4595947265625
 30
0.0
 40
0.2000000029802322
100
AcDbArc
 50
0.0
 51
90.00000000000019
  0
ARC
  5
36B
330
22
100
AcDbEntity
  8
0
  6
Continuous
 62
     7
100
AcDbCircle
 10
-560.6881103515624
 20
265.4595947265625
 30
0.0
 40
0.2000000029802322
100
AcDbArc
 50
90.00000000000019
 51
180.0000000000004
  0
CIRCLE
  5
36C
330
22
100
AcDbEntity
  8
0
  6
DASHED
 62
     7
100
AcDbCircle
 10
-440.8881225585938
 20
443.1767272949218
 30
0.0
 40
111.0
  0
LWPOLYLINE
  5
36D
330
22
100
AcDbEntity
  8
0
  6
Continuous
 62
     7
100
AcDbPolyline
 90
       12
 70
     0
 43
0.0
 10
-379.0916512535411
 20
246.9134641850999
 42
-0.0032387449499282
 10
-378.8259875898124
 20
245.6717834344817
 42
0.1123953971426162
 10
-378.2113242723303
 20
244.5713140583452
 42
0.1661469374117199
 10
-377.151194273397
 20
243.9141365160521
 42
0.1547887444228311
 10
-375.9294354807181
 20
244.1789996275006
 42
0.0183976381970767
 10
-374.8278942946096
 20
244.8127244511587
 42
-0.0519239641470986
 10
-373.6873230727153
 20
245.3692480027083
 42
-0.0266398787162567
 10
-372.460216710731
 20
245.7018178071014
 42
0.0511304899946282
 10
-371.24985197308
 20
246.0837396565441
 42
0.1071327957071868
 10
-370.2572238003705
 20
246.8606462277869
 42
0.0161622899879252
 10
-369.4693177997191
 20
247.8577659822075
 42
-0.0205199639496734
 10
-368.6390119876975
 20
248.8211596257569
  0
TEXT
  5
37B
330
22
100
AcDbEntity
  8
0
  6
Continuous
 62
     7
100
AcDbText
 10
-279.3469171524048
 20
341.5115966796875
 30
0.0
 40
7.0
  1
ＤＬ－ＳＳＰ－１００
 41
0.8443929888818491
100
AcDbText
  0
DIMENSION
  5
37C
330
22
100
AcDbEntity
  8
0
  6
Continuous
 62
     7
100
AcDbDimension
  2
*D1
 10
-536.4200846804346
 20
370.5568662846502
 30
0.0
 11
-328.4914245605469
 21
528.6165161132813
 31
0.0
 70
     3
 71
     5
 42
-1.0
  3
DIMSTYLE1
100
AcDbDiametricDimension
 15
-345.356160436753
 25
515.7965883051936
 35
0.0
 40
0.0
  0
DIMENSION
  5
37D
330
22
100
AcDbEntity
  8
0
  6
Continuous
 62
     7
100
AcDbDimension
  2
*D2
 10
-543.9171039884778
 20
458.4233905811991
 30
0.0
 11
-299.968017578125
 21
422.4459838867188
 31
0.0
 70
     3
 71
     5
 42
-1.0
  3
DIMSTYLE2
100
AcDbDiametricDimension
 15
-337.1535747224597
 25
427.9300640086446
 35
0.0
 40
0.0
  0
DIMENSION
  5
37E
330
22
100
AcDbEntity
  8
0
  6
Continuous
 62
     7
100
AcDbDimension
  2
*D3
 10
-544.6124075331071
 20
403.6511317076834
 30
0.0
 11
-305.1200561523438
 21
494.9130554199219
 31
0.0
 70
     3
 71
     5
 42
-1.0
  3
DIMSTYLE3
100
AcDbDiametricDimension
 15
-337.1638375840803
 25
482.7023228821604
 35
0.0
 40
0.0
  0
DIMENSION
  5
37F
330
22
100
AcDbEntity
  8
0
  6
Continuous
 62
     7
100
AcDbDimension
  2
*D4
 10
-276.3771667480469
 20
265.6595764160156
 30
0.0
 11
-276.3771667480469
 21
179.1595764160156
 31
0.0
 71
     5
 42
-1.0
  3
DIMSTYLE4
100
AcDbAlignedDimension
 13
-329.8881225585938
 23
92.65958404541015
 33
0.0
 14
-321.0881042480469
 24
265.6595764160156
 34
0.0
 50
90.0
100
AcDbRotatedDimension
  0
DIMENSION
  5
380
330
22
100
AcDbEntity
  8
0
  6
Continuous
 62
     7
100
AcDbDimension
  2
*D5
 10
-276.3771667480469
 20
89.65958404541016
 30
0.0
 11
-276.3771667480469
 21
82.02127838134765
 31
0.0
 71
     5
 42
-1.0
  3
DIMSTYLE5
100
AcDbAlignedDimension
 13
-274.0911560058594
 23
92.65958404541015
 33
0.0
 14
-329.8881225585938
 24
89.65958404541016
 34
0.0
 50
90.0
100
AcDbRotatedDimension
  0
DIMENSION
  5
381
330
22
100
AcDbEntity
  8
0
  6
Continuous
 62
     7
100
AcDbDimension
  2
*D6
 10
-290.1045227050781
 20
130.6595764160156
 30
0.0
 11
-290.1045227050781
 21
111.6595840454102
 31
0.0
 71
     5
 42
-1.0
  3
DIMSTYLE6
100
AcDbAlignedDimension
 13
-274.0911560058594
 23
92.65958404541015
 33
0.0
 14
-378.3881225585938
 24
130.6595764160156
 34
0.0
 50
90.0
100
AcDbRotatedDimension
  0
DIMENSION
  5
382
330
22
100
AcDbEntity
  8
0
  6
Continuous
 62
     7
100
AcDbDimension
  2
*D7
 10
-290.1045227050781
 20
180.6595764160156
 30
0.0
 11
-290.1045227050781
 21
223.1595764160156
 31
0.0
 71
     5
 42
-1.0
  3
DIMSTYLE7
100
AcDbAlignedDimension
 13
-274.0911560058594
 23
265.6595764160156
 33
0.0
 14
-375.8881225585938
 24
180.6595764160156
 34
0.0
 50
90.0
100
AcDbRotatedDimension
  0
DIMENSION
  5
383
330
22
100
AcDbEntity
  8
0
  6
Continuous
 62
     7
100
AcDbDimension
  2
*D8
 10
-414.9949951171874
 20
205.6595764160156
 30
0.0
 11
-414.9949951171874
 21
155.6595764160156
 31
0.0
 71
     5
 42
-1.0
  3
DIMSTYLE8
100
AcDbAlignedDimension
 13
-440.8881225585938
 23
105.6595840454102
 33
0.0
 14
-440.8881225585938
 24
205.6595764160156
 34
0.0
 50
90.0
100
AcDbRotatedDimension
  0
DIMENSION
  5
384
330
22
100
AcDbEntity
  8
0
  6
Continuous
 62
     7
100
AcDbDimension
  2
*D9
 10
-378.3881225585938
 20
15.2586784362793
 30
0.0
 11
-440.8881225585938
 21
15.2586784362793
 31
0.0
 71
     5
 42
-1.0
  3
DIMSTYLE9
100
AcDbAlignedDimension
 13
-503.3881225585938
 23
37.65958023071289
 33
0.0
 14
-378.3881225585938
 24
37.65958023071289
 34
0.0
100
AcDbRotatedDimension
  0
INSERT
  5
385
330
22
100
AcDbEntity
  8
0
  6
Continuous
 62
     7
100
AcDbBlockReference
  2
KOZU0001
 10
-384.1613464355469
 20
54.50352478027344
 30
0.0
  0
DIMENSION
  5
386
330
22
100
AcDbEntity
  8
0
  6
Continuous
 62
     7
100
AcDbDimension
  2
*D10
 10
-574.9396362304687
 20
130.6595764160156
 30
0.0
 11
-574.9396362304687
 21
84.15958404541015
 31
0.0
 71
     5
 42
-1.0
  3
DIMSTYLE10
100
AcDbAlignedDimension
 13
-503.3881225585938
 23
37.65958023071289
 33
0.0
 14
-503.3881225585938
 24
130.6595764160156
 34
0.0
 50
90.0
100
AcDbRotatedDimension
  0
ENDSEC
  0
SECTION
  2
OBJECTS
  0
DICTIONARY
  5
C
330
0
100
AcDbDictionary
281
     1
  3
ACAD_COLOR
350
1B
  3
ACAD_GROUP
350
D
  3
ACAD_LAYOUT
350
19
  3
ACAD_MATERIAL
350
1A
  3
ACAD_MLINESTYLE
350
16
  3
ACAD_PLOTSETTINGS
350
18
  3
ACAD_PLOTSTYLENAME
350
E
  3
ACAD_TABLESTYLE
350
1C
  3
AcDbVariableDictionary
350
392
  0
DICTIONARY
  5
1B
102
{ACAD_REACTORS
330
C
102
}
330
C
100
AcDbDictionary
281
     1
  0
DICTIONARY
  5
D
102
{ACAD_REACTORS
330
C
102
}
330
C
100
AcDbDictionary
281
     1
  0
DICTIONARY
  5
19
102
{ACAD_REACTORS
330
C
102
}
330
C
100
AcDbDictionary
281
     1
  3
Model
350
25
  3
レイアウト1
350
21
  0
DICTIONARY
  5
1A
102
{ACAD_REACTORS
330
C
102
}
330
C
100
AcDbDictionary
281
     1
  0
DICTIONARY
  5
16
102
{ACAD_REACTORS
330
C
102
}
330
C
100
AcDbDictionary
281
     1
  3
Standard
350
17
  0
DICTIONARY
  5
18
102
{ACAD_REACTORS
330
C
102
}
330
C
100
AcDbDictionary
281
     1
  0
ACDBDICTIONARYWDFLT
  5
E
102
{ACAD_REACTORS
330
C
102
}
330
C
100
AcDbDictionary
281
     1
  3
Normal
350
F
100
AcDbDictionaryWithDefault
340
F
  0
DICTIONARY
  5
1C
102
{ACAD_REACTORS
330
C
102
}
330
C
100
AcDbDictionary
281
     1
  3
Standard
350
1D
  0
DICTIONARY
  5
392
102
{ACAD_REACTORS
330
C
102
}
330
C
100
AcDbDictionary
281
     1
  3
CTABLESTYLE
350
393
  0
LAYOUT
  5
25
102
{ACAD_REACTORS
330
19
102
}
330
19
100
AcDbPlotSettings
  1

  2
PDF reDirect v2
  4
User120
  6

 40
3.174999952316284
 41
3.174999952316284
 42
3.17498779296875
 43
3.17498779296875
 44
594.0
 45
841.0
 46
0.0
 47
0.0
 48
0.0
 49
0.0
140
0.0
141
0.0
142
1.0
143
1.0
 70
 11952
 72
     1
 73
     1
 74
     2
  7
C:\Users\ck\AppData\Roaming\Autodesk\AutoCAD 2005\R16.1\jpn\Plot Styles\black.ctb
 75
    16
147
1.0
 76
     0
 77
     2
 78
   300
148
839.0
149
0.0
100
AcDbLayout
  1
Model
 70
     1
 71
     0
 10
0.0
 20
0.0
 11
12.0
 21
9.0
 12
0.0
 22
0.0
 32
0.0
 14
0.0
 24
0.0
 34
0.0
 15
0.0
 25
0.0
 35
0.0
146
0.0
 13
0.0
 23
0.0
 33
0.0
 16
1.0
 26
0.0
 36
0.0
 17
0.0
 27
1.0
 37
0.0
 76
     0
330
22
1001
ACAD_PSEXT
1000
PDF reDirect v2
1000
PDF reDirect Pro
1000
PDF_REDIRECT_PORT:
1000
PDF reDirect provided by EXP Systems
1070
     0
  0
LAYOUT
  5
21
102
{ACAD_REACTORS
330
19
102
}
330
19
100
AcDbPlotSettings
  1

  2
PDF reDirect v2
  4

  6

 40
0.0
 41
0.0
 42
0.0
 43
0.0
 44
0.0
 45
0.0
 46
0.0
 47
0.0
 48
0.0
 49
0.0
140
0.0
141
0.0
142
1.0
143
1.0
 70
   688
 72
     0
 73
     0
 74
     5
  7
C:\Users\ck\AppData\Roaming\Autodesk\AutoCAD 2005\R16.1\jpn\Plot Styles\black.ctb
 75
    16
147
1.0
 76
     0
 77
     2
 78
   300
148
0.0
149
0.0
100
AcDbLayout
  1
レイアウト1
 70
     1
 71
     1
 10
-839.0
 20
0.0
 11
0.0
 21
591.0
 12
0.0
 22
0.0
 32
0.0
 14
1.000000000000000E+20
 24
1.000000000000000E+20
 34
1.000000000000000E+20
 15
-1.000000000000000E+20
 25
-1.000000000000000E+20
 35
-1.000000000000000E+20
146
0.0
 13
0.0
 23
0.0
 33
0.0
 16
1.0
 26
0.0
 36
0.0
 17
0.0
 27
1.0
 37
0.0
 76
     0
330
1E
  0
MLINESTYLE
  5
17
102
{ACAD_REACTORS
330
16
102
}
330
16
100
AcDbMlineStyle
  2
STANDARD
 70
     0
  3

 62
   256
 51
90.0
 52
90.0
 71
     2
 49
0.5
 62
   256
  6
BYLAYER
 49
-0.5
 62
   256
  6
BYLAYER
  0
ACDBPLACEHOLDER
  5
F
102
{ACAD_REACTORS
330
E
102
}
330
E
  0
TABLESTYLE
  5
1D
102
{ACAD_REACTORS
330
1C
102
}
330
1C
100
AcDbTableStyle
  3
Standard
 70
     0
 71
     0
 40
0.06
 41
0.06
280
     0
281
     0
  7
STANDARD
140
0.18
170
     2
 62
     0
 63
     7
283
     0
274
    -2
284
     1
 64
     0
275
    -2
285
     1
 65
     0
276
    -2
286
     1
 66
     0
277
    -2
287
     1
 67
     0
278
    -2
288
     1
 68
     0
279
    -2
289
     1
 69
     0
  7
STANDARD
140
0.25
170
     5
 62
     0
 63
     7
283
     0
274
    -2
284
     1
 64
     0
275
    -2
285
     1
 65
     0
276
    -2
286
     1
 66
     0
277
    -2
287
     1
 67
     0
278
    -2
288
     1
 68
     0
279
    -2
289
     1
 69
     0
  7
STANDARD
140
0.18
170
     5
 62
     0
 63
     7
283
     0
274
    -2
284
     1
 64
     0
275
    -2
285
     1
 65
     0
276
    -2
286
     1
 66
     0
277
    -2
287
     1
 67
     0
278
    -2
288
     1
 68
     0
279
    -2
289
     1
 69
     0
  0
DICTIONARYVAR
  5
393
102
{ACAD_REACTORS
330
392
102
}
330
392
100
DictionaryVariables
280
     0
  1
STANDARD
  0
ENDSEC
  0
EOF
