  0
SECTION
  2
HEADER
  9
$ACADVER
  1
AC1018
  9
$ACADMAINTVER
 70
    39
  9
$DWGCODEPAGE
  3
ANSI_932
  9
$INSBASE
 10
0.0
 20
0.0
 30
0.0
  9
$EXTMIN
 10
-432.8078597644434
 20
14.01922706377138
 30
-0.0015258207003583
  9
$EXTMAX
 10
-139.3190905807062
 20
400.4089975347847
 30
0.0000000349246037
  9
$LIMMIN
 10
-592.0
 20
0.0
  9
$LIMMAX
 10
0.0
 20
418.0
  9
$ORTHOMODE
 70
     0
  9
$REGENMODE
 70
     1
  9
$FILLMODE
 70
     1
  9
$QTEXTMODE
 70
     0
  9
$MIRRTEXT
 70
     0
  9
$LTSCALE
 40
1.0
  9
$ATTMODE
 70
     1
  9
$TEXTSIZE
 40
0.2
  9
$TRACEWID
 40
0.05
  9
$TEXTSTYLE
  7
STANDARD
  9
$CLAYER
  8
0
  9
$CELTYPE
  6
CONTINUOUS
  9
$CECOLOR
 62
   256
  9
$CELTSCALE
 40
1.0
  9
$DISPSILH
 70
     0
  9
$DIMSCALE
 40
1.0
  9
$DIMASZ
 40
1.0
  9
$DIMEXO
 40
2.54
  9
$DIMDLI
 40
0.38
  9
$DIMRND
 40
0.0
  9
$DIMDLE
 40
0.0
  9
$DIMEXE
 40
2.54
  9
$DIMTP
 40
0.0
  9
$DIMTM
 40
0.0
  9
$DIMTXT
 40
3.0
  9
$DIMCEN
 40
0.09
  9
$DIMTSZ
 40
0.0
  9
$DIMTOL
 70
     0
  9
$DIMLIM
 70
     0
  9
$DIMTIH
 70
     0
  9
$DIMTOH
 70
     0
  9
$DIMSE1
 70
     0
  9
$DIMSE2
 70
     0
  9
$DIMTAD
 70
     1
  9
$DIMZIN
 70
     0
  9
$DIMBLK
  1

  9
$DIMASO
 70
     1
  9
$DIMSHO
 70
     0
  9
$DIMPOST
  1

  9
$DIMAPOST
  1

  9
$DIMALT
 70
     0
  9
$DIMALTD
 70
     2
  9
$DIMALTF
 40
25.4
  9
$DIMLFAC
 40
1.0
  9
$DIMTOFL
 70
     0
  9
$DIMTVP
 40
1.0
  9
$DIMTIX
 70
     0
  9
$DIMSOXD
 70
     0
  9
$DIMSAH
 70
     1
  9
$DIMBLK1
  1

  9
$DIMBLK2
  1

  9
$DIMSTYLE
  2
DIMSTYLE1
  9
$DIMCLRD
 70
     0
  9
$DIMCLRE
 70
     0
  9
$DIMCLRT
 70
     0
  9
$DIMTFAC
 40
1.0
  9
$DIMGAP
 40
1.5
  9
$DIMJUST
 70
     0
  9
$DIMSD1
 70
     0
  9
$DIMSD2
 70
     0
  9
$DIMTOLJ
 70
     1
  9
$DIMTZIN
 70
     0
  9
$DIMALTZ
 70
     0
  9
$DIMALTTZ
 70
     0
  9
$DIMUPT
 70
     0
  9
$DIMDEC
 70
     4
  9
$DIMTDEC
 70
     4
  9
$DIMALTU
 70
     2
  9
$DIMALTTD
 70
     2
  9
$DIMTXSTY
  7
STANDARD
  9
$DIMAUNIT
 70
     0
  9
$DIMADEC
 70
     0
  9
$DIMALTRND
 40
0.0
  9
$DIMAZIN
 70
     0
  9
$DIMDSEP
 70
    46
  9
$DIMATFIT
 70
     3
  9
$DIMFRAC
 70
     0
  9
$DIMLDRBLK
  1

  9
$DIMLUNIT
 70
     2
  9
$DIMLWD
 70
    -2
  9
$DIMLWE
 70
    -2
  9
$DIMTMOVE
 70
     0
  9
$LUNITS
 70
     2
  9
$LUPREC
 70
     4
  9
$SKETCHINC
 40
0.1
  9
$FILLETRAD
 40
0.0
  9
$AUNITS
 70
     0
  9
$AUPREC
 70
     0
  9
$MENU
  1
.
  9
$ELEVATION
 40
0.0
  9
$PELEVATION
 40
0.0
  9
$THICKNESS
 40
0.0
  9
$LIMCHECK
 70
     0
  9
$CHAMFERA
 40
0.0
  9
$CHAMFERB
 40
0.0
  9
$CHAMFERC
 40
0.0
  9
$CHAMFERD
 40
0.0
  9
$SKPOLY
 70
     0
  9
$TDCREATE
 40
2457843.856372385
  9
$TDUCREATE
 40
2457843.481372385
  9
$TDUPDATE
 40
2457843.856926864
  9
$TDUUPDATE
 40
2457843.481926864
  9
$TDINDWG
 40
0.0005556366
  9
$TDUSRTIMER
 40
0.0005556366
  9
$USRTIMER
 70
     1
  9
$ANGBASE
 50
0.0
  9
$ANGDIR
 70
     0
  9
$PDMODE
 70
     0
  9
$PDSIZE
 40
0.0
  9
$PLINEWID
 40
0.0
  9
$SPLFRAME
 70
     0
  9
$SPLINETYPE
 70
     6
  9
$SPLINESEGS
 70
     8
  9
$HANDSEED
  5
248
  9
$SURFTAB1
 70
     6
  9
$SURFTAB2
 70
     6
  9
$SURFTYPE
 70
     6
  9
$SURFU
 70
     6
  9
$SURFV
 70
     6
  9
$UCSBASE
  2

  9
$UCSNAME
  2

  9
$UCSORG
 10
0.0
 20
0.0
 30
0.0
  9
$UCSXDIR
 10
1.0
 20
0.0
 30
0.0
  9
$UCSYDIR
 10
0.0
 20
1.0
 30
0.0
  9
$UCSORTHOREF
  2

  9
$UCSORTHOVIEW
 70
     0
  9
$UCSORGTOP
 10
0.0
 20
0.0
 30
0.0
  9
$UCSORGBOTTOM
 10
0.0
 20
0.0
 30
0.0
  9
$UCSORGLEFT
 10
0.0
 20
0.0
 30
0.0
  9
$UCSORGRIGHT
 10
0.0
 20
0.0
 30
0.0
  9
$UCSORGFRONT
 10
0.0
 20
0.0
 30
0.0
  9
$UCSORGBACK
 10
0.0
 20
0.0
 30
0.0
  9
$PUCSBASE
  2

  9
$PUCSNAME
  2

  9
$PUCSORG
 10
0.0
 20
0.0
 30
0.0
  9
$PUCSXDIR
 10
1.0
 20
0.0
 30
0.0
  9
$PUCSYDIR
 10
0.0
 20
1.0
 30
0.0
  9
$PUCSORTHOREF
  2

  9
$PUCSORTHOVIEW
 70
     0
  9
$PUCSORGTOP
 10
0.0
 20
0.0
 30
0.0
  9
$PUCSORGBOTTOM
 10
0.0
 20
0.0
 30
0.0
  9
$PUCSORGLEFT
 10
0.0
 20
0.0
 30
0.0
  9
$PUCSORGRIGHT
 10
0.0
 20
0.0
 30
0.0
  9
$PUCSORGFRONT
 10
0.0
 20
0.0
 30
0.0
  9
$PUCSORGBACK
 10
0.0
 20
0.0
 30
0.0
  9
$USERI1
 70
     0
  9
$USERI2
 70
     0
  9
$USERI3
 70
     0
  9
$USERI4
 70
     0
  9
$USERI5
 70
     0
  9
$USERR1
 40
0.0
  9
$USERR2
 40
0.0
  9
$USERR3
 40
0.0
  9
$USERR4
 40
0.0
  9
$USERR5
 40
0.0
  9
$WORLDVIEW
 70
     1
  9
$SHADEDGE
 70
     3
  9
$SHADEDIF
 70
    70
  9
$TILEMODE
 70
     1
  9
$MAXACTVP
 70
    64
  9
$PINSBASE
 10
0.0
 20
0.0
 30
0.0
  9
$PLIMCHECK
 70
     0
  9
$PEXTMIN
 10
1.000000000000000E+20
 20
1.000000000000000E+20
 30
1.000000000000000E+20
  9
$PEXTMAX
 10
-1.000000000000000E+20
 20
-1.000000000000000E+20
 30
-1.000000000000000E+20
  9
$PLIMMIN
 10
-592.0
 20
0.0
  9
$PLIMMAX
 10
0.0
 20
418.0
  9
$UNITMODE
 70
     0
  9
$VISRETAIN
 70
     1
  9
$PLINEGEN
 70
     0
  9
$PSLTSCALE
 70
     1
  9
$TREEDEPTH
 70
  3020
  9
$CMLSTYLE
  2
Standard
  9
$CMLJUST
 70
     0
  9
$CMLSCALE
 40
1.0
  9
$PROXYGRAPHICS
 70
     1
  9
$MEASUREMENT
 70
     0
  9
$CELWEIGHT
370
    -1
  9
$ENDCAPS
280
     0
  9
$JOINSTYLE
280
     0
  9
$LWDISPLAY
290
     0
  9
$INSUNITS
 70
     0
  9
$HYPERLINKBASE
  1

  9
$STYLESHEET
  1

  9
$XEDIT
290
     1
  9
$CEPSNTYPE
380
     0
  9
$PSTYLEMODE
290
     1
  9
$FINGERPRINTGUID
  2
{CE84BDEB-8143-434E-845A-E9DD9049993C}
  9
$VERSIONGUID
  2
{1BB243F0-2CB4-458F-A83A-C9572E6DE477}
  9
$EXTNAMES
290
     1
  9
$PSVPSCALE
 40
0.0
  9
$OLESTARTUP
290
     0
  9
$SORTENTS
280
   127
  9
$INDEXCTL
280
     0
  9
$HIDETEXT
280
     0
  9
$XCLIPFRAME
290
     0
  9
$HALOGAP
280
     0
  9
$OBSCOLOR
 70
   257
  9
$OBSLTYPE
280
     0
  9
$INTERSECTIONDISPLAY
280
     0
  9
$INTERSECTIONCOLOR
 70
   257
  9
$DIMASSOC
280
     1
  9
$PROJECTNAME
  1

  0
ENDSEC
  0
SECTION
  2
CLASSES
  0
CLASS
  1
ACDBDICTIONARYWDFLT
  2
AcDbDictionaryWithDefault
  3
ObjectDBX Classes
 90
        0
 91
        1
280
     0
281
     0
  0
CLASS
  1
TABLESTYLE
  2
AcDbTableStyle
  3
ObjectDBX Classes
 90
     2047
 91
        1
280
     0
281
     0
  0
CLASS
  1
DICTIONARYVAR
  2
AcDbDictionaryVar
  3
ObjectDBX Classes
 90
        0
 91
        1
280
     0
281
     0
  0
ENDSEC
  0
SECTION
  2
TABLES
  0
TABLE
  2
VPORT
  5
8
330
0
100
AcDbSymbolTable
 70
     2
  0
VPORT
  5
247
330
8
100
AcDbSymbolTableRecord
100
AcDbViewportTableRecord
  2
*Active
 70
     0
 10
0.0
 20
0.0
 11
1.0
 21
1.0
 12
-296.0
 22
209.0
 13
0.0
 23
0.0
 14
1.0
 24
1.0
 15
0.0
 25
0.0
 16
0.0
 26
0.0
 36
1.0
 17
0.0
 27
0.0
 37
0.0
 40
421.1155279503105
 41
1.639303482587064
 42
50.0
 43
0.0
 44
0.0
 50
0.0
 51
0.0
 71
     0
 72
   100
 73
     1
 74
     1
 75
     0
 76
     0
 77
     0
 78
     0
281
     0
 65
     1
110
0.0
120
0.0
130
0.0
111
1.0
121
0.0
131
0.0
112
0.0
122
1.0
132
0.0
 79
     0
146
0.0
  0
ENDTAB
  0
TABLE
  2
LTYPE
  5
5
330
0
100
AcDbSymbolTable
 70
     6
  0
LTYPE
  5
13
330
5
100
AcDbSymbolTableRecord
100
AcDbLinetypeTableRecord
  2
ByBlock
 70
     0
  3

 72
    65
 73
     0
 40
0.0
  0
LTYPE
  5
14
330
5
100
AcDbSymbolTableRecord
100
AcDbLinetypeTableRecord
  2
ByLayer
 70
     0
  3

 72
    65
 73
     0
 40
0.0
  0
LTYPE
  5
15
330
5
100
AcDbSymbolTableRecord
100
AcDbLinetypeTableRecord
  2
CONTINUOUS
 70
     0
  3
Solid line
 72
    65
 73
     0
 40
0.0
  0
LTYPE
  5
26
330
5
100
AcDbSymbolTableRecord
100
AcDbLinetypeTableRecord
  2
DASHED
 70
     0
  3
__ __ __ __ __ __ __ __ __ __ __ __ __ __ __
 72
    65
 73
     2
 40
3.5
 49
2.0
 74
     0
 49
-1.5
 74
     0
  0
LTYPE
  5
27
330
5
100
AcDbSymbolTableRecord
100
AcDbLinetypeTableRecord
  2
CENTER
 70
     0
  3
____ _ ____ _ ____ _ ____ _ ____ _ ____ _ ____
 72
    65
 73
     4
 40
17.5
 49
13.0
 74
     0
 49
-1.5
 74
     0
 49
1.5
 74
     0
 49
-1.5
 74
     0
  0
LTYPE
  5
28
330
5
100
AcDbSymbolTableRecord
100
AcDbLinetypeTableRecord
  2
PHANTOM
 70
     0
  3
_____ _ _ _____ _ _ _____ _ _ _____ _ _ ____  
 72
    65
 73
     6
 40
15.5
 49
8.0
 74
     0
 49
-1.5
 74
     0
 49
1.5
 74
     0
 49
-1.5
 74
     0
 49
1.5
 74
     0
 49
-1.5
 74
     0
  0
LTYPE
  5
29
330
5
100
AcDbSymbolTableRecord
100
AcDbLinetypeTableRecord
  2
DOT
 70
     0
  3
. . . . . . . . . . . . . . . . . . . . . . . .
 72
    65
 73
     2
 40
0.25
 49
0.0
 74
     0
 49
-0.25
 74
     0
  0
LTYPE
  5
2A
330
5
100
AcDbSymbolTableRecord
100
AcDbLinetypeTableRecord
  2
HIDDEN
 70
     0
  3
__ __ __ __ __ __ __ __ __ __ __ __ __ __ __
 72
    65
 73
     2
 40
3.5
 49
2.0
 74
     0
 49
-1.5
 74
     0
  0
ENDTAB
  0
TABLE
  2
LAYER
  5
2
330
0
100
AcDbSymbolTable
 70
     2
  0
LAYER
  5
10
330
2
100
AcDbSymbolTableRecord
100
AcDbLayerTableRecord
  2
0
 70
     0
 62
     7
  6
CONTINUOUS
370
    -3
390
F
  0
LAYER
  5
2B
330
2
100
AcDbSymbolTableRecord
100
AcDbLayerTableRecord
  2
DEFPOINTS
 70
     0
 62
     7
  6
CONTINUOUS
290
     0
370
    -3
390
F
  0
ENDTAB
  0
TABLE
  2
STYLE
  5
3
330
0
100
AcDbSymbolTable
 70
     2
  0
STYLE
  5
11
330
3
100
AcDbSymbolTableRecord
100
AcDbTextStyleTableRecord
  2
STANDARD
 70
     0
 40
0.0
 41
1.0
 50
0.0
 71
     0
 42
0.2
  3

  4

1001
ACAD
1000
MS Gothic
1071
    32817
  0
ENDTAB
  0
TABLE
  2
VIEW
  5
6
330
0
100
AcDbSymbolTable
 70
     0
  0
ENDTAB
  0
TABLE
  2
UCS
  5
7
330
0
100
AcDbSymbolTable
 70
     0
  0
ENDTAB
  0
TABLE
  2
APPID
  5
9
330
0
100
AcDbSymbolTable
 70
     2
  0
APPID
  5
12
330
9
100
AcDbSymbolTableRecord
100
AcDbRegAppTableRecord
  2
ACAD
 70
     0
  0
APPID
  5
23C
330
9
100
AcDbSymbolTableRecord
100
AcDbRegAppTableRecord
  2
ACAD_PSEXT
 70
     0
  0
ENDTAB
  0
TABLE
  2
DIMSTYLE
  5
A
330
0
100
AcDbSymbolTable
 70
    12
100
AcDbDimStyleTable
 71
     1
340
2C
  0
DIMSTYLE
105
2C
102
{ACAD_REACTORS
330
22D
102
}
330
A
100
AcDbSymbolTableRecord
100
AcDbDimStyleTableRecord
  2
DIMSTYLE1
 70
     0
 41
1.0
 42
2.54
 44
2.54
 73
     0
 74
     0
 77
     1
140
3.0
145
1.0
147
1.5
172
     1
173
     1
279
     2
340
11
  0
DIMSTYLE
105
2D
102
{ACAD_REACTORS
330
22E
102
}
330
A
100
AcDbSymbolTableRecord
100
AcDbDimStyleTableRecord
  2
DIMSTYLE2
 70
     0
 41
1.0
 42
2.54
 44
2.54
 73
     0
 74
     0
 75
     1
 76
     1
 77
     1
140
3.0
145
1.0
147
1.5
172
     1
173
     1
279
     2
340
11
  0
DIMSTYLE
105
2E
102
{ACAD_REACTORS
330
22F
102
}
330
A
100
AcDbSymbolTableRecord
100
AcDbDimStyleTableRecord
  2
DIMSTYLE3
 70
     0
 41
1.0
 42
2.54
 44
2.54
 73
     0
 74
     0
 75
     1
 76
     1
 77
     1
140
3.0
145
1.0
147
1.5
172
     1
173
     1
279
     2
340
11
  0
DIMSTYLE
105
2F
102
{ACAD_REACTORS
330
230
102
}
330
A
100
AcDbSymbolTableRecord
100
AcDbDimStyleTableRecord
  2
DIMSTYLE4
 70
     0
 41
1.0
 42
2.54
 44
2.54
 73
     0
 74
     0
 75
     1
 76
     1
 77
     1
140
3.0
145
1.0
147
1.5
172
     1
173
     1
279
     2
340
11
  0
DIMSTYLE
105
30
102
{ACAD_REACTORS
330
231
102
}
330
A
100
AcDbSymbolTableRecord
100
AcDbDimStyleTableRecord
  2
DIMSTYLE5
 70
     0
 41
1.0
 42
2.54
 44
2.54
 73
     0
 74
     0
 75
     1
 76
     1
 77
     1
140
3.0
145
1.0
147
1.5
172
     1
173
     1
279
     2
340
11
  0
DIMSTYLE
105
31
102
{ACAD_REACTORS
330
233
102
}
330
A
100
AcDbSymbolTableRecord
100
AcDbDimStyleTableRecord
  2
DIMSTYLE6
 70
     0
 41
1.0
 42
2.54
 44
2.54
 73
     0
 74
     0
 77
     1
140
3.0
145
1.0
147
1.5
172
     1
173
     1
279
     2
340
11
  0
DIMSTYLE
105
32
102
{ACAD_REACTORS
330
234
102
}
330
A
100
AcDbSymbolTableRecord
100
AcDbDimStyleTableRecord
  2
DIMSTYLE7
 70
     0
 41
1.0
 42
2.54
 44
2.54
 73
     0
 74
     0
 77
     1
140
3.0
145
1.0
147
1.5
172
     1
173
     1
279
     2
340
11
  0
DIMSTYLE
105
33
102
{ACAD_REACTORS
330
235
102
}
330
A
100
AcDbSymbolTableRecord
100
AcDbDimStyleTableRecord
  2
DIMSTYLE8
 70
     0
 41
1.0
 42
2.54
 44
2.54
 73
     0
 74
     0
 77
     1
140
3.0
145
1.0
147
1.5
172
     1
173
     1
279
     2
340
11
  0
DIMSTYLE
105
34
102
{ACAD_REACTORS
330
237
102
}
330
A
100
AcDbSymbolTableRecord
100
AcDbDimStyleTableRecord
  2
DIMSTYLE9
 70
     0
 41
1.0
 42
2.54
 44
2.54
 73
     0
 74
     0
 77
     1
140
3.0
145
1.0
147
1.5
172
     1
173
     1
279
     2
340
11
  0
DIMSTYLE
105
35
102
{ACAD_REACTORS
330
238
102
}
330
A
100
AcDbSymbolTableRecord
100
AcDbDimStyleTableRecord
  2
DIMSTYLE10
 70
     0
 41
1.0
 42
2.54
 44
2.54
 73
     0
 74
     0
 77
     1
140
3.0
145
1.0
147
1.5
172
     1
173
     1
279
     2
340
11
  0
DIMSTYLE
105
36
102
{ACAD_REACTORS
330
239
102
}
330
A
100
AcDbSymbolTableRecord
100
AcDbDimStyleTableRecord
  2
DIMSTYLE11
 70
     0
 41
1.0
 42
2.54
 44
2.54
 73
     0
 74
     0
 77
     1
140
3.0
145
1.0
147
1.5
172
     1
173
     1
279
     2
340
11
  0
ENDTAB
  0
TABLE
  2
BLOCK_RECORD
  5
1
330
0
100
AcDbSymbolTable
 70
    15
  0
BLOCK_RECORD
  5
22
330
1
100
AcDbSymbolTableRecord
100
AcDbBlockTableRecord
  2
*Model_Space
340
25
  0
BLOCK_RECORD
  5
1E
330
1
100
AcDbSymbolTableRecord
100
AcDbBlockTableRecord
  2
*Paper_Space
340
21
  0
BLOCK_RECORD
  5
3A
330
1
100
AcDbSymbolTableRecord
100
AcDbBlockTableRecord
  2
_OPEN30
340
0
102
{BLKREFS
331
43
331
44
331
50
331
51
331
5A
331
5B
331
64
331
65
331
6D
331
6E
331
76
331
77
331
83
331
85
331
90
331
91
331
9B
331
9C
331
A7
331
A8
331
B2
331
B3
102
}
  0
BLOCK_RECORD
  5
40
330
1
100
AcDbSymbolTableRecord
100
AcDbBlockTableRecord
  2
*D1
340
0
  0
BLOCK_RECORD
  5
4C
330
1
100
AcDbSymbolTableRecord
100
AcDbBlockTableRecord
  2
*D2
340
0
  0
BLOCK_RECORD
  5
56
330
1
100
AcDbSymbolTableRecord
100
AcDbBlockTableRecord
  2
*D3
340
0
  0
BLOCK_RECORD
  5
60
330
1
100
AcDbSymbolTableRecord
100
AcDbBlockTableRecord
  2
*D4
340
0
  0
BLOCK_RECORD
  5
6A
330
1
100
AcDbSymbolTableRecord
100
AcDbBlockTableRecord
  2
*D5
340
0
  0
BLOCK_RECORD
  5
73
330
1
100
AcDbSymbolTableRecord
100
AcDbBlockTableRecord
  2
*D6
340
0
  0
BLOCK_RECORD
  5
7F
330
1
100
AcDbSymbolTableRecord
100
AcDbBlockTableRecord
  2
*D7
340
0
  0
BLOCK_RECORD
  5
8D
330
1
100
AcDbSymbolTableRecord
100
AcDbBlockTableRecord
  2
*D8
340
0
  0
BLOCK_RECORD
  5
98
330
1
100
AcDbSymbolTableRecord
100
AcDbBlockTableRecord
  2
*D9
340
0
  0
BLOCK_RECORD
  5
A4
330
1
100
AcDbSymbolTableRecord
100
AcDbBlockTableRecord
  2
*D10
340
0
  0
BLOCK_RECORD
  5
AF
330
1
100
AcDbSymbolTableRecord
100
AcDbBlockTableRecord
  2
*D11
340
0
  0
BLOCK_RECORD
  5
BA
330
1
100
AcDbSymbolTableRecord
100
AcDbBlockTableRecord
  2
KOZU0001
340
0
102
{BLKREFS
331
232
102
}
  0
BLOCK_RECORD
  5
C2
330
1
100
AcDbSymbolTableRecord
100
AcDbBlockTableRecord
  2
KOZU0002
340
0
102
{BLKREFS
331
236
102
}
  0
ENDTAB
  0
ENDSEC
  0
SECTION
  2
BLOCKS
  0
BLOCK
  5
23
330
22
100
AcDbEntity
  8
0
100
AcDbBlockBegin
  2
*Model_Space
 70
     0
 10
0.0
 20
0.0
 30
0.0
  3
*Model_Space
  1

  0
ENDBLK
  5
24
330
22
100
AcDbEntity
  8
0
100
AcDbBlockEnd
  0
BLOCK
  5
1F
330
1E
100
AcDbEntity
 67
     1
  8
0
100
AcDbBlockBegin
  2
*Paper_Space
 70
     0
 10
0.0
 20
0.0
 30
0.0
  3
*Paper_Space
  1

  0
ENDBLK
  5
20
330
1E
100
AcDbEntity
 67
     1
  8
0
100
AcDbBlockEnd
  0
BLOCK
  5
3B
330
3A
100
AcDbEntity
  8
0
100
AcDbBlockBegin
  2
_OPEN30
 70
     0
 10
0.0
 20
0.0
 30
0.0
  3
_OPEN30
  1

  0
LINE
  5
3C
330
3A
100
AcDbEntity
  8
0
  6
ByBlock
 62
     0
100
AcDbLine
 10
0.0
 20
0.0
 30
0.0
 11
-2.999999999999993
 21
-1.000000000000017
 31
0.0
  0
LINE
  5
3D
330
3A
100
AcDbEntity
  8
0
  6
ByBlock
 62
     0
100
AcDbLine
 10
0.0
 20
0.0
 30
0.0
 11
-3.000000000000006
 21
0.9999999999999815
 31
0.0
  0
LINE
  5
3E
330
3A
100
AcDbEntity
  8
0
  6
ByBlock
 62
     0
100
AcDbLine
 10
0.0
 20
0.0
 30
0.0
 11
-3.0
 21
0.0
 31
0.0
  0
ENDBLK
  5
3F
330
3A
100
AcDbEntity
  8
0
100
AcDbBlockEnd
  0
BLOCK
  5
41
330
40
100
AcDbEntity
  8
0
100
AcDbBlockBegin
  2
*D1
 70
     1
 10
0.0
 20
0.0
 30
0.0
  3
*D1
  1

  0
LINE
  5
42
330
40
100
AcDbEntity
  8
0
  6
Continuous
 62
     7
100
AcDbLine
 10
-362.7656860351563
 20
16.33207130432129
 30
0.0
 11
-312.7656860351563
 21
16.33207130432127
 31
0.0
  0
INSERT
  5
43
330
40
100
AcDbEntity
  8
0
  6
Continuous
 62
     7
100
AcDbBlockReference
  2
_OPEN30
 10
-365.7656860351563
 20
16.33207130432129
 30
0.0
 50
180.0000000000004
  0
INSERT
  5
44
330
40
100
AcDbEntity
  8
0
  6
Continuous
 62
     7
100
AcDbBlockReference
  2
_OPEN30
 10
-309.7656860351563
 20
16.33207130432129
 30
0.0
  0
LINE
  5
45
330
40
100
AcDbEntity
  8
0
  6
Continuous
 62
     7
100
AcDbLine
 10
-365.7656860351563
 20
27.48799034118652
 30
0.0
 11
-365.7656860351563
 21
14.04607200622559
 31
0.0
  0
LINE
  5
46
330
40
100
AcDbEntity
  8
0
  6
Continuous
 62
     7
100
AcDbLine
 10
-309.7656860351563
 20
27.48799034118652
 30
0.0
 11
-309.7656860351563
 21
14.04607200622559
 31
0.0
  0
TEXT
  5
47
330
40
100
AcDbEntity
  8
0
  6
Continuous
 62
     7
100
AcDbText
 10
-341.8356862068176
 20
17.08207130432129
 30
0.0
 40
3.0
  1
%%C56
 41
0.9498249830693319
100
AcDbText
  0
POINT
  5
48
330
40
100
AcDbEntity
  8
DEFPOINTS
  6
Continuous
 62
     7
100
AcDbPoint
 10
-365.7656860351563
 20
30.02799034118652
 30
0.0
  0
POINT
  5
49
330
40
100
AcDbEntity
  8
DEFPOINTS
  6
Continuous
 62
     7
100
AcDbPoint
 10
-309.7656860351563
 20
30.02799034118652
 30
0.0
  0
POINT
  5
4A
330
40
100
AcDbEntity
  8
DEFPOINTS
  6
Continuous
 62
     7
100
AcDbPoint
 10
-309.7656860351563
 20
16.33207130432129
 30
0.0
  0
ENDBLK
  5
4B
330
40
100
AcDbEntity
  8
0
100
AcDbBlockEnd
  0
BLOCK
  5
4D
330
4C
100
AcDbEntity
  8
0
100
AcDbBlockBegin
  2
*D2
 70
     1
 10
0.0
 20
0.0
 30
0.0
  3
*D2
  1

  0
LINE
  5
4E
330
4C
100
AcDbEntity
  8
0
  6
Continuous
 62
     7
100
AcDbLine
 10
-283.9273376464844
 20
369.0773620605469
 30
0.0
 11
-257.767578125
 21
395.8255615234375
 31
0.0
  0
LINE
  5
4F
330
4C
100
AcDbEntity
  8
0
  6
Continuous
 62
     7
100
AcDbLine
 10
-389.5064065241193
 20
261.1233881041878
 30
0.0
 11
-286.0249350286151
 21
366.9325811340934
 31
0.0
  0
INSERT
  5
50
330
4C
100
AcDbEntity
  8
0
  6
Continuous
 62
     7
100
AcDbBlockReference
  2
_OPEN30
 10
-391.60400390625
 20
258.9786071777344
 30
0.0
 50
225.6372148579779
  0
INSERT
  5
51
330
4C
100
AcDbEntity
  8
0
  6
Continuous
 62
     7
100
AcDbBlockReference
  2
_OPEN30
 10
-283.9273376464844
 20
369.0773620605469
 30
0.0
 50
45.63721485797723
  0
TEXT
  5
52
330
4C
100
AcDbEntity
  8
0
  6
Continuous
 62
     7
100
AcDbText
 10
-280.783168139221
 20
373.3798411626116
 30
0.0
 40
3.0
  1
%%C１５４（防水皿外径）
 50
45.59999921987885
 41
0.8440126077968535
100
AcDbText
  0
POINT
  5
53
330
4C
100
AcDbEntity
  8
DEFPOINTS
  6
Continuous
 62
     7
100
AcDbPoint
 10
-391.60400390625
 20
258.9786071777344
 30
0.0
  0
POINT
  5
54
330
4C
100
AcDbEntity
  8
DEFPOINTS
  6
Continuous
 62
     7
100
AcDbPoint
 10
-283.9273376464844
 20
369.0773620605469
 30
0.0
  0
ENDBLK
  5
55
330
4C
100
AcDbEntity
  8
0
100
AcDbBlockEnd
  0
BLOCK
  5
57
330
56
100
AcDbEntity
  8
0
100
AcDbBlockBegin
  2
*D3
 70
     1
 10
0.0
 20
0.0
 30
0.0
  3
*D3
  1

  0
LINE
  5
58
330
56
100
AcDbEntity
  8
0
  6
Continuous
 62
     7
100
AcDbLine
 10
-273.0476379394531
 20
296.6908874511719
 30
0.0
 11
-238.2752838134766
 21
287.3758239746094
 31
0.0
  0
LINE
  5
59
330
56
100
AcDbEntity
  8
0
  6
Continuous
 62
     7
100
AcDbLine
 10
-399.5858810026539
 20
330.5888236229866
 30
0.0
 11
-275.9454605500804
 21
297.4671761328729
 31
0.0
  0
INSERT
  5
5A
330
56
100
AcDbEntity
  8
0
  6
Continuous
 62
     7
100
AcDbBlockReference
  2
_OPEN30
 10
-402.4837036132812
 20
331.3651123046875
 30
0.0
 50
165.0033306924394
  0
INSERT
  5
5B
330
56
100
AcDbEntity
  8
0
  6
Continuous
 62
     7
100
AcDbBlockReference
  2
_OPEN30
 10
-273.0476379394531
 20
296.6908874511719
 30
0.0
 50
345.0033306924401
  0
TEXT
  5
5C
330
56
100
AcDbEntity
  8
0
  6
Continuous
 62
     7
100
AcDbText
 10
-254.6372608674963
 20
292.5359380424886
 30
0.0
 40
3.0
  1
PCD134
 50
344.999999582587
 41
1.07125000655651
100
AcDbText
  0
POINT
  5
5D
330
56
100
AcDbEntity
  8
DEFPOINTS
  6
Continuous
 62
     7
100
AcDbPoint
 10
-402.4837036132812
 20
331.3651123046875
 30
0.0
  0
POINT
  5
5E
330
56
100
AcDbEntity
  8
DEFPOINTS
  6
Continuous
 62
     7
100
AcDbPoint
 10
-273.0476379394531
 20
296.6908874511719
 30
0.0
  0
ENDBLK
  5
5F
330
56
100
AcDbEntity
  8
0
100
AcDbBlockEnd
  0
BLOCK
  5
61
330
60
100
AcDbEntity
  8
0
100
AcDbBlockBegin
  2
*D4
 70
     1
 10
0.0
 20
0.0
 30
0.0
  3
*D4
  1

  0
LINE
  5
62
330
60
100
AcDbEntity
  8
0
  6
Continuous
 62
     7
100
AcDbLine
 10
-321.8116149902344
 20
300.237060546875
 30
0.0
 11
-311.9195251464844
 21
292.2552795410156
 31
0.0
  0
LINE
  5
63
330
60
100
AcDbEntity
  8
0
  6
Continuous
 62
     7
100
AcDbLine
 10
-351.3850162780178
 20
324.0994928213034
 30
0.0
 11
-324.1463557922946
 21
302.1209356454935
 31
0.0
  0
INSERT
  5
64
330
60
100
AcDbEntity
  8
0
  6
Continuous
 62
     7
100
AcDbBlockReference
  2
_OPEN30
 10
-353.7197570800781
 20
325.9833679199219
 30
0.0
 50
141.1003453923623
  0
INSERT
  5
65
330
60
100
AcDbEntity
  8
0
  6
Continuous
 62
     7
100
AcDbBlockReference
  2
_OPEN30
 10
-321.8116149902344
 20
300.237060546875
 30
0.0
 50
321.100345392363
  0
TEXT
  5
66
330
60
100
AcDbEntity
  8
0
  6
Continuous
 62
     7
100
AcDbText
 10
-317.7834830544413
 20
297.9505578010952
 30
0.0
 40
3.0
  1
%%C41
 50
321.0999997143643
 41
1.02994518408741
100
AcDbText
  0
POINT
  5
67
330
60
100
AcDbEntity
  8
DEFPOINTS
  6
Continuous
 62
     7
100
AcDbPoint
 10
-353.7197570800781
 20
325.9833679199219
 30
0.0
  0
POINT
  5
68
330
60
100
AcDbEntity
  8
DEFPOINTS
  6
Continuous
 62
     7
100
AcDbPoint
 10
-321.8116149902344
 20
300.237060546875
 30
0.0
  0
ENDBLK
  5
69
330
60
100
AcDbEntity
  8
0
100
AcDbBlockEnd
  0
BLOCK
  5
6B
330
6A
100
AcDbEntity
  8
0
100
AcDbBlockBegin
  2
*D5
 70
     1
 10
0.0
 20
0.0
 30
0.0
  3
*D5
  1

  0
LINE
  5
6C
330
6A
100
AcDbEntity
  8
0
  6
Continuous
 62
     7
100
AcDbLine
 10
-368.1514303279789
 20
301.5795374217167
 30
0.0
 11
-307.3799417423336
 21
324.6408910450801
 31
0.0
  0
INSERT
  5
6D
330
6A
100
AcDbEntity
  8
0
  6
Continuous
 62
     7
100
AcDbBlockReference
  2
_OPEN30
 10
-370.9562683105469
 20
300.5151672363281
 30
0.0
 50
200.7805783051469
  0
INSERT
  5
6E
330
6A
100
AcDbEntity
  8
0
  6
Continuous
 62
     7
100
AcDbBlockReference
  2
_OPEN30
 10
-304.5751037597656
 20
325.7052612304688
 30
0.0
 50
20.78057830514618
  0
TEXT
  5
6F
330
6A
100
AcDbEntity
  8
0
  6
Continuous
 62
     7
100
AcDbText
 10
-316.0626480246526
 20
322.1467029507476
 30
0.0
 40
3.0
  1
%%C71
 50
20.80000069264922
 41
1.02994518408741
100
AcDbText
  0
POINT
  5
70
330
6A
100
AcDbEntity
  8
DEFPOINTS
  6
Continuous
 62
     7
100
AcDbPoint
 10
-370.9562683105469
 20
300.5151672363281
 30
0.0
  0
POINT
  5
71
330
6A
100
AcDbEntity
  8
DEFPOINTS
  6
Continuous
 62
     7
100
AcDbPoint
 10
-304.5751037597656
 20
325.7052612304688
 30
0.0
  0
ENDBLK
  5
72
330
6A
100
AcDbEntity
  8
0
100
AcDbBlockEnd
  0
BLOCK
  5
74
330
73
100
AcDbEntity
  8
0
100
AcDbBlockBegin
  2
*D6
 70
     1
 10
0.0
 20
0.0
 30
0.0
  3
*D6
  1

  0
LINE
  5
75
330
73
100
AcDbEntity
  8
0
  6
Continuous
 62
     7
100
AcDbLine
 10
-227.9116516113281
 20
65.02799224853515
 30
0.0
 11
-227.9116516113281
 21
194.0279846191406
 31
0.0
  0
INSERT
  5
76
330
73
100
AcDbEntity
  8
0
  6
Continuous
 62
     7
100
AcDbBlockReference
  2
_OPEN30
 10
-227.9116516113281
 20
62.02799224853515
 30
0.0
 50
270.0000000000005
  0
INSERT
  5
77
330
73
100
AcDbEntity
  8
0
  6
Continuous
 62
     7
100
AcDbBlockReference
  2
_OPEN30
 10
-227.9116516113281
 20
197.0279846191406
 30
0.0
 50
90.00000000000019
  0
LINE
  5
78
330
73
100
AcDbEntity
  8
0
  6
Continuous
 62
     7
100
AcDbLine
 10
-258.2256860351562
 20
62.02799224853515
 30
0.0
 11
-225.6256408691406
 21
62.02799224853515
 31
0.0
  0
LINE
  5
79
330
73
100
AcDbEntity
  8
0
  6
Continuous
 62
     7
100
AcDbLine
 10
-299.7256860351562
 20
197.0279846191406
 30
0.0
 11
-225.6256408691406
 21
197.0279846191406
 31
0.0
  0
TEXT
  5
7A
330
73
100
AcDbEntity
  8
0
  6
Continuous
 62
     7
100
AcDbText
 10
-228.661650777752
 20
110.4579838186493
 30
0.0
 40
3.0
  1
１３５　（１３３～１４３）
 50
90.00000250447815
 41
0.8434321120058422
100
AcDbText
  0
POINT
  5
7B
330
73
100
AcDbEntity
  8
DEFPOINTS
  6
Continuous
 62
     7
100
AcDbPoint
 10
-260.7656860351563
 20
62.02799224853515
 30
0.0
  0
POINT
  5
7C
330
73
100
AcDbEntity
  8
DEFPOINTS
  6
Continuous
 62
     7
100
AcDbPoint
 10
-302.2656860351563
 20
197.0279846191406
 30
0.0
  0
POINT
  5
7D
330
73
100
AcDbEntity
  8
DEFPOINTS
  6
Continuous
 62
     7
100
AcDbPoint
 10
-227.9116516113281
 20
197.0279846191406
 30
0.0
  0
ENDBLK
  5
7E
330
73
100
AcDbEntity
  8
0
100
AcDbBlockEnd
  0
BLOCK
  5
80
330
7F
100
AcDbEntity
  8
0
100
AcDbBlockBegin
  2
*D7
 70
     1
 10
0.0
 20
0.0
 30
0.0
  3
*D7
  1

  0
LINE
  5
81
330
7F
100
AcDbEntity
  8
0
  6
Continuous
 62
     7
100
AcDbLine
 10
-227.9116516113281
 20
59.02799224853516
 30
0.0
 11
-227.9116516113281
 21
51.30979537963867
 31
0.0
  0
LINE
  5
82
330
7F
100
AcDbEntity
  8
0
  6
Continuous
 62
     7
100
AcDbLine
 10
-227.9116516113281
 20
62.02799224853515
 30
0.0
 11
-227.9116516113281
 21
59.02799224853516
 31
0.0
  0
INSERT
  5
83
330
7F
100
AcDbEntity
  8
0
  6
Continuous
 62
     7
100
AcDbBlockReference
  2
_OPEN30
 10
-227.9116516113281
 20
62.02799224853515
 30
0.0
 50
270.0000000000002
  0
LINE
  5
84
330
7F
100
AcDbEntity
  8
0
  6
Continuous
 62
     7
100
AcDbLine
 10
-227.9116516113281
 20
65.02799224853515
 30
0.0
 11
-227.9116516113282
 21
68.37799224853515
 31
0.0
  0
INSERT
  5
85
330
7F
100
AcDbEntity
  8
0
  6
Continuous
 62
     7
100
AcDbBlockReference
  2
_OPEN30
 10
-227.9116516113281
 20
59.02799224853516
 30
0.0
 50
90.00000000000049
  0
LINE
  5
86
330
7F
100
AcDbEntity
  8
0
  6
Continuous
 62
     7
100
AcDbLine
 10
-227.9116516113281
 20
56.02799224853516
 30
0.0
 11
-227.9116516113281
 21
52.67799224853515
 31
0.0
  0
LINE
  5
87
330
7F
100
AcDbEntity
  8
0
  6
Continuous
 62
     7
100
AcDbLine
 10
-258.2256860351562
 20
59.02799224853516
 30
0.0
 11
-225.6256408691406
 21
59.02799224853516
 31
0.0
  0
TEXT
  5
88
330
7F
100
AcDbEntity
  8
0
  6
Continuous
 62
     7
100
AcDbText
 10
-228.6616515645569
 20
51.30979498922726
 30
0.0
 40
3.0
  1
3
 50
90.00000250447815
100
AcDbText
  0
POINT
  5
89
330
7F
100
AcDbEntity
  8
DEFPOINTS
  6
Continuous
 62
     7
100
AcDbPoint
 10
-225.6256408691406
 20
62.02799224853515
 30
0.0
  0
POINT
  5
8A
330
7F
100
AcDbEntity
  8
DEFPOINTS
  6
Continuous
 62
     7
100
AcDbPoint
 10
-260.7656860351563
 20
59.02799224853516
 30
0.0
  0
POINT
  5
8B
330
7F
100
AcDbEntity
  8
DEFPOINTS
  6
Continuous
 62
     7
100
AcDbPoint
 10
-227.9116516113281
 20
59.02799224853516
 30
0.0
  0
ENDBLK
  5
8C
330
7F
100
AcDbEntity
  8
0
100
AcDbBlockEnd
  0
BLOCK
  5
8E
330
8D
100
AcDbEntity
  8
0
100
AcDbBlockBegin
  2
*D8
 70
     1
 10
0.0
 20
0.0
 30
0.0
  3
*D8
  1

  0
LINE
  5
8F
330
8D
100
AcDbEntity
  8
0
  6
Continuous
 62
     7
100
AcDbLine
 10
-236.4825592041016
 20
65.02799224853515
 30
0.0
 11
-236.4825592041015
 21
81.02799224853516
 31
0.0
  0
INSERT
  5
90
330
8D
100
AcDbEntity
  8
0
  6
Continuous
 62
     7
100
AcDbBlockReference
  2
_OPEN30
 10
-236.4825592041016
 20
62.02799224853515
 30
0.0
 50
270.0000000000005
  0
INSERT
  5
91
330
8D
100
AcDbEntity
  8
0
  6
Continuous
 62
     7
100
AcDbBlockReference
  2
_OPEN30
 10
-236.4825592041016
 20
84.02799224853515
 30
0.0
 50
90.00000000000019
  0
LINE
  5
92
330
8D
100
AcDbEntity
  8
0
  6
Continuous
 62
     7
100
AcDbLine
 10
-307.2256860351562
 20
84.02799224853515
 30
0.0
 11
-234.1965484619141
 21
84.02799224853515
 31
0.0
  0
TEXT
  5
93
330
8D
100
AcDbEntity
  8
0
  6
Continuous
 62
     7
100
AcDbText
 10
-237.2325590917633
 20
70.45799210369487
 30
0.0
 40
3.0
  1
22
 50
90.00000250447815
 41
1.028000020980834
100
AcDbText
  0
POINT
  5
94
330
8D
100
AcDbEntity
  8
DEFPOINTS
  6
Continuous
 62
     7
100
AcDbPoint
 10
-225.6256408691406
 20
62.02799224853515
 30
0.0
  0
POINT
  5
95
330
8D
100
AcDbEntity
  8
DEFPOINTS
  6
Continuous
 62
     7
100
AcDbPoint
 10
-309.7656860351563
 20
84.02799224853515
 30
0.0
  0
POINT
  5
96
330
8D
100
AcDbEntity
  8
DEFPOINTS
  6
Continuous
 62
     7
100
AcDbPoint
 10
-236.4825592041016
 20
84.02799224853515
 30
0.0
  0
ENDBLK
  5
97
330
8D
100
AcDbEntity
  8
0
100
AcDbBlockEnd
  0
BLOCK
  5
99
330
98
100
AcDbEntity
  8
0
100
AcDbBlockBegin
  2
*D9
 70
     1
 10
0.0
 20
0.0
 30
0.0
  3
*D9
  1

  0
LINE
  5
9A
330
98
100
AcDbEntity
  8
0
  6
Continuous
 62
     7
100
AcDbLine
 10
-428.6813049316406
 20
33.02799034118652
 30
0.0
 11
-428.6813049316406
 21
81.02799224853516
 31
0.0
  0
INSERT
  5
9B
330
98
100
AcDbEntity
  8
0
  6
Continuous
 62
     7
100
AcDbBlockReference
  2
_OPEN30
 10
-428.6813049316406
 20
30.02799034118652
 30
0.0
 50
270.0000000000005
  0
INSERT
  5
9C
330
98
100
AcDbEntity
  8
0
  6
Continuous
 62
     7
100
AcDbBlockReference
  2
_OPEN30
 10
-428.6813049316406
 20
84.02799224853515
 30
0.0
 50
90.00000000000019
  0
LINE
  5
9D
330
98
100
AcDbEntity
  8
0
  6
Continuous
 62
     7
100
AcDbLine
 10
-368.3056860351563
 20
30.02799034118651
 30
0.0
 11
-430.9673156738281
 21
30.02799034118652
 31
0.0
  0
LINE
  5
9E
330
98
100
AcDbEntity
  8
0
  6
Continuous
 62
     7
100
AcDbLine
 10
-368.3056860351563
 20
84.02799224853515
 30
0.0
 11
-430.9673156738281
 21
84.02799224853515
 31
0.0
  0
TEXT
  5
9F
330
98
100
AcDbEntity
  8
0
  6
Continuous
 62
     7
100
AcDbText
 10
-429.4313048193022
 20
54.45799210369488
 30
0.0
 40
3.0
  1
54
 50
90.00000250447815
 41
1.028000020980834
100
AcDbText
  0
POINT
  5
A0
330
98
100
AcDbEntity
  8
DEFPOINTS
  6
Continuous
 62
     7
100
AcDbPoint
 10
-365.7656860351563
 20
30.02799034118652
 30
0.0
  0
POINT
  5
A1
330
98
100
AcDbEntity
  8
DEFPOINTS
  6
Continuous
 62
     7
100
AcDbPoint
 10
-365.7656860351563
 20
84.02799224853515
 30
0.0
  0
POINT
  5
A2
330
98
100
AcDbEntity
  8
DEFPOINTS
  6
Continuous
 62
     7
100
AcDbPoint
 10
-428.6813049316406
 20
84.02799224853515
 30
0.0
  0
ENDBLK
  5
A3
330
98
100
AcDbEntity
  8
0
100
AcDbBlockEnd
  0
BLOCK
  5
A5
330
A4
100
AcDbEntity
  8
0
100
AcDbBlockBegin
  2
*D10
 70
     1
 10
0.0
 20
0.0
 30
0.0
  3
*D10
  1

  0
LINE
  5
A6
330
A4
100
AcDbEntity
  8
0
  6
Continuous
 62
     7
100
AcDbLine
 10
-328.5821533203125
 20
67.02799224853515
 30
0.0
 11
-328.5821533203125
 21
161.0279846191406
 31
0.0
  0
INSERT
  5
A7
330
A4
100
AcDbEntity
  8
0
  6
Continuous
 62
     7
100
AcDbBlockReference
  2
_OPEN30
 10
-328.5821533203125
 20
64.02799224853516
 30
0.0
 50
270.0000000000005
  0
INSERT
  5
A8
330
A4
100
AcDbEntity
  8
0
  6
Continuous
 62
     7
100
AcDbBlockReference
  2
_OPEN30
 10
-328.5821533203125
 20
164.0279846191406
 30
0.0
 50
90.00000000000019
  0
LINE
  5
A9
330
A4
100
AcDbEntity
  8
0
  6
Continuous
 62
     7
100
AcDbLine
 10
-324.8806677246094
 20
164.0279846191406
 30
0.0
 11
-330.8681335449219
 21
164.0279846191406
 31
0.0
  0
TEXT
  5
AA
330
A4
100
AcDbEntity
  8
0
  6
Continuous
 62
     7
100
AcDbText
 10
-329.3321531424072
 20
109.9579920440902
 30
0.0
 40
3.0
  1
100
 50
90.00000250447815
 41
1.320000017011488
100
AcDbText
  0
POINT
  5
AB
330
A4
100
AcDbEntity
  8
DEFPOINTS
  6
Continuous
 62
     7
100
AcDbPoint
 10
-337.7656860351563
 20
64.02799224853516
 30
0.0
  0
POINT
  5
AC
330
A4
100
AcDbEntity
  8
DEFPOINTS
  6
Continuous
 62
     7
100
AcDbPoint
 10
-322.3406677246094
 20
164.0279846191406
 30
0.0
  0
POINT
  5
AD
330
A4
100
AcDbEntity
  8
DEFPOINTS
  6
Continuous
 62
     7
100
AcDbPoint
 10
-328.5821533203125
 20
164.0279846191406
 30
0.0
  0
ENDBLK
  5
AE
330
A4
100
AcDbEntity
  8
0
100
AcDbBlockEnd
  0
BLOCK
  5
B0
330
AF
100
AcDbEntity
  8
0
100
AcDbBlockBegin
  2
*D11
 70
     1
 10
0.0
 20
0.0
 30
0.0
  3
*D11
  1

  0
LINE
  5
B1
330
AF
100
AcDbEntity
  8
0
  6
Continuous
 62
     7
100
AcDbLine
 10
-236.4825592041015
 20
194.0279846191406
 30
0.0
 11
-236.4825592041016
 21
154.0279846191406
 31
0.0
  0
INSERT
  5
B2
330
AF
100
AcDbEntity
  8
0
  6
Continuous
 62
     7
100
AcDbBlockReference
  2
_OPEN30
 10
-236.4825592041016
 20
197.0279846191406
 30
0.0
 50
90.00000000000019
  0
INSERT
  5
B3
330
AF
100
AcDbEntity
  8
0
  6
Continuous
 62
     7
100
AcDbBlockReference
  2
_OPEN30
 10
-236.4825592041016
 20
151.0279846191406
 30
0.0
 50
270.0000000000005
  0
LINE
  5
B4
330
AF
100
AcDbEntity
  8
0
  6
Continuous
 62
     7
100
AcDbLine
 10
-303.2256860351562
 20
151.0279846191406
 30
0.0
 11
-234.1965484619141
 21
151.0279846191406
 31
0.0
  0
TEXT
  5
B5
330
AF
100
AcDbEntity
  8
0
  6
Continuous
 62
     7
100
AcDbText
 10
-237.2325590917633
 20
171.4579844743004
 30
0.0
 40
3.0
  1
46
 50
90.00000250447815
 41
1.028000020980834
100
AcDbText
  0
POINT
  5
B6
330
AF
100
AcDbEntity
  8
DEFPOINTS
  6
Continuous
 62
     7
100
AcDbPoint
 10
-225.6256408691406
 20
197.0279846191406
 30
0.0
  0
POINT
  5
B7
330
AF
100
AcDbEntity
  8
DEFPOINTS
  6
Continuous
 62
     7
100
AcDbPoint
 10
-305.7656860351563
 20
151.0279846191406
 30
0.0
  0
POINT
  5
B8
330
AF
100
AcDbEntity
  8
DEFPOINTS
  6
Continuous
 62
     7
100
AcDbPoint
 10
-236.4825592041016
 20
151.0279846191406
 30
0.0
  0
ENDBLK
  5
B9
330
AF
100
AcDbEntity
  8
0
100
AcDbBlockEnd
  0
BLOCK
  5
BB
330
BA
100
AcDbEntity
  8
0
100
AcDbBlockBegin
  2
KOZU0001
 70
     0
 10
0.0
 20
0.0
 30
0.0
  3
KOZU0001
  1

  0
LINE
  5
BC
330
BA
100
AcDbEntity
  8
0
  6
Continuous
 62
     7
100
AcDbLine
 10
0.0
 20
0.0
 30
0.0
 11
15.50196838378906
 21
14.48928833007813
 31
0.0
  0
LINE
  5
BD
330
BA
100
AcDbEntity
  8
0
  6
Continuous
 62
     7
100
AcDbLine
 10
15.50196838378906
 20
14.48928833007813
 30
0.0
 11
37.71487426757814
 21
14.48928833007813
 31
0.0
  0
LINE
  5
BE
330
BA
100
AcDbEntity
  8
0
  6
Continuous
 62
     7
100
AcDbLine
 10
0.0
 20
0.0
 30
0.0
 11
1.508857883842566
 21
2.779091197921746
 31
0.0
  0
LINE
  5
BF
330
BA
100
AcDbEntity
  8
0
  6
Continuous
 62
     7
100
AcDbLine
 10
0.0
 20
0.0
 30
0.0
 11
2.874541025827102
 21
1.317958228031857
 31
0.0
  0
TEXT
  5
C0
330
BA
100
AcDbEntity
  8
0
  6
Continuous
 62
     7
100
AcDbText
 10
18.85487294197083
 20
15.23928833007813
 30
0.0
 40
3.0
  1
３－Ｍ５皿穴
 41
0.8472565548642696
100
AcDbText
  0
ENDBLK
  5
C1
330
BA
100
AcDbEntity
  8
0
100
AcDbBlockEnd
  0
BLOCK
  5
C3
330
C2
100
AcDbEntity
  8
0
100
AcDbBlockBegin
  2
KOZU0002
 70
     0
 10
0.0
 20
0.0
 30
0.0
  3
KOZU0002
  1

  0
LINE
  5
C4
330
C2
100
AcDbEntity
  8
0
  6
Continuous
 62
     7
100
AcDbLine
 10
0.0
 20
0.0
 30
0.0
 11
22.77349853515625
 21
-12.23293876647949
 31
0.0
  0
LINE
  5
C5
330
C2
100
AcDbEntity
  8
0
  6
Continuous
 62
     7
100
AcDbLine
 10
22.77349853515625
 20
-12.23293876647949
 30
0.0
 11
60.49458312988281
 21
-12.23293876647949
 31
0.0
  0
LINE
  5
C6
330
C2
100
AcDbEntity
  8
0
  6
Continuous
 62
     7
100
AcDbLine
 10
0.0
 20
0.0
 30
0.0
 11
3.116059884980611
 21
-0.5386750348908209
 31
0.0
  0
LINE
  5
C7
330
C2
100
AcDbEntity
  8
0
  6
Continuous
 62
     7
100
AcDbLine
 10
0.0
 20
0.0
 30
0.0
 11
2.169642887049995
 21
-2.300575958901021
 31
0.0
  0
TEXT
  5
C8
330
C2
100
AcDbEntity
  8
0
  6
Continuous
 62
     7
100
AcDbText
 10
24.01911854743958
 20
-11.48293876647949
 30
0.0
 40
3.0
  1
配管接続口
 41
0.8487395020950888
100
AcDbText
  0
TEXT
  5
C9
330
C2
100
AcDbEntity
  8
0
  6
Continuous
 62
     7
100
AcDbText
 10
24.01911854743958
 20
-16.74793876647949
 30
0.0
 40
3.0
  1
Ｒｃ１　１／２（４０Ａ）
 41
0.8436974815103043
100
AcDbText
  0
ENDBLK
  5
CA
330
C2
100
AcDbEntity
  8
0
100
AcDbBlockEnd
  0
ENDSEC
  0
SECTION
  2
ENTITIES
  0
LINE
  5
CB
330
22
100
AcDbEntity
  8
0
  6
CENTER
 62
     7
100
AcDbLine
 10
-337.7656860351563
 20
394.4327087402344
 30
0.0
 11
-337.7656860351563
 21
229.5063018798828
 31
0.0
  0
LINE
  5
CC
330
22
100
AcDbEntity
  8
0
  6
Continuous
 62
     7
100
AcDbLine
 10
-345.1805114746094
 20
310.2676696777344
 30
0.0
 11
-341.8656921386719
 21
310.1102294921875
 31
0.0
  0
LINE
  5
CD
330
22
100
AcDbEntity
  8
0
  6
Continuous
 62
     7
100
AcDbLine
 10
-345.3653869628906
 20
316.2742614746094
 30
0.0
 11
-341.3666076660156
 21
316.6800231933594
 31
0.0
  0
LINE
  5
CE
330
22
100
AcDbEntity
  8
0
  6
Continuous
 62
     7
100
AcDbLine
 10
-331.3656921386719
 20
310.1102294921875
 30
0.0
 11
-333.8656921386719
 21
310.1102294921875
 31
0.0
  0
LINE
  5
CF
330
22
100
AcDbEntity
  8
0
  6
Continuous
 62
     7
100
AcDbLine
 10
-334.1204833984375
 20
316.4228515625
 30
0.0
 11
-330.4723510742188
 21
316.3148803710938
 31
0.0
  0
LINE
  5
D0
330
22
100
AcDbEntity
  8
0
  6
CENTER
 62
     7
100
AcDbLine
 10
-254.5567626953125
 20
314.0279846191406
 30
0.0
 11
-421.5050048828125
 21
314.0279846191406
 31
0.0
  0
LINE
  5
D1
330
22
100
AcDbEntity
  8
0
  6
Continuous
 62
     7
100
AcDbLine
 10
-295.2656860351563
 20
62.02799224853515
 30
0.0
 11
-294.2656860351563
 21
61.02799224853516
 31
0.0
  0
LINE
  5
D2
330
22
100
AcDbEntity
  8
0
  6
Continuous
 62
     7
100
AcDbLine
 10
-293.2656860351563
 20
62.02799224853515
 30
0.0
 11
-294.2656860351563
 21
61.02799224853516
 31
0.0
  0
LINE
  5
D3
330
22
100
AcDbEntity
  8
0
  6
Continuous
 62
     7
100
AcDbLine
 10
-315.9772033691406
 20
170.5727386474609
 30
0.0
 11
-315.4148254394531
 21
152.5771331787109
 31
0.0
  0
LINE
  5
D4
330
22
100
AcDbEntity
  8
0
  6
Continuous
 62
     7
100
AcDbLine
 10
-313.8656921386719
 20
82.48978424072266
 30
0.0
 11
-312.3274841308594
 21
84.02799224853515
 31
0.0
  0
LINE
  5
D5
330
22
100
AcDbEntity
  8
0
  6
Continuous
 62
     7
100
AcDbLine
 10
-313.8656921386719
 20
79.6613540649414
 30
0.0
 11
-309.7656860351563
 21
83.7613525390625
 31
0.0
  0
LINE
  5
D6
330
22
100
AcDbEntity
  8
0
  6
Continuous
 62
     7
100
AcDbLine
 10
-313.8656921386719
 20
76.83293151855469
 30
0.0
 11
-309.7656860351563
 21
80.93292999267578
 31
0.0
  0
LINE
  5
D7
330
22
100
AcDbEntity
  8
0
  6
Continuous
 62
     7
100
AcDbLine
 10
-313.8656921386719
 20
74.00450134277344
 30
0.0
 11
-309.7656860351563
 21
78.10449981689453
 31
0.0
  0
LINE
  5
D8
330
22
100
AcDbEntity
  8
0
  6
Continuous
 62
     7
100
AcDbLine
 10
-313.8656921386719
 20
71.17607116699218
 30
0.0
 11
-309.7656860351563
 21
75.27607727050781
 31
0.0
  0
LINE
  5
D9
330
22
100
AcDbEntity
  8
0
  6
Continuous
 62
     7
100
AcDbLine
 10
-313.8656921386719
 20
68.34764862060547
 30
0.0
 11
-309.7656860351563
 21
72.44764709472656
 31
0.0
  0
LINE
  5
DA
330
22
100
AcDbEntity
  8
0
  6
Continuous
 62
     7
100
AcDbLine
 10
-313.8656921386719
 20
65.51921844482421
 30
0.0
 11
-309.7656860351563
 21
69.61921691894531
 31
0.0
  0
LINE
  5
DB
330
22
100
AcDbEntity
  8
0
  6
Continuous
 62
     7
100
AcDbLine
 10
-313.8656921386719
 20
62.69079208374023
 30
0.0
 11
-309.7656860351563
 21
66.79079437255859
 31
0.0
  0
LINE
  5
DC
330
22
100
AcDbEntity
  8
0
  6
Continuous
 62
     7
100
AcDbLine
 10
-315.944580078125
 20
57.78348159790039
 30
0.0
 11
-309.7656860351563
 21
63.96236801147461
 31
0.0
  0
LINE
  5
DD
330
22
100
AcDbEntity
  8
0
  6
Continuous
 62
     7
100
AcDbLine
 10
-315.944580078125
 20
54.95505142211914
 30
0.0
 11
-309.7656860351563
 21
61.13393783569335
 31
0.0
  0
LINE
  5
DE
330
22
100
AcDbEntity
  8
0
  6
Continuous
 62
     7
100
AcDbLine
 10
-315.944580078125
 20
52.12662506103516
 30
0.0
 11
-309.7656860351563
 21
58.30551147460938
 31
0.0
  0
LINE
  5
DF
330
22
100
AcDbEntity
  8
0
  6
Continuous
 62
     7
100
AcDbLine
 10
-315.944580078125
 20
49.29819869995117
 30
0.0
 11
-309.7656860351563
 21
55.47708511352539
 31
0.0
  0
LINE
  5
E0
330
22
100
AcDbEntity
  8
0
  6
Continuous
 62
     7
100
AcDbLine
 10
-314.7420654296875
 20
47.67227554321289
 30
0.0
 11
-309.7656860351563
 21
52.6486587524414
 31
0.0
  0
LINE
  5
E1
330
22
100
AcDbEntity
  8
0
  6
Continuous
 62
     7
100
AcDbLine
 10
-314.3412170410156
 20
45.24468612670897
 30
0.0
 11
-309.7656860351563
 21
49.82022857666016
 31
0.0
  0
LINE
  5
E2
330
22
100
AcDbEntity
  8
0
  6
Continuous
 62
     7
100
AcDbLine
 10
-314.2555236816406
 20
42.50197219848632
 30
0.0
 11
-309.7656860351563
 21
46.99180221557617
 31
0.0
  0
LINE
  5
E3
330
22
100
AcDbEntity
  8
0
  6
Continuous
 62
     7
100
AcDbLine
 10
-314.1697998046875
 20
39.75925827026367
 30
0.0
 11
-309.7656860351563
 21
44.16337585449219
 31
0.0
  0
LINE
  5
E4
330
22
100
AcDbEntity
  8
0
  6
Continuous
 62
     7
100
AcDbLine
 10
-314.0840759277344
 20
37.01654434204102
 30
0.0
 11
-309.7656860351563
 21
41.3349494934082
 31
0.0
  0
LINE
  5
E5
330
22
100
AcDbEntity
  8
0
  6
Continuous
 62
     7
100
AcDbLine
 10
-313.9983825683594
 20
34.27383422851563
 30
0.0
 11
-309.7656860351563
 21
38.50652313232422
 31
0.0
  0
LINE
  5
E6
330
22
100
AcDbEntity
  8
0
  6
Continuous
 62
     7
100
AcDbLine
 10
-313.9126586914063
 20
31.53112030029297
 30
0.0
 11
-309.7656860351563
 21
35.67809295654297
 31
0.0
  0
LINE
  5
E7
330
22
100
AcDbEntity
  8
0
  6
Continuous
 62
     7
100
AcDbLine
 10
-315.7012939453125
 20
164.0279846191406
 30
0.0
 11
-315.1260070800781
 21
149.2515563964844
 31
0.0
  0
LINE
  5
E8
330
22
100
AcDbEntity
  8
0
  6
Continuous
 62
     7
100
AcDbLine
 10
-305.7656860351563
 20
151.0279846191406
 30
0.0
 11
-305.7656860351563
 21
185.0279846191406
 31
0.0
  0
LINE
  5
E9
330
22
100
AcDbEntity
  8
0
  6
Continuous
 62
     7
100
AcDbLine
 10
-303.7656860351563
 20
187.0279846191406
 30
0.0
 11
-302.2656860351563
 21
187.0279846191406
 31
0.0
  0
LINE
  5
EA
330
22
100
AcDbEntity
  8
0
  6
Continuous
 62
     7
100
AcDbLine
 10
-261.1576538085938
 20
62.02799224853515
 30
0.0
 11
-260.7656860351563
 21
61.63600158691406
 31
0.0
  0
LINE
  5
EB
330
22
100
AcDbEntity
  8
0
  6
Continuous
 62
     7
100
AcDbLine
 10
-261.864776611328
 20
62.02799224853515
 30
0.0
 11
-260.7656860351563
 21
60.92889785766602
 31
0.0
  0
LINE
  5
EC
330
22
100
AcDbEntity
  8
0
  6
Continuous
 62
     7
100
AcDbLine
 10
-263.986083984375
 20
62.02799224853515
 30
0.0
 11
-260.986083984375
 21
59.02799224853516
 31
0.0
  0
LINE
  5
ED
330
22
100
AcDbEntity
  8
0
  6
Continuous
 62
     7
100
AcDbLine
 10
-264.6932067871095
 20
62.02799224853515
 30
0.0
 11
-261.6932067871094
 21
59.02799224853516
 31
0.0
  0
LINE
  5
EE
330
22
100
AcDbEntity
  8
0
  6
Continuous
 62
     7
100
AcDbLine
 10
-266.2901000976563
 20
61.50357055664063
 30
0.0
 11
-263.8145141601563
 21
59.02799224853516
 31
0.0
  0
LINE
  5
EF
330
22
100
AcDbEntity
  8
0
  6
Continuous
 62
     7
100
AcDbLine
 10
-266.6436462402344
 20
61.15001678466796
 30
0.0
 11
-264.5216369628906
 21
59.02799224853516
 31
0.0
  0
LINE
  5
F0
330
22
100
AcDbEntity
  8
0
  6
Continuous
 62
     7
100
AcDbLine
 10
-267.7043151855469
 20
60.08935546875
 30
0.0
 11
-266.6429443359375
 21
59.02799224853516
 31
0.0
  0
LINE
  5
F1
330
22
100
AcDbEntity
  8
0
  6
Continuous
 62
     7
100
AcDbLine
 10
-268.0156860351563
 20
59.69361495971679
 30
0.0
 11
-267.3500671386719
 21
59.02799224853516
 31
0.0
  0
LINE
  5
F2
330
22
100
AcDbEntity
  8
0
  6
Continuous
 62
     7
100
AcDbLine
 10
-276.0068969726563
 20
62.02799224853515
 30
0.0
 11
-273.5156860351563
 21
59.53676223754882
 31
0.0
  0
LINE
  5
F3
330
22
100
AcDbEntity
  8
0
  6
Continuous
 62
     7
100
AcDbLine
 10
-277.4469604492188
 20
61.34671401977539
 30
0.0
 11
-275.1282348632813
 21
59.02799224853516
 31
0.0
  0
LINE
  5
F4
330
22
100
AcDbEntity
  8
0
  6
Continuous
 62
     7
100
AcDbLine
 10
-278.8353271484375
 20
62.02799224853515
 30
0.0
 11
-275.8353271484375
 21
59.02799224853516
 31
0.0
  0
LINE
  5
F5
330
22
100
AcDbEntity
  8
0
  6
Continuous
 62
     7
100
AcDbLine
 10
-280.9566650390625
 20
62.02799224853515
 30
0.0
 11
-277.9566650390625
 21
59.02799224853516
 31
0.0
  0
LINE
  5
F6
330
22
100
AcDbEntity
  8
0
  6
Continuous
 62
     7
100
AcDbLine
 10
-281.6637573242188
 20
62.02799224853515
 30
0.0
 11
-278.6637573242188
 21
59.02799224853516
 31
0.0
  0
LINE
  5
F7
330
22
100
AcDbEntity
  8
0
  6
Continuous
 62
     7
100
AcDbLine
 10
-283.7850952148438
 20
62.02799224853515
 30
0.0
 11
-280.7850952148438
 21
59.02799224853516
 31
0.0
  0
LINE
  5
F8
330
22
100
AcDbEntity
  8
0
  6
Continuous
 62
     7
100
AcDbLine
 10
-284.4921875
 20
62.02799224853515
 30
0.0
 11
-281.4921875
 21
59.02799224853516
 31
0.0
  0
LINE
  5
F9
330
22
100
AcDbEntity
  8
0
  6
Continuous
 62
     7
100
AcDbLine
 10
-286.613525390625
 20
62.02799224853515
 30
0.0
 11
-283.613525390625
 21
59.02799224853516
 31
0.0
  0
LINE
  5
FA
330
22
100
AcDbEntity
  8
0
  6
Continuous
 62
     7
100
AcDbLine
 10
-287.3206176757813
 20
62.02799224853515
 30
0.0
 11
-284.3206176757813
 21
59.02799224853516
 31
0.0
  0
LINE
  5
FB
330
22
100
AcDbEntity
  8
0
  6
Continuous
 62
     7
100
AcDbLine
 10
-289.4419250488281
 20
62.02799224853515
 30
0.0
 11
-286.4419250488282
 21
59.02799224853516
 31
0.0
  0
LINE
  5
FC
330
22
100
AcDbEntity
  8
0
  6
Continuous
 62
     7
100
AcDbLine
 10
-290.1490478515625
 20
62.02799224853515
 30
0.0
 11
-287.1490478515625
 21
59.02799224853516
 31
0.0
  0
LINE
  5
FD
330
22
100
AcDbEntity
  8
0
  6
Continuous
 62
     7
100
AcDbLine
 10
-292.2703552246094
 20
62.02799224853515
 30
0.0
 11
-289.2703552246094
 21
59.02799224853516
 31
0.0
  0
LINE
  5
FE
330
22
100
AcDbEntity
  8
0
  6
Continuous
 62
     7
100
AcDbLine
 10
-292.9774780273438
 20
62.02799224853515
 30
0.0
 11
-289.9774780273438
 21
59.02799224853516
 31
0.0
  0
LINE
  5
FF
330
22
100
AcDbEntity
  8
0
  6
Continuous
 62
     7
100
AcDbLine
 10
-294.1822509765625
 20
61.11143493652344
 30
0.0
 11
-292.0987854003906
 21
59.02799224853516
 31
0.0
  0
LINE
  5
100
330
22
100
AcDbEntity
  8
0
  6
Continuous
 62
     7
100
AcDbLine
 10
-295.805908203125
 20
62.02799224853515
 30
0.0
 11
-292.805908203125
 21
59.02799224853516
 31
0.0
  0
LINE
  5
101
330
22
100
AcDbEntity
  8
0
  6
Continuous
 62
     7
100
AcDbLine
 10
-297.9272155761719
 20
62.02799224853515
 30
0.0
 11
-294.9272155761719
 21
59.02799224853516
 31
0.0
  0
LINE
  5
102
330
22
100
AcDbEntity
  8
0
  6
Continuous
 62
     7
100
AcDbLine
 10
-298.6343383789063
 20
62.02799224853515
 30
0.0
 11
-295.6343383789063
 21
59.02799224853516
 31
0.0
  0
LINE
  5
103
330
22
100
AcDbEntity
  8
0
  6
Continuous
 62
     7
100
AcDbLine
 10
-300.7556457519531
 20
62.02799224853515
 30
0.0
 11
-297.7556457519531
 21
59.02799224853516
 31
0.0
  0
LINE
  5
104
330
22
100
AcDbEntity
  8
0
  6
Continuous
 62
     7
100
AcDbLine
 10
-301.4627685546875
 20
62.02799224853515
 30
0.0
 11
-298.4627685546875
 21
59.02799224853516
 31
0.0
  0
LINE
  5
105
330
22
100
AcDbEntity
  8
0
  6
Continuous
 62
     7
100
AcDbLine
 10
-303.5840759277344
 20
62.02799224853515
 30
0.0
 11
-300.5840759277344
 21
59.02799224853516
 31
0.0
  0
LINE
  5
106
330
22
100
AcDbEntity
  8
0
  6
Continuous
 62
     7
100
AcDbLine
 10
-304.2911682128906
 20
62.02799224853515
 30
0.0
 11
-301.2911682128906
 21
59.02799224853516
 31
0.0
  0
LINE
  5
107
330
22
100
AcDbEntity
  8
0
  6
Continuous
 62
     7
100
AcDbLine
 10
-306.4125061035156
 20
62.02799224853515
 30
0.0
 11
-303.4125061035156
 21
59.02799224853516
 31
0.0
  0
LINE
  5
108
330
22
100
AcDbEntity
  8
0
  6
Continuous
 62
     7
100
AcDbLine
 10
-307.1195983886719
 20
62.02799224853515
 30
0.0
 11
-304.1195983886719
 21
59.02799224853516
 31
0.0
  0
LINE
  5
109
330
22
100
AcDbEntity
  8
0
  6
Continuous
 62
     7
100
AcDbLine
 10
-309.2409362792969
 20
62.02799224853515
 30
0.0
 11
-306.2409362792969
 21
59.02799224853516
 31
0.0
  0
LINE
  5
10A
330
22
100
AcDbEntity
  8
0
  6
Continuous
 62
     7
100
AcDbLine
 10
-309.7656860351563
 20
61.84563446044922
 30
0.0
 11
-306.9480285644531
 21
59.02799224853516
 31
0.0
  0
LINE
  5
10B
330
22
100
AcDbEntity
  8
0
  6
Continuous
 62
     7
100
AcDbLine
 10
-309.7656860351563
 20
59.72431564331055
 30
0.0
 11
-309.0693664550781
 21
59.02799224853516
 31
0.0
  0
LINE
  5
10C
330
22
100
AcDbEntity
  8
0
  6
Continuous
 62
     7
100
AcDbLine
 10
-309.7656860351563
 20
62.02799224853515
 30
0.0
 11
-260.7656860351563
 21
62.02799224853515
 31
0.0
  0
LINE
  5
10D
330
22
100
AcDbEntity
  8
0
  6
Continuous
 62
     7
100
AcDbLine
 10
-309.7656860351563
 20
59.02799224853516
 30
0.0
 11
-260.7656860351563
 21
59.02799224853516
 31
0.0
  0
LINE
  5
10E
330
22
100
AcDbEntity
  8
0
  6
Continuous
 62
     7
100
AcDbLine
 10
-317.1656799316406
 20
197.0279846191406
 30
0.0
 11
-317.1656799316406
 21
195.0279846191406
 31
0.0
  0
LINE
  5
10F
330
22
100
AcDbEntity
  8
0
  6
Continuous
 62
     7
100
AcDbLine
 10
-317.2656860351563
 20
197.0279846191406
 30
0.0
 11
-317.2656860351563
 21
195.0279846191406
 31
0.0
  0
LINE
  5
110
330
22
100
AcDbEntity
  8
0
  6
Continuous
 62
     7
100
AcDbLine
 10
-317.1656799316406
 20
197.0279846191406
 30
0.0
 11
-317.1656799316406
 21
195.0279846191406
 31
0.0
  0
LINE
  5
111
330
22
100
AcDbEntity
  8
0
  6
Continuous
 62
     7
100
AcDbLine
 10
-315.944580078125
 20
59.02799224853516
 30
0.0
 11
-315.3656921386719
 21
59.02799224853516
 31
0.0
  0
LINE
  5
112
330
22
100
AcDbEntity
  8
0
  6
Continuous
 62
     7
100
AcDbLine
 10
-313.8656921386719
 20
84.02799224853515
 30
0.0
 11
-313.8656921386719
 21
60.52799224853515
 31
0.0
  0
LINE
  5
113
330
22
100
AcDbEntity
  8
0
  6
Continuous
 62
     7
100
AcDbLine
 10
-315.3656921386719
 20
59.02799224853516
 30
0.0
 11
-313.8656921386719
 21
60.52799224853515
 31
0.0
  0
LINE
  5
114
330
22
100
AcDbEntity
  8
0
  6
Continuous
 62
     7
100
AcDbLine
 10
-314.52197265625
 20
172.0279846191406
 30
0.0
 11
-315.9772033691406
 21
170.5727386474609
 31
0.0
  0
LINE
  5
115
330
22
100
AcDbEntity
  8
0
  6
Continuous
 62
     7
100
AcDbLine
 10
-313.7656860351563
 20
65.52799224853515
 30
0.0
 11
-313.7944030761719
 21
125.499267578125
 31
0.0
  0
LINE
  5
116
330
22
100
AcDbEntity
  8
0
  6
Continuous
 62
     7
100
AcDbLine
 10
-315.2656860351563
 20
124.0279922485352
 30
0.0
 11
-315.2656860351563
 21
64.02799224853516
 31
0.0
  0
LINE
  5
117
330
22
100
AcDbEntity
  8
0
  6
Continuous
 62
     7
100
AcDbLine
 10
-313.7745361328125
 20
84.02799224853515
 30
0.0
 11
-309.7656860351563
 21
84.02799224853515
 31
0.0
  0
LINE
  5
118
330
22
100
AcDbEntity
  8
0
  6
Continuous
 62
     7
100
AcDbLine
 10
-313.7656860351563
 20
84.02799224853515
 30
0.0
 11
-315.2656860351563
 21
82.47428131103516
 31
0.0
  0
LINE
  5
119
330
22
100
AcDbEntity
  8
0
  6
Continuous
 62
     7
100
AcDbLine
 10
-315.2656860351563
 20
64.02799224853516
 30
0.0
 11
-313.7656860351563
 21
65.52799224853515
 31
0.0
  0
LINE
  5
11A
330
22
100
AcDbEntity
  8
0
  6
Continuous
 62
     7
100
AcDbLine
 10
-315.944580078125
 20
48.52799224853516
 30
0.0
 11
-315.4148254394531
 21
31.5771369934082
 31
0.0
  0
LINE
  5
11B
330
22
100
AcDbEntity
  8
0
  6
Continuous
 62
     7
100
AcDbLine
 10
-309.7656860351563
 20
84.02799224853515
 30
0.0
 11
-309.7656860351563
 21
30.02799034118652
 31
0.0
  0
LINE
  5
11C
330
22
100
AcDbEntity
  8
0
  6
Continuous
 62
     7
100
AcDbLine
 10
-315.944580078125
 20
48.52799224853516
 30
0.0
 11
-314.4096984863281
 21
47.43576431274414
 31
0.0
  0
LINE
  5
11D
330
22
100
AcDbEntity
  8
0
  6
Continuous
 62
     7
100
AcDbLine
 10
-313.8656921386719
 20
151.0279846191406
 30
0.0
 11
-315.4148254394531
 21
152.5771331787109
 31
0.0
  0
LINE
  5
11E
330
22
100
AcDbEntity
  8
0
  6
Continuous
 62
     7
100
AcDbLine
 10
-314.52197265625
 20
172.0279846191406
 30
0.0
 11
-313.8656921386719
 21
151.0279846191406
 31
0.0
  0
LINE
  5
11F
330
22
100
AcDbEntity
  8
0
  6
Continuous
 62
     7
100
AcDbLine
 10
-315.7012939453125
 20
164.0279846191406
 30
0.0
 11
-314.1760864257813
 21
162.5027770996094
 31
0.0
  0
LINE
  5
120
330
22
100
AcDbEntity
  8
0
  6
Continuous
 62
     7
100
AcDbLine
 10
-316.4953308105469
 20
164.0279846191406
 30
0.0
 11
-315.7493591308594
 21
163.2820129394531
 31
0.0
  0
LINE
  5
121
330
22
100
AcDbEntity
  8
0
  6
Continuous
 62
     7
100
AcDbLine
 10
-318.7656860351563
 20
162.0556945800781
 30
0.0
 11
-315.6124877929688
 21
158.9025115966797
 31
0.0
  0
LINE
  5
122
330
22
100
AcDbEntity
  8
0
  6
Continuous
 62
     7
100
AcDbLine
 10
-318.7656860351563
 20
157.8130493164063
 30
0.0
 11
-315.4756469726563
 21
154.5230102539063
 31
0.0
  0
LINE
  5
123
330
22
100
AcDbEntity
  8
0
  6
Continuous
 62
     7
100
AcDbLine
 10
-318.7656860351563
 20
153.5704040527344
 30
0.0
 11
-315.1535034179688
 21
149.9582366943359
 31
0.0
  0
LINE
  5
124
330
22
100
AcDbEntity
  8
0
  6
Continuous
 62
     7
100
AcDbLine
 10
-318.7656860351563
 20
149.3277587890625
 30
0.0
 11
-313.7656860351563
 21
144.3277587890625
 31
0.0
  0
LINE
  5
125
330
22
100
AcDbEntity
  8
0
  6
Continuous
 62
     7
100
AcDbLine
 10
-318.7656860351563
 20
145.0851287841797
 30
0.0
 11
-313.7656860351563
 21
140.0851287841797
 31
0.0
  0
LINE
  5
126
330
22
100
AcDbEntity
  8
0
  6
Continuous
 62
     7
100
AcDbLine
 10
-318.7656860351563
 20
140.8424835205078
 30
0.0
 11
-313.7656860351563
 21
135.8424835205078
 31
0.0
  0
LINE
  5
127
330
22
100
AcDbEntity
  8
0
  6
Continuous
 62
     7
100
AcDbLine
 10
-318.7656860351563
 20
136.5998382568359
 30
0.0
 11
-313.7656860351563
 21
131.5998382568359
 31
0.0
  0
LINE
  5
128
330
22
100
AcDbEntity
  8
0
  6
Continuous
 62
     7
100
AcDbLine
 10
-318.7656860351563
 20
132.3572082519531
 30
0.0
 11
-313.7656860351563
 21
127.3572006225586
 31
0.0
  0
LINE
  5
129
330
22
100
AcDbEntity
  8
0
  6
Continuous
 62
     7
100
AcDbLine
 10
-318.7656860351563
 20
128.1145629882812
 30
0.0
 11
-314.9723815917969
 21
124.3212738037109
 31
0.0
  0
LINE
  5
12A
330
22
100
AcDbEntity
  8
0
  6
Continuous
 62
     7
100
AcDbLine
 10
-318.7656860351563
 20
123.8719253540039
 30
0.0
 11
-315.2656860351563
 21
120.3719253540039
 31
0.0
  0
LINE
  5
12B
330
22
100
AcDbEntity
  8
0
  6
Continuous
 62
     7
100
AcDbLine
 10
-318.7656860351563
 20
119.629280090332
 30
0.0
 11
-315.2656860351563
 21
116.129280090332
 31
0.0
  0
LINE
  5
12C
330
22
100
AcDbEntity
  8
0
  6
Continuous
 62
     7
100
AcDbLine
 10
-318.7656860351563
 20
115.3866424560547
 30
0.0
 11
-315.2656860351563
 21
111.8866424560547
 31
0.0
  0
LINE
  5
12D
330
22
100
AcDbEntity
  8
0
  6
Continuous
 62
     7
100
AcDbLine
 10
-318.7656860351563
 20
111.1439971923828
 30
0.0
 11
-315.2656860351563
 21
107.6439971923828
 31
0.0
  0
LINE
  5
12E
330
22
100
AcDbEntity
  8
0
  6
Continuous
 62
     7
100
AcDbLine
 10
-318.7656860351563
 20
106.9013595581055
 30
0.0
 11
-315.2656860351563
 21
103.4013595581055
 31
0.0
  0
LINE
  5
12F
330
22
100
AcDbEntity
  8
0
  6
Continuous
 62
     7
100
AcDbLine
 10
-318.7656860351563
 20
102.6587219238281
 30
0.0
 11
-315.2656860351563
 21
99.15872192382813
 31
0.0
  0
LINE
  5
130
330
22
100
AcDbEntity
  8
0
  6
Continuous
 62
     7
100
AcDbLine
 10
-318.7656860351563
 20
98.41607666015624
 30
0.0
 11
-315.2656860351563
 21
94.91607666015623
 31
0.0
  0
LINE
  5
131
330
22
100
AcDbEntity
  8
0
  6
Continuous
 62
     7
100
AcDbLine
 10
-318.7656860351563
 20
94.17343902587893
 30
0.0
 11
-315.2656860351563
 21
90.67343902587891
 31
0.0
  0
LINE
  5
132
330
22
100
AcDbEntity
  8
0
  6
Continuous
 62
     7
100
AcDbLine
 10
-318.7656860351563
 20
89.93079376220704
 30
0.0
 11
-315.2656860351563
 21
86.43079376220702
 31
0.0
  0
LINE
  5
133
330
22
100
AcDbEntity
  8
0
  6
Continuous
 62
     7
100
AcDbLine
 10
-318.7656860351563
 20
85.68815612792969
 30
0.0
 11
-315.2656860351563
 21
82.18815612792969
 31
0.0
  0
LINE
  5
134
330
22
100
AcDbEntity
  8
0
  6
Continuous
 62
     7
100
AcDbLine
 10
-318.7656860351563
 20
81.44551849365234
 30
0.0
 11
-315.2656860351563
 21
77.94551849365234
 31
0.0
  0
LINE
  5
135
330
22
100
AcDbEntity
  8
0
  6
Continuous
 62
     7
100
AcDbLine
 10
-318.7656860351563
 20
77.20287322998046
 30
0.0
 11
-315.2656860351563
 21
73.70287322998047
 31
0.0
  0
LINE
  5
136
330
22
100
AcDbEntity
  8
0
  6
Continuous
 62
     7
100
AcDbLine
 10
-318.7656860351563
 20
72.96023559570312
 30
0.0
 11
-315.2656860351563
 21
69.46023559570313
 31
0.0
  0
LINE
  5
137
330
22
100
AcDbEntity
  8
0
  6
Continuous
 62
     7
100
AcDbLine
 10
-318.7656860351563
 20
68.71759033203125
 30
0.0
 11
-315.2656860351563
 21
65.21759033203125
 31
0.0
  0
LINE
  5
138
330
22
100
AcDbEntity
  8
0
  6
Continuous
 62
     7
100
AcDbLine
 10
-318.7656860351563
 20
64.47495269775391
 30
0.0
 11
-318.3187255859375
 21
64.02799224853516
 31
0.0
  0
LINE
  5
139
330
22
100
AcDbEntity
  8
0
  6
Continuous
 62
     7
100
AcDbLine
 10
-318.6166687011719
 20
164.0279846191406
 30
0.0
 11
-315.6809387207031
 21
161.0922698974609
 31
0.0
  0
LINE
  5
13A
330
22
100
AcDbEntity
  8
0
  6
Continuous
 62
     7
100
AcDbLine
 10
-318.7656860351563
 20
159.9343719482422
 30
0.0
 11
-315.5440673828125
 21
156.7127532958984
 31
0.0
  0
LINE
  5
13B
330
22
100
AcDbEntity
  8
0
  6
Continuous
 62
     7
100
AcDbLine
 10
-318.7656860351563
 20
155.6917266845703
 30
0.0
 11
-315.2394409179688
 21
152.1654968261719
 31
0.0
  0
LINE
  5
13C
330
22
100
AcDbEntity
  8
0
  6
Continuous
 62
     7
100
AcDbLine
 10
-318.7656860351563
 20
151.4490814208984
 30
0.0
 11
-313.7656860351563
 21
146.4490814208984
 31
0.0
  0
LINE
  5
13D
330
22
100
AcDbEntity
  8
0
  6
Continuous
 62
     7
100
AcDbLine
 10
-318.7656860351563
 20
147.2064514160156
 30
0.0
 11
-313.7656860351563
 21
142.2064514160156
 31
0.0
  0
LINE
  5
13E
330
22
100
AcDbEntity
  8
0
  6
Continuous
 62
     7
100
AcDbLine
 10
-318.7656860351563
 20
142.9638061523438
 30
0.0
 11
-313.7656860351563
 21
137.9638061523438
 31
0.0
  0
LINE
  5
13F
330
22
100
AcDbEntity
  8
0
  6
Continuous
 62
     7
100
AcDbLine
 10
-318.7656860351563
 20
138.7211608886719
 30
0.0
 11
-313.7656860351563
 21
133.7211608886719
 31
0.0
  0
LINE
  5
140
330
22
100
AcDbEntity
  8
0
  6
Continuous
 62
     7
100
AcDbLine
 10
-318.7656860351563
 20
134.4785308837891
 30
0.0
 11
-313.7656860351563
 21
129.4785308837891
 31
0.0
  0
LINE
  5
141
330
22
100
AcDbEntity
  8
0
  6
Continuous
 62
     7
100
AcDbLine
 10
-318.7656860351563
 20
130.2358856201172
 30
0.0
 11
-313.9117431640625
 21
125.3819351196289
 31
0.0
  0
LINE
  5
142
330
22
100
AcDbEntity
  8
0
  6
Continuous
 62
     7
100
AcDbLine
 10
-318.7656860351563
 20
125.9932403564453
 30
0.0
 11
-315.2656860351563
 21
122.4932403564453
 31
0.0
  0
LINE
  5
143
330
22
100
AcDbEntity
  8
0
  6
Continuous
 62
     7
100
AcDbLine
 10
-318.7656860351563
 20
121.750602722168
 30
0.0
 11
-315.2656860351563
 21
118.250602722168
 31
0.0
  0
LINE
  5
144
330
22
100
AcDbEntity
  8
0
  6
Continuous
 62
     7
100
AcDbLine
 10
-318.7656860351563
 20
117.5079574584961
 30
0.0
 11
-315.2656860351563
 21
114.0079574584961
 31
0.0
  0
LINE
  5
145
330
22
100
AcDbEntity
  8
0
  6
Continuous
 62
     7
100
AcDbLine
 10
-318.7656860351563
 20
113.2653198242188
 30
0.0
 11
-315.2656860351563
 21
109.7653198242188
 31
0.0
  0
LINE
  5
146
330
22
100
AcDbEntity
  8
0
  6
Continuous
 62
     7
100
AcDbLine
 10
-318.7656860351563
 20
109.0226821899414
 30
0.0
 11
-315.2656860351563
 21
105.5226821899414
 31
0.0
  0
LINE
  5
147
330
22
100
AcDbEntity
  8
0
  6
Continuous
 62
     7
100
AcDbLine
 10
-318.7656860351563
 20
104.7800369262695
 30
0.0
 11
-315.2656860351563
 21
101.2800369262695
 31
0.0
  0
LINE
  5
148
330
22
100
AcDbEntity
  8
0
  6
Continuous
 62
     7
100
AcDbLine
 10
-318.7656860351563
 20
100.5373992919922
 30
0.0
 11
-315.2656860351563
 21
97.03739929199221
 31
0.0
  0
LINE
  5
149
330
22
100
AcDbEntity
  8
0
  6
Continuous
 62
     7
100
AcDbLine
 10
-318.7656860351563
 20
96.29475402832031
 30
0.0
 11
-315.2656860351563
 21
92.79475402832032
 31
0.0
  0
LINE
  5
14A
330
22
100
AcDbEntity
  8
0
  6
Continuous
 62
     7
100
AcDbLine
 10
-318.7656860351563
 20
92.05211639404295
 30
0.0
 11
-315.2656860351563
 21
88.55211639404297
 31
0.0
  0
LINE
  5
14B
330
22
100
AcDbEntity
  8
0
  6
Continuous
 62
     7
100
AcDbLine
 10
-318.7656860351563
 20
87.80947875976563
 30
0.0
 11
-315.2656860351563
 21
84.30947875976562
 31
0.0
  0
LINE
  5
14C
330
22
100
AcDbEntity
  8
0
  6
Continuous
 62
     7
100
AcDbLine
 10
-318.7656860351563
 20
83.56683349609374
 30
0.0
 11
-315.2656860351563
 21
80.06683349609375
 31
0.0
  0
LINE
  5
14D
330
22
100
AcDbEntity
  8
0
  6
Continuous
 62
     7
100
AcDbLine
 10
-318.7656860351563
 20
79.32419586181641
 30
0.0
 11
-315.2656860351563
 21
75.8241958618164
 31
0.0
  0
LINE
  5
14E
330
22
100
AcDbEntity
  8
0
  6
Continuous
 62
     7
100
AcDbLine
 10
-318.7656860351563
 20
75.08155059814453
 30
0.0
 11
-315.2656860351563
 21
71.58155059814453
 31
0.0
  0
LINE
  5
14F
330
22
100
AcDbEntity
  8
0
  6
Continuous
 62
     7
100
AcDbLine
 10
-318.7656860351563
 20
70.83891296386719
 30
0.0
 11
-315.2656860351563
 21
67.33891296386719
 31
0.0
  0
LINE
  5
150
330
22
100
AcDbEntity
  8
0
  6
Continuous
 62
     7
100
AcDbLine
 10
-318.7656860351563
 20
66.59627532958984
 30
0.0
 11
-316.1973876953125
 21
64.02799224853516
 31
0.0
  0
LINE
  5
151
330
22
100
AcDbEntity
  8
0
  6
Continuous
 62
     7
100
AcDbLine
 10
-318.7656860351563
 20
64.02799224853516
 30
0.0
 11
-318.7656860351563
 21
164.0279846191406
 31
0.0
  0
LINE
  5
152
330
22
100
AcDbEntity
  8
0
  6
Continuous
 62
     7
100
AcDbLine
 10
-314.1760864257813
 20
162.5027770996094
 30
0.0
 11
-313.7656860351563
 21
148.1620635986328
 31
0.0
  0
LINE
  5
153
330
22
100
AcDbEntity
  8
0
  6
Continuous
 62
     7
100
AcDbLine
 10
-315.944580078125
 20
48.52799224853516
 30
0.0
 11
-315.944580078125
 21
59.02799224853516
 31
0.0
  0
LINE
  5
154
330
22
100
AcDbEntity
  8
0
  6
Continuous
 62
     7
100
AcDbLine
 10
-314.4096984863281
 20
47.43576431274414
 30
0.0
 11
-313.8656921386719
 21
30.02799034118652
 31
0.0
  0
LINE
  5
155
330
22
100
AcDbEntity
  8
0
  6
Continuous
 62
     7
100
AcDbLine
 10
-313.8656921386719
 20
30.02799034118652
 30
0.0
 11
-315.4148254394531
 21
31.5771369934082
 31
0.0
  0
LINE
  5
156
330
22
100
AcDbEntity
  8
0
  6
Continuous
 62
     7
100
AcDbLine
 10
-315.1260070800781
 20
149.2515563964844
 30
0.0
 11
-313.7656860351563
 21
148.1620635986328
 31
0.0
  0
LINE
  5
157
330
22
100
AcDbEntity
  8
0
  6
Continuous
 62
     7
100
AcDbLine
 10
-315.3656921386719
 20
84.02799224853515
 30
0.0
 11
-315.3656921386719
 21
59.02799224853516
 31
0.0
  0
LINE
  5
158
330
22
100
AcDbEntity
  8
0
  6
Continuous
 62
     7
100
AcDbLine
 10
-313.8656921386719
 20
151.0279846191406
 30
0.0
 11
-305.7656860351563
 21
151.0279846191406
 31
0.0
  0
LINE
  5
159
330
22
100
AcDbEntity
  8
0
  6
Continuous
 62
     7
100
AcDbLine
 10
-317.7656860351563
 20
172.0279846191406
 30
0.0
 11
-317.7656860351563
 21
182.0279846191406
 31
0.0
  0
LINE
  5
15A
330
22
100
AcDbEntity
  8
0
  6
CENTER
 62
     7
100
AcDbLine
 10
-270.7656860351563
 20
63.21026611328125
 30
0.0
 11
-270.7656860351563
 21
57.78055572509765
 31
0.0
  0
LINE
  5
15B
330
22
100
AcDbEntity
  8
0
  6
Continuous
 62
     7
100
AcDbLine
 10
-265.7656860351563
 20
62.02799224853515
 30
0.0
 11
-268.0156860351563
 21
59.77799224853516
 31
0.0
  0
LINE
  5
15C
330
22
100
AcDbEntity
  8
0
  6
Continuous
 62
     7
100
AcDbLine
 10
-268.0156860351563
 20
59.02799224853516
 30
0.0
 11
-268.0156860351563
 21
59.77799224853516
 31
0.0
  0
LINE
  5
15D
330
22
100
AcDbEntity
  8
0
  6
Continuous
 62
     7
100
AcDbLine
 10
-278.7656860351563
 20
62.02799224853515
 30
0.0
 11
-277.7656860351563
 21
61.02799224853516
 31
0.0
  0
LINE
  5
15E
330
22
100
AcDbEntity
  8
0
  6
Continuous
 62
     7
100
AcDbLine
 10
-273.5156860351563
 20
59.02799224853516
 30
0.0
 11
-273.5156860351563
 21
59.77799224853516
 31
0.0
  0
LINE
  5
15F
330
22
100
AcDbEntity
  8
0
  6
Continuous
 62
     7
100
AcDbLine
 10
-275.7656860351563
 20
62.02799224853515
 30
0.0
 11
-273.5156860351563
 21
59.77799224853516
 31
0.0
  0
LINE
  5
160
330
22
100
AcDbEntity
  8
0
  6
Continuous
 62
     7
100
AcDbLine
 10
-260.7656860351563
 20
62.02799224853515
 30
0.0
 11
-260.7656860351563
 21
59.02799224853516
 31
0.0
  0
LINE
  5
161
330
22
100
AcDbEntity
  8
0
  6
Continuous
 62
     7
100
AcDbLine
 10
-276.7656860351563
 20
62.02799224853515
 30
0.0
 11
-277.7656860351563
 21
61.02799224853516
 31
0.0
  0
LINE
  5
162
330
22
100
AcDbEntity
  8
0
  6
Continuous
 62
     7
100
AcDbLine
 10
-315.2656860351563
 20
124.0279922485352
 30
0.0
 11
-313.7656860351563
 21
125.5279922485352
 31
0.0
  0
LINE
  5
163
330
22
100
AcDbEntity
  8
0
  6
Continuous
 62
     7
100
AcDbLine
 10
-313.7656860351563
 20
148.1620635986328
 30
0.0
 11
-313.7656860351563
 21
125.5279922485352
 31
0.0
  0
LINE
  5
164
330
22
100
AcDbEntity
  8
0
  6
Continuous
 62
     7
100
AcDbLine
 10
-337.8656921386719
 20
175.0279846191406
 30
0.0
 11
-326.5757751464844
 21
175.0279846191406
 31
0.0
  0
LINE
  5
165
330
22
100
AcDbEntity
  8
0
  6
Continuous
 62
     7
100
AcDbLine
 10
-361.6836547851563
 20
151.0279846191406
 30
0.0
 11
-361.7656860351563
 21
148.1620635986328
 31
0.0
  0
LINE
  5
166
330
22
100
AcDbEntity
  8
0
  6
Continuous
 62
     7
100
AcDbLine
 10
-360.4053649902344
 20
149.2515563964844
 30
0.0
 11
-361.7656860351563
 21
148.1620635986328
 31
0.0
  0
LINE
  5
167
330
22
100
AcDbEntity
  8
0
  6
Continuous
 62
     7
100
AcDbLine
 10
-360.2656860351563
 20
124.0279922485352
 30
0.0
 11
-361.7656860351563
 21
125.5279922485352
 31
0.0
  0
LINE
  5
168
330
22
100
AcDbEntity
  8
0
  6
Continuous
 62
     7
100
AcDbLine
 10
-361.7656860351563
 20
148.1620635986328
 30
0.0
 11
-361.7656860351563
 21
125.5279922485352
 31
0.0
  0
LINE
  5
169
330
22
100
AcDbEntity
  8
0
  6
Continuous
 62
     7
100
AcDbLine
 10
-365.7656860351563
 20
84.02799224853515
 30
0.0
 11
-365.7656860351563
 21
62.02799224853515
 31
0.0
  0
LINE
  5
16A
330
22
100
AcDbEntity
  8
0
  6
Continuous
 62
     7
100
AcDbLine
 10
-414.7656860351562
 20
62.02799224853515
 30
0.0
 11
-414.7656860351562
 21
59.02799224853516
 31
0.0
  0
LINE
  5
16B
330
22
100
AcDbEntity
  8
0
  6
Continuous
 62
     7
100
AcDbLine
 10
-365.7656860351563
 20
30.02799034118652
 30
0.0
 11
-365.7656860351563
 21
59.02799224853516
 31
0.0
  0
LINE
  5
16C
330
22
100
AcDbEntity
  8
0
  6
Continuous
 62
     7
100
AcDbLine
 10
-365.7656860351563
 20
62.02799224853515
 30
0.0
 11
-365.7656860351563
 21
84.02799224853515
 31
0.0
  0
LINE
  5
16D
330
22
100
AcDbEntity
  8
0
  6
Continuous
 62
     7
100
AcDbLine
 10
-360.336181640625
 20
151.0279846191406
 30
0.0
 11
-360.4053649902344
 21
149.2515563964844
 31
0.0
  0
LINE
  5
16E
330
22
100
AcDbEntity
  8
0
  6
Continuous
 62
     7
100
AcDbLine
 10
-360.2656860351563
 20
84.02799224853515
 30
0.0
 11
-360.2656860351563
 21
124.0279922485352
 31
0.0
  0
LINE
  5
16F
330
22
100
AcDbEntity
  8
0
  6
Continuous
 62
     7
100
AcDbLine
 10
-361.7656860351563
 20
84.02799224853515
 30
0.0
 11
-361.7656860351563
 21
125.5279922485352
 31
0.0
  0
LINE
  5
170
330
22
100
AcDbEntity
  8
0
  6
Continuous
 62
     7
100
AcDbLine
 10
-360.2656860351563
 20
124.0279922485352
 30
0.0
 11
-337.7656860351563
 21
124.0279922485352
 31
0.0
  0
LINE
  5
171
330
22
100
AcDbEntity
  8
0
  6
Continuous
 62
     7
100
AcDbLine
 10
-414.7656860351562
 20
62.02799224853515
 30
0.0
 11
-337.7656860351563
 21
62.02799224853515
 31
0.0
  0
LINE
  5
172
330
22
100
AcDbEntity
  8
0
  6
Continuous
 62
     7
100
AcDbLine
 10
-369.7656860351563
 20
151.0279846191406
 30
0.0
 11
-337.7656860351563
 21
151.0279846191406
 31
0.0
  0
LINE
  5
173
330
22
100
AcDbEntity
  8
0
  6
Continuous
 62
     7
100
AcDbLine
 10
-365.7656860351563
 20
84.02799224853515
 30
0.0
 11
-337.7656860351563
 21
84.02799224853515
 31
0.0
  0
LINE
  5
174
330
22
100
AcDbEntity
  8
0
  6
Continuous
 62
     7
100
AcDbLine
 10
-360.4053649902344
 20
149.2515563964844
 30
0.0
 11
-337.7656860351563
 21
149.2515563964844
 31
0.0
  0
LINE
  5
175
330
22
100
AcDbEntity
  8
0
  6
Continuous
 62
     7
100
AcDbLine
 10
-414.7656860351562
 20
59.02799224853516
 30
0.0
 11
-337.7656860351563
 21
59.02799224853516
 31
0.0
  0
LINE
  5
176
330
22
100
AcDbEntity
  8
0
  6
Continuous
 62
     7
100
AcDbLine
 10
-326.6793823242188
 20
183.0279846191406
 30
0.0
 11
-326.6793823242188
 21
175.0279846191406
 31
0.0
  0
LINE
  5
177
330
22
100
AcDbEntity
  8
0
  6
Continuous
 62
     7
100
AcDbLine
 10
-373.2656860351563
 20
187.0279846191406
 30
0.0
 11
-371.7656860351563
 21
187.0279846191406
 31
0.0
  0
LINE
  5
178
330
22
100
AcDbEntity
  8
0
  6
Continuous
 62
     7
100
AcDbLine
 10
-369.7656860351563
 20
151.0279846191406
 30
0.0
 11
-369.7656860351563
 21
185.0279846191406
 31
0.0
  0
LINE
  5
179
330
22
100
AcDbEntity
  8
0
  6
Continuous
 62
     7
100
AcDbLine
 10
-371.7656860351563
 20
187.0279846191406
 30
0.0
 11
-337.7656860351563
 21
187.0279846191406
 31
0.0
  0
LINE
  5
17A
330
22
100
AcDbEntity
  8
0
  6
Continuous
 62
     7
100
AcDbLine
 10
-314.4096984863281
 20
47.43576431274414
 30
0.0
 11
-337.7656860351563
 21
47.43576431274414
 31
0.0
  0
LINE
  5
17B
330
22
100
AcDbEntity
  8
0
  6
Continuous
 62
     7
100
AcDbLine
 10
-315.4148254394531
 20
31.5771369934082
 30
0.0
 11
-337.7656860351563
 21
31.5771369934082
 31
0.0
  0
LINE
  5
17C
330
22
100
AcDbEntity
  8
0
  6
Continuous
 62
     7
100
AcDbLine
 10
-319.0209655761719
 20
64.02799224853516
 30
0.0
 11
-330.5964965820313
 21
64.02799224853516
 31
0.0
  0
LINE
  5
17D
330
22
100
AcDbEntity
  8
0
  6
Continuous
 62
     7
100
AcDbLine
 10
-319.7468566894531
 20
189.5279846191406
 30
0.0
 11
-320.1405639648438
 21
185.0279846191406
 31
0.0
  0
LINE
  5
17E
330
22
100
AcDbEntity
  8
0
  6
Continuous
 62
     7
100
AcDbLine
 10
-319.315673828125
 20
195.0279846191406
 30
0.0
 11
-320.4530334472656
 21
182.0279846191406
 31
0.0
  0
LINE
  5
17F
330
22
100
AcDbEntity
  8
0
  6
Continuous
 62
     7
100
AcDbLine
 10
-322.3406677246094
 20
183.0279846191406
 30
0.0
 11
-322.3406677246094
 21
158.0507049560547
 31
0.0
  0
LINE
  5
180
330
22
100
AcDbEntity
  8
0
  6
Continuous
 62
     7
100
AcDbLine
 10
-328.3656921386719
 20
196.074462890625
 30
0.0
 11
-327.4121398925781
 21
197.0279846191406
 31
0.0
  0
LINE
  5
181
330
22
100
AcDbEntity
  8
0
  6
Continuous
 62
     7
100
AcDbLine
 10
-328.3656921386719
 20
193.2460327148438
 30
0.0
 11
-324.5837097167969
 21
197.0279846191406
 31
0.0
  0
LINE
  5
182
330
22
100
AcDbEntity
  8
0
  6
Continuous
 62
     7
100
AcDbLine
 10
-326.6793823242188
 20
192.1038970947266
 30
0.0
 11
-321.7552795410156
 21
197.0279846191406
 31
0.0
  0
LINE
  5
183
330
22
100
AcDbEntity
  8
0
  6
Continuous
 62
     7
100
AcDbLine
 10
-326.6793823242188
 20
189.2754669189453
 30
0.0
 11
-318.9268798828125
 21
197.0279846191406
 31
0.0
  0
LINE
  5
184
330
22
100
AcDbEntity
  8
0
  6
Continuous
 62
     7
100
AcDbLine
 10
-318.0984497070313
 20
195.0279846191406
 30
0.0
 11
-317.2656860351563
 21
195.8607482910156
 31
0.0
  0
LINE
  5
185
330
22
100
AcDbEntity
  8
0
  6
Continuous
 62
     7
100
AcDbLine
 10
-320.0984497070313
 20
193.0279846191406
 30
0.0
 11
-319.432373046875
 21
193.6940460205078
 31
0.0
  0
LINE
  5
186
330
22
100
AcDbEntity
  8
0
  6
Continuous
 62
     7
100
AcDbLine
 10
-326.6793823242188
 20
186.4470367431641
 30
0.0
 11
-322.3406677246094
 21
190.7857666015625
 31
0.0
  0
LINE
  5
187
330
22
100
AcDbEntity
  8
0
  6
Continuous
 62
     7
100
AcDbLine
 10
-326.6793823242188
 20
183.6186218261719
 30
0.0
 11
-320.77001953125
 21
189.5279846191406
 31
0.0
  0
LINE
  5
188
330
22
100
AcDbEntity
  8
0
  6
Continuous
 62
     7
100
AcDbLine
 10
-337.7656860351563
 20
172.5323181152344
 30
0.0
 11
-335.27001953125
 21
175.0279846191406
 31
0.0
  0
LINE
  5
189
330
22
100
AcDbEntity
  8
0
  6
Continuous
 62
     7
100
AcDbLine
 10
-326.6793823242188
 20
180.7901916503906
 30
0.0
 11
-319.9747314453125
 21
187.4948272705078
 31
0.0
  0
LINE
  5
18A
330
22
100
AcDbEntity
  8
0
  6
Continuous
 62
     7
100
AcDbLine
 10
-337.7656860351563
 20
169.7039031982422
 30
0.0
 11
-332.4415893554688
 21
175.0279846191406
 31
0.0
  0
LINE
  5
18B
330
22
100
AcDbEntity
  8
0
  6
Continuous
 62
     7
100
AcDbLine
 10
-326.6793823242188
 20
177.9617614746094
 30
0.0
 11
-322.3406677246094
 21
182.3004913330078
 31
0.0
  0
LINE
  5
18C
330
22
100
AcDbEntity
  8
0
  6
Continuous
 62
     7
100
AcDbLine
 10
-337.7656860351563
 20
166.8754730224609
 30
0.0
 11
-329.6131591796875
 21
175.0279846191406
 31
0.0
  0
LINE
  5
18D
330
22
100
AcDbEntity
  8
0
  6
Continuous
 62
     7
100
AcDbLine
 10
-326.6793823242188
 20
175.1333312988281
 30
0.0
 11
-322.3406677246094
 21
179.4720611572266
 31
0.0
  0
LINE
  5
18E
330
22
100
AcDbEntity
  8
0
  6
Continuous
 62
     7
100
AcDbLine
 10
-337.7656860351563
 20
164.0470428466796
 30
0.0
 11
-326.7847290039063
 21
175.0279846191406
 31
0.0
  0
LINE
  5
18F
330
22
100
AcDbEntity
  8
0
  6
Continuous
 62
     7
100
AcDbLine
 10
-337.7656860351563
 20
161.2186126708984
 30
0.0
 11
-322.3406677246094
 21
176.6436309814453
 31
0.0
  0
LINE
  5
190
330
22
100
AcDbEntity
  8
0
  6
Continuous
 62
     7
100
AcDbLine
 10
-337.7656860351563
 20
158.3901824951172
 30
0.0
 11
-322.3406677246094
 21
173.8152160644531
 31
0.0
  0
LINE
  5
191
330
22
100
AcDbEntity
  8
0
  6
Continuous
 62
     7
100
AcDbLine
 10
-335.2994384765625
 20
158.0279846191406
 30
0.0
 11
-322.3406677246094
 21
170.9867858886719
 31
0.0
  0
LINE
  5
192
330
22
100
AcDbEntity
  8
0
  6
Continuous
 62
     7
100
AcDbLine
 10
-332.4710083007813
 20
158.0279846191406
 30
0.0
 11
-322.3406677246094
 21
168.1583557128906
 31
0.0
  0
LINE
  5
193
330
22
100
AcDbEntity
  8
0
  6
Continuous
 62
     7
100
AcDbLine
 10
-329.6426086425781
 20
158.0279846191406
 30
0.0
 11
-322.3406677246094
 21
165.3299255371094
 31
0.0
  0
LINE
  5
194
330
22
100
AcDbEntity
  8
0
  6
Continuous
 62
     7
100
AcDbLine
 10
-326.8141784667969
 20
158.0279846191406
 30
0.0
 11
-322.3406677246094
 21
162.5014953613281
 31
0.0
  0
LINE
  5
195
330
22
100
AcDbEntity
  8
0
  6
Continuous
 62
     7
100
AcDbLine
 10
-323.9857482910156
 20
158.0279846191406
 30
0.0
 11
-322.3406677246094
 21
159.6730804443359
 31
0.0
  0
LINE
  5
196
330
22
100
AcDbEntity
  8
0
  6
Continuous
 62
     7
100
AcDbLine
 10
-337.3653869628906
 20
158.0279846191406
 30
0.0
 11
-337.7656860351563
 21
158.4282684326172
 31
0.0
  0
LINE
  5
197
330
22
100
AcDbEntity
  8
0
  6
Continuous
 62
     7
100
AcDbLine
 10
-334.5369567871094
 20
158.0279846191406
 30
0.0
 11
-337.7656860351563
 21
161.2566986083984
 31
0.0
  0
LINE
  5
198
330
22
100
AcDbEntity
  8
0
  6
Continuous
 62
     7
100
AcDbLine
 10
-331.7085571289063
 20
158.0279846191406
 30
0.0
 11
-337.7656860351563
 21
164.0851287841797
 31
0.0
  0
LINE
  5
199
330
22
100
AcDbEntity
  8
0
  6
Continuous
 62
     7
100
AcDbLine
 10
-328.880126953125
 20
158.0279846191406
 30
0.0
 11
-337.7656860351563
 21
166.9135589599609
 31
0.0
  0
LINE
  5
19A
330
22
100
AcDbEntity
  8
0
  6
Continuous
 62
     7
100
AcDbLine
 10
-326.0516967773438
 20
158.0279846191406
 30
0.0
 11
-337.7656860351563
 21
169.7419738769531
 31
0.0
  0
LINE
  5
19B
330
22
100
AcDbEntity
  8
0
  6
Continuous
 62
     7
100
AcDbLine
 10
-323.2232666015625
 20
158.0279846191406
 30
0.0
 11
-337.7656860351563
 21
172.5704040527344
 31
0.0
  0
LINE
  5
19C
330
22
100
AcDbEntity
  8
0
  6
Continuous
 62
     7
100
AcDbLine
 10
-322.3406677246094
 20
159.9738159179688
 30
0.0
 11
-337.3948364257813
 21
175.0279846191406
 31
0.0
  0
LINE
  5
19D
330
22
100
AcDbEntity
  8
0
  6
Continuous
 62
     7
100
AcDbLine
 10
-322.3406677246094
 20
162.8022308349609
 30
0.0
 11
-334.56640625
 21
175.0279846191406
 31
0.0
  0
LINE
  5
19E
330
22
100
AcDbEntity
  8
0
  6
Continuous
 62
     7
100
AcDbLine
 10
-322.3406677246094
 20
165.6306610107422
 30
0.0
 11
-331.7379760742188
 21
175.0279846191406
 31
0.0
  0
LINE
  5
19F
330
22
100
AcDbEntity
  8
0
  6
Continuous
 62
     7
100
AcDbLine
 10
-322.3406677246094
 20
168.4590911865234
 30
0.0
 11
-328.9095458984375
 21
175.0279846191406
 31
0.0
  0
LINE
  5
1A0
330
22
100
AcDbEntity
  8
0
  6
Continuous
 62
     7
100
AcDbLine
 10
-322.3406677246094
 20
171.2875213623047
 30
0.0
 11
-326.6793823242188
 21
175.6262512207031
 31
0.0
  0
LINE
  5
1A1
330
22
100
AcDbEntity
  8
0
  6
Continuous
 62
     7
100
AcDbLine
 10
-322.3406677246094
 20
174.1159515380859
 30
0.0
 11
-326.6793823242188
 21
178.4546813964844
 31
0.0
  0
LINE
  5
1A2
330
22
100
AcDbEntity
  8
0
  6
Continuous
 62
     7
100
AcDbLine
 10
-322.3406677246094
 20
176.9443664550781
 30
0.0
 11
-326.6793823242188
 21
181.2831115722656
 31
0.0
  0
LINE
  5
1A3
330
22
100
AcDbEntity
  8
0
  6
Continuous
 62
     7
100
AcDbLine
 10
-322.3406677246094
 20
179.7727966308594
 30
0.0
 11
-326.6793823242188
 21
184.1115264892578
 31
0.0
  0
LINE
  5
1A4
330
22
100
AcDbEntity
  8
0
  6
Continuous
 62
     7
100
AcDbLine
 10
-322.3406677246094
 20
182.6012268066406
 30
0.0
 11
-326.6793823242188
 21
186.9399566650391
 31
0.0
  0
LINE
  5
1A5
330
22
100
AcDbEntity
  8
0
  6
Continuous
 62
     7
100
AcDbLine
 10
-321.5342712402344
 20
184.6232604980469
 30
0.0
 11
-326.6793823242188
 21
189.7683868408203
 31
0.0
  0
LINE
  5
1A6
330
22
100
AcDbEntity
  8
0
  6
Continuous
 62
     7
100
AcDbLine
 10
-327.1105651855469
 20
193.0279846191406
 30
0.0
 11
-328.3656921386719
 21
194.2831115722656
 31
0.0
  0
LINE
  5
1A7
330
22
100
AcDbEntity
  8
0
  6
Continuous
 62
     7
100
AcDbLine
 10
-320.1036682128906
 20
186.0211029052734
 30
0.0
 11
-326.6793823242188
 21
192.5968170166015
 31
0.0
  0
LINE
  5
1A8
330
22
100
AcDbEntity
  8
0
  6
Continuous
 62
     7
100
AcDbLine
 10
-322.3406677246094
 20
191.0865020751953
 30
0.0
 11
-328.2821350097656
 21
197.0279846191406
 31
0.0
  0
LINE
  5
1A9
330
22
100
AcDbEntity
  8
0
  6
Continuous
 62
     7
100
AcDbLine
 10
-319.8761291503906
 20
188.6219787597656
 30
0.0
 11
-320.7821350097656
 21
189.5279846191406
 31
0.0
  0
LINE
  5
1AA
330
22
100
AcDbEntity
  8
0
  6
Continuous
 62
     7
100
AcDbLine
 10
-321.4537048339844
 20
193.0279846191406
 30
0.0
 11
-325.4537048339844
 21
197.0279846191406
 31
0.0
  0
LINE
  5
1AB
330
22
100
AcDbEntity
  8
0
  6
Continuous
 62
     7
100
AcDbLine
 10
-319.4210510253906
 20
193.8237457275391
 30
0.0
 11
-322.6252746582031
 21
197.0279846191406
 31
0.0
  0
LINE
  5
1AC
330
22
100
AcDbEntity
  8
0
  6
Continuous
 62
     7
100
AcDbLine
 10
-317.7968444824219
 20
195.0279846191406
 30
0.0
 11
-319.7968444824219
 21
197.0279846191406
 31
0.0
  0
LINE
  5
1AD
330
22
100
AcDbEntity
  8
0
  6
Continuous
 62
     7
100
AcDbLine
 10
-302.5941772460938
 20
197.0279846191406
 30
0.0
 11
-302.2656860351563
 21
196.6994934082031
 31
0.0
  0
LINE
  5
1AE
330
22
100
AcDbEntity
  8
0
  6
Continuous
 62
     7
100
AcDbLine
 10
-303.3013000488281
 20
197.0279846191406
 30
0.0
 11
-302.2656860351563
 21
195.9923858642578
 31
0.0
  0
LINE
  5
1AF
330
22
100
AcDbEntity
  8
0
  6
Continuous
 62
     7
100
AcDbLine
 10
-305.422607421875
 20
197.0279846191406
 30
0.0
 11
-302.2656860351563
 21
193.8710632324219
 31
0.0
  0
LINE
  5
1B0
330
22
100
AcDbEntity
  8
0
  6
Continuous
 62
     7
100
AcDbLine
 10
-306.1297302246094
 20
197.0279846191406
 30
0.0
 11
-302.2656860351563
 21
193.1639556884766
 31
0.0
  0
LINE
  5
1B1
330
22
100
AcDbEntity
  8
0
  6
Continuous
 62
     7
100
AcDbLine
 10
-308.2510375976563
 20
197.0279846191406
 30
0.0
 11
-302.2656860351563
 21
191.0426330566406
 31
0.0
  0
LINE
  5
1B2
330
22
100
AcDbEntity
  8
0
  6
Continuous
 62
     7
100
AcDbLine
 10
-308.9581298828125
 20
197.0279846191406
 30
0.0
 11
-302.2656860351563
 21
190.3355255126953
 31
0.0
  0
LINE
  5
1B3
330
22
100
AcDbEntity
  8
0
  6
Continuous
 62
     7
100
AcDbLine
 10
-311.0794677734375
 20
197.0279846191406
 30
0.0
 11
-302.2656860351563
 21
188.2142028808594
 31
0.0
  0
LINE
  5
1B4
330
22
100
AcDbEntity
  8
0
  6
Continuous
 62
     7
100
AcDbLine
 10
-311.7865600585938
 20
197.0279846191406
 30
0.0
 11
-302.2656860351563
 21
187.5070953369141
 31
0.0
  0
LINE
  5
1B5
330
22
100
AcDbEntity
  8
0
  6
Continuous
 62
     7
100
AcDbLine
 10
-313.9078979492188
 20
197.0279846191406
 30
0.0
 11
-303.8951416015625
 21
187.0152435302734
 31
0.0
  0
LINE
  5
1B6
330
22
100
AcDbEntity
  8
0
  6
Continuous
 62
     7
100
AcDbLine
 10
-314.614990234375
 20
197.0279846191406
 30
0.0
 11
-304.4786376953125
 21
186.8916473388672
 31
0.0
  0
LINE
  5
1B7
330
22
100
AcDbEntity
  8
0
  6
Continuous
 62
     7
100
AcDbLine
 10
-316.736328125
 20
197.0279846191406
 30
0.0
 11
-305.5745239257813
 21
185.8661804199219
 31
0.0
  0
LINE
  5
1B8
330
22
100
AcDbEntity
  8
0
  6
Continuous
 62
     7
100
AcDbLine
 10
-317.1656799316406
 20
196.750244140625
 30
0.0
 11
-305.7367858886719
 21
185.3213500976563
 31
0.0
  0
LINE
  5
1B9
330
22
100
AcDbEntity
  8
0
  6
Continuous
 62
     7
100
AcDbLine
 10
-317.5647583007813
 20
195.0279846191406
 30
0.0
 11
-305.7656860351563
 21
183.2289276123047
 31
0.0
  0
LINE
  5
1BA
330
22
100
AcDbEntity
  8
0
  6
Continuous
 62
     7
100
AcDbLine
 10
-318.2718505859375
 20
195.0279846191406
 30
0.0
 11
-305.7656860351563
 21
182.5218200683594
 31
0.0
  0
LINE
  5
1BB
330
22
100
AcDbEntity
  8
0
  6
Continuous
 62
     7
100
AcDbLine
 10
-319.3563842773438
 20
193.9912109375
 30
0.0
 11
-305.7656860351563
 21
180.4004974365234
 31
0.0
  0
LINE
  5
1BC
330
22
100
AcDbEntity
  8
0
  6
Continuous
 62
     7
100
AcDbLine
 10
-319.4132690429688
 20
193.3409881591797
 30
0.0
 11
-305.7656860351563
 21
179.6933898925781
 31
0.0
  0
LINE
  5
1BD
330
22
100
AcDbEntity
  8
0
  6
Continuous
 62
     7
100
AcDbLine
 10
-319.6299133300781
 20
191.4362945556641
 30
0.0
 11
-305.7656860351563
 21
177.5720672607422
 31
0.0
  0
LINE
  5
1BE
330
22
100
AcDbEntity
  8
0
  6
Continuous
 62
     7
100
AcDbLine
 10
-319.6867980957031
 20
190.7860870361328
 30
0.0
 11
-305.7656860351563
 21
176.8649597167969
 31
0.0
  0
LINE
  5
1BF
330
22
100
AcDbEntity
  8
0
  6
Continuous
 62
     7
100
AcDbLine
 10
-319.8114929199219
 20
188.7894439697266
 30
0.0
 11
-305.7656860351563
 21
174.7436370849609
 31
0.0
  0
LINE
  5
1C0
330
22
100
AcDbEntity
  8
0
  6
Continuous
 62
     7
100
AcDbLine
 10
-319.8683776855469
 20
188.1392211914063
 30
0.0
 11
-305.7656860351563
 21
174.0365295410156
 31
0.0
  0
LINE
  5
1C1
330
22
100
AcDbEntity
  8
0
  6
Continuous
 62
     7
100
AcDbLine
 10
-320.0390319824219
 20
186.1885681152344
 30
0.0
 11
-305.7656860351563
 21
171.9152221679688
 31
0.0
  0
LINE
  5
1C2
330
22
100
AcDbEntity
  8
0
  6
Continuous
 62
     7
100
AcDbLine
 10
-320.0959167480469
 20
185.5383453369141
 30
0.0
 11
-305.7656860351563
 21
171.2081146240234
 31
0.0
  0
LINE
  5
1C3
330
22
100
AcDbEntity
  8
0
  6
Continuous
 62
     7
100
AcDbLine
 10
-317.7656860351563
 20
181.0867919921875
 30
0.0
 11
-305.7656860351563
 21
169.0867919921875
 31
0.0
  0
LINE
  5
1C4
330
22
100
AcDbEntity
  8
0
  6
Continuous
 62
     7
100
AcDbLine
 10
-320.3125610351563
 20
183.6336669921875
 30
0.0
 11
-318.7068786621094
 21
182.0279846191406
 31
0.0
  0
LINE
  5
1C5
330
22
100
AcDbEntity
  8
0
  6
Continuous
 62
     7
100
AcDbLine
 10
-317.7656860351563
 20
180.3796844482422
 30
0.0
 11
-305.7656860351563
 21
168.3796844482422
 31
0.0
  0
LINE
  5
1C6
330
22
100
AcDbEntity
  8
0
  6
Continuous
 62
     7
100
AcDbLine
 10
-320.3694458007813
 20
182.9834442138672
 30
0.0
 11
-319.4140014648438
 21
182.0279846191406
 31
0.0
  0
LINE
  5
1C7
330
22
100
AcDbEntity
  8
0
  6
Continuous
 62
     7
100
AcDbLine
 10
-317.7656860351563
 20
178.2583618164063
 30
0.0
 11
-305.7656860351563
 21
166.2583618164063
 31
0.0
  0
LINE
  5
1C8
330
22
100
AcDbEntity
  8
0
  6
Continuous
 62
     7
100
AcDbLine
 10
-317.7656860351563
 20
177.5512542724609
 30
0.0
 11
-305.7656860351563
 21
165.5512542724609
 31
0.0
  0
LINE
  5
1C9
330
22
100
AcDbEntity
  8
0
  6
Continuous
 62
     7
100
AcDbLine
 10
-317.7656860351563
 20
175.429931640625
 30
0.0
 11
-305.7656860351563
 21
163.429931640625
 31
0.0
  0
LINE
  5
1CA
330
22
100
AcDbEntity
  8
0
  6
Continuous
 62
     7
100
AcDbLine
 10
-314.5042419433594
 20
171.4614105224609
 30
0.0
 11
-305.7656860351563
 21
162.7228240966797
 31
0.0
  0
LINE
  5
1CB
330
22
100
AcDbEntity
  8
0
  6
Continuous
 62
     7
100
AcDbLine
 10
-317.7656860351563
 20
174.7228240966797
 30
0.0
 11
-315.0708312988281
 21
172.0279846191406
 31
0.0
  0
LINE
  5
1CC
330
22
100
AcDbEntity
  8
0
  6
Continuous
 62
     7
100
AcDbLine
 10
-314.4358215332031
 20
169.2716522216796
 30
0.0
 11
-305.7656860351563
 21
160.6015014648438
 31
0.0
  0
LINE
  5
1CD
330
22
100
AcDbEntity
  8
0
  6
Continuous
 62
     7
100
AcDbLine
 10
-317.7656860351563
 20
172.6015014648438
 30
0.0
 11
-317.1921691894531
 21
172.0279846191406
 31
0.0
  0
LINE
  5
1CE
330
22
100
AcDbEntity
  8
0
  6
Continuous
 62
     7
100
AcDbLine
 10
-314.4130249023438
 20
168.5417327880859
 30
0.0
 11
-305.7656860351563
 21
159.8943939208984
 31
0.0
  0
LINE
  5
1CF
330
22
100
AcDbEntity
  8
0
  6
Continuous
 62
     7
100
AcDbLine
 10
-314.3445739746094
 20
166.3519744873047
 30
0.0
 11
-305.7656860351563
 21
157.7730865478516
 31
0.0
  0
LINE
  5
1D0
330
22
100
AcDbEntity
  8
0
  6
Continuous
 62
     7
100
AcDbLine
 10
-314.32177734375
 20
165.6220550537109
 30
0.0
 11
-305.7656860351563
 21
157.0659790039063
 31
0.0
  0
LINE
  5
1D1
330
22
100
AcDbEntity
  8
0
  6
Continuous
 62
     7
100
AcDbLine
 10
-314.2533264160156
 20
163.4323120117188
 30
0.0
 11
-305.7656860351563
 21
154.9446563720703
 31
0.0
  0
LINE
  5
1D2
330
22
100
AcDbEntity
  8
0
  6
Continuous
 62
     7
100
AcDbLine
 10
-314.2305297851563
 20
162.702392578125
 30
0.0
 11
-305.7656860351563
 21
154.237548828125
 31
0.0
  0
LINE
  5
1D3
330
22
100
AcDbEntity
  8
0
  6
Continuous
 62
     7
100
AcDbLine
 10
-314.1620788574219
 20
160.5126342773438
 30
0.0
 11
-305.7656860351563
 21
152.1162261962891
 31
0.0
  0
LINE
  5
1D4
330
22
100
AcDbEntity
  8
0
  6
Continuous
 62
     7
100
AcDbLine
 10
-314.1392822265625
 20
159.78271484375
 30
0.0
 11
-305.7656860351563
 21
151.4091186523438
 31
0.0
  0
LINE
  5
1D5
330
22
100
AcDbEntity
  8
0
  6
Continuous
 62
     7
100
AcDbLine
 10
-314.0708312988281
 20
157.5929565429688
 30
0.0
 11
-307.505859375
 21
151.0279846191406
 31
0.0
  0
LINE
  5
1D6
330
22
100
AcDbEntity
  8
0
  6
Continuous
 62
     7
100
AcDbLine
 10
-314.0480346679688
 20
156.8630523681641
 30
0.0
 11
-308.2129821777344
 21
151.0279846191406
 31
0.0
  0
LINE
  5
1D7
330
22
100
AcDbEntity
  8
0
  6
Continuous
 62
     7
100
AcDbLine
 10
-313.9796142578125
 20
154.6732940673828
 30
0.0
 11
-310.3342895507813
 21
151.0279846191406
 31
0.0
  0
LINE
  5
1D8
330
22
100
AcDbEntity
  8
0
  6
Continuous
 62
     7
100
AcDbLine
 10
-313.956787109375
 20
153.9433746337891
 30
0.0
 11
-311.0414123535156
 21
151.0279846191406
 31
0.0
  0
LINE
  5
1D9
330
22
100
AcDbEntity
  8
0
  6
Continuous
 62
     7
100
AcDbLine
 10
-313.8883666992188
 20
151.7536163330078
 30
0.0
 11
-313.1627197265625
 21
151.0279846191406
 31
0.0
  0
LINE
  5
1DA
330
22
100
AcDbEntity
  8
0
  6
Continuous
 62
     7
100
AcDbLine
 10
-320.1405639648438
 20
185.0279846191406
 30
0.0
 11
-320.3406677246094
 21
185.0279846191406
 31
0.0
  0
LINE
  5
1DB
330
22
100
AcDbEntity
  8
0
  6
Continuous
 62
     7
100
AcDbLine
 10
-326.6793823242188
 20
193.0279846191406
 30
0.0
 11
-337.8656921386719
 21
193.0279846191406
 31
0.0
  0
LINE
  5
1DC
330
22
100
AcDbEntity
  8
0
  6
Continuous
 62
     7
100
AcDbLine
 10
-332.8656921386719
 20
197.0279846191406
 30
0.0
 11
-332.8656921386719
 21
193.0279846191406
 31
0.0
  0
LINE
  5
1DD
330
22
100
AcDbEntity
  8
0
  6
Continuous
 62
     7
100
AcDbLine
 10
-328.3656921386719
 20
197.0279846191406
 30
0.0
 11
-328.3656921386719
 21
193.0279846191406
 31
0.0
  0
LINE
  5
1DE
330
22
100
AcDbEntity
  8
0
  6
Continuous
 62
     7
100
AcDbLine
 10
-373.2656860351563
 20
197.0279846191406
 30
0.0
 11
-373.2656860351563
 21
187.0279846191406
 31
0.0
  0
LINE
  5
1DF
330
22
100
AcDbEntity
  8
0
  6
Continuous
 62
     7
100
AcDbLine
 10
-326.6793823242188
 20
193.0279846191406
 30
0.0
 11
-326.6793823242188
 21
174.9013519287109
 31
0.0
  0
LINE
  5
1E0
330
22
100
AcDbEntity
  8
0
  6
CENTER
 62
     7
100
AcDbLine
 10
-337.7656860351563
 20
208.3986358642578
 30
0.0
 11
-337.7656860351563
 21
22.37529373168945
 31
0.0
  0
LINE
  5
1E1
330
22
100
AcDbEntity
  8
0
  6
Continuous
 62
     7
100
AcDbLine
 10
-302.2656860351563
 20
197.0279846191406
 30
0.0
 11
-302.2656860351563
 21
187.0279846191406
 31
0.0
  0
LINE
  5
1E2
330
22
100
AcDbEntity
  8
0
  6
Continuous
 62
     7
100
AcDbLine
 10
-322.3406677246094
 20
189.5279846191406
 30
0.0
 11
-319.7468566894531
 21
189.5279846191406
 31
0.0
  0
LINE
  5
1E3
330
22
100
AcDbEntity
  8
0
  6
Continuous
 62
     7
100
AcDbLine
 10
-337.7656860351563
 20
197.0279846191406
 30
0.0
 11
-317.2656860351563
 21
197.0279846191406
 31
0.0
  0
LINE
  5
1E4
330
22
100
AcDbEntity
  8
0
  6
Continuous
 62
     7
100
AcDbLine
 10
-317.2656860351563
 20
195.0279846191406
 30
0.0
 11
-319.2656860351563
 21
195.0279846191406
 31
0.0
  0
LINE
  5
1E5
330
22
100
AcDbEntity
  8
0
  6
Continuous
 62
     7
100
AcDbLine
 10
-319.2656860351563
 20
195.0279846191406
 30
0.0
 11
-319.4406433105469
 21
193.0279846191406
 31
0.0
  0
LINE
  5
1E6
330
22
100
AcDbEntity
  8
0
  6
Continuous
 62
     7
100
AcDbLine
 10
-322.3406677246094
 20
193.0279846191406
 30
0.0
 11
-322.3406677246094
 21
189.5279846191406
 31
0.0
  0
LINE
  5
1E7
330
22
100
AcDbEntity
  8
0
  6
Continuous
 62
     7
100
AcDbLine
 10
-319.4406433105469
 20
193.0279846191406
 30
0.0
 11
-322.3406677246094
 21
193.0279846191406
 31
0.0
  0
LINE
  5
1E8
330
22
100
AcDbEntity
  8
0
  6
Continuous
 62
     7
100
AcDbLine
 10
-373.2656860351563
 20
197.0279846191406
 30
0.0
 11
-302.2656860351563
 21
197.0279846191406
 31
0.0
  0
LINE
  5
1E9
330
22
100
AcDbEntity
  8
0
  6
Continuous
 62
     7
100
AcDbLine
 10
-315.2656860351563
 20
64.02799224853516
 30
0.0
 11
-337.7656860351563
 21
64.02799224853516
 31
0.0
  0
LINE
  5
1EA
330
22
100
AcDbEntity
  8
0
  6
Continuous
 62
     7
100
AcDbLine
 10
-315.7012939453125
 20
164.0279846191406
 30
0.0
 11
-322.3406677246094
 21
164.0279846191406
 31
0.0
  0
LINE
  5
1EB
330
22
100
AcDbEntity
  8
0
  6
Continuous
 62
     7
100
AcDbLine
 10
-322.3406677246094
 20
172.0279846191406
 30
0.0
 11
-314.52197265625
 21
172.0279846191406
 31
0.0
  0
LINE
  5
1EC
330
22
100
AcDbEntity
  8
0
  6
Continuous
 62
     7
100
AcDbLine
 10
-315.9772033691406
 20
170.5727386474609
 30
0.0
 11
-322.3406677246094
 21
170.5727386474609
 31
0.0
  0
LINE
  5
1ED
330
22
100
AcDbEntity
  8
0
  6
Continuous
 62
     7
100
AcDbLine
 10
-322.3406677246094
 20
182.0279846191406
 30
0.0
 11
-317.7656860351563
 21
182.0279846191406
 31
0.0
  0
LINE
  5
1EE
330
22
100
AcDbEntity
  8
0
  6
Continuous
 62
     7
100
AcDbLine
 10
-322.3406677246094
 20
158.0279846191406
 30
0.0
 11
-337.7656860351563
 21
158.0279846191406
 31
0.0
  0
LINE
  5
1EF
330
22
100
AcDbEntity
  8
0
  6
Continuous
 62
     7
100
AcDbLine
 10
-315.944580078125
 20
59.02799224853516
 30
0.0
 11
-337.7656860351563
 21
59.02799224853516
 31
0.0
  0
LINE
  5
1F0
330
22
100
AcDbEntity
  8
0
  6
Continuous
 62
     7
100
AcDbLine
 10
-365.7656860351563
 20
30.02799034118652
 30
0.0
 11
-309.7656860351563
 21
30.02799034118652
 31
0.0
  0
LINE
  5
1F1
330
22
100
AcDbEntity
  8
0
  6
Continuous
 62
     7
100
AcDbLine
 10
-313.8656921386719
 20
60.52799224853515
 30
0.0
 11
-337.7656860351563
 21
60.52799224853515
 31
0.0
  0
LINE
  5
1F2
330
22
100
AcDbEntity
  8
0
  6
CENTER
 62
     7
100
AcDbLine
 10
-378.7408752441406
 20
243.0568695068359
 30
0.0
 11
-364.8089599609375
 21
267.1876525878906
 31
0.0
  0
LINE
  5
1F3
330
22
100
AcDbEntity
  8
0
  6
CENTER
 62
     7
100
AcDbLine
 10
-378.7408752441406
 20
384.9991149902344
 30
0.0
 11
-364.8089599609375
 21
360.8683471679688
 31
0.0
  0
LINE
  5
1F4
330
22
100
AcDbEntity
  8
0
  6
Continuous
 62
     7
100
AcDbLine
 10
-312.5873413085938
 20
30.02799034118652
 30
0.0
 11
-309.7656860351563
 21
32.84966659545898
 31
0.0
  0
CIRCLE
  5
1F5
330
22
100
AcDbEntity
  8
0
  6
Continuous
 62
     7
100
AcDbCircle
 10
-270.7656860351563
 20
314.0279846191406
 30
0.0
 40
2.75
  0
CIRCLE
  5
1F6
330
22
100
AcDbEntity
  8
0
  6
Continuous
 62
     7
100
AcDbCircle
 10
-270.7656860351563
 20
314.0279846191406
 30
0.0
 40
5.0
  0
CIRCLE
  5
1F7
330
22
100
AcDbEntity
  8
0
  6
Continuous
 62
     7
100
AcDbCircle
 10
-371.2658996582031
 20
256.0046997070313
 30
0.0
 40
2.75
  0
CIRCLE
  5
1F8
330
22
100
AcDbEntity
  8
0
  6
Continuous
 62
     7
100
AcDbCircle
 10
-371.2654418945313
 20
372.0520935058594
 30
0.0
 40
5.0
  0
CIRCLE
  5
1F9
330
22
100
AcDbEntity
  8
0
  6
Continuous
 62
     7
100
AcDbCircle
 10
-371.2654418945313
 20
372.0520935058594
 30
0.0
 40
2.75
  0
CIRCLE
  5
1FA
330
22
100
AcDbEntity
  8
0
  6
Continuous
 62
     7
100
AcDbCircle
 10
-371.2658996582031
 20
256.0046997070313
 30
0.0
 40
5.0
  0
ARC
  5
1FB
330
22
100
AcDbEntity
  8
0
  6
Continuous
 62
     7
100
AcDbCircle
 10
-331.5603332519531
 20
313.3048706054688
 30
0.0
 40
3.200591087341308
100
AcDbArc
 50
273.4865717761799
 51
70.12737230108554
  0
ARC
  5
1FC
330
22
100
AcDbEntity
  8
0
  6
Continuous
 62
     7
100
AcDbCircle
 10
-344.1710205078125
 20
313.3048706054688
 30
0.0
 40
3.200591087341308
100
AcDbArc
 50
111.911277688175
 51
251.6144607585587
  0
ARC
  5
1FD
330
22
100
AcDbEntity
  8
0
  6
Continuous
 62
     7
100
AcDbCircle
 10
-337.8656921386719
 20
313.1102294921875
 30
0.0
 40
5.0
100
AcDbArc
 50
216.8698976458447
 51
323.1301023541567
  0
ARC
  5
1FE
330
22
100
AcDbEntity
  8
0
  6
Continuous
 62
     7
100
AcDbCircle
 10
-337.8656921386719
 20
313.1102294921875
 30
0.0
 40
5.0
100
AcDbArc
 50
41.49263010148179
 51
90.00000000000019
  0
ARC
  5
1FF
330
22
100
AcDbEntity
  8
0
  6
Continuous
 62
     7
100
AcDbCircle
 10
-337.8656921386719
 20
313.1102294921875
 30
0.0
 40
5.0
100
AcDbArc
 50
90.00000000000019
 51
134.4418800561433
  0
CIRCLE
  5
200
330
22
100
AcDbEntity
  8
0
  6
Continuous
 62
     7
100
AcDbCircle
 10
-337.7656860351563
 20
314.0279846191406
 30
0.0
 40
60.0
  0
CIRCLE
  5
201
330
22
100
AcDbEntity
  8
0
  6
Continuous
 62
     7
100
AcDbCircle
 10
-337.7656860351563
 20
314.0279846191406
 30
0.0
 40
43.5
  0
CIRCLE
  5
202
330
22
100
AcDbEntity
  8
0
  6
Continuous
 62
     7
100
AcDbCircle
 10
-337.7656860351563
 20
314.0279846191406
 30
0.0
 40
77.0
  0
CIRCLE
  5
203
330
22
100
AcDbEntity
  8
0
  6
CENTER
 62
     7
100
AcDbCircle
 10
-337.7656860351563
 20
314.0279846191406
 30
0.0
 40
67.0
  0
CIRCLE
  5
204
330
22
100
AcDbEntity
  8
0
  6
Continuous
 62
     7
100
AcDbCircle
 10
-337.7656860351563
 20
313.1102294921875
 30
0.0
 40
35.5
  0
CIRCLE
  5
205
330
22
100
AcDbEntity
  8
0
  6
Continuous
 62
     7
100
AcDbCircle
 10
-337.7656860351563
 20
313.1102294921875
 30
0.0
 40
20.5
  0
CIRCLE
  5
206
330
22
100
AcDbEntity
  8
0
  6
Continuous
 62
     7
100
AcDbCircle
 10
-337.7656860351563
 20
313.1102294921875
 30
0.0
 40
20.75
  0
ARC
  5
207
330
22
100
AcDbEntity
  8
0
  6
Continuous
 62
     7
100
AcDbCircle
 10
-303.7656860351563
 20
185.0279846191406
 30
0.0
 40
2.0
100
AcDbArc
 50
90.00000000000019
 51
180.0000000000004
  0
ARC
  5
208
330
22
100
AcDbEntity
  8
0
  6
Continuous
 62
     7
100
AcDbCircle
 10
-371.7656860351563
 20
185.0279846191406
 30
0.0
 40
2.0
100
AcDbArc
 50
0.0
 51
90.00000000000019
  0
ARC
  5
209
330
22
100
AcDbEntity
  8
0
  6
Continuous
 62
     7
100
AcDbCircle
 10
-320.3406677246094
 20
183.0279846191406
 30
0.0
 40
2.0
100
AcDbArc
 50
90.00000000000019
 51
180.0000000000004
  0
LWPOLYLINE
  5
20A
330
22
100
AcDbEntity
  8
0
  6
Continuous
 62
     7
100
AcDbPolyline
 90
       16
 70
     1
 43
0.0
 10
-321.0437622070313
 20
193.0279846191406
 42
0.0984914033571643
 10
-321.5400622456875
 20
192.8947738010354
 42
0.0984914033571643
 10
-321.9608051024295
 20
192.5154214862171
 42
0.0984914033571643
 10
-322.2419364913615
 20
191.9476806257795
 42
0.0984914033571643
 10
-322.3406567069812
 20
191.2779846191406
 42
0.0984914033571643
 10
-322.2419364913615
 20
190.6082886125016
 42
0.0984914033571643
 10
-321.9608051024295
 20
190.0405477520641
 42
0.0984914033571643
 10
-321.5400622456875
 20
189.6611954372459
 42
0.0984914033571643
 10
-321.0437622070313
 20
189.5279846191406
 42
0.0984914033571643
 10
-320.547462168375
 20
189.6611954372459
 42
0.0984914033571643
 10
-320.1267193116331
 20
190.0405477520641
 42
0.0984914033571643
 10
-319.845587922701
 20
190.6082886125016
 42
0.0984914033571643
 10
-319.7468677070813
 20
191.2779846191406
 42
0.0984914033571643
 10
-319.845587922701
 20
191.9476806257795
 42
0.0984914033571643
 10
-320.1267193116331
 20
192.5154214862171
 42
0.0984914033571643
 10
-320.547462168375
 20
192.8947738010354
 42
0.0984914033571643
  0
TEXT
  5
21C
330
22
100
AcDbEntity
  8
0
  6
Continuous
 62
     7
100
AcDbText
 10
-208.488823890686
 20
250.3350677490234
 30
0.0
 40
7.0
  1
ＤＬ－ＨＳＰ－４０
 41
0.8448610808647003
100
AcDbText
  0
SOLID
  5
21D
330
22
100
AcDbEntity
  8
0
  6
Continuous
 62
     7
100
AcDbTrace
 10
-320.7907409667969
 20
192.9943695068359
 30
0.0
 11
-321.2967834472656
 21
192.9943695068359
 31
0.0
 12
-321.0437622070313
 22
193.0279846191406
 32
0.0
 13
-321.0437622070313
 23
193.0279846191406
 33
0.0
  0
SOLID
  5
21E
330
22
100
AcDbEntity
  8
0
  6
Continuous
 62
     7
100
AcDbTrace
 10
-321.0437622070313
 20
189.5279846191406
 30
0.0
 11
-321.2967834472656
 21
189.5616149902344
 31
0.0
 12
-320.7907409667969
 22
189.5616149902344
 32
0.0
 13
-320.7907409667969
 23
189.5616149902344
 33
0.0
  0
SOLID
  5
21F
330
22
100
AcDbEntity
  8
0
  6
Continuous
 62
     7
100
AcDbTrace
 10
-320.5474548339844
 20
192.894775390625
 30
0.0
 11
-321.5400695800781
 21
192.894775390625
 31
0.0
 12
-320.7907409667969
 22
192.9943695068359
 32
0.0
 13
-321.2967834472656
 23
192.9943695068359
 33
0.0
  0
SOLID
  5
220
330
22
100
AcDbEntity
  8
0
  6
Continuous
 62
     7
100
AcDbTrace
 10
-320.3232421875
 20
192.7330627441406
 30
0.0
 11
-321.7642822265625
 21
192.7330627441406
 31
0.0
 12
-320.5474548339844
 22
192.894775390625
 32
0.0
 13
-321.5400695800781
 23
192.894775390625
 33
0.0
  0
SOLID
  5
221
330
22
100
AcDbEntity
  8
0
  6
Continuous
 62
     7
100
AcDbTrace
 10
-320.126708984375
 20
192.5154266357422
 30
0.0
 11
-321.9608154296875
 21
192.5154266357422
 31
0.0
 12
-320.3232421875
 22
192.7330627441406
 32
0.0
 13
-321.7642822265625
 23
192.7330627441406
 33
0.0
  0
SOLID
  5
222
330
22
100
AcDbEntity
  8
0
  6
Continuous
 62
     7
100
AcDbTrace
 10
-319.9654235839844
 20
192.250244140625
 30
0.0
 11
-322.1221008300781
 21
192.250244140625
 31
0.0
 12
-320.126708984375
 22
192.5154266357422
 32
0.0
 13
-321.9608154296875
 23
192.5154266357422
 33
0.0
  0
SOLID
  5
223
330
22
100
AcDbEntity
  8
0
  6
Continuous
 62
     7
100
AcDbTrace
 10
-319.8455810546875
 20
191.9476928710938
 30
0.0
 11
-322.241943359375
 21
191.9476928710938
 31
0.0
 12
-319.9654235839844
 22
192.250244140625
 32
0.0
 13
-322.1221008300781
 23
192.250244140625
 33
0.0
  0
SOLID
  5
224
330
22
100
AcDbEntity
  8
0
  6
Continuous
 62
     7
100
AcDbTrace
 10
-319.7717895507813
 20
191.6194000244141
 30
0.0
 11
-322.3157348632813
 21
191.6194000244141
 31
0.0
 12
-319.8455810546875
 22
191.9476928710938
 32
0.0
 13
-322.241943359375
 23
191.9476928710938
 33
0.0
  0
SOLID
  5
225
330
22
100
AcDbEntity
  8
0
  6
Continuous
 62
     7
100
AcDbTrace
 10
-319.7468566894531
 20
191.2779846191406
 30
0.0
 11
-322.3406677246094
 21
191.2779846191406
 31
0.0
 12
-319.7717895507813
 22
191.6194000244141
 32
0.0
 13
-322.3157348632813
 23
191.6194000244141
 33
0.0
  0
SOLID
  5
226
330
22
100
AcDbEntity
  8
0
  6
Continuous
 62
     7
100
AcDbTrace
 10
-319.7717895507813
 20
190.9365844726563
 30
0.0
 11
-322.3157348632813
 21
190.9365844726563
 31
0.0
 12
-319.7468566894531
 22
191.2779846191406
 32
0.0
 13
-322.3406677246094
 23
191.2779846191406
 33
0.0
  0
SOLID
  5
227
330
22
100
AcDbEntity
  8
0
  6
Continuous
 62
     7
100
AcDbTrace
 10
-319.8455810546875
 20
190.6082916259766
 30
0.0
 11
-322.241943359375
 21
190.6082916259766
 31
0.0
 12
-319.7717895507813
 22
190.9365844726563
 32
0.0
 13
-322.3157348632813
 23
190.9365844726563
 33
0.0
  0
SOLID
  5
228
330
22
100
AcDbEntity
  8
0
  6
Continuous
 62
     7
100
AcDbTrace
 10
-319.9654235839844
 20
190.3057403564453
 30
0.0
 11
-322.1221008300781
 21
190.3057403564453
 31
0.0
 12
-319.8455810546875
 22
190.6082916259766
 32
0.0
 13
-322.241943359375
 23
190.6082916259766
 33
0.0
  0
SOLID
  5
229
330
22
100
AcDbEntity
  8
0
  6
Continuous
 62
     7
100
AcDbTrace
 10
-320.126708984375
 20
190.0405578613281
 30
0.0
 11
-321.9608154296875
 21
190.0405578613281
 31
0.0
 12
-319.9654235839844
 22
190.3057403564453
 32
0.0
 13
-322.1221008300781
 23
190.3057403564453
 33
0.0
  0
SOLID
  5
22A
330
22
100
AcDbEntity
  8
0
  6
Continuous
 62
     7
100
AcDbTrace
 10
-320.3232421875
 20
189.8229217529297
 30
0.0
 11
-321.7642822265625
 21
189.8229217529297
 31
0.0
 12
-320.126708984375
 22
190.0405578613281
 32
0.0
 13
-321.9608154296875
 23
190.0405578613281
 33
0.0
  0
SOLID
  5
22B
330
22
100
AcDbEntity
  8
0
  6
Continuous
 62
     7
100
AcDbTrace
 10
-320.5474548339844
 20
189.6612091064453
 30
0.0
 11
-321.5400695800781
 21
189.6612091064453
 31
0.0
 12
-320.3232421875
 22
189.8229217529297
 32
0.0
 13
-321.7642822265625
 23
189.8229217529297
 33
0.0
  0
SOLID
  5
22C
330
22
100
AcDbEntity
  8
0
  6
Continuous
 62
     7
100
AcDbTrace
 10
-320.7907409667969
 20
189.5616149902344
 30
0.0
 11
-321.2967834472656
 21
189.5616149902344
 31
0.0
 12
-320.5474548339844
 22
189.6612091064453
 32
0.0
 13
-321.5400695800781
 23
189.6612091064453
 33
0.0
  0
DIMENSION
  5
22D
330
22
100
AcDbEntity
  8
0
  6
Continuous
 62
     7
100
AcDbDimension
  2
*D1
 10
-309.7656860351563
 20
16.33207130432129
 30
0.0
 11
-337.7656860351563
 21
16.33207130432129
 31
0.0
 71
     5
 42
-1.0
  3
DIMSTYLE1
100
AcDbAlignedDimension
 13
-365.7656860351563
 23
30.02799034118652
 33
0.0
 14
-309.7656860351563
 24
30.02799034118652
 34
0.0
100
AcDbRotatedDimension
  0
DIMENSION
  5
22E
330
22
100
AcDbEntity
  8
0
  6
Continuous
 62
     7
100
AcDbDimension
  2
*D2
 10
-391.6040201425592
 20
258.9786087776322
 30
0.0
 11
-269.0037231445313
 21
384.336669921875
 31
0.0
 70
     3
 71
     5
 42
-1.0
  3
DIMSTYLE2
100
AcDbDiametricDimension
 15
-283.9273519277534
 25
369.0773604606491
 35
0.0
 40
0.0
  0
DIMENSION
  5
22F
330
22
100
AcDbEntity
  8
0
  6
Continuous
 62
     7
100
AcDbDimension
  2
*D3
 10
-402.4837234010842
 20
331.3651020122472
 30
0.0
 11
-246.5533905029297
 21
289.5934143066406
 31
0.0
 70
     3
 71
     5
 42
-1.0
  3
DIMSTYLE3
100
AcDbDiametricDimension
 15
-273.0476486692284
 25
296.690867226034
 35
0.0
 40
0.0
  0
DIMENSION
  5
230
330
22
100
AcDbEntity
  8
0
  6
Continuous
 62
     7
100
AcDbDimension
  2
*D4
 10
-353.7197503151828
 20
325.9833733564026
 30
0.0
 11
-315.0870056152344
 21
294.8110656738281
 31
0.0
 70
     3
 71
     5
 42
-1.0
  3
DIMSTYLE4
100
AcDbDiametricDimension
 15
-321.8116217551297
 25
300.2370856279723
 35
0.0
 40
0.0
  0
DIMENSION
  5
231
330
22
100
AcDbEntity
  8
0
  6
Continuous
 62
     7
100
AcDbDimension
  2
*D5
 10
-370.9562701666423
 20
300.5151858237144
 30
0.0
 11
-311.9915771484375
 21
322.890869140625
 31
0.0
 70
     3
 71
     5
 42
-1.0
  3
DIMSTYLE5
100
AcDbDiametricDimension
 15
-304.5751019036702
 25
325.7052731606606
 35
0.0
 40
0.0
  0
INSERT
  5
232
330
22
100
AcDbEntity
  8
0
  6
Continuous
 62
     7
100
AcDbBlockReference
  2
KOZU0001
 10
-267.9309692382813
 20
318.1467895507813
 30
0.0
  0
DIMENSION
  5
233
330
22
100
AcDbEntity
  8
0
  6
Continuous
 62
     7
100
AcDbDimension
  2
*D6
 10
-227.9116516113281
 20
197.0279846191406
 30
0.0
 11
-227.9116516113281
 21
129.5279846191406
 31
0.0
 71
     5
 42
-1.0
  3
DIMSTYLE6
100
AcDbAlignedDimension
 13
-260.7656860351563
 23
62.02799224853515
 33
0.0
 14
-302.2656860351563
 24
197.0279846191406
 34
0.0
 50
90.0
100
AcDbRotatedDimension
  0
DIMENSION
  5
234
330
22
100
AcDbEntity
  8
0
  6
Continuous
 62
     7
100
AcDbDimension
  2
*D7
 10
-227.9116516113281
 20
59.02799224853516
 30
0.0
 11
-227.9116516113281
 21
52.37979507446289
 31
0.0
 71
     5
 42
-1.0
  3
DIMSTYLE7
100
AcDbAlignedDimension
 13
-225.6256408691406
 23
62.02799224853515
 33
0.0
 14
-260.7656860351563
 24
59.02799224853516
 34
0.0
 50
90.0
100
AcDbRotatedDimension
  0
DIMENSION
  5
235
330
22
100
AcDbEntity
  8
0
  6
Continuous
 62
     7
100
AcDbDimension
  2
*D8
 10
-236.4825592041016
 20
84.02799224853515
 30
0.0
 11
-236.4825592041016
 21
73.02799224853515
 31
0.0
 71
     5
 42
-1.0
  3
DIMSTYLE8
100
AcDbAlignedDimension
 13
-225.6256408691406
 23
62.02799224853515
 33
0.0
 14
-309.7656860351563
 24
84.02799224853515
 34
0.0
 50
90.0
100
AcDbRotatedDimension
  0
INSERT
  5
236
330
22
100
AcDbEntity
  8
0
  6
Continuous
 62
     7
100
AcDbBlockReference
  2
KOZU0002
 10
-314.1920776367188
 20
40.47265625
 30
0.0
  0
DIMENSION
  5
237
330
22
100
AcDbEntity
  8
0
  6
Continuous
 62
     7
100
AcDbDimension
  2
*D9
 10
-428.6813049316406
 20
84.02799224853515
 30
0.0
 11
-428.6813049316406
 21
57.02799224853515
 31
0.0
 71
     5
 42
-1.0
  3
DIMSTYLE9
100
AcDbAlignedDimension
 13
-365.7656860351563
 23
30.02799034118652
 33
0.0
 14
-365.7656860351563
 24
84.02799224853515
 34
0.0
 50
90.0
100
AcDbRotatedDimension
  0
DIMENSION
  5
238
330
22
100
AcDbEntity
  8
0
  6
Continuous
 62
     7
100
AcDbDimension
  2
*D10
 10
-328.5821533203125
 20
164.0279846191406
 30
0.0
 11
-328.5821533203125
 21
114.0279922485352
 31
0.0
 71
     5
 42
-1.0
  3
DIMSTYLE10
100
AcDbAlignedDimension
 13
-337.7656860351563
 23
64.02799224853516
 33
0.0
 14
-322.3406677246094
 24
164.0279846191406
 34
0.0
 50
90.0
100
AcDbRotatedDimension
  0
DIMENSION
  5
239
330
22
100
AcDbEntity
  8
0
  6
Continuous
 62
     7
100
AcDbDimension
  2
*D11
 10
-236.4825592041016
 20
151.0279846191406
 30
0.0
 11
-236.4825592041016
 21
174.0279846191406
 31
0.0
 71
     5
 42
-1.0
  3
DIMSTYLE11
100
AcDbAlignedDimension
 13
-225.6256408691406
 23
197.0279846191406
 33
0.0
 14
-305.7656860351563
 24
151.0279846191406
 34
0.0
 50
90.0
100
AcDbRotatedDimension
  0
ENDSEC
  0
SECTION
  2
OBJECTS
  0
DICTIONARY
  5
C
330
0
100
AcDbDictionary
281
     1
  3
ACAD_COLOR
350
1B
  3
ACAD_GROUP
350
D
  3
ACAD_LAYOUT
350
19
  3
ACAD_MATERIAL
350
1A
  3
ACAD_MLINESTYLE
350
16
  3
ACAD_PLOTSETTINGS
350
18
  3
ACAD_PLOTSTYLENAME
350
E
  3
ACAD_TABLESTYLE
350
1C
  3
AcDbVariableDictionary
350
245
  0
DICTIONARY
  5
1B
102
{ACAD_REACTORS
330
C
102
}
330
C
100
AcDbDictionary
281
     1
  0
DICTIONARY
  5
D
102
{ACAD_REACTORS
330
C
102
}
330
C
100
AcDbDictionary
281
     1
  0
DICTIONARY
  5
19
102
{ACAD_REACTORS
330
C
102
}
330
C
100
AcDbDictionary
281
     1
  3
Model
350
25
  3
レイアウト1
350
21
  0
DICTIONARY
  5
1A
102
{ACAD_REACTORS
330
C
102
}
330
C
100
AcDbDictionary
281
     1
  0
DICTIONARY
  5
16
102
{ACAD_REACTORS
330
C
102
}
330
C
100
AcDbDictionary
281
     1
  3
Standard
350
17
  0
DICTIONARY
  5
18
102
{ACAD_REACTORS
330
C
102
}
330
C
100
AcDbDictionary
281
     1
  0
ACDBDICTIONARYWDFLT
  5
E
102
{ACAD_REACTORS
330
C
102
}
330
C
100
AcDbDictionary
281
     1
  3
Normal
350
F
100
AcDbDictionaryWithDefault
340
F
  0
DICTIONARY
  5
1C
102
{ACAD_REACTORS
330
C
102
}
330
C
100
AcDbDictionary
281
     1
  3
Standard
350
1D
  0
DICTIONARY
  5
245
102
{ACAD_REACTORS
330
C
102
}
330
C
100
AcDbDictionary
281
     1
  3
CTABLESTYLE
350
246
  0
LAYOUT
  5
25
102
{ACAD_REACTORS
330
19
102
}
330
19
100
AcDbPlotSettings
  1

  2
PDF reDirect v2
  4
User66
  6

 40
3.174999952316284
 41
3.174999952316284
 42
3.17498779296875
 43
3.17498779296875
 44
420.0
 45
594.0
 46
0.0
 47
0.0
 48
0.0
 49
0.0
140
0.0
141
0.0
142
1.0
143
1.0
 70
 11952
 72
     1
 73
     1
 74
     2
  7
C:\Users\ck\AppData\Roaming\Autodesk\AutoCAD 2005\R16.1\jpn\Plot Styles\black.ctb
 75
    16
147
1.0
 76
     0
 77
     2
 78
   300
148
592.0
149
0.0
100
AcDbLayout
  1
Model
 70
     1
 71
     0
 10
0.0
 20
0.0
 11
12.0
 21
9.0
 12
0.0
 22
0.0
 32
0.0
 14
0.0
 24
0.0
 34
0.0
 15
0.0
 25
0.0
 35
0.0
146
0.0
 13
0.0
 23
0.0
 33
0.0
 16
1.0
 26
0.0
 36
0.0
 17
0.0
 27
1.0
 37
0.0
 76
     0
330
22
1001
ACAD_PSEXT
1000
PDF reDirect v2
1000
PDF reDirect Pro
1000
PDF_REDIRECT_PORT:
1000
PDF reDirect provided by EXP Systems
1070
     0
  0
LAYOUT
  5
21
102
{ACAD_REACTORS
330
19
102
}
330
19
100
AcDbPlotSettings
  1

  2
PDF reDirect v2
  4

  6

 40
0.0
 41
0.0
 42
0.0
 43
0.0
 44
0.0
 45
0.0
 46
0.0
 47
0.0
 48
0.0
 49
0.0
140
0.0
141
0.0
142
1.0
143
1.0
 70
   688
 72
     0
 73
     0
 74
     5
  7
C:\Users\ck\AppData\Roaming\Autodesk\AutoCAD 2005\R16.1\jpn\Plot Styles\black.ctb
 75
    16
147
1.0
 76
     0
 77
     2
 78
   300
148
0.0
149
0.0
100
AcDbLayout
  1
レイアウト1
 70
     1
 71
     1
 10
-592.0
 20
0.0
 11
0.0
 21
418.0
 12
0.0
 22
0.0
 32
0.0
 14
1.000000000000000E+20
 24
1.000000000000000E+20
 34
1.000000000000000E+20
 15
-1.000000000000000E+20
 25
-1.000000000000000E+20
 35
-1.000000000000000E+20
146
0.0
 13
0.0
 23
0.0
 33
0.0
 16
1.0
 26
0.0
 36
0.0
 17
0.0
 27
1.0
 37
0.0
 76
     0
330
1E
  0
MLINESTYLE
  5
17
102
{ACAD_REACTORS
330
16
102
}
330
16
100
AcDbMlineStyle
  2
STANDARD
 70
     0
  3

 62
   256
 51
90.0
 52
90.0
 71
     2
 49
0.5
 62
   256
  6
BYLAYER
 49
-0.5
 62
   256
  6
BYLAYER
  0
ACDBPLACEHOLDER
  5
F
102
{ACAD_REACTORS
330
E
102
}
330
E
  0
TABLESTYLE
  5
1D
102
{ACAD_REACTORS
330
1C
102
}
330
1C
100
AcDbTableStyle
  3
Standard
 70
     0
 71
     0
 40
0.06
 41
0.06
280
     0
281
     0
  7
STANDARD
140
0.18
170
     2
 62
     0
 63
     7
283
     0
274
    -2
284
     1
 64
     0
275
    -2
285
     1
 65
     0
276
    -2
286
     1
 66
     0
277
    -2
287
     1
 67
     0
278
    -2
288
     1
 68
     0
279
    -2
289
     1
 69
     0
  7
STANDARD
140
0.25
170
     5
 62
     0
 63
     7
283
     0
274
    -2
284
     1
 64
     0
275
    -2
285
     1
 65
     0
276
    -2
286
     1
 66
     0
277
    -2
287
     1
 67
     0
278
    -2
288
     1
 68
     0
279
    -2
289
     1
 69
     0
  7
STANDARD
140
0.18
170
     5
 62
     0
 63
     7
283
     0
274
    -2
284
     1
 64
     0
275
    -2
285
     1
 65
     0
276
    -2
286
     1
 66
     0
277
    -2
287
     1
 67
     0
278
    -2
288
     1
 68
     0
279
    -2
289
     1
 69
     0
  0
DICTIONARYVAR
  5
246
102
{ACAD_REACTORS
330
245
102
}
330
245
100
DictionaryVariables
280
     0
  1
STANDARD
  0
ENDSEC
  0
EOF
