  0
SECTION
  2
HEADER
  9
$ACADVER
  1
AC1018
  9
$ACADMAINTVER
 70
    39
  9
$DWGCODEPAGE
  3
ANSI_932
  9
$INSBASE
 10
0.0
 20
0.0
 30
0.0
  9
$EXTMIN
 10
-491.0268539728442
 20
98.88082994576643
 30
-0.0015258207003583
  9
$EXTMAX
 10
-90.31396357053177
 20
365.6798410002141
 30
0.0000000349246037
  9
$LIMMIN
 10
-592.0
 20
0.0
  9
$LIMMAX
 10
0.0
 20
418.0
  9
$ORTHOMODE
 70
     0
  9
$REGENMODE
 70
     1
  9
$FILLMODE
 70
     1
  9
$QTEXTMODE
 70
     0
  9
$MIRRTEXT
 70
     0
  9
$LTSCALE
 40
1.0
  9
$ATTMODE
 70
     1
  9
$TEXTSIZE
 40
0.2
  9
$TRACEWID
 40
0.05
  9
$TEXTSTYLE
  7
STANDARD
  9
$CLAYER
  8
0
  9
$CELTYPE
  6
CONTINUOUS
  9
$CECOLOR
 62
   256
  9
$CELTSCALE
 40
1.0
  9
$DISPSILH
 70
     0
  9
$DIMSCALE
 40
1.0
  9
$DIMASZ
 40
1.0
  9
$DIMEXO
 40
2.54
  9
$DIMDLI
 40
0.38
  9
$DIMRND
 40
0.0
  9
$DIMDLE
 40
0.0
  9
$DIMEXE
 40
2.54
  9
$DIMTP
 40
0.0
  9
$DIMTM
 40
0.0
  9
$DIMTXT
 40
3.0
  9
$DIMCEN
 40
0.09
  9
$DIMTSZ
 40
0.0
  9
$DIMTOL
 70
     0
  9
$DIMLIM
 70
     0
  9
$DIMTIH
 70
     0
  9
$DIMTOH
 70
     0
  9
$DIMSE1
 70
     0
  9
$DIMSE2
 70
     0
  9
$DIMTAD
 70
     1
  9
$DIMZIN
 70
     0
  9
$DIMBLK
  1

  9
$DIMASO
 70
     1
  9
$DIMSHO
 70
     0
  9
$DIMPOST
  1

  9
$DIMAPOST
  1

  9
$DIMALT
 70
     0
  9
$DIMALTD
 70
     2
  9
$DIMALTF
 40
25.4
  9
$DIMLFAC
 40
1.0
  9
$DIMTOFL
 70
     0
  9
$DIMTVP
 40
1.0
  9
$DIMTIX
 70
     0
  9
$DIMSOXD
 70
     0
  9
$DIMSAH
 70
     1
  9
$DIMBLK1
  1

  9
$DIMBLK2
  1

  9
$DIMSTYLE
  2
DIMSTYLE1
  9
$DIMCLRD
 70
     0
  9
$DIMCLRE
 70
     0
  9
$DIMCLRT
 70
     0
  9
$DIMTFAC
 40
1.0
  9
$DIMGAP
 40
1.5
  9
$DIMJUST
 70
     0
  9
$DIMSD1
 70
     0
  9
$DIMSD2
 70
     0
  9
$DIMTOLJ
 70
     1
  9
$DIMTZIN
 70
     0
  9
$DIMALTZ
 70
     0
  9
$DIMALTTZ
 70
     0
  9
$DIMUPT
 70
     0
  9
$DIMDEC
 70
     4
  9
$DIMTDEC
 70
     4
  9
$DIMALTU
 70
     2
  9
$DIMALTTD
 70
     2
  9
$DIMTXSTY
  7
STANDARD
  9
$DIMAUNIT
 70
     0
  9
$DIMADEC
 70
     0
  9
$DIMALTRND
 40
0.0
  9
$DIMAZIN
 70
     0
  9
$DIMDSEP
 70
    46
  9
$DIMATFIT
 70
     3
  9
$DIMFRAC
 70
     0
  9
$DIMLDRBLK
  1

  9
$DIMLUNIT
 70
     2
  9
$DIMLWD
 70
    -2
  9
$DIMLWE
 70
    -2
  9
$DIMTMOVE
 70
     0
  9
$LUNITS
 70
     2
  9
$LUPREC
 70
     4
  9
$SKETCHINC
 40
0.1
  9
$FILLETRAD
 40
0.0
  9
$AUNITS
 70
     0
  9
$AUPREC
 70
     0
  9
$MENU
  1
.
  9
$ELEVATION
 40
0.0
  9
$PELEVATION
 40
0.0
  9
$THICKNESS
 40
0.0
  9
$LIMCHECK
 70
     0
  9
$CHAMFERA
 40
0.0
  9
$CHAMFERB
 40
0.0
  9
$CHAMFERC
 40
0.0
  9
$CHAMFERD
 40
0.0
  9
$SKPOLY
 70
     0
  9
$TDCREATE
 40
2457844.665411285
  9
$TDUCREATE
 40
2457844.290411285
  9
$TDUPDATE
 40
2457844.665970347
  9
$TDUUPDATE
 40
2457844.290970347
  9
$TDINDWG
 40
0.0005603356
  9
$TDUSRTIMER
 40
0.0005603356
  9
$USRTIMER
 70
     1
  9
$ANGBASE
 50
0.0
  9
$ANGDIR
 70
     0
  9
$PDMODE
 70
     0
  9
$PDSIZE
 40
0.0
  9
$PLINEWID
 40
0.0
  9
$SPLFRAME
 70
     0
  9
$SPLINETYPE
 70
     6
  9
$SPLINESEGS
 70
     8
  9
$HANDSEED
  5
131
  9
$SURFTAB1
 70
     6
  9
$SURFTAB2
 70
     6
  9
$SURFTYPE
 70
     6
  9
$SURFU
 70
     6
  9
$SURFV
 70
     6
  9
$UCSBASE
  2

  9
$UCSNAME
  2

  9
$UCSORG
 10
0.0
 20
0.0
 30
0.0
  9
$UCSXDIR
 10
1.0
 20
0.0
 30
0.0
  9
$UCSYDIR
 10
0.0
 20
1.0
 30
0.0
  9
$UCSORTHOREF
  2

  9
$UCSORTHOVIEW
 70
     0
  9
$UCSORGTOP
 10
0.0
 20
0.0
 30
0.0
  9
$UCSORGBOTTOM
 10
0.0
 20
0.0
 30
0.0
  9
$UCSORGLEFT
 10
0.0
 20
0.0
 30
0.0
  9
$UCSORGRIGHT
 10
0.0
 20
0.0
 30
0.0
  9
$UCSORGFRONT
 10
0.0
 20
0.0
 30
0.0
  9
$UCSORGBACK
 10
0.0
 20
0.0
 30
0.0
  9
$PUCSBASE
  2

  9
$PUCSNAME
  2

  9
$PUCSORG
 10
0.0
 20
0.0
 30
0.0
  9
$PUCSXDIR
 10
1.0
 20
0.0
 30
0.0
  9
$PUCSYDIR
 10
0.0
 20
1.0
 30
0.0
  9
$PUCSORTHOREF
  2

  9
$PUCSORTHOVIEW
 70
     0
  9
$PUCSORGTOP
 10
0.0
 20
0.0
 30
0.0
  9
$PUCSORGBOTTOM
 10
0.0
 20
0.0
 30
0.0
  9
$PUCSORGLEFT
 10
0.0
 20
0.0
 30
0.0
  9
$PUCSORGRIGHT
 10
0.0
 20
0.0
 30
0.0
  9
$PUCSORGFRONT
 10
0.0
 20
0.0
 30
0.0
  9
$PUCSORGBACK
 10
0.0
 20
0.0
 30
0.0
  9
$USERI1
 70
     0
  9
$USERI2
 70
     0
  9
$USERI3
 70
     0
  9
$USERI4
 70
     0
  9
$USERI5
 70
     0
  9
$USERR1
 40
0.0
  9
$USERR2
 40
0.0
  9
$USERR3
 40
0.0
  9
$USERR4
 40
0.0
  9
$USERR5
 40
0.0
  9
$WORLDVIEW
 70
     1
  9
$SHADEDGE
 70
     3
  9
$SHADEDIF
 70
    70
  9
$TILEMODE
 70
     1
  9
$MAXACTVP
 70
    64
  9
$PINSBASE
 10
0.0
 20
0.0
 30
0.0
  9
$PLIMCHECK
 70
     0
  9
$PEXTMIN
 10
1.000000000000000E+20
 20
1.000000000000000E+20
 30
1.000000000000000E+20
  9
$PEXTMAX
 10
-1.000000000000000E+20
 20
-1.000000000000000E+20
 30
-1.000000000000000E+20
  9
$PLIMMIN
 10
-592.0
 20
0.0
  9
$PLIMMAX
 10
0.0
 20
418.0
  9
$UNITMODE
 70
     0
  9
$VISRETAIN
 70
     1
  9
$PLINEGEN
 70
     0
  9
$PSLTSCALE
 70
     1
  9
$TREEDEPTH
 70
  3020
  9
$CMLSTYLE
  2
Standard
  9
$CMLJUST
 70
     0
  9
$CMLSCALE
 40
1.0
  9
$PROXYGRAPHICS
 70
     1
  9
$MEASUREMENT
 70
     0
  9
$CELWEIGHT
370
    -1
  9
$ENDCAPS
280
     0
  9
$JOINSTYLE
280
     0
  9
$LWDISPLAY
290
     0
  9
$INSUNITS
 70
     0
  9
$HYPERLINKBASE
  1

  9
$STYLESHEET
  1

  9
$XEDIT
290
     1
  9
$CEPSNTYPE
380
     0
  9
$PSTYLEMODE
290
     1
  9
$FINGERPRINTGUID
  2
{17D29736-BE19-4BEF-8A89-3F87D24EC656}
  9
$VERSIONGUID
  2
{3EBF1DA5-C8BA-4CDD-BAF3-7D737ADE3ED4}
  9
$EXTNAMES
290
     1
  9
$PSVPSCALE
 40
0.0
  9
$OLESTARTUP
290
     0
  9
$SORTENTS
280
   127
  9
$INDEXCTL
280
     0
  9
$HIDETEXT
280
     0
  9
$XCLIPFRAME
290
     0
  9
$HALOGAP
280
     0
  9
$OBSCOLOR
 70
   257
  9
$OBSLTYPE
280
     0
  9
$INTERSECTIONDISPLAY
280
     0
  9
$INTERSECTIONCOLOR
 70
   257
  9
$DIMASSOC
280
     1
  9
$PROJECTNAME
  1

  0
ENDSEC
  0
SECTION
  2
CLASSES
  0
CLASS
  1
ACDBDICTIONARYWDFLT
  2
AcDbDictionaryWithDefault
  3
ObjectDBX Classes
 90
        0
 91
        1
280
     0
281
     0
  0
CLASS
  1
TABLESTYLE
  2
AcDbTableStyle
  3
ObjectDBX Classes
 90
     2047
 91
        1
280
     0
281
     0
  0
CLASS
  1
DICTIONARYVAR
  2
AcDbDictionaryVar
  3
ObjectDBX Classes
 90
        0
 91
        1
280
     0
281
     0
  0
ENDSEC
  0
SECTION
  2
TABLES
  0
TABLE
  2
VPORT
  5
8
330
0
100
AcDbSymbolTable
 70
     2
  0
VPORT
  5
130
330
8
100
AcDbSymbolTableRecord
100
AcDbViewportTableRecord
  2
*Active
 70
     0
 10
0.0
 20
0.0
 11
1.0
 21
1.0
 12
-296.0
 22
209.0
 13
0.0
 23
0.0
 14
1.0
 24
1.0
 15
0.0
 25
0.0
 16
0.0
 26
0.0
 36
1.0
 17
0.0
 27
0.0
 37
0.0
 40
421.3043478260869
 41
1.707124010554089
 42
50.0
 43
0.0
 44
0.0
 50
0.0
 51
0.0
 71
     0
 72
   100
 73
     1
 74
     1
 75
     0
 76
     0
 77
     0
 78
     0
281
     0
 65
     1
110
0.0
120
0.0
130
0.0
111
1.0
121
0.0
131
0.0
112
0.0
122
1.0
132
0.0
 79
     0
146
0.0
  0
ENDTAB
  0
TABLE
  2
LTYPE
  5
5
330
0
100
AcDbSymbolTable
 70
     6
  0
LTYPE
  5
13
330
5
100
AcDbSymbolTableRecord
100
AcDbLinetypeTableRecord
  2
ByBlock
 70
     0
  3

 72
    65
 73
     0
 40
0.0
  0
LTYPE
  5
14
330
5
100
AcDbSymbolTableRecord
100
AcDbLinetypeTableRecord
  2
ByLayer
 70
     0
  3

 72
    65
 73
     0
 40
0.0
  0
LTYPE
  5
15
330
5
100
AcDbSymbolTableRecord
100
AcDbLinetypeTableRecord
  2
CONTINUOUS
 70
     0
  3
Solid line
 72
    65
 73
     0
 40
0.0
  0
LTYPE
  5
26
330
5
100
AcDbSymbolTableRecord
100
AcDbLinetypeTableRecord
  2
DASHED
 70
     0
  3
__ __ __ __ __ __ __ __ __ __ __ __ __ __ __
 72
    65
 73
     2
 40
3.5
 49
2.0
 74
     0
 49
-1.5
 74
     0
  0
LTYPE
  5
27
330
5
100
AcDbSymbolTableRecord
100
AcDbLinetypeTableRecord
  2
CENTER
 70
     0
  3
____ _ ____ _ ____ _ ____ _ ____ _ ____ _ ____
 72
    65
 73
     4
 40
17.5
 49
13.0
 74
     0
 49
-1.5
 74
     0
 49
1.5
 74
     0
 49
-1.5
 74
     0
  0
LTYPE
  5
28
330
5
100
AcDbSymbolTableRecord
100
AcDbLinetypeTableRecord
  2
PHANTOM
 70
     0
  3
_____ _ _ _____ _ _ _____ _ _ _____ _ _ ____  
 72
    65
 73
     6
 40
15.5
 49
8.0
 74
     0
 49
-1.5
 74
     0
 49
1.5
 74
     0
 49
-1.5
 74
     0
 49
1.5
 74
     0
 49
-1.5
 74
     0
  0
LTYPE
  5
29
330
5
100
AcDbSymbolTableRecord
100
AcDbLinetypeTableRecord
  2
DOT
 70
     0
  3
. . . . . . . . . . . . . . . . . . . . . . . .
 72
    65
 73
     2
 40
0.25
 49
0.0
 74
     0
 49
-0.25
 74
     0
  0
LTYPE
  5
2A
330
5
100
AcDbSymbolTableRecord
100
AcDbLinetypeTableRecord
  2
HIDDEN
 70
     0
  3
__ __ __ __ __ __ __ __ __ __ __ __ __ __ __
 72
    65
 73
     2
 40
3.5
 49
2.0
 74
     0
 49
-1.5
 74
     0
  0
ENDTAB
  0
TABLE
  2
LAYER
  5
2
330
0
100
AcDbSymbolTable
 70
     2
  0
LAYER
  5
10
330
2
100
AcDbSymbolTableRecord
100
AcDbLayerTableRecord
  2
0
 70
     0
 62
     7
  6
CONTINUOUS
370
    -3
390
F
  0
LAYER
  5
2B
330
2
100
AcDbSymbolTableRecord
100
AcDbLayerTableRecord
  2
DEFPOINTS
 70
     0
 62
     7
  6
CONTINUOUS
290
     0
370
    -3
390
F
  0
ENDTAB
  0
TABLE
  2
STYLE
  5
3
330
0
100
AcDbSymbolTable
 70
     2
  0
STYLE
  5
11
330
3
100
AcDbSymbolTableRecord
100
AcDbTextStyleTableRecord
  2
STANDARD
 70
     0
 40
0.0
 41
1.0
 50
0.0
 71
     0
 42
0.2
  3

  4

1001
ACAD
1000
MS Gothic
1071
    32817
  0
ENDTAB
  0
TABLE
  2
VIEW
  5
6
330
0
100
AcDbSymbolTable
 70
     0
  0
ENDTAB
  0
TABLE
  2
UCS
  5
7
330
0
100
AcDbSymbolTable
 70
     0
  0
ENDTAB
  0
TABLE
  2
APPID
  5
9
330
0
100
AcDbSymbolTable
 70
     2
  0
APPID
  5
12
330
9
100
AcDbSymbolTableRecord
100
AcDbRegAppTableRecord
  2
ACAD
 70
     0
  0
APPID
  5
125
330
9
100
AcDbSymbolTableRecord
100
AcDbRegAppTableRecord
  2
ACAD_PSEXT
 70
     0
  0
ENDTAB
  0
TABLE
  2
DIMSTYLE
  5
A
330
0
100
AcDbSymbolTable
 70
     8
100
AcDbDimStyleTable
 71
     1
340
2C
  0
DIMSTYLE
105
2C
102
{ACAD_REACTORS
330
119
102
}
330
A
100
AcDbSymbolTableRecord
100
AcDbDimStyleTableRecord
  2
DIMSTYLE1
 70
     0
 41
1.0
 42
2.54
 44
2.54
 73
     0
 74
     0
 75
     1
 76
     1
 77
     1
140
3.0
145
1.0
147
1.5
172
     1
173
     1
279
     2
340
11
  0
DIMSTYLE
105
2D
102
{ACAD_REACTORS
330
11A
102
}
330
A
100
AcDbSymbolTableRecord
100
AcDbDimStyleTableRecord
  2
DIMSTYLE2
 70
     0
 41
1.0
 42
2.54
 44
2.54
 73
     0
 74
     0
 75
     1
 76
     1
 77
     1
140
3.0
145
1.0
147
1.5
172
     1
173
     1
279
     2
340
11
  0
DIMSTYLE
105
2E
102
{ACAD_REACTORS
330
11C
102
}
330
A
100
AcDbSymbolTableRecord
100
AcDbDimStyleTableRecord
  2
DIMSTYLE3
 70
     0
 41
1.0
 42
2.54
 44
2.54
 73
     0
 74
     0
 75
     1
 76
     1
 77
     1
140
3.0
145
1.0
147
1.5
172
     1
173
     1
279
     2
340
11
  0
DIMSTYLE
105
2F
102
{ACAD_REACTORS
330
11D
102
}
330
A
100
AcDbSymbolTableRecord
100
AcDbDimStyleTableRecord
  2
DIMSTYLE4
 70
     0
 41
1.0
 42
2.54
 44
2.54
 73
     0
 74
     0
 77
     1
140
3.0
145
1.0
147
1.5
172
     1
173
     1
279
     2
340
11
  0
DIMSTYLE
105
30
102
{ACAD_REACTORS
330
11E
102
}
330
A
100
AcDbSymbolTableRecord
100
AcDbDimStyleTableRecord
  2
DIMSTYLE5
 70
     0
 41
1.0
 42
2.54
 44
2.54
 73
     0
 74
     0
 77
     1
140
3.0
145
1.0
147
1.5
172
     1
173
     1
279
     2
340
11
  0
DIMSTYLE
105
31
102
{ACAD_REACTORS
330
11F
102
}
330
A
100
AcDbSymbolTableRecord
100
AcDbDimStyleTableRecord
  2
DIMSTYLE6
 70
     0
 41
1.0
 42
2.54
 44
2.54
 73
     0
 74
     0
 77
     1
140
3.0
145
1.0
147
1.5
172
     1
173
     1
279
     2
340
11
  0
DIMSTYLE
105
32
102
{ACAD_REACTORS
330
120
102
}
330
A
100
AcDbSymbolTableRecord
100
AcDbDimStyleTableRecord
  2
DIMSTYLE7
 70
     0
 41
1.0
 42
2.54
 44
2.54
 73
     0
 74
     0
 77
     1
140
3.0
145
1.0
147
1.5
172
     1
173
     1
279
     2
340
11
  0
ENDTAB
  0
TABLE
  2
BLOCK_RECORD
  5
1
330
0
100
AcDbSymbolTable
 70
    12
  0
BLOCK_RECORD
  5
22
330
1
100
AcDbSymbolTableRecord
100
AcDbBlockTableRecord
  2
*Model_Space
340
25
  0
BLOCK_RECORD
  5
1E
330
1
100
AcDbSymbolTableRecord
100
AcDbBlockTableRecord
  2
*Paper_Space
340
21
  0
BLOCK_RECORD
  5
36
330
1
100
AcDbSymbolTableRecord
100
AcDbBlockTableRecord
  2
_OPEN30
340
0
102
{BLKREFS
331
40
331
41
331
4A
331
4B
331
54
331
55
331
5D
331
5E
331
6A
331
6C
331
77
331
78
331
81
331
82
102
}
  0
BLOCK_RECORD
  5
3C
330
1
100
AcDbSymbolTableRecord
100
AcDbBlockTableRecord
  2
*D1
340
0
  0
BLOCK_RECORD
  5
46
330
1
100
AcDbSymbolTableRecord
100
AcDbBlockTableRecord
  2
*D2
340
0
  0
BLOCK_RECORD
  5
50
330
1
100
AcDbSymbolTableRecord
100
AcDbBlockTableRecord
  2
*D3
340
0
  0
BLOCK_RECORD
  5
5A
330
1
100
AcDbSymbolTableRecord
100
AcDbBlockTableRecord
  2
*D4
340
0
  0
BLOCK_RECORD
  5
66
330
1
100
AcDbSymbolTableRecord
100
AcDbBlockTableRecord
  2
*D5
340
0
  0
BLOCK_RECORD
  5
74
330
1
100
AcDbSymbolTableRecord
100
AcDbBlockTableRecord
  2
*D6
340
0
  0
BLOCK_RECORD
  5
7E
330
1
100
AcDbSymbolTableRecord
100
AcDbBlockTableRecord
  2
*D7
340
0
  0
BLOCK_RECORD
  5
8A
330
1
100
AcDbSymbolTableRecord
100
AcDbBlockTableRecord
  2
KOZU0001
340
0
102
{BLKREFS
331
11B
102
}
  0
BLOCK_RECORD
  5
92
330
1
100
AcDbSymbolTableRecord
100
AcDbBlockTableRecord
  2
KOZU0002
340
0
102
{BLKREFS
331
121
102
}
  0
BLOCK_RECORD
  5
9B
330
1
100
AcDbSymbolTableRecord
100
AcDbBlockTableRecord
  2
KOZU0003
340
0
102
{BLKREFS
331
122
102
}
  0
ENDTAB
  0
ENDSEC
  0
SECTION
  2
BLOCKS
  0
BLOCK
  5
23
330
22
100
AcDbEntity
  8
0
100
AcDbBlockBegin
  2
*Model_Space
 70
     0
 10
0.0
 20
0.0
 30
0.0
  3
*Model_Space
  1

  0
ENDBLK
  5
24
330
22
100
AcDbEntity
  8
0
100
AcDbBlockEnd
  0
BLOCK
  5
1F
330
1E
100
AcDbEntity
 67
     1
  8
0
100
AcDbBlockBegin
  2
*Paper_Space
 70
     0
 10
0.0
 20
0.0
 30
0.0
  3
*Paper_Space
  1

  0
ENDBLK
  5
20
330
1E
100
AcDbEntity
 67
     1
  8
0
100
AcDbBlockEnd
  0
BLOCK
  5
37
330
36
100
AcDbEntity
  8
0
100
AcDbBlockBegin
  2
_OPEN30
 70
     0
 10
0.0
 20
0.0
 30
0.0
  3
_OPEN30
  1

  0
LINE
  5
38
330
36
100
AcDbEntity
  8
0
  6
ByBlock
 62
     0
100
AcDbLine
 10
0.0
 20
0.0
 30
0.0
 11
-2.999999999999993
 21
-1.000000000000017
 31
0.0
  0
LINE
  5
39
330
36
100
AcDbEntity
  8
0
  6
ByBlock
 62
     0
100
AcDbLine
 10
0.0
 20
0.0
 30
0.0
 11
-3.000000000000006
 21
0.9999999999999815
 31
0.0
  0
LINE
  5
3A
330
36
100
AcDbEntity
  8
0
  6
ByBlock
 62
     0
100
AcDbLine
 10
0.0
 20
0.0
 30
0.0
 11
-3.0
 21
0.0
 31
0.0
  0
ENDBLK
  5
3B
330
36
100
AcDbEntity
  8
0
100
AcDbBlockEnd
  0
BLOCK
  5
3D
330
3C
100
AcDbEntity
  8
0
100
AcDbBlockBegin
  2
*D1
 70
     1
 10
0.0
 20
0.0
 30
0.0
  3
*D1
  1

  0
LINE
  5
3E
330
3C
100
AcDbEntity
  8
0
  6
Continuous
 62
     7
100
AcDbLine
 10
-309.7910766601563
 20
307.5458679199219
 30
0.0
 11
-295.2010803222656
 21
322.7964477539063
 31
0.0
  0
LINE
  5
3F
330
3C
100
AcDbEntity
  8
0
  6
Continuous
 62
     7
100
AcDbLine
 10
-442.517549184675
 20
168.8098250752625
 30
0.0
 11
-311.8649276219655
 21
305.3781174296203
 31
0.0
  0
INSERT
  5
40
330
3C
100
AcDbEntity
  8
0
  6
Continuous
 62
     7
100
AcDbBlockReference
  2
_OPEN30
 10
-444.5914001464843
 20
166.6420745849609
 30
0.0
 50
226.2681927133587
  0
INSERT
  5
41
330
3C
100
AcDbEntity
  8
0
  6
Continuous
 62
     7
100
AcDbBlockReference
  2
_OPEN30
 10
-309.7910766601563
 20
307.5458679199219
 30
0.0
 50
46.26819271335796
  0
TEXT
  5
42
330
3C
100
AcDbEntity
  8
0
  6
Continuous
 62
     7
100
AcDbText
 10
-303.4419846524878
 20
315.2629020114111
 30
0.0
 40
3.0
  1
%%C195
 50
46.30000140225137
 41
1.053926216168795
100
AcDbText
  0
POINT
  5
43
330
3C
100
AcDbEntity
  8
DEFPOINTS
  6
Continuous
 62
     7
100
AcDbPoint
 10
-444.5914001464843
 20
166.6420745849609
 30
0.0
  0
POINT
  5
44
330
3C
100
AcDbEntity
  8
DEFPOINTS
  6
Continuous
 62
     7
100
AcDbPoint
 10
-309.7910766601563
 20
307.5458679199219
 30
0.0
  0
ENDBLK
  5
45
330
3C
100
AcDbEntity
  8
0
100
AcDbBlockEnd
  0
BLOCK
  5
47
330
46
100
AcDbEntity
  8
0
100
AcDbBlockBegin
  2
*D2
 70
     1
 10
0.0
 20
0.0
 30
0.0
  3
*D2
  1

  0
LINE
  5
48
330
46
100
AcDbEntity
  8
0
  6
Continuous
 62
     7
100
AcDbLine
 10
-435.7330627441406
 20
302.1255187988281
 30
0.0
 11
-460.485137939453
 21
329.6215209960938
 31
0.0
  0
LINE
  5
49
330
46
100
AcDbEntity
  8
0
  6
Continuous
 62
     7
100
AcDbLine
 10
-320.6565624097621
 20
174.2920468638449
 30
0.0
 11
-433.7259143968786
 21
299.8958651234599
 31
0.0
  0
INSERT
  5
4A
330
46
100
AcDbEntity
  8
0
  6
Continuous
 62
     7
100
AcDbBlockReference
  2
_OPEN30
 10
-318.6494140625
 20
172.0623931884766
 30
0.0
 50
311.9937431569353
  0
INSERT
  5
4B
330
46
100
AcDbEntity
  8
0
  6
Continuous
 62
     7
100
AcDbBlockReference
  2
_OPEN30
 10
-435.7330627441406
 20
302.1255187988281
 30
0.0
 50
131.9937431569346
  0
TEXT
  5
4C
330
46
100
AcDbEntity
  8
0
  6
Continuous
 62
     7
100
AcDbText
 10
-459.9284640427442
 20
330.1227662383034
 30
0.0
 40
3.0
  1
PCD175
 50
311.9999986642783
 41
1.07125000655651
100
AcDbText
  0
POINT
  5
4D
330
46
100
AcDbEntity
  8
DEFPOINTS
  6
Continuous
 62
     7
100
AcDbPoint
 10
-318.6494140625
 20
172.0623931884766
 30
0.0
  0
POINT
  5
4E
330
46
100
AcDbEntity
  8
DEFPOINTS
  6
Continuous
 62
     7
100
AcDbPoint
 10
-435.7330627441406
 20
302.1255187988281
 30
0.0
  0
ENDBLK
  5
4F
330
46
100
AcDbEntity
  8
0
100
AcDbBlockEnd
  0
BLOCK
  5
51
330
50
100
AcDbEntity
  8
0
100
AcDbBlockBegin
  2
*D3
 70
     1
 10
0.0
 20
0.0
 30
0.0
  3
*D3
  1

  0
LINE
  5
52
330
50
100
AcDbEntity
  8
0
  6
Continuous
 62
     7
100
AcDbLine
 10
-334.3251647949219
 20
214.4058685302734
 30
0.0
 11
-325.3338012695313
 21
209.6469268798828
 31
0.0
  0
LINE
  5
53
330
50
100
AcDbEntity
  8
0
  6
Continuous
 62
     7
100
AcDbLine
 10
-417.4058024571341
 20
258.3786862584217
 30
0.0
 11
-336.9766743495065
 21
215.8092562464612
 31
0.0
  0
INSERT
  5
54
330
50
100
AcDbEntity
  8
0
  6
Continuous
 62
     7
100
AcDbBlockReference
  2
_OPEN30
 10
-420.0573120117188
 20
259.7820739746094
 30
0.0
 50
152.1086811534796
  0
INSERT
  5
55
330
50
100
AcDbEntity
  8
0
  6
Continuous
 62
     7
100
AcDbBlockReference
  2
_OPEN30
 10
-334.3251647949219
 20
214.4058685302734
 30
0.0
 50
332.1086811534803
  0
TEXT
  5
56
330
50
100
AcDbEntity
  8
0
  6
Continuous
 62
     7
100
AcDbText
 10
-332.1769786877543
 20
214.1181561574724
 30
0.0
 40
3.0
  1
%%C97
 50
332.1000005896496
 41
0.9498249830693319
100
AcDbText
  0
POINT
  5
57
330
50
100
AcDbEntity
  8
DEFPOINTS
  6
Continuous
 62
     7
100
AcDbPoint
 10
-420.0573120117188
 20
259.7820739746094
 30
0.0
  0
POINT
  5
58
330
50
100
AcDbEntity
  8
DEFPOINTS
  6
Continuous
 62
     7
100
AcDbPoint
 10
-334.3251647949219
 20
214.4058685302734
 30
0.0
  0
ENDBLK
  5
59
330
50
100
AcDbEntity
  8
0
100
AcDbBlockEnd
  0
BLOCK
  5
5B
330
5A
100
AcDbEntity
  8
0
100
AcDbBlockBegin
  2
*D4
 70
     1
 10
0.0
 20
0.0
 30
0.0
  3
*D4
  1

  0
LINE
  5
5C
330
5A
100
AcDbEntity
  8
0
  6
Continuous
 62
     7
100
AcDbLine
 10
-198.2829895019531
 20
361.5549621582031
 30
0.0
 11
-171.2829895019531
 21
361.5549621582031
 31
0.0
  0
INSERT
  5
5D
330
5A
100
AcDbEntity
  8
0
  6
Continuous
 62
     7
100
AcDbBlockReference
  2
_OPEN30
 10
-201.2829895019531
 20
361.5549621582031
 30
0.0
 50
180.0000000000004
  0
INSERT
  5
5E
330
5A
100
AcDbEntity
  8
0
  6
Continuous
 62
     7
100
AcDbBlockReference
  2
_OPEN30
 10
-168.2829895019531
 20
361.5549621582031
 30
0.0
  0
LINE
  5
5F
330
5A
100
AcDbEntity
  8
0
  6
Continuous
 62
     7
100
AcDbLine
 10
-201.2829895019531
 20
288.1339636230469
 30
0.0
 11
-201.2829895019531
 21
363.8409423828125
 31
0.0
  0
LINE
  5
60
330
5A
100
AcDbEntity
  8
0
  6
Continuous
 62
     7
100
AcDbLine
 10
-168.2829895019531
 20
337.1339636230469
 30
0.0
 11
-168.2829895019531
 21
363.8409423828125
 31
0.0
  0
TEXT
  5
61
330
5A
100
AcDbEntity
  8
0
  6
Continuous
 62
     7
100
AcDbText
 10
-187.3529896140098
 20
362.3049621582031
 30
0.0
 40
3.0
  1
33
 41
1.028000020980834
100
AcDbText
  0
POINT
  5
62
330
5A
100
AcDbEntity
  8
DEFPOINTS
  6
Continuous
 62
     7
100
AcDbPoint
 10
-201.2829895019531
 20
285.5939636230469
 30
0.0
  0
POINT
  5
63
330
5A
100
AcDbEntity
  8
DEFPOINTS
  6
Continuous
 62
     7
100
AcDbPoint
 10
-168.2829895019531
 20
334.5939636230469
 30
0.0
  0
POINT
  5
64
330
5A
100
AcDbEntity
  8
DEFPOINTS
  6
Continuous
 62
     7
100
AcDbPoint
 10
-168.2829895019531
 20
361.5549621582031
 30
0.0
  0
ENDBLK
  5
65
330
5A
100
AcDbEntity
  8
0
100
AcDbBlockEnd
  0
BLOCK
  5
67
330
66
100
AcDbEntity
  8
0
100
AcDbBlockBegin
  2
*D5
 70
     1
 10
0.0
 20
0.0
 30
0.0
  3
*D5
  1

  0
LINE
  5
68
330
66
100
AcDbEntity
  8
0
  6
Continuous
 62
     7
100
AcDbLine
 10
-165.2829895019531
 20
361.5549621582031
 30
0.0
 11
-156.7505645751953
 21
361.5549621582031
 31
0.0
  0
LINE
  5
69
330
66
100
AcDbEntity
  8
0
  6
Continuous
 62
     7
100
AcDbLine
 10
-168.2829895019531
 20
361.5549621582031
 30
0.0
 11
-165.2829895019531
 21
361.5549621582031
 31
0.0
  0
INSERT
  5
6A
330
66
100
AcDbEntity
  8
0
  6
Continuous
 62
     7
100
AcDbBlockReference
  2
_OPEN30
 10
-168.2829895019531
 20
361.5549621582031
 30
0.0
 50
0.0000000000003562
  0
LINE
  5
6B
330
66
100
AcDbEntity
  8
0
  6
Continuous
 62
     7
100
AcDbLine
 10
-171.2829895019531
 20
361.5549621582031
 30
0.0
 11
-174.6329895019531
 21
361.5549621582031
 31
0.0
  0
INSERT
  5
6C
330
66
100
AcDbEntity
  8
0
  6
Continuous
 62
     7
100
AcDbBlockReference
  2
_OPEN30
 10
-165.2829895019531
 20
361.5549621582031
 30
0.0
 50
180.0
  0
LINE
  5
6D
330
66
100
AcDbEntity
  8
0
  6
Continuous
 62
     7
100
AcDbLine
 10
-162.2829895019531
 20
361.5549621582031
 30
0.0
 11
-158.932989501953
 21
361.5549621582031
 31
0.0
  0
LINE
  5
6E
330
66
100
AcDbEntity
  8
0
  6
Continuous
 62
     7
100
AcDbLine
 10
-165.2829895019531
 20
337.1339636230469
 30
0.0
 11
-165.2829895019531
 21
363.8409423828125
 31
0.0
  0
TEXT
  5
6F
330
66
100
AcDbEntity
  8
0
  6
Continuous
 62
     7
100
AcDbText
 10
-158.8905719518661
 20
362.3049621582031
 30
0.0
 40
3.0
  1
3
100
AcDbText
  0
POINT
  5
70
330
66
100
AcDbEntity
  8
DEFPOINTS
  6
Continuous
 62
     7
100
AcDbPoint
 10
-168.2829895019531
 20
363.8409423828125
 30
0.0
  0
POINT
  5
71
330
66
100
AcDbEntity
  8
DEFPOINTS
  6
Continuous
 62
     7
100
AcDbPoint
 10
-165.2829895019531
 20
334.5939636230469
 30
0.0
  0
POINT
  5
72
330
66
100
AcDbEntity
  8
DEFPOINTS
  6
Continuous
 62
     7
100
AcDbPoint
 10
-165.2829895019531
 20
361.5549621582031
 30
0.0
  0
ENDBLK
  5
73
330
66
100
AcDbEntity
  8
0
100
AcDbBlockEnd
  0
BLOCK
  5
75
330
74
100
AcDbEntity
  8
0
100
AcDbBlockBegin
  2
*D6
 70
     1
 10
0.0
 20
0.0
 30
0.0
  3
*D6
  1

  0
LINE
  5
76
330
74
100
AcDbEntity
  8
0
  6
Continuous
 62
     7
100
AcDbLine
 10
-166.2829895019531
 20
252.0785522460937
 30
0.0
 11
-198.2829895019531
 21
252.0785522460939
 31
0.0
  0
INSERT
  5
77
330
74
100
AcDbEntity
  8
0
  6
Continuous
 62
     7
100
AcDbBlockReference
  2
_OPEN30
 10
-163.2829895019531
 20
252.0785522460939
 30
0.0
  0
INSERT
  5
78
330
74
100
AcDbEntity
  8
0
  6
Continuous
 62
     7
100
AcDbBlockReference
  2
_OPEN30
 10
-201.2829895019531
 20
252.0785522460939
 30
0.0
 50
180.0000000000004
  0
TEXT
  5
79
330
74
100
AcDbEntity
  8
0
  6
Continuous
 62
     7
100
AcDbText
 10
-190.8529898524284
 20
252.8285522460938
 30
0.0
 40
3.0
  1
ネジ部　３８
 41
0.8472565548642696
100
AcDbText
  0
POINT
  5
7A
330
74
100
AcDbEntity
  8
DEFPOINTS
  6
Continuous
 62
     7
100
AcDbPoint
 10
-163.2829895019531
 20
237.0939636230469
 30
0.0
  0
POINT
  5
7B
330
74
100
AcDbEntity
  8
DEFPOINTS
  6
Continuous
 62
     7
100
AcDbPoint
 10
-201.2829895019531
 20
285.5939636230469
 30
0.0
  0
POINT
  5
7C
330
74
100
AcDbEntity
  8
DEFPOINTS
  6
Continuous
 62
     7
100
AcDbPoint
 10
-201.2829895019531
 20
252.0785522460939
 30
0.0
  0
ENDBLK
  5
7D
330
74
100
AcDbEntity
  8
0
100
AcDbBlockEnd
  0
BLOCK
  5
7F
330
7E
100
AcDbEntity
  8
0
100
AcDbBlockBegin
  2
*D7
 70
     1
 10
0.0
 20
0.0
 30
0.0
  3
*D7
  1

  0
LINE
  5
80
330
7E
100
AcDbEntity
  8
0
  6
Continuous
 62
     7
100
AcDbLine
 10
-198.2829895019531
 20
113.1437454223633
 30
0.0
 11
-123.2829818725586
 21
113.1437454223633
 31
0.0
  0
INSERT
  5
81
330
7E
100
AcDbEntity
  8
0
  6
Continuous
 62
     7
100
AcDbBlockReference
  2
_OPEN30
 10
-201.2829895019531
 20
113.1437454223633
 30
0.0
 50
180.0000000000004
  0
INSERT
  5
82
330
7E
100
AcDbEntity
  8
0
  6
Continuous
 62
     7
100
AcDbBlockReference
  2
_OPEN30
 10
-120.2829818725586
 20
113.1437454223633
 30
0.0
  0
LINE
  5
83
330
7E
100
AcDbEntity
  8
0
  6
Continuous
 62
     7
100
AcDbLine
 10
-201.2829895019531
 20
186.0539636230469
 30
0.0
 11
-201.2829895019531
 21
110.8577423095703
 31
0.0
  0
LINE
  5
84
330
7E
100
AcDbEntity
  8
0
  6
Continuous
 62
     7
100
AcDbLine
 10
-120.2829818725586
 20
186.0539636230469
 30
0.0
 11
-120.2829818725586
 21
110.8577423095703
 31
0.0
  0
TEXT
  5
85
330
7E
100
AcDbEntity
  8
0
  6
Continuous
 62
     7
100
AcDbText
 10
-163.3529896140099
 20
113.8937454223633
 30
0.0
 40
3.0
  1
81
 41
1.186153870362501
100
AcDbText
  0
POINT
  5
86
330
7E
100
AcDbEntity
  8
DEFPOINTS
  6
Continuous
 62
     7
100
AcDbPoint
 10
-201.2829895019531
 20
188.5939636230469
 30
0.0
  0
POINT
  5
87
330
7E
100
AcDbEntity
  8
DEFPOINTS
  6
Continuous
 62
     7
100
AcDbPoint
 10
-120.2829818725586
 20
188.5939636230469
 30
0.0
  0
POINT
  5
88
330
7E
100
AcDbEntity
  8
DEFPOINTS
  6
Continuous
 62
     7
100
AcDbPoint
 10
-120.2829818725586
 20
113.1437454223633
 30
0.0
  0
ENDBLK
  5
89
330
7E
100
AcDbEntity
  8
0
100
AcDbBlockEnd
  0
BLOCK
  5
8B
330
8A
100
AcDbEntity
  8
0
100
AcDbBlockBegin
  2
KOZU0001
 70
     0
 10
0.0
 20
0.0
 30
0.0
  3
KOZU0001
  1

  0
LINE
  5
8C
330
8A
100
AcDbEntity
  8
0
  6
Continuous
 62
     7
100
AcDbLine
 10
0.0
 20
0.0
 30
0.0
 11
-12.5078125
 21
19.17581176757813
 31
0.0
  0
LINE
  5
8D
330
8A
100
AcDbEntity
  8
0
  6
Continuous
 62
     7
100
AcDbLine
 10
-12.5078125
 20
19.17581176757813
 30
0.0
 11
-33.73956298828125
 21
19.17581176757813
 31
0.0
  0
LINE
  5
8E
330
8A
100
AcDbEntity
  8
0
  6
Continuous
 62
     7
100
AcDbLine
 10
0.0
 20
0.0
 30
0.0
 11
-2.476546914813196
 21
1.96639654666327
 31
0.0
  0
LINE
  5
8F
330
8A
100
AcDbEntity
  8
0
  6
Continuous
 62
     7
100
AcDbLine
 10
0.0
 20
0.0
 30
0.0
 11
-0.8013996038525949
 21
3.059045386218535
 31
0.0
  0
TEXT
  5
90
330
8A
100
AcDbEntity
  8
0
  6
Continuous
 62
     7
100
AcDbText
 10
-32.01956236362457
 20
19.92581176757813
 30
0.0
 40
3.0
  1
３－Ｍ５皿穴
 41
0.8472565548642696
100
AcDbText
  0
ENDBLK
  5
91
330
8A
100
AcDbEntity
  8
0
100
AcDbBlockEnd
  0
BLOCK
  5
93
330
92
100
AcDbEntity
  8
0
100
AcDbBlockBegin
  2
KOZU0002
 70
     0
 10
0.0
 20
0.0
 30
0.0
  3
KOZU0002
  1

  0
LINE
  5
94
330
92
100
AcDbEntity
  8
0
  6
Continuous
 62
     7
100
AcDbLine
 10
0.0
 20
0.0
 30
0.0
 11
14.77203369140625
 21
24.77069091796875
 31
0.0
  0
LINE
  5
95
330
92
100
AcDbEntity
  8
0
  6
Continuous
 62
     7
100
AcDbLine
 10
14.77203369140625
 20
24.77069091796875
 30
0.0
 11
43.64481353759765
 21
24.77069091796875
 31
0.0
  0
LINE
  5
96
330
92
100
AcDbEntity
  8
0
  6
Continuous
 62
     7
100
AcDbLine
 10
0.0
 20
0.0
 30
0.0
 11
0.6776965929106287
 21
3.088806780612431
 31
0.0
  0
LINE
  5
97
330
92
100
AcDbEntity
  8
0
  6
Continuous
 62
     7
100
AcDbLine
 10
0.0
 20
0.0
 30
0.0
 11
2.39544134269596
 21
2.064427468743566
 31
0.0
  0
TEXT
  5
98
330
92
100
AcDbEntity
  8
0
  6
Continuous
 62
     7
100
AcDbText
 10
18.78481221199036
 20
25.52069091796875
 30
0.0
 40
3.0
  1
配管接続口
 41
0.8487395020950888
100
AcDbText
  0
TEXT
  5
99
330
92
100
AcDbEntity
  8
0
  6
Continuous
 62
     7
100
AcDbText
 10
18.78481221199036
 20
20.25569091796875
 30
0.0
 40
3.0
  1
Ｒｃ３（８０Ａ）
 41
0.8454512278006642
100
AcDbText
  0
ENDBLK
  5
9A
330
92
100
AcDbEntity
  8
0
100
AcDbBlockEnd
  0
BLOCK
  5
9C
330
9B
100
AcDbEntity
  8
0
100
AcDbBlockBegin
  2
KOZU0003
 70
     0
 10
0.0
 20
0.0
 30
0.0
  3
KOZU0003
  1

  0
LINE
  5
9D
330
9B
100
AcDbEntity
  8
0
  6
Continuous
 62
     7
100
AcDbLine
 10
0.0
 20
0.0
 30
0.0
 11
-20.71737670898438
 21
24.7930908203125
 31
0.0
  0
LINE
  5
9E
330
9B
100
AcDbEntity
  8
0
  6
Continuous
 62
     7
100
AcDbLine
 10
-20.71737670898438
 20
24.7930908203125
 30
0.0
 11
-51.08358764648438
 21
24.7930908203125
 31
0.0
  0
LINE
  5
9F
330
9B
100
AcDbEntity
  8
0
  6
Continuous
 62
     7
100
AcDbLine
 10
0.0
 20
0.0
 30
0.0
 11
-2.691006830573674
 21
1.66086791702586
 31
0.0
  0
LINE
  5
A0
330
9B
100
AcDbEntity
  8
0
  6
Continuous
 62
     7
100
AcDbLine
 10
0.0
 20
0.0
 30
0.0
 11
-1.156284714243424
 21
2.943298431964893
 31
0.0
  0
TEXT
  5
A1
330
9B
100
AcDbEntity
  8
0
  6
Continuous
 62
     7
100
AcDbText
 10
-49.36358726024628
 20
25.5430908203125
 30
0.0
 40
3.0
  1
配管接続口
 41
0.8487395020950888
100
AcDbText
  0
TEXT
  5
A2
330
9B
100
AcDbEntity
  8
0
  6
Continuous
 62
     7
100
AcDbText
 10
-49.36358726024628
 20
20.2780908203125
 30
0.0
 40
3.0
  1
Ｒｐ３（８０Ａ）
 41
0.8454512278006642
100
AcDbText
  0
ENDBLK
  5
A3
330
9B
100
AcDbEntity
  8
0
100
AcDbBlockEnd
  0
ENDSEC
  0
SECTION
  2
ENTITIES
  0
LINE
  5
A4
330
22
100
AcDbEntity
  8
0
  6
Continuous
 62
     7
100
AcDbLine
 10
-163.2829895019531
 20
278.5693969726563
 30
0.0
 11
-163.2829895019531
 21
237.0939636230469
 31
0.0
  0
LINE
  5
A5
330
22
100
AcDbEntity
  8
0
  6
Continuous
 62
     7
100
AcDbLine
 10
-163.2829895019531
 20
278.5693969726563
 30
0.0
 11
-163.2829895019531
 21
279.5014343261719
 31
0.0
  0
LINE
  5
A6
330
22
100
AcDbEntity
  8
0
  6
Continuous
 62
     7
100
AcDbLine
 10
-150.0829772949219
 20
278.5693969726563
 30
0.0
 11
-163.2829895019531
 21
278.5693969726563
 31
0.0
  0
LINE
  5
A7
330
22
100
AcDbEntity
  8
0
  6
Continuous
 62
     7
100
AcDbLine
 10
-150.0829772949219
 20
278.5693969726563
 30
0.0
 11
-148.5426788330078
 21
280.1097106933594
 31
0.0
  0
LINE
  5
A8
330
22
100
AcDbEntity
  8
0
  6
Continuous
 62
     7
100
AcDbLine
 10
-163.2829895019531
 20
279.5014343261719
 30
0.0
 11
-164.7744293212891
 21
280.9928588867188
 31
0.0
  0
LINE
  5
A9
330
22
100
AcDbEntity
  8
0
  6
Continuous
 62
     7
100
AcDbLine
 10
-201.2829895019531
 20
280.9928588867188
 30
0.0
 11
-164.7744293212891
 21
280.9928588867188
 31
0.0
  0
LINE
  5
AA
330
22
100
AcDbEntity
  8
0
  6
Continuous
 62
     7
100
AcDbLine
 10
-199.3829803466797
 20
279.5014343261719
 30
0.0
 11
-163.2829895019531
 21
279.5014343261719
 31
0.0
  0
LINE
  5
AB
330
22
100
AcDbEntity
  8
0
  6
CENTER
 62
     7
100
AcDbLine
 10
-169.4657592773438
 20
324.5939636230469
 30
0.0
 11
-164.0360565185547
 21
324.5939636230469
 31
0.0
  0
LINE
  5
AC
330
22
100
AcDbEntity
  8
0
  6
Continuous
 62
     7
100
AcDbLine
 10
-168.2834930419922
 20
319.5939636230469
 30
0.0
 11
-166.0334930419922
 21
321.8439636230469
 31
0.0
  0
LINE
  5
AD
330
22
100
AcDbEntity
  8
0
  6
Continuous
 62
     7
100
AcDbLine
 10
-168.2834930419922
 20
329.5939636230469
 30
0.0
 11
-166.0334930419922
 21
327.3439636230469
 31
0.0
  0
LINE
  5
AE
330
22
100
AcDbEntity
  8
0
  6
Continuous
 62
     7
100
AcDbLine
 10
-165.2834930419922
 20
321.8439636230469
 30
0.0
 11
-166.0334930419922
 21
321.8439636230469
 31
0.0
  0
LINE
  5
AF
330
22
100
AcDbEntity
  8
0
  6
Continuous
 62
     7
100
AcDbLine
 10
-165.2834930419922
 20
327.3439636230469
 30
0.0
 11
-166.0334930419922
 21
327.3439636230469
 31
0.0
  0
LINE
  5
B0
330
22
100
AcDbEntity
  8
0
  6
CENTER
 62
     7
100
AcDbLine
 10
-207.1041717529297
 20
237.0939636230469
 30
0.0
 11
-114.9892578125
 21
237.0939636230469
 31
0.0
  0
LINE
  5
B1
330
22
100
AcDbEntity
  8
0
  6
Continuous
 62
     7
100
AcDbLine
 10
-201.2829895019531
 20
285.5939636230469
 30
0.0
 11
-120.2829818725586
 21
285.5939636230469
 31
0.0
  0
LINE
  5
B2
330
22
100
AcDbEntity
  8
0
  6
Continuous
 62
     7
100
AcDbLine
 10
-168.2829895019531
 20
334.5939636230469
 30
0.0
 11
-168.2829895019531
 21
285.5939636230469
 31
0.0
  0
LINE
  5
B3
330
22
100
AcDbEntity
  8
0
  6
Continuous
 62
     7
100
AcDbLine
 10
-165.2829895019531
 20
334.5939636230469
 30
0.0
 11
-165.2829895019531
 21
285.5939636230469
 31
0.0
  0
LINE
  5
B4
330
22
100
AcDbEntity
  8
0
  6
Continuous
 62
     7
100
AcDbLine
 10
-201.2829895019531
 20
246.6261444091797
 30
0.0
 11
-201.2829895019531
 21
241.19775390625
 31
0.0
  0
LINE
  5
B5
330
22
100
AcDbEntity
  8
0
  6
Continuous
 62
     7
100
AcDbLine
 10
-163.2829895019531
 20
246.6261444091797
 30
0.0
 11
-163.2829895019531
 21
241.19775390625
 31
0.0
  0
LINE
  5
B6
330
22
100
AcDbEntity
  8
0
  6
Continuous
 62
     7
100
AcDbLine
 10
-165.2829895019531
 20
139.5939636230469
 30
0.0
 11
-168.2829895019531
 21
139.5939636230469
 31
0.0
  0
LINE
  5
B7
330
22
100
AcDbEntity
  8
0
  6
Continuous
 62
     7
100
AcDbLine
 10
-165.2829895019531
 20
188.5939636230469
 30
0.0
 11
-120.2829818725586
 21
188.5939636230469
 31
0.0
  0
LINE
  5
B8
330
22
100
AcDbEntity
  8
0
  6
Continuous
 62
     7
100
AcDbLine
 10
-201.2829895019531
 20
188.5939636230469
 30
0.0
 11
-168.2829895019531
 21
188.5939636230469
 31
0.0
  0
LINE
  5
B9
330
22
100
AcDbEntity
  8
0
  6
Continuous
 62
     7
100
AcDbLine
 10
-166.9067993164063
 20
334.5939636230469
 30
0.0
 11
-165.2829895019531
 21
332.9701538085938
 31
0.0
  0
LINE
  5
BA
330
22
100
AcDbEntity
  8
0
  6
Continuous
 62
     7
100
AcDbLine
 10
-167.6139068603516
 20
334.5939636230469
 30
0.0
 11
-165.2829895019531
 21
332.2630310058594
 31
0.0
  0
LINE
  5
BB
330
22
100
AcDbEntity
  8
0
  6
Continuous
 62
     7
100
AcDbLine
 10
-168.2829895019531
 20
333.1417236328125
 30
0.0
 11
-165.2829895019531
 21
330.1417236328125
 31
0.0
  0
LINE
  5
BC
330
22
100
AcDbEntity
  8
0
  6
Continuous
 62
     7
100
AcDbLine
 10
-168.2829895019531
 20
332.4346008300781
 30
0.0
 11
-165.2829895019531
 21
329.4346008300781
 31
0.0
  0
LINE
  5
BD
330
22
100
AcDbEntity
  8
0
  6
Continuous
 62
     7
100
AcDbLine
 10
-168.2829895019531
 20
330.3132934570313
 30
0.0
 11
-165.3564758300781
 21
327.3867797851563
 31
0.0
  0
LINE
  5
BE
330
22
100
AcDbEntity
  8
0
  6
Continuous
 62
     7
100
AcDbLine
 10
-168.2829895019531
 20
329.6061706542969
 30
0.0
 11
-166.0207672119141
 21
327.3439636230469
 31
0.0
  0
LINE
  5
BF
330
22
100
AcDbEntity
  8
0
  6
Continuous
 62
     7
100
AcDbLine
 10
-166.5401916503906
 20
321.3372497558594
 30
0.0
 11
-165.2829895019531
 21
320.0800476074219
 31
0.0
  0
LINE
  5
C0
330
22
100
AcDbEntity
  8
0
  6
Continuous
 62
     7
100
AcDbLine
 10
-166.8937530517578
 20
320.9837036132813
 30
0.0
 11
-165.2829895019531
 21
319.3729248046875
 31
0.0
  0
LINE
  5
C1
330
22
100
AcDbEntity
  8
0
  6
Continuous
 62
     7
100
AcDbLine
 10
-167.9544067382813
 20
319.9230346679688
 30
0.0
 11
-165.2829895019531
 21
317.2516174316406
 31
0.0
  0
LINE
  5
C2
330
22
100
AcDbEntity
  8
0
  6
Continuous
 62
     7
100
AcDbLine
 10
-168.2829895019531
 20
319.5444946289063
 30
0.0
 11
-165.2829895019531
 21
316.5444946289063
 31
0.0
  0
LINE
  5
C3
330
22
100
AcDbEntity
  8
0
  6
Continuous
 62
     7
100
AcDbLine
 10
-168.0105743408203
 20
317.1507873535156
 30
0.0
 11
-165.2829895019531
 21
314.4231872558594
 31
0.0
  0
LINE
  5
C4
330
22
100
AcDbEntity
  8
0
  6
Continuous
 62
     7
100
AcDbLine
 10
-168.2829895019531
 20
316.7160949707031
 30
0.0
 11
-165.2829895019531
 21
313.7160949707031
 31
0.0
  0
LINE
  5
C5
330
22
100
AcDbEntity
  8
0
  6
Continuous
 62
     7
100
AcDbLine
 10
-168.2829895019531
 20
314.5947570800781
 30
0.0
 11
-165.2829895019531
 21
311.5947570800781
 31
0.0
  0
LINE
  5
C6
330
22
100
AcDbEntity
  8
0
  6
Continuous
 62
     7
100
AcDbLine
 10
-168.2829895019531
 20
313.8876647949219
 30
0.0
 11
-165.2829895019531
 21
310.8876647949219
 31
0.0
  0
LINE
  5
C7
330
22
100
AcDbEntity
  8
0
  6
Continuous
 62
     7
100
AcDbLine
 10
-168.2829895019531
 20
311.7663269042969
 30
0.0
 11
-165.2829895019531
 21
308.7663269042969
 31
0.0
  0
LINE
  5
C8
330
22
100
AcDbEntity
  8
0
  6
Continuous
 62
     7
100
AcDbLine
 10
-168.2829895019531
 20
311.0592346191406
 30
0.0
 11
-165.2829895019531
 21
308.0592346191406
 31
0.0
  0
LINE
  5
C9
330
22
100
AcDbEntity
  8
0
  6
Continuous
 62
     7
100
AcDbLine
 10
-168.2829895019531
 20
308.9378967285156
 30
0.0
 11
-165.2829895019531
 21
305.9378967285156
 31
0.0
  0
LINE
  5
CA
330
22
100
AcDbEntity
  8
0
  6
Continuous
 62
     7
100
AcDbLine
 10
-168.2829895019531
 20
308.2308044433594
 30
0.0
 11
-165.2829895019531
 21
305.2308044433594
 31
0.0
  0
LINE
  5
CB
330
22
100
AcDbEntity
  8
0
  6
Continuous
 62
     7
100
AcDbLine
 10
-168.2829895019531
 20
306.1094665527344
 30
0.0
 11
-165.2829895019531
 21
303.1094665527344
 31
0.0
  0
LINE
  5
CC
330
22
100
AcDbEntity
  8
0
  6
Continuous
 62
     7
100
AcDbLine
 10
-168.2829895019531
 20
305.4023742675781
 30
0.0
 11
-165.2829895019531
 21
302.4023742675781
 31
0.0
  0
LINE
  5
CD
330
22
100
AcDbEntity
  8
0
  6
Continuous
 62
     7
100
AcDbLine
 10
-168.2829895019531
 20
303.2810363769531
 30
0.0
 11
-165.2829895019531
 21
300.2810363769531
 31
0.0
  0
LINE
  5
CE
330
22
100
AcDbEntity
  8
0
  6
Continuous
 62
     7
100
AcDbLine
 10
-168.2829895019531
 20
302.5739440917969
 30
0.0
 11
-165.2829895019531
 21
299.5739440917969
 31
0.0
  0
LINE
  5
CF
330
22
100
AcDbEntity
  8
0
  6
Continuous
 62
     7
100
AcDbLine
 10
-168.2036437988281
 20
300.373291015625
 30
0.0
 11
-165.2829895019531
 21
297.45263671875
 31
0.0
  0
LINE
  5
D0
330
22
100
AcDbEntity
  8
0
  6
Continuous
 62
     7
100
AcDbLine
 10
-168.2829895019531
 20
297.6242065429688
 30
0.0
 11
-165.2829895019531
 21
294.6242065429688
 31
0.0
  0
LINE
  5
D1
330
22
100
AcDbEntity
  8
0
  6
Continuous
 62
     7
100
AcDbLine
 10
-168.2829895019531
 20
296.9170837402344
 30
0.0
 11
-165.2829895019531
 21
293.9170837402344
 31
0.0
  0
LINE
  5
D2
330
22
100
AcDbEntity
  8
0
  6
Continuous
 62
     7
100
AcDbLine
 10
-168.2829895019531
 20
294.7957763671875
 30
0.0
 11
-165.2829895019531
 21
291.7957763671875
 31
0.0
  0
LINE
  5
D3
330
22
100
AcDbEntity
  8
0
  6
Continuous
 62
     7
100
AcDbLine
 10
-168.2829895019531
 20
294.0886535644531
 30
0.0
 11
-165.2829895019531
 21
291.0886535644531
 31
0.0
  0
LINE
  5
D4
330
22
100
AcDbEntity
  8
0
  6
Continuous
 62
     7
100
AcDbLine
 10
-168.2829895019531
 20
291.9673461914063
 30
0.0
 11
-165.2829895019531
 21
288.9673461914063
 31
0.0
  0
LINE
  5
D5
330
22
100
AcDbEntity
  8
0
  6
Continuous
 62
     7
100
AcDbLine
 10
-168.2829895019531
 20
291.2602233886719
 30
0.0
 11
-165.2829895019531
 21
288.2602233886719
 31
0.0
  0
LINE
  5
D6
330
22
100
AcDbEntity
  8
0
  6
Continuous
 62
     7
100
AcDbLine
 10
-168.2829895019531
 20
289.138916015625
 30
0.0
 11
-165.2829895019531
 21
286.138916015625
 31
0.0
  0
LINE
  5
D7
330
22
100
AcDbEntity
  8
0
  6
Continuous
 62
     7
100
AcDbLine
 10
-168.2829895019531
 20
288.4318237304688
 30
0.0
 11
-165.4451293945313
 21
285.5939636230469
 31
0.0
  0
LINE
  5
D8
330
22
100
AcDbEntity
  8
0
  6
Continuous
 62
     7
100
AcDbLine
 10
-168.2829895019531
 20
286.3104858398438
 30
0.0
 11
-167.5664520263672
 21
285.5939636230469
 31
0.0
  0
LINE
  5
D9
330
22
100
AcDbEntity
  8
0
  6
Continuous
 62
     7
100
AcDbLine
 10
-168.2829895019531
 20
285.6033935546875
 30
0.0
 11
-168.2735595703125
 21
285.5939636230469
 31
0.0
  0
LINE
  5
DA
330
22
100
AcDbEntity
  8
0
  6
Continuous
 62
     7
100
AcDbLine
 10
-201.2829895019531
 20
284.8335266113281
 30
0.0
 11
-200.5225372314453
 21
285.5939636230469
 31
0.0
  0
LINE
  5
DB
330
22
100
AcDbEntity
  8
0
  6
Continuous
 62
     7
100
AcDbLine
 10
-201.2829895019531
 20
282.0050964355469
 30
0.0
 11
-197.6941223144531
 21
285.5939636230469
 31
0.0
  0
LINE
  5
DC
330
22
100
AcDbEntity
  8
0
  6
Continuous
 62
     7
100
AcDbLine
 10
-199.4667816162109
 20
280.9928588867188
 30
0.0
 11
-194.8656921386719
 21
285.5939636230469
 31
0.0
  0
LINE
  5
DD
330
22
100
AcDbEntity
  8
0
  6
Continuous
 62
     7
100
AcDbLine
 10
-196.6383666992188
 20
280.9928588867188
 30
0.0
 11
-192.0372619628906
 21
285.5939636230469
 31
0.0
  0
LINE
  5
DE
330
22
100
AcDbEntity
  8
0
  6
Continuous
 62
     7
100
AcDbLine
 10
-193.8099365234375
 20
280.9928588867188
 30
0.0
 11
-189.2088317871094
 21
285.5939636230469
 31
0.0
  0
LINE
  5
DF
330
22
100
AcDbEntity
  8
0
  6
Continuous
 62
     7
100
AcDbLine
 10
-190.9815063476563
 20
280.9928588867188
 30
0.0
 11
-186.3804016113281
 21
285.5939636230469
 31
0.0
  0
LINE
  5
E0
330
22
100
AcDbEntity
  8
0
  6
Continuous
 62
     7
100
AcDbLine
 10
-188.153076171875
 20
280.9928588867188
 30
0.0
 11
-183.5519866943359
 21
285.5939636230469
 31
0.0
  0
LINE
  5
E1
330
22
100
AcDbEntity
  8
0
  6
Continuous
 62
     7
100
AcDbLine
 10
-185.3246459960938
 20
280.9928588867188
 30
0.0
 11
-180.7235565185547
 21
285.5939636230469
 31
0.0
  0
LINE
  5
E2
330
22
100
AcDbEntity
  8
0
  6
Continuous
 62
     7
100
AcDbLine
 10
-182.4962310791016
 20
280.9928588867188
 30
0.0
 11
-177.8951263427734
 21
285.5939636230469
 31
0.0
  0
LINE
  5
E3
330
22
100
AcDbEntity
  8
0
  6
Continuous
 62
     7
100
AcDbLine
 10
-179.6678009033203
 20
280.9928588867188
 30
0.0
 11
-175.0666961669922
 21
285.5939636230469
 31
0.0
  0
LINE
  5
E4
330
22
100
AcDbEntity
  8
0
  6
Continuous
 62
     7
100
AcDbLine
 10
-176.8393707275391
 20
280.9928588867188
 30
0.0
 11
-172.2382659912109
 21
285.5939636230469
 31
0.0
  0
LINE
  5
E5
330
22
100
AcDbEntity
  8
0
  6
Continuous
 62
     7
100
AcDbLine
 10
-174.0109405517578
 20
280.9928588867188
 30
0.0
 11
-169.4098510742188
 21
285.5939636230469
 31
0.0
  0
LINE
  5
E6
330
22
100
AcDbEntity
  8
0
  6
Continuous
 62
     7
100
AcDbLine
 10
-171.1825103759766
 20
280.9928588867188
 30
0.0
 11
-166.5814208984375
 21
285.5939636230469
 31
0.0
  0
LINE
  5
E7
330
22
100
AcDbEntity
  8
0
  6
Continuous
 62
     7
100
AcDbLine
 10
-168.3540954589844
 20
280.9928588867188
 30
0.0
 11
-163.7529907226563
 21
285.5939636230469
 31
0.0
  0
LINE
  5
E8
330
22
100
AcDbEntity
  8
0
  6
Continuous
 62
     7
100
AcDbLine
 10
-165.5256652832031
 20
280.9928588867188
 30
0.0
 11
-160.924560546875
 21
285.5939636230469
 31
0.0
  0
LINE
  5
E9
330
22
100
AcDbEntity
  8
0
  6
Continuous
 62
     7
100
AcDbLine
 10
-163.7358245849609
 20
279.9542846679688
 30
0.0
 11
-158.0961303710938
 21
285.5939636230469
 31
0.0
  0
LINE
  5
EA
330
22
100
AcDbEntity
  8
0
  6
Continuous
 62
     7
100
AcDbLine
 10
-162.2922821044921
 20
278.5693969726563
 30
0.0
 11
-155.2677154541016
 21
285.5939636230469
 31
0.0
  0
LINE
  5
EB
330
22
100
AcDbEntity
  8
0
  6
Continuous
 62
     7
100
AcDbLine
 10
-159.4638519287109
 20
278.5693969726563
 30
0.0
 11
-152.4392852783203
 21
285.5939636230469
 31
0.0
  0
LINE
  5
EC
330
22
100
AcDbEntity
  8
0
  6
Continuous
 62
     7
100
AcDbLine
 10
-156.6354217529297
 20
278.5693969726563
 30
0.0
 11
-149.6108551025391
 21
285.5939636230469
 31
0.0
  0
LINE
  5
ED
330
22
100
AcDbEntity
  8
0
  6
Continuous
 62
     7
100
AcDbLine
 10
-153.8069915771484
 20
278.5693969726563
 30
0.0
 11
-146.7824249267578
 21
285.5939636230469
 31
0.0
  0
LINE
  5
EE
330
22
100
AcDbEntity
  8
0
  6
Continuous
 62
     7
100
AcDbLine
 10
-150.9785614013672
 20
278.5693969726563
 30
0.0
 11
-143.9539947509766
 21
285.5939636230469
 31
0.0
  0
LINE
  5
EF
330
22
100
AcDbEntity
  8
0
  6
Continuous
 62
     7
100
AcDbLine
 10
-146.5474853515625
 20
280.1720581054688
 30
0.0
 11
-141.1255798339844
 21
285.5939636230469
 31
0.0
  0
LINE
  5
F0
330
22
100
AcDbEntity
  8
0
  6
Continuous
 62
     7
100
AcDbLine
 10
-143.6278076171875
 20
280.2633056640625
 30
0.0
 11
-138.2971496582031
 21
285.5939636230469
 31
0.0
  0
LINE
  5
F1
330
22
100
AcDbEntity
  8
0
  6
Continuous
 62
     7
100
AcDbLine
 10
-140.7081298828125
 20
280.3545532226563
 30
0.0
 11
-135.4687194824219
 21
285.5939636230469
 31
0.0
  0
LINE
  5
F2
330
22
100
AcDbEntity
  8
0
  6
Continuous
 62
     7
100
AcDbLine
 10
-137.7884674072266
 20
280.44580078125
 30
0.0
 11
-132.6402893066406
 21
285.5939636230469
 31
0.0
  0
LINE
  5
F3
330
22
100
AcDbEntity
  8
0
  6
Continuous
 62
     7
100
AcDbLine
 10
-134.8687896728516
 20
280.5370483398438
 30
0.0
 11
-129.8118591308594
 21
285.5939636230469
 31
0.0
  0
LINE
  5
F4
330
22
100
AcDbEntity
  8
0
  6
Continuous
 62
     7
100
AcDbLine
 10
-131.9491271972656
 20
280.6282653808594
 30
0.0
 11
-126.9834365844727
 21
285.5939636230469
 31
0.0
  0
LINE
  5
F5
330
22
100
AcDbEntity
  8
0
  6
Continuous
 62
     7
100
AcDbLine
 10
-129.0294494628906
 20
280.7195129394531
 30
0.0
 11
-124.1550140380859
 21
285.5939636230469
 31
0.0
  0
LINE
  5
F6
330
22
100
AcDbEntity
  8
0
  6
Continuous
 62
     7
100
AcDbLine
 10
-126.1097793579102
 20
280.8107604980469
 30
0.0
 11
-121.3265838623047
 21
285.5939636230469
 31
0.0
  0
LINE
  5
F7
330
22
100
AcDbEntity
  8
0
  6
Continuous
 62
     7
100
AcDbLine
 10
-123.1901092529297
 20
280.9020080566406
 30
0.0
 11
-120.2829818725586
 21
283.8091430664063
 31
0.0
  0
LINE
  5
F8
330
22
100
AcDbEntity
  8
0
  6
Continuous
 62
     7
100
AcDbLine
 10
-121.8232879638672
 20
279.4525451660156
 30
0.0
 11
-121.8232879638672
 21
237.0939636230469
 31
0.0
  0
LINE
  5
F9
330
22
100
AcDbEntity
  8
0
  6
Continuous
 62
     7
100
AcDbLine
 10
-148.5426788330078
 20
280.1097106933594
 30
0.0
 11
-120.2829818725586
 21
280.9928588867188
 31
0.0
  0
LINE
  5
FA
330
22
100
AcDbEntity
  8
0
  6
Continuous
 62
     7
100
AcDbLine
 10
-167.2829895019531
 20
301.2939758300781
 30
0.0
 11
-168.2829895019531
 21
300.2939758300781
 31
0.0
  0
LINE
  5
FB
330
22
100
AcDbEntity
  8
0
  6
Continuous
 62
     7
100
AcDbLine
 10
-199.3829803466797
 20
279.5014343261719
 30
0.0
 11
-199.3829803466797
 21
237.0939636230469
 31
0.0
  0
LINE
  5
FC
330
22
100
AcDbEntity
  8
0
  6
Continuous
 62
     7
100
AcDbLine
 10
-199.3829803466797
 20
279.5014343261719
 30
0.0
 11
-201.2829895019531
 21
280.9928588867188
 31
0.0
  0
LINE
  5
FD
330
22
100
AcDbEntity
  8
0
  6
Continuous
 62
     7
100
AcDbLine
 10
-168.2829895019531
 20
302.2939758300781
 30
0.0
 11
-167.2829895019531
 21
301.2939758300781
 31
0.0
  0
LINE
  5
FE
330
22
100
AcDbEntity
  8
0
  6
Continuous
 62
     7
100
AcDbLine
 10
-168.2829895019531
 20
318.8783569335938
 30
0.0
 11
-167.2829895019531
 21
317.8783569335938
 31
0.0
  0
LINE
  5
FF
330
22
100
AcDbEntity
  8
0
  6
Continuous
 62
     7
100
AcDbLine
 10
-167.2829895019531
 20
317.8783569335938
 30
0.0
 11
-168.2829895019531
 21
316.8783569335938
 31
0.0
  0
LINE
  5
100
330
22
100
AcDbEntity
  8
0
  6
Continuous
 62
     7
100
AcDbLine
 10
-150.0829772949219
 20
278.5693969726563
 30
0.0
 11
-121.8232879638672
 21
279.4525451660156
 31
0.0
  0
LINE
  5
101
330
22
100
AcDbEntity
  8
0
  6
Continuous
 62
     7
100
AcDbLine
 10
-120.2829818725586
 20
280.9928588867188
 30
0.0
 11
-121.8232879638672
 21
279.4525451660156
 31
0.0
  0
LINE
  5
102
330
22
100
AcDbEntity
  8
0
  6
Continuous
 62
     7
100
AcDbLine
 10
-148.5426788330078
 20
280.1097106933594
 30
0.0
 11
-148.5426788330078
 21
237.0939636230469
 31
0.0
  0
LINE
  5
103
330
22
100
AcDbEntity
  8
0
  6
Continuous
 62
     7
100
AcDbLine
 10
-164.7744293212891
 20
280.9928588867188
 30
0.0
 11
-164.7744293212891
 21
237.0939636230469
 31
0.0
  0
LINE
  5
104
330
22
100
AcDbEntity
  8
0
  6
CENTER
 62
     7
100
AcDbLine
 10
-490.9845275878906
 20
237.0939636230469
 30
0.0
 11
-261.9380493164063
 21
237.0939636230469
 31
0.0
  0
LINE
  5
105
330
22
100
AcDbEntity
  8
0
  6
CENTER
 62
     7
100
AcDbLine
 10
-377.1912231445313
 20
347.854736328125
 30
0.0
 11
-377.1912231445313
 21
123.0498352050781
 31
0.0
  0
LINE
  5
106
330
22
100
AcDbEntity
  8
0
  6
Continuous
 62
     7
100
AcDbLine
 10
-168.2829895019531
 20
237.0939636230469
 30
0.0
 11
-168.2829895019531
 21
139.5939636230469
 31
0.0
  0
LINE
  5
107
330
22
100
AcDbEntity
  8
0
  6
Continuous
 62
     7
100
AcDbLine
 10
-165.2829895019531
 20
237.0939636230469
 30
0.0
 11
-165.2829895019531
 21
139.5939636230469
 31
0.0
  0
LINE
  5
108
330
22
100
AcDbEntity
  8
0
  6
Continuous
 62
     7
100
AcDbLine
 10
-120.2829818725586
 20
285.5939636230469
 30
0.0
 11
-120.2829818725586
 21
188.5939636230469
 31
0.0
  0
LINE
  5
109
330
22
100
AcDbEntity
  8
0
  6
Continuous
 62
     7
100
AcDbLine
 10
-201.2829895019531
 20
285.5939636230469
 30
0.0
 11
-201.2829895019531
 21
188.5939636230469
 31
0.0
  0
LINE
  5
10A
330
22
100
AcDbEntity
  8
0
  6
Continuous
 62
     7
100
AcDbLine
 10
-165.2829895019531
 20
334.5939636230469
 30
0.0
 11
-168.2829895019531
 21
334.5939636230469
 31
0.0
  0
CIRCLE
  5
10B
330
22
100
AcDbEntity
  8
0
  6
Continuous
 62
     7
100
AcDbCircle
 10
-377.1912231445313
 20
324.5939636230469
 30
0.0
 40
2.75
  0
CIRCLE
  5
10C
330
22
100
AcDbEntity
  8
0
  6
Continuous
 62
     7
100
AcDbCircle
 10
-377.1912231445313
 20
324.5939636230469
 30
0.0
 40
5.0
  0
CIRCLE
  5
10D
330
22
100
AcDbEntity
  8
0
  6
CENTER
 62
     7
100
AcDbCircle
 10
-377.1912231445313
 20
237.0939636230469
 30
0.0
 40
87.5
  0
CIRCLE
  5
10E
330
22
100
AcDbEntity
  8
0
  6
Continuous
 62
     7
100
AcDbCircle
 10
-377.1912231445313
 20
237.0939636230469
 30
0.0
 40
42.45000076293945
  0
CIRCLE
  5
10F
330
22
100
AcDbEntity
  8
0
  6
Continuous
 62
     7
100
AcDbCircle
 10
-377.1912231445313
 20
237.0939636230469
 30
0.0
 40
80.5
  0
CIRCLE
  5
110
330
22
100
AcDbEntity
  8
0
  6
Continuous
 62
     7
100
AcDbCircle
 10
-377.1912231445313
 20
237.0939636230469
 30
0.0
 40
97.5
  0
CIRCLE
  5
111
330
22
100
AcDbEntity
  8
0
  6
Continuous
 62
     7
100
AcDbCircle
 10
-377.1912231445313
 20
237.0939636230469
 30
0.0
 40
43.93999862670898
  0
CIRCLE
  5
112
330
22
100
AcDbEntity
  8
0
  6
Continuous
 62
     7
100
AcDbCircle
 10
-377.1912231445313
 20
237.0939636230469
 30
0.0
 40
64.0
  0
CIRCLE
  5
113
330
22
100
AcDbEntity
  8
0
  6
Continuous
 62
     7
100
AcDbCircle
 10
-452.9679565429687
 20
193.3436737060547
 30
0.0
 40
5.0
  0
CIRCLE
  5
114
330
22
100
AcDbEntity
  8
0
  6
Continuous
 62
     7
100
AcDbCircle
 10
-452.9679565429687
 20
193.3436737060547
 30
0.0
 40
2.75
  0
CIRCLE
  5
115
330
22
100
AcDbEntity
  8
0
  6
Continuous
 62
     7
100
AcDbCircle
 10
-301.4135131835938
 20
193.3442535400391
 30
0.0
 40
5.0
  0
CIRCLE
  5
116
330
22
100
AcDbEntity
  8
0
  6
Continuous
 62
     7
100
AcDbCircle
 10
-301.4135131835938
 20
193.3442535400391
 30
0.0
 40
2.75
  0
CIRCLE
  5
117
330
22
100
AcDbEntity
  8
0
  6
Continuous
 62
     7
100
AcDbCircle
 10
-377.1912231445313
 20
237.0939636230469
 30
0.0
 40
48.5
  0
TEXT
  5
118
330
22
100
AcDbEntity
  8
0
  6
Continuous
 62
     7
100
AcDbText
 10
-307.4762201309204
 20
100.1804428100586
 30
0.0
 40
7.0
  1
ＤＬ－Ｆ２－Ｔｉ－８０
 41
0.8440126641457824
100
AcDbText
  0
DIMENSION
  5
119
330
22
100
AcDbEntity
  8
0
  6
Continuous
 62
     7
100
AcDbDimension
  2
*D1
 10
-444.5913787910728
 20
166.6420721025066
 30
0.0
 11
-299.0515441894531
 21
318.7716674804688
 31
0.0
 70
     3
 71
     5
 42
-1.0
  3
DIMSTYLE1
100
AcDbDiametricDimension
 15
-309.7910674979897
 25
307.5458551435872
 35
0.0
 40
0.0
  0
DIMENSION
  5
11A
330
22
100
AcDbEntity
  8
0
  6
Continuous
 62
     7
100
AcDbDimension
  2
*D2
 10
-318.6493917378003
 20
172.0624022428532
 30
0.0
 11
-454.7513732910156
 21
323.2521667480469
 31
0.0
 70
     3
 71
     5
 42
-1.0
  3
DIMSTYLE2
100
AcDbDiametricDimension
 15
-435.7330545512622
 25
302.1255250032405
 35
0.0
 40
0.0
  0
INSERT
  5
11B
330
22
100
AcDbEntity
  8
0
  6
Continuous
 62
     7
100
AcDbBlockReference
  2
KOZU0001
 10
-379.0481262207031
 20
329.2363586425781
 30
0.0
  0
DIMENSION
  5
11C
330
22
100
AcDbEntity
  8
0
  6
Continuous
 62
     7
100
AcDbDimension
  2
*D3
 10
-420.0572938410289
 20
259.7820658584228
 30
0.0
 11
-328.9309997558594
 21
211.5508575439453
 31
0.0
 70
     3
 71
     5
 42
-1.0
  3
DIMSTYLE3
100
AcDbDiametricDimension
 15
-334.3251524480336
 25
214.405861387671
 35
0.0
 40
0.0
  0
DIMENSION
  5
11D
330
22
100
AcDbEntity
  8
0
  6
Continuous
 62
     7
100
AcDbDimension
  2
*D4
 10
-168.2829895019531
 20
361.5549621582031
 30
0.0
 11
-184.7829895019531
 21
361.5549621582031
 31
0.0
 71
     5
 42
-1.0
  3
DIMSTYLE4
100
AcDbAlignedDimension
 13
-201.2829895019531
 23
285.5939636230469
 33
0.0
 14
-168.2829895019531
 24
334.5939636230469
 34
0.0
100
AcDbRotatedDimension
  0
DIMENSION
  5
11E
330
22
100
AcDbEntity
  8
0
  6
Continuous
 62
     7
100
AcDbDimension
  2
*D5
 10
-165.2829895019531
 20
361.5549621582031
 30
0.0
 11
-157.8205718994141
 21
361.5549621582031
 31
0.0
 71
     5
 42
-1.0
  3
DIMSTYLE5
100
AcDbAlignedDimension
 13
-168.2829895019531
 23
363.8409423828125
 33
0.0
 14
-165.2829895019531
 24
334.5939636230469
 34
0.0
100
AcDbRotatedDimension
  0
DIMENSION
  5
11F
330
22
100
AcDbEntity
  8
0
  6
Continuous
 62
     7
100
AcDbDimension
  2
*D6
 10
-201.2829895019531
 20
252.0785522460939
 30
0.0
 11
-182.2829895019531
 21
252.0785522460939
 31
0.0
 71
     5
 42
-1.0
  3
DIMSTYLE6
100
AcDbAlignedDimension
 13
-163.2829895019531
 23
237.0939636230469
 33
0.0
 14
-201.2829895019531
 24
285.5939636230469
 34
0.0
100
AcDbRotatedDimension
  0
DIMENSION
  5
120
330
22
100
AcDbEntity
  8
0
  6
Continuous
 62
     7
100
AcDbDimension
  2
*D7
 10
-120.2829818725586
 20
113.1437454223633
 30
0.0
 11
-160.7829895019531
 21
113.1437454223633
 31
0.0
 71
     5
 42
-1.0
  3
DIMSTYLE7
100
AcDbAlignedDimension
 13
-201.2829895019531
 23
188.5939636230469
 33
0.0
 14
-120.2829818725586
 24
188.5939636230469
 34
0.0
100
AcDbRotatedDimension
  0
INSERT
  5
121
330
22
100
AcDbEntity
  8
0
  6
Continuous
 62
     7
100
AcDbBlockReference
  2
KOZU0002
 10
-135.4952850341797
 20
280.5174560546875
 30
0.0
  0
INSERT
  5
122
330
22
100
AcDbEntity
  8
0
  6
Continuous
 62
     7
100
AcDbBlockReference
  2
KOZU0003
 10
-189.1134643554688
 20
280.9928588867188
 30
0.0
  0
ENDSEC
  0
SECTION
  2
OBJECTS
  0
DICTIONARY
  5
C
330
0
100
AcDbDictionary
281
     1
  3
ACAD_COLOR
350
1B
  3
ACAD_GROUP
350
D
  3
ACAD_LAYOUT
350
19
  3
ACAD_MATERIAL
350
1A
  3
ACAD_MLINESTYLE
350
16
  3
ACAD_PLOTSETTINGS
350
18
  3
ACAD_PLOTSTYLENAME
350
E
  3
ACAD_TABLESTYLE
350
1C
  3
AcDbVariableDictionary
350
12E
  0
DICTIONARY
  5
1B
102
{ACAD_REACTORS
330
C
102
}
330
C
100
AcDbDictionary
281
     1
  0
DICTIONARY
  5
D
102
{ACAD_REACTORS
330
C
102
}
330
C
100
AcDbDictionary
281
     1
  0
DICTIONARY
  5
19
102
{ACAD_REACTORS
330
C
102
}
330
C
100
AcDbDictionary
281
     1
  3
Model
350
25
  3
レイアウト1
350
21
  0
DICTIONARY
  5
1A
102
{ACAD_REACTORS
330
C
102
}
330
C
100
AcDbDictionary
281
     1
  0
DICTIONARY
  5
16
102
{ACAD_REACTORS
330
C
102
}
330
C
100
AcDbDictionary
281
     1
  3
Standard
350
17
  0
DICTIONARY
  5
18
102
{ACAD_REACTORS
330
C
102
}
330
C
100
AcDbDictionary
281
     1
  0
ACDBDICTIONARYWDFLT
  5
E
102
{ACAD_REACTORS
330
C
102
}
330
C
100
AcDbDictionary
281
     1
  3
Normal
350
F
100
AcDbDictionaryWithDefault
340
F
  0
DICTIONARY
  5
1C
102
{ACAD_REACTORS
330
C
102
}
330
C
100
AcDbDictionary
281
     1
  3
Standard
350
1D
  0
DICTIONARY
  5
12E
102
{ACAD_REACTORS
330
C
102
}
330
C
100
AcDbDictionary
281
     1
  3
CTABLESTYLE
350
12F
  0
LAYOUT
  5
25
102
{ACAD_REACTORS
330
19
102
}
330
19
100
AcDbPlotSettings
  1

  2
PDF reDirect v2
  4
User66
  6

 40
3.174999952316284
 41
3.174999952316284
 42
3.17498779296875
 43
3.17498779296875
 44
420.0
 45
594.0
 46
0.0
 47
0.0
 48
0.0
 49
0.0
140
0.0
141
0.0
142
1.0
143
1.0
 70
 11952
 72
     1
 73
     1
 74
     2
  7
C:\Users\ck\AppData\Roaming\Autodesk\AutoCAD 2005\R16.1\jpn\Plot Styles\black.ctb
 75
    16
147
1.0
 76
     0
 77
     2
 78
   300
148
592.0
149
0.0
100
AcDbLayout
  1
Model
 70
     1
 71
     0
 10
0.0
 20
0.0
 11
12.0
 21
9.0
 12
0.0
 22
0.0
 32
0.0
 14
0.0
 24
0.0
 34
0.0
 15
0.0
 25
0.0
 35
0.0
146
0.0
 13
0.0
 23
0.0
 33
0.0
 16
1.0
 26
0.0
 36
0.0
 17
0.0
 27
1.0
 37
0.0
 76
     0
330
22
1001
ACAD_PSEXT
1000
PDF reDirect v2
1000
PDF reDirect Pro
1000
PDF_REDIRECT_PORT:
1000
PDF reDirect provided by EXP Systems
1070
     0
  0
LAYOUT
  5
21
102
{ACAD_REACTORS
330
19
102
}
330
19
100
AcDbPlotSettings
  1

  2
PDF reDirect v2
  4

  6

 40
0.0
 41
0.0
 42
0.0
 43
0.0
 44
0.0
 45
0.0
 46
0.0
 47
0.0
 48
0.0
 49
0.0
140
0.0
141
0.0
142
1.0
143
1.0
 70
   688
 72
     0
 73
     0
 74
     5
  7
C:\Users\ck\AppData\Roaming\Autodesk\AutoCAD 2005\R16.1\jpn\Plot Styles\black.ctb
 75
    16
147
1.0
 76
     0
 77
     2
 78
   300
148
0.0
149
0.0
100
AcDbLayout
  1
レイアウト1
 70
     1
 71
     1
 10
-592.0
 20
0.0
 11
0.0
 21
418.0
 12
0.0
 22
0.0
 32
0.0
 14
1.000000000000000E+20
 24
1.000000000000000E+20
 34
1.000000000000000E+20
 15
-1.000000000000000E+20
 25
-1.000000000000000E+20
 35
-1.000000000000000E+20
146
0.0
 13
0.0
 23
0.0
 33
0.0
 16
1.0
 26
0.0
 36
0.0
 17
0.0
 27
1.0
 37
0.0
 76
     0
330
1E
  0
MLINESTYLE
  5
17
102
{ACAD_REACTORS
330
16
102
}
330
16
100
AcDbMlineStyle
  2
STANDARD
 70
     0
  3

 62
   256
 51
90.0
 52
90.0
 71
     2
 49
0.5
 62
   256
  6
BYLAYER
 49
-0.5
 62
   256
  6
BYLAYER
  0
ACDBPLACEHOLDER
  5
F
102
{ACAD_REACTORS
330
E
102
}
330
E
  0
TABLESTYLE
  5
1D
102
{ACAD_REACTORS
330
1C
102
}
330
1C
100
AcDbTableStyle
  3
Standard
 70
     0
 71
     0
 40
0.06
 41
0.06
280
     0
281
     0
  7
STANDARD
140
0.18
170
     2
 62
     0
 63
     7
283
     0
274
    -2
284
     1
 64
     0
275
    -2
285
     1
 65
     0
276
    -2
286
     1
 66
     0
277
    -2
287
     1
 67
     0
278
    -2
288
     1
 68
     0
279
    -2
289
     1
 69
     0
  7
STANDARD
140
0.25
170
     5
 62
     0
 63
     7
283
     0
274
    -2
284
     1
 64
     0
275
    -2
285
     1
 65
     0
276
    -2
286
     1
 66
     0
277
    -2
287
     1
 67
     0
278
    -2
288
     1
 68
     0
279
    -2
289
     1
 69
     0
  7
STANDARD
140
0.18
170
     5
 62
     0
 63
     7
283
     0
274
    -2
284
     1
 64
     0
275
    -2
285
     1
 65
     0
276
    -2
286
     1
 66
     0
277
    -2
287
     1
 67
     0
278
    -2
288
     1
 68
     0
279
    -2
289
     1
 69
     0
  0
DICTIONARYVAR
  5
12F
102
{ACAD_REACTORS
330
12E
102
}
330
12E
100
DictionaryVariables
280
     0
  1
STANDARD
  0
ENDSEC
  0
EOF
