  0
SECTION
  2
HEADER
  9
$ACADVER
  1
AC1018
  9
$ACADMAINTVER
 70
    39
  9
$DWGCODEPAGE
  3
ANSI_932
  9
$INSBASE
 10
0.0
 20
0.0
 30
0.0
  9
$EXTMIN
 10
-298.2556751510776
 20
35.39715649210518
 30
-0.0015258207003583
  9
$EXTMAX
 10
-80.34536654612201
 20
275.6788336744984
 30
0.0000000349246037
  9
$LIMMIN
 10
-423.0
 20
-2.0
  9
$LIMMAX
 10
-5.0
 20
293.0
  9
$ORTHOMODE
 70
     0
  9
$REGENMODE
 70
     1
  9
$FILLMODE
 70
     1
  9
$QTEXTMODE
 70
     0
  9
$MIRRTEXT
 70
     0
  9
$LTSCALE
 40
1.0
  9
$ATTMODE
 70
     1
  9
$TEXTSIZE
 40
0.2
  9
$TRACEWID
 40
0.05
  9
$TEXTSTYLE
  7
STANDARD
  9
$CLAYER
  8
0
  9
$CELTYPE
  6
CONTINUOUS
  9
$CECOLOR
 62
   256
  9
$CELTSCALE
 40
1.0
  9
$DISPSILH
 70
     0
  9
$DIMSCALE
 40
1.0
  9
$DIMASZ
 40
1.0
  9
$DIMEXO
 40
2.54
  9
$DIMDLI
 40
0.38
  9
$DIMRND
 40
0.0
  9
$DIMDLE
 40
0.0
  9
$DIMEXE
 40
2.54
  9
$DIMTP
 40
0.0
  9
$DIMTM
 40
0.0
  9
$DIMTXT
 40
3.0
  9
$DIMCEN
 40
0.09
  9
$DIMTSZ
 40
0.0
  9
$DIMTOL
 70
     0
  9
$DIMLIM
 70
     0
  9
$DIMTIH
 70
     0
  9
$DIMTOH
 70
     0
  9
$DIMSE1
 70
     0
  9
$DIMSE2
 70
     0
  9
$DIMTAD
 70
     1
  9
$DIMZIN
 70
     0
  9
$DIMBLK
  1

  9
$DIMASO
 70
     1
  9
$DIMSHO
 70
     0
  9
$DIMPOST
  1

  9
$DIMAPOST
  1

  9
$DIMALT
 70
     0
  9
$DIMALTD
 70
     2
  9
$DIMALTF
 40
25.4
  9
$DIMLFAC
 40
1.0
  9
$DIMTOFL
 70
     0
  9
$DIMTVP
 40
1.0
  9
$DIMTIX
 70
     0
  9
$DIMSOXD
 70
     0
  9
$DIMSAH
 70
     1
  9
$DIMBLK1
  1

  9
$DIMBLK2
  1

  9
$DIMSTYLE
  2
DIMSTYLE1
  9
$DIMCLRD
 70
     0
  9
$DIMCLRE
 70
     0
  9
$DIMCLRT
 70
     0
  9
$DIMTFAC
 40
1.0
  9
$DIMGAP
 40
1.5
  9
$DIMJUST
 70
     0
  9
$DIMSD1
 70
     0
  9
$DIMSD2
 70
     0
  9
$DIMTOLJ
 70
     1
  9
$DIMTZIN
 70
     0
  9
$DIMALTZ
 70
     0
  9
$DIMALTTZ
 70
     0
  9
$DIMUPT
 70
     0
  9
$DIMDEC
 70
     4
  9
$DIMTDEC
 70
     4
  9
$DIMALTU
 70
     2
  9
$DIMALTTD
 70
     2
  9
$DIMTXSTY
  7
STANDARD
  9
$DIMAUNIT
 70
     0
  9
$DIMADEC
 70
     0
  9
$DIMALTRND
 40
0.0
  9
$DIMAZIN
 70
     0
  9
$DIMDSEP
 70
    46
  9
$DIMATFIT
 70
     3
  9
$DIMFRAC
 70
     0
  9
$DIMLDRBLK
  1

  9
$DIMLUNIT
 70
     2
  9
$DIMLWD
 70
    -2
  9
$DIMLWE
 70
    -2
  9
$DIMTMOVE
 70
     0
  9
$LUNITS
 70
     2
  9
$LUPREC
 70
     4
  9
$SKETCHINC
 40
0.1
  9
$FILLETRAD
 40
0.0
  9
$AUNITS
 70
     0
  9
$AUPREC
 70
     0
  9
$MENU
  1
.
  9
$ELEVATION
 40
0.0
  9
$PELEVATION
 40
0.0
  9
$THICKNESS
 40
0.0
  9
$LIMCHECK
 70
     0
  9
$CHAMFERA
 40
0.0
  9
$CHAMFERB
 40
0.0
  9
$CHAMFERC
 40
0.0
  9
$CHAMFERD
 40
0.0
  9
$SKPOLY
 70
     0
  9
$TDCREATE
 40
2457841.882305150
  9
$TDUCREATE
 40
2457841.507305150
  9
$TDUPDATE
 40
2457841.882919155
  9
$TDUUPDATE
 40
2457841.507919155
  9
$TDINDWG
 40
0.0006145833
  9
$TDUSRTIMER
 40
0.0006145833
  9
$USRTIMER
 70
     1
  9
$ANGBASE
 50
0.0
  9
$ANGDIR
 70
     0
  9
$PDMODE
 70
     0
  9
$PDSIZE
 40
0.0
  9
$PLINEWID
 40
0.0
  9
$SPLFRAME
 70
     0
  9
$SPLINETYPE
 70
     6
  9
$SPLINESEGS
 70
     8
  9
$HANDSEED
  5
241
  9
$SURFTAB1
 70
     6
  9
$SURFTAB2
 70
     6
  9
$SURFTYPE
 70
     6
  9
$SURFU
 70
     6
  9
$SURFV
 70
     6
  9
$UCSBASE
  2

  9
$UCSNAME
  2

  9
$UCSORG
 10
0.0
 20
0.0
 30
0.0
  9
$UCSXDIR
 10
1.0
 20
0.0
 30
0.0
  9
$UCSYDIR
 10
0.0
 20
1.0
 30
0.0
  9
$UCSORTHOREF
  2

  9
$UCSORTHOVIEW
 70
     0
  9
$UCSORGTOP
 10
0.0
 20
0.0
 30
0.0
  9
$UCSORGBOTTOM
 10
0.0
 20
0.0
 30
0.0
  9
$UCSORGLEFT
 10
0.0
 20
0.0
 30
0.0
  9
$UCSORGRIGHT
 10
0.0
 20
0.0
 30
0.0
  9
$UCSORGFRONT
 10
0.0
 20
0.0
 30
0.0
  9
$UCSORGBACK
 10
0.0
 20
0.0
 30
0.0
  9
$PUCSBASE
  2

  9
$PUCSNAME
  2

  9
$PUCSORG
 10
0.0
 20
0.0
 30
0.0
  9
$PUCSXDIR
 10
1.0
 20
0.0
 30
0.0
  9
$PUCSYDIR
 10
0.0
 20
1.0
 30
0.0
  9
$PUCSORTHOREF
  2

  9
$PUCSORTHOVIEW
 70
     0
  9
$PUCSORGTOP
 10
0.0
 20
0.0
 30
0.0
  9
$PUCSORGBOTTOM
 10
0.0
 20
0.0
 30
0.0
  9
$PUCSORGLEFT
 10
0.0
 20
0.0
 30
0.0
  9
$PUCSORGRIGHT
 10
0.0
 20
0.0
 30
0.0
  9
$PUCSORGFRONT
 10
0.0
 20
0.0
 30
0.0
  9
$PUCSORGBACK
 10
0.0
 20
0.0
 30
0.0
  9
$USERI1
 70
     0
  9
$USERI2
 70
     0
  9
$USERI3
 70
     0
  9
$USERI4
 70
     0
  9
$USERI5
 70
     0
  9
$USERR1
 40
0.0
  9
$USERR2
 40
0.0
  9
$USERR3
 40
0.0
  9
$USERR4
 40
0.0
  9
$USERR5
 40
0.0
  9
$WORLDVIEW
 70
     1
  9
$SHADEDGE
 70
     3
  9
$SHADEDIF
 70
    70
  9
$TILEMODE
 70
     1
  9
$MAXACTVP
 70
    64
  9
$PINSBASE
 10
0.0
 20
0.0
 30
0.0
  9
$PLIMCHECK
 70
     0
  9
$PEXTMIN
 10
1.000000000000000E+20
 20
1.000000000000000E+20
 30
1.000000000000000E+20
  9
$PEXTMAX
 10
-1.000000000000000E+20
 20
-1.000000000000000E+20
 30
-1.000000000000000E+20
  9
$PLIMMIN
 10
-423.0
 20
-2.0
  9
$PLIMMAX
 10
-5.0
 20
293.0
  9
$UNITMODE
 70
     0
  9
$VISRETAIN
 70
     1
  9
$PLINEGEN
 70
     0
  9
$PSLTSCALE
 70
     1
  9
$TREEDEPTH
 70
  3020
  9
$CMLSTYLE
  2
Standard
  9
$CMLJUST
 70
     0
  9
$CMLSCALE
 40
1.0
  9
$PROXYGRAPHICS
 70
     1
  9
$MEASUREMENT
 70
     0
  9
$CELWEIGHT
370
    -1
  9
$ENDCAPS
280
     0
  9
$JOINSTYLE
280
     0
  9
$LWDISPLAY
290
     0
  9
$INSUNITS
 70
     0
  9
$HYPERLINKBASE
  1

  9
$STYLESHEET
  1

  9
$XEDIT
290
     1
  9
$CEPSNTYPE
380
     0
  9
$PSTYLEMODE
290
     1
  9
$FINGERPRINTGUID
  2
{F0A69286-A520-4C77-BF8D-C9A33BEBE080}
  9
$VERSIONGUID
  2
{F85873C3-EA1C-4CD5-B41D-94AB71D96C64}
  9
$EXTNAMES
290
     1
  9
$PSVPSCALE
 40
0.0
  9
$OLESTARTUP
290
     0
  9
$SORTENTS
280
   127
  9
$INDEXCTL
280
     0
  9
$HIDETEXT
280
     0
  9
$XCLIPFRAME
290
     0
  9
$HALOGAP
280
     0
  9
$OBSCOLOR
 70
   257
  9
$OBSLTYPE
280
     0
  9
$INTERSECTIONDISPLAY
280
     0
  9
$INTERSECTIONCOLOR
 70
   257
  9
$DIMASSOC
280
     1
  9
$PROJECTNAME
  1

  0
ENDSEC
  0
SECTION
  2
CLASSES
  0
CLASS
  1
ACDBDICTIONARYWDFLT
  2
AcDbDictionaryWithDefault
  3
ObjectDBX Classes
 90
        0
 91
        1
280
     0
281
     0
  0
CLASS
  1
TABLESTYLE
  2
AcDbTableStyle
  3
ObjectDBX Classes
 90
     2047
 91
        1
280
     0
281
     0
  0
CLASS
  1
DICTIONARYVAR
  2
AcDbDictionaryVar
  3
ObjectDBX Classes
 90
        0
 91
        1
280
     0
281
     0
  0
ENDSEC
  0
SECTION
  2
TABLES
  0
TABLE
  2
VPORT
  5
8
330
0
100
AcDbSymbolTable
 70
     2
  0
VPORT
  5
240
330
8
100
AcDbSymbolTableRecord
100
AcDbViewportTableRecord
  2
*Active
 70
     0
 10
0.0
 20
0.0
 11
1.0
 21
1.0
 12
-214.0
 22
145.5
 13
0.0
 23
0.0
 14
1.0
 24
1.0
 15
0.0
 25
0.0
 16
0.0
 26
0.0
 36
1.0
 17
0.0
 27
0.0
 37
0.0
 40
297.3320158102766
 41
1.707124010554089
 42
50.0
 43
0.0
 44
0.0
 50
0.0
 51
0.0
 71
     0
 72
   100
 73
     1
 74
     1
 75
     0
 76
     0
 77
     0
 78
     0
281
     0
 65
     1
110
0.0
120
0.0
130
0.0
111
1.0
121
0.0
131
0.0
112
0.0
122
1.0
132
0.0
 79
     0
146
0.0
  0
ENDTAB
  0
TABLE
  2
LTYPE
  5
5
330
0
100
AcDbSymbolTable
 70
     6
  0
LTYPE
  5
13
330
5
100
AcDbSymbolTableRecord
100
AcDbLinetypeTableRecord
  2
ByBlock
 70
     0
  3

 72
    65
 73
     0
 40
0.0
  0
LTYPE
  5
14
330
5
100
AcDbSymbolTableRecord
100
AcDbLinetypeTableRecord
  2
ByLayer
 70
     0
  3

 72
    65
 73
     0
 40
0.0
  0
LTYPE
  5
15
330
5
100
AcDbSymbolTableRecord
100
AcDbLinetypeTableRecord
  2
CONTINUOUS
 70
     0
  3
Solid line
 72
    65
 73
     0
 40
0.0
  0
LTYPE
  5
26
330
5
100
AcDbSymbolTableRecord
100
AcDbLinetypeTableRecord
  2
DASHED
 70
     0
  3
__ __ __ __ __ __ __ __ __ __ __ __ __ __ __
 72
    65
 73
     2
 40
3.5
 49
2.0
 74
     0
 49
-1.5
 74
     0
  0
LTYPE
  5
27
330
5
100
AcDbSymbolTableRecord
100
AcDbLinetypeTableRecord
  2
CENTER
 70
     0
  3
____ _ ____ _ ____ _ ____ _ ____ _ ____ _ ____
 72
    65
 73
     4
 40
17.5
 49
13.0
 74
     0
 49
-1.5
 74
     0
 49
1.5
 74
     0
 49
-1.5
 74
     0
  0
LTYPE
  5
28
330
5
100
AcDbSymbolTableRecord
100
AcDbLinetypeTableRecord
  2
PHANTOM
 70
     0
  3
_____ _ _ _____ _ _ _____ _ _ _____ _ _ ____  
 72
    65
 73
     6
 40
15.5
 49
8.0
 74
     0
 49
-1.5
 74
     0
 49
1.5
 74
     0
 49
-1.5
 74
     0
 49
1.5
 74
     0
 49
-1.5
 74
     0
  0
LTYPE
  5
29
330
5
100
AcDbSymbolTableRecord
100
AcDbLinetypeTableRecord
  2
DOT
 70
     0
  3
. . . . . . . . . . . . . . . . . . . . . . . .
 72
    65
 73
     2
 40
0.25
 49
0.0
 74
     0
 49
-0.25
 74
     0
  0
LTYPE
  5
2A
330
5
100
AcDbSymbolTableRecord
100
AcDbLinetypeTableRecord
  2
HIDDEN
 70
     0
  3
__ __ __ __ __ __ __ __ __ __ __ __ __ __ __
 72
    65
 73
     2
 40
3.5
 49
2.0
 74
     0
 49
-1.5
 74
     0
  0
ENDTAB
  0
TABLE
  2
LAYER
  5
2
330
0
100
AcDbSymbolTable
 70
     3
  0
LAYER
  5
10
330
2
100
AcDbSymbolTableRecord
100
AcDbLayerTableRecord
  2
0
 70
     0
 62
     7
  6
CONTINUOUS
370
    -3
390
F
  0
LAYER
  5
2B
330
2
100
AcDbSymbolTableRecord
100
AcDbLayerTableRecord
  2
1
 70
     0
 62
     7
  6
CONTINUOUS
370
    -3
390
F
  0
LAYER
  5
2C
330
2
100
AcDbSymbolTableRecord
100
AcDbLayerTableRecord
  2
DEFPOINTS
 70
     0
 62
     7
  6
CONTINUOUS
290
     0
370
    -3
390
F
  0
ENDTAB
  0
TABLE
  2
STYLE
  5
3
330
0
100
AcDbSymbolTable
 70
     3
  0
STYLE
  5
11
330
3
100
AcDbSymbolTableRecord
100
AcDbTextStyleTableRecord
  2
STANDARD
 70
     0
 40
0.0
 41
1.0
 50
0.0
 71
     0
 42
0.2
  3

  4

1001
ACAD
1000
MS Gothic
1071
    32817
  0
ENDTAB
  0
TABLE
  2
VIEW
  5
6
330
0
100
AcDbSymbolTable
 70
     0
  0
ENDTAB
  0
TABLE
  2
UCS
  5
7
330
0
100
AcDbSymbolTable
 70
     0
  0
ENDTAB
  0
TABLE
  2
APPID
  5
9
330
0
100
AcDbSymbolTable
 70
     2
  0
APPID
  5
12
330
9
100
AcDbSymbolTableRecord
100
AcDbRegAppTableRecord
  2
ACAD
 70
     0
  0
APPID
  5
22D
330
9
100
AcDbSymbolTableRecord
100
AcDbRegAppTableRecord
  2
ACAD_PSEXT
 70
     0
  0
ENDTAB
  0
TABLE
  2
DIMSTYLE
  5
A
330
0
100
AcDbSymbolTable
 70
     5
100
AcDbDimStyleTable
 71
     1
340
2D
  0
DIMSTYLE
105
2D
102
{ACAD_REACTORS
330
227
102
}
330
A
100
AcDbSymbolTableRecord
100
AcDbDimStyleTableRecord
  2
DIMSTYLE1
 70
     0
 41
1.0
 42
2.54
 44
2.54
 73
     0
 74
     0
 75
     1
 76
     1
 77
     1
140
3.0
145
1.0
147
1.5
172
     1
173
     1
279
     2
340
11
  0
DIMSTYLE
105
2E
102
{ACAD_REACTORS
330
228
102
}
330
A
100
AcDbSymbolTableRecord
100
AcDbDimStyleTableRecord
  2
DIMSTYLE2
 70
     0
 41
1.0
 42
2.54
 44
2.54
 73
     0
 74
     0
 75
     1
 76
     1
 77
     1
140
3.0
145
1.0
147
1.5
172
     1
173
     1
279
     2
340
11
  0
DIMSTYLE
105
2F
102
{ACAD_REACTORS
330
229
102
}
330
A
100
AcDbSymbolTableRecord
100
AcDbDimStyleTableRecord
  2
DIMSTYLE3
 70
     0
 41
1.0
 42
2.54
 44
2.54
 73
     0
 74
     0
 77
     1
140
3.0
145
1.0
147
1.5
172
     1
173
     1
279
     2
340
11
  0
ENDTAB
  0
TABLE
  2
BLOCK_RECORD
  5
1
330
0
100
AcDbSymbolTable
 70
     7
  0
BLOCK_RECORD
  5
22
330
1
100
AcDbSymbolTableRecord
100
AcDbBlockTableRecord
  2
*Model_Space
340
25
  0
BLOCK_RECORD
  5
1E
330
1
100
AcDbSymbolTableRecord
100
AcDbBlockTableRecord
  2
*Paper_Space
340
21
  0
BLOCK_RECORD
  5
33
330
1
100
AcDbSymbolTableRecord
100
AcDbBlockTableRecord
  2
_OPEN30
340
0
102
{BLKREFS
331
3D
331
3E
331
47
331
48
331
50
331
51
102
}
  0
BLOCK_RECORD
  5
39
330
1
100
AcDbSymbolTableRecord
100
AcDbBlockTableRecord
  2
*D1
340
0
  0
BLOCK_RECORD
  5
43
330
1
100
AcDbSymbolTableRecord
100
AcDbBlockTableRecord
  2
*D2
340
0
  0
BLOCK_RECORD
  5
4D
330
1
100
AcDbSymbolTableRecord
100
AcDbBlockTableRecord
  2
*D3
340
0
  0
BLOCK_RECORD
  5
59
330
1
100
AcDbSymbolTableRecord
100
AcDbBlockTableRecord
  2
KOZU0001
340
0
102
{BLKREFS
331
22A
102
}
  0
ENDTAB
  0
ENDSEC
  0
SECTION
  2
BLOCKS
  0
BLOCK
  5
23
330
22
100
AcDbEntity
  8
0
100
AcDbBlockBegin
  2
*Model_Space
 70
     0
 10
0.0
 20
0.0
 30
0.0
  3
*Model_Space
  1

  0
ENDBLK
  5
24
330
22
100
AcDbEntity
  8
0
100
AcDbBlockEnd
  0
BLOCK
  5
1F
330
1E
100
AcDbEntity
 67
     1
  8
0
100
AcDbBlockBegin
  2
*Paper_Space
 70
     0
 10
0.0
 20
0.0
 30
0.0
  3
*Paper_Space
  1

  0
ENDBLK
  5
20
330
1E
100
AcDbEntity
 67
     1
  8
0
100
AcDbBlockEnd
  0
BLOCK
  5
34
330
33
100
AcDbEntity
  8
0
100
AcDbBlockBegin
  2
_OPEN30
 70
     0
 10
0.0
 20
0.0
 30
0.0
  3
_OPEN30
  1

  0
LINE
  5
35
330
33
100
AcDbEntity
  8
0
  6
ByBlock
 62
     0
100
AcDbLine
 10
0.0
 20
0.0
 30
0.0
 11
-2.999999999999993
 21
-1.000000000000017
 31
0.0
  0
LINE
  5
36
330
33
100
AcDbEntity
  8
0
  6
ByBlock
 62
     0
100
AcDbLine
 10
0.0
 20
0.0
 30
0.0
 11
-3.000000000000006
 21
0.9999999999999815
 31
0.0
  0
LINE
  5
37
330
33
100
AcDbEntity
  8
0
  6
ByBlock
 62
     0
100
AcDbLine
 10
0.0
 20
0.0
 30
0.0
 11
-3.0
 21
0.0
 31
0.0
  0
ENDBLK
  5
38
330
33
100
AcDbEntity
  8
0
100
AcDbBlockEnd
  0
BLOCK
  5
3A
330
39
100
AcDbEntity
  8
0
100
AcDbBlockBegin
  2
*D1
 70
     1
 10
0.0
 20
0.0
 30
0.0
  3
*D1
  1

  0
LINE
  5
3B
330
39
100
AcDbEntity
  8
0
  6
Continuous
 62
     7
100
AcDbLine
 10
-165.4081268310546
 20
225.5149230957031
 30
0.0
 11
-121.8348922729492
 21
239.3314666748047
 31
0.0
  0
LINE
  5
3C
330
39
100
AcDbEntity
  8
0
  6
Continuous
 62
     7
100
AcDbLine
 10
-286.4678958557117
 20
187.1283425722086
 30
0.0
 11
-168.2678066589367
 21
224.6081533994711
 31
0.0
  0
INSERT
  5
3D
330
39
100
AcDbEntity
  8
0
  6
Continuous
 62
     7
100
AcDbBlockReference
  2
_OPEN30
 10
-289.3275756835938
 20
186.2215728759766
 30
0.0
 50
197.5931882030754
  0
INSERT
  5
3E
330
39
100
AcDbEntity
  8
0
  6
Continuous
 62
     7
100
AcDbBlockReference
  2
_OPEN30
 10
-165.4081268310546
 20
225.5149230957031
 30
0.0
 50
17.59318820307464
  0
TEXT
  5
3F
330
39
100
AcDbEntity
  8
0
  6
Continuous
 62
     7
100
AcDbText
 10
-152.6977960343008
 20
230.3300211122396
 30
0.0
 40
3.0
  1
%%C１３０（目皿受外径）
 50
17.60000071743759
 41
0.8440126077968535
100
AcDbText
  0
POINT
  5
40
330
39
100
AcDbEntity
  8
DEFPOINTS
  6
Continuous
 62
     7
100
AcDbPoint
 10
-289.3275756835938
 20
186.2215728759766
 30
0.0
  0
POINT
  5
41
330
39
100
AcDbEntity
  8
DEFPOINTS
  6
Continuous
 62
     7
100
AcDbPoint
 10
-165.4081268310546
 20
225.5149230957031
 30
0.0
  0
ENDBLK
  5
42
330
39
100
AcDbEntity
  8
0
100
AcDbBlockEnd
  0
BLOCK
  5
44
330
43
100
AcDbEntity
  8
0
100
AcDbBlockBegin
  2
*D2
 70
     1
 10
0.0
 20
0.0
 30
0.0
  3
*D2
  1

  0
LINE
  5
45
330
43
100
AcDbEntity
  8
0
  6
Continuous
 62
     7
100
AcDbLine
 10
-173.4441070556641
 20
197.9638519287109
 30
0.0
 11
-128.0682830810547
 21
191.3124542236328
 31
0.0
  0
LINE
  5
46
330
43
100
AcDbEntity
  8
0
  6
Continuous
 62
     7
100
AcDbLine
 10
-278.3233157946332
 20
213.3375396483702
 30
0.0
 11
-176.4123867200153
 21
198.3989563233096
 31
0.0
  0
INSERT
  5
47
330
43
100
AcDbEntity
  8
0
  6
Continuous
 62
     7
100
AcDbBlockReference
  2
_OPEN30
 10
-281.2915954589844
 20
213.7726440429688
 30
0.0
 50
171.6607057198078
  0
INSERT
  5
48
330
43
100
AcDbEntity
  8
0
  6
Continuous
 62
     7
100
AcDbBlockReference
  2
_OPEN30
 10
-173.4441070556641
 20
197.9638519287109
 30
0.0
 50
351.6607057198087
  0
TEXT
  5
49
330
43
100
AcDbEntity
  8
0
  6
Continuous
 62
     7
100
AcDbText
 10
-156.7933466019622
 20
196.2710276226804
 30
0.0
 40
3.0
  1
%%C１０９（目皿外径）
 50
351.7000002243774
 41
0.8443929326254473
100
AcDbText
  0
POINT
  5
4A
330
43
100
AcDbEntity
  8
DEFPOINTS
  6
Continuous
 62
     7
100
AcDbPoint
 10
-281.2915954589844
 20
213.7726440429688
 30
0.0
  0
POINT
  5
4B
330
43
100
AcDbEntity
  8
DEFPOINTS
  6
Continuous
 62
     7
100
AcDbPoint
 10
-173.4441070556641
 20
197.9638519287109
 30
0.0
  0
ENDBLK
  5
4C
330
43
100
AcDbEntity
  8
0
100
AcDbBlockEnd
  0
BLOCK
  5
4E
330
4D
100
AcDbEntity
  8
0
100
AcDbBlockBegin
  2
*D3
 70
     1
 10
0.0
 20
0.0
 30
0.0
  3
*D3
  1

  0
LINE
  5
4F
330
4D
100
AcDbEntity
  8
0
  6
Continuous
 62
     7
100
AcDbLine
 10
-136.1616058349609
 20
59.77373886108398
 30
0.0
 11
-136.1616058349609
 21
106.7737350463867
 31
0.0
  0
INSERT
  5
50
330
4D
100
AcDbEntity
  8
0
  6
Continuous
 62
     7
100
AcDbBlockReference
  2
_OPEN30
 10
-136.1616058349609
 20
56.77373886108398
 30
0.0
 50
270.0000000000005
  0
INSERT
  5
51
330
4D
100
AcDbEntity
  8
0
  6
Continuous
 62
     7
100
AcDbBlockReference
  2
_OPEN30
 10
-136.1616058349609
 20
109.7737350463867
 30
0.0
 50
90.00000000000019
  0
LINE
  5
52
330
4D
100
AcDbEntity
  8
0
  6
Continuous
 62
     7
100
AcDbLine
 10
-201.8278588867188
 20
56.77373886108398
 30
0.0
 11
-133.8756103515625
 21
56.77373886108398
 31
0.0
  0
LINE
  5
53
330
4D
100
AcDbEntity
  8
0
  6
Continuous
 62
     7
100
AcDbLine
 10
-160.8278588867188
 20
109.7737350463867
 30
0.0
 11
-133.8756103515625
 21
109.7737350463867
 31
0.0
  0
TEXT
  5
54
330
4D
100
AcDbEntity
  8
0
  6
Continuous
 62
     7
100
AcDbText
 10
-136.9116057226227
 20
80.70373490154644
 30
0.0
 40
3.0
  1
53
 50
90.00000250447815
 41
1.028000020980834
100
AcDbText
  0
POINT
  5
55
330
4D
100
AcDbEntity
  8
DEFPOINTS
  6
Continuous
 62
     7
100
AcDbPoint
 10
-204.3678588867188
 20
56.77373886108398
 30
0.0
  0
POINT
  5
56
330
4D
100
AcDbEntity
  8
DEFPOINTS
  6
Continuous
 62
     7
100
AcDbPoint
 10
-163.3678588867188
 20
109.7737350463867
 30
0.0
  0
POINT
  5
57
330
4D
100
AcDbEntity
  8
DEFPOINTS
  6
Continuous
 62
     7
100
AcDbPoint
 10
-136.1616058349609
 20
109.7737350463867
 30
0.0
  0
ENDBLK
  5
58
330
4D
100
AcDbEntity
  8
0
100
AcDbBlockEnd
  0
BLOCK
  5
5A
330
59
100
AcDbEntity
  8
0
100
AcDbBlockBegin
  2
KOZU0001
 70
     0
 10
0.0
 20
0.0
 30
0.0
  3
KOZU0001
  1

  0
LINE
  5
5B
330
59
100
AcDbEntity
  8
0
  6
Continuous
 62
     7
100
AcDbLine
 10
0.0
 20
0.0
 30
0.0
 11
-15.13540649414063
 21
-23.31945419311523
 31
0.0
  0
LINE
  5
5C
330
59
100
AcDbEntity
  8
0
  6
Continuous
 62
     7
100
AcDbLine
 10
-15.13540649414063
 20
-23.31945419311523
 30
0.0
 11
-55.27099609375
 21
-23.31945419311523
 31
0.0
  0
LINE
  5
5D
330
59
100
AcDbEntity
  8
0
  6
Continuous
 62
     7
100
AcDbLine
 10
0.0
 20
0.0
 30
0.0
 11
-0.7944686991084412
 21
-3.060852738394473
 31
0.0
  0
LINE
  5
5E
330
59
100
AcDbEntity
  8
0
  6
Continuous
 62
     7
100
AcDbLine
 10
0.0
 20
0.0
 30
0.0
 11
-2.472086602323436
 21
-1.972000971250514
 31
0.0
  0
TEXT
  5
5F
330
59
100
AcDbEntity
  8
0
  6
Continuous
 62
     7
100
AcDbText
 10
-53.55099618434906
 20
-22.56945419311523
 30
0.0
 40
3.0
  1
配管接続口
 41
0.8487395020950888
100
AcDbText
  0
TEXT
  5
60
330
59
100
AcDbEntity
  8
0
  6
Continuous
 62
     7
100
AcDbText
 10
-53.55099618434906
 20
-27.83445419311524
 30
0.0
 40
3.0
  1
Ｒｃ１　１／４（３２Ａ）
 41
0.8436974815103043
100
AcDbText
  0
ENDBLK
  5
61
330
59
100
AcDbEntity
  8
0
100
AcDbBlockEnd
  0
ENDSEC
  0
SECTION
  2
ENTITIES
  0
POINT
  5
62
330
22
100
AcDbEntity
  8
0
  6
Continuous
 62
     7
100
AcDbPoint
 10
-227.3678588867188
 20
206.2737426757813
 30
0.0
  0
POINT
  5
63
330
22
100
AcDbEntity
  8
0
  6
Continuous
 62
     7
100
AcDbPoint
 10
-227.3678588867188
 20
206.2737426757813
 30
0.0
  0
POINT
  5
64
330
22
100
AcDbEntity
  8
0
  6
Continuous
 62
     7
100
AcDbPoint
 10
-227.3678588867188
 20
206.2737426757813
 30
0.0
  0
POINT
  5
65
330
22
100
AcDbEntity
  8
0
  6
Continuous
 62
     7
100
AcDbPoint
 10
-207.8678588867188
 20
58.29706192016602
 30
0.0
  0
POINT
  5
66
330
22
100
AcDbEntity
  8
0
  6
Continuous
 62
     7
100
AcDbPoint
 10
-208.1505432128906
 20
67.34273529052734
 30
0.0
  0
POINT
  5
67
330
22
100
AcDbEntity
  8
0
  6
Continuous
 62
     7
100
AcDbPoint
 10
-207.8678588867188
 20
58.29706192016602
 30
0.0
  0
POINT
  5
68
330
22
100
AcDbEntity
  8
0
  6
Continuous
 62
     7
100
AcDbPoint
 10
-207.9620819091797
 20
61.31229019165039
 30
0.0
  0
POINT
  5
69
330
22
100
AcDbEntity
  8
0
  6
Continuous
 62
     7
100
AcDbPoint
 10
-208.0563201904297
 20
64.3275146484375
 30
0.0
  0
POINT
  5
6A
330
22
100
AcDbEntity
  8
0
  6
Continuous
 62
     7
100
AcDbPoint
 10
-208.1505432128906
 20
67.34273529052734
 30
0.0
  0
LINE
  5
6B
330
22
100
AcDbEntity
  8
0
  6
Continuous
 62
     7
100
AcDbLine
 10
-227.3678588867188
 20
106.7737350463867
 30
0.0
 11
-176.3678588867188
 21
106.7737350463867
 31
0.0
  0
LINE
  5
6C
330
22
100
AcDbEntity
  8
0
  6
Continuous
 62
     7
100
AcDbLine
 10
-175.8678588867188
 20
104.7737350463867
 30
0.0
 11
-227.3678588867188
 21
104.7737350463867
 31
0.0
  0
LINE
  5
6D
330
22
100
AcDbEntity
  8
0
  6
Continuous
 62
     7
100
AcDbLine
 10
-291.3678588867188
 20
109.7737350463867
 30
0.0
 11
-163.3678588867188
 21
109.7737350463867
 31
0.0
  0
LINE
  5
6E
330
22
100
AcDbEntity
  8
0
  6
Continuous
 62
     7
100
AcDbLine
 10
-220.3678588867188
 20
254.6182556152344
 30
0.0
 11
-220.3678588867188
 21
210.6182556152344
 31
0.0
  0
LINE
  5
6F
330
22
100
AcDbEntity
  8
0
  6
Continuous
 62
     7
100
AcDbLine
 10
-282.8678588867188
 20
96.33036041259765
 30
0.0
 11
-253.8678588867188
 21
79.58720397949218
 31
0.0
  0
LINE
  5
70
330
22
100
AcDbEntity
  8
0
  6
Continuous
 62
     7
100
AcDbLine
 10
-247.2151641845703
 20
56.77373886108398
 30
0.0
 11
-247.2151641845703
 21
77.98909759521484
 31
0.0
  0
LINE
  5
71
330
22
100
AcDbEntity
  8
0
  6
Continuous
 62
     7
100
AcDbLine
 10
-243.1517028808594
 20
56.77373886108398
 30
0.0
 11
-243.1517028808594
 21
77.98909759521484
 31
0.0
  0
LINE
  5
72
330
22
100
AcDbEntity
  8
0
  6
Continuous
 62
     7
100
AcDbLine
 10
-253.1987915039064
 20
79.12451171875
 30
0.0
 11
-227.3678588867188
 21
79.12451171875
 31
0.0
  0
LINE
  5
73
330
22
100
AcDbEntity
  8
0
  6
Continuous
 62
     7
100
AcDbLine
 10
-174.7811737060547
 20
104.7737350463867
 30
0.0
 11
-172.8678588867188
 21
106.6870498657227
 31
0.0
  0
LINE
  5
74
330
22
100
AcDbEntity
  8
0
  6
Continuous
 62
     7
100
AcDbLine
 10
-175.8392486572266
 20
105.1298751831055
 30
0.0
 11
-172.8678588867188
 21
108.1012649536133
 31
0.0
  0
LINE
  5
75
330
22
100
AcDbEntity
  8
0
  6
Continuous
 62
     7
100
AcDbLine
 10
-175.9150238037109
 20
106.4683151245117
 30
0.0
 11
-172.9887237548828
 21
109.3946075439453
 31
0.0
  0
LINE
  5
76
330
22
100
AcDbEntity
  8
0
  6
Continuous
 62
     7
100
AcDbLine
 10
-177.0238189697266
 20
106.7737350463867
 30
0.0
 11
-174.0238189697266
 21
109.7737350463867
 31
0.0
  0
LINE
  5
77
330
22
100
AcDbEntity
  8
0
  6
Continuous
 62
     7
100
AcDbLine
 10
-178.0880279541016
 20
107.1237411499023
 30
0.0
 11
-175.4380187988281
 21
109.7737350463867
 31
0.0
  0
LINE
  5
78
330
22
100
AcDbEntity
  8
0
  6
Continuous
 62
     7
100
AcDbLine
 10
-178.1178588867188
 20
108.5081176757813
 30
0.0
 11
-176.8522338867188
 21
109.7737350463867
 31
0.0
  0
LINE
  5
79
330
22
100
AcDbEntity
  8
0
  6
Continuous
 62
     7
100
AcDbLine
 10
-182.5743255615234
 20
106.8800811767578
 30
0.0
 11
-182.4741973876953
 21
106.9802017211914
 31
0.0
  0
LINE
  5
7A
330
22
100
AcDbEntity
  8
0
  6
Continuous
 62
     7
100
AcDbLine
 10
-184.0948791503906
 20
106.7737350463867
 30
0.0
 11
-182.3678588867188
 21
108.5007553100586
 31
0.0
  0
LINE
  5
7B
330
22
100
AcDbEntity
  8
0
  6
Continuous
 62
     7
100
AcDbLine
 10
-185.5090942382813
 20
106.7737350463867
 30
0.0
 11
-182.5989685058594
 21
109.6838607788086
 31
0.0
  0
LINE
  5
7C
330
22
100
AcDbEntity
  8
0
  6
Continuous
 62
     7
100
AcDbLine
 10
-186.7523651123047
 20
106.9446868896484
 30
0.0
 11
-183.9233093261719
 21
109.7737350463867
 31
0.0
  0
LINE
  5
7D
330
22
100
AcDbEntity
  8
0
  6
Continuous
 62
     7
100
AcDbLine
 10
-186.8875274658203
 20
108.2237243652344
 30
0.0
 11
-185.3375244140625
 21
109.7737350463867
 31
0.0
  0
LINE
  5
7E
330
22
100
AcDbEntity
  8
0
  6
Continuous
 62
     7
100
AcDbLine
 10
-192.5801544189453
 20
106.7737350463867
 30
0.0
 11
-191.8678588867188
 21
107.4860382080078
 31
0.0
  0
LINE
  5
7F
330
22
100
AcDbEntity
  8
0
  6
Continuous
 62
     7
100
AcDbLine
 10
-193.9943695068359
 20
106.7737350463867
 30
0.0
 11
-191.8678588867188
 21
108.9002532958984
 31
0.0
  0
LINE
  5
80
330
22
100
AcDbEntity
  8
0
  6
Continuous
 62
     7
100
AcDbLine
 10
-195.4085845947266
 20
106.7737350463867
 30
0.0
 11
-192.4085845947266
 21
109.7737350463867
 31
0.0
  0
LINE
  5
81
330
22
100
AcDbEntity
  8
0
  6
Continuous
 62
     7
100
AcDbLine
 10
-196.8227996826172
 20
106.7737350463867
 30
0.0
 11
-193.8227996826172
 21
109.7737350463867
 31
0.0
  0
LINE
  5
82
330
22
100
AcDbEntity
  8
0
  6
Continuous
 62
     7
100
AcDbLine
 10
-198.2370147705078
 20
106.7737350463867
 30
0.0
 11
-195.2370147705078
 21
109.7737350463867
 31
0.0
  0
LINE
  5
83
330
22
100
AcDbEntity
  8
0
  6
Continuous
 62
     7
100
AcDbLine
 10
-199.6512298583984
 20
106.7737350463867
 30
0.0
 11
-196.6512298583984
 21
109.7737350463867
 31
0.0
  0
LINE
  5
84
330
22
100
AcDbEntity
  8
0
  6
Continuous
 62
     7
100
AcDbLine
 10
-201.0654449462891
 20
106.7737350463867
 30
0.0
 11
-198.0654449462891
 21
109.7737350463867
 31
0.0
  0
LINE
  5
85
330
22
100
AcDbEntity
  8
0
  6
Continuous
 62
     7
100
AcDbLine
 10
-202.4796600341797
 20
106.7737350463867
 30
0.0
 11
-199.4796600341797
 21
109.7737350463867
 31
0.0
  0
LINE
  5
86
330
22
100
AcDbEntity
  8
0
  6
Continuous
 62
     7
100
AcDbLine
 10
-203.8938751220703
 20
106.7737350463867
 30
0.0
 11
-200.8938751220703
 21
109.7737350463867
 31
0.0
  0
LINE
  5
87
330
22
100
AcDbEntity
  8
0
  6
Continuous
 62
     7
100
AcDbLine
 10
-205.3080902099609
 20
106.7737350463867
 30
0.0
 11
-202.3080902099609
 21
109.7737350463867
 31
0.0
  0
LINE
  5
88
330
22
100
AcDbEntity
  8
0
  6
Continuous
 62
     7
100
AcDbLine
 10
-205.8551177978516
 20
107.6409149169922
 30
0.0
 11
-203.7222900390625
 21
109.7737350463867
 31
0.0
  0
LINE
  5
89
330
22
100
AcDbEntity
  8
0
  6
Continuous
 62
     7
100
AcDbLine
 10
-205.8551177978516
 20
109.0551300048828
 30
0.0
 11
-205.1365051269531
 21
109.7737350463867
 31
0.0
  0
LINE
  5
8A
330
22
100
AcDbEntity
  8
0
  6
Continuous
 62
     7
100
AcDbLine
 10
-212.379150390625
 20
106.7737350463867
 30
0.0
 11
-210.8551177978516
 21
108.2977676391602
 31
0.0
  0
LINE
  5
8B
330
22
100
AcDbEntity
  8
0
  6
Continuous
 62
     7
100
AcDbLine
 10
-213.7933654785156
 20
106.7737350463867
 30
0.0
 11
-210.9768371582031
 21
109.5902709960938
 31
0.0
  0
LINE
  5
8C
330
22
100
AcDbEntity
  8
0
  6
Continuous
 62
     7
100
AcDbLine
 10
-215.2075805664063
 20
106.7737350463867
 30
0.0
 11
-212.2075805664063
 21
109.7737350463867
 31
0.0
  0
LINE
  5
8D
330
22
100
AcDbEntity
  8
0
  6
Continuous
 62
     7
100
AcDbLine
 10
-216.6217956542969
 20
106.7737350463867
 30
0.0
 11
-213.6217956542969
 21
109.7737350463867
 31
0.0
  0
LINE
  5
8E
330
22
100
AcDbEntity
  8
0
  6
Continuous
 62
     7
100
AcDbLine
 10
-218.0360107421875
 20
106.7737350463867
 30
0.0
 11
-215.0360107421875
 21
109.7737350463867
 31
0.0
  0
LINE
  5
8F
330
22
100
AcDbEntity
  8
0
  6
Continuous
 62
     7
100
AcDbLine
 10
-219.4502258300781
 20
106.7737350463867
 30
0.0
 11
-216.4502258300781
 21
109.7737350463867
 31
0.0
  0
LINE
  5
90
330
22
100
AcDbEntity
  8
0
  6
Continuous
 62
     7
100
AcDbLine
 10
-220.8644256591797
 20
106.7737350463867
 30
0.0
 11
-217.8644256591797
 21
109.7737350463867
 31
0.0
  0
LINE
  5
91
330
22
100
AcDbEntity
  8
0
  6
Continuous
 62
     7
100
AcDbLine
 10
-222.2786407470703
 20
106.7737350463867
 30
0.0
 11
-219.2786407470703
 21
109.7737350463867
 31
0.0
  0
LINE
  5
92
330
22
100
AcDbEntity
  8
0
  6
Continuous
 62
     7
100
AcDbLine
 10
-223.6928558349609
 20
106.7737350463867
 30
0.0
 11
-220.6928558349609
 21
109.7737350463867
 31
0.0
  0
LINE
  5
93
330
22
100
AcDbEntity
  8
0
  6
Continuous
 62
     7
100
AcDbLine
 10
-224.3678588867188
 20
107.5129547119141
 30
0.0
 11
-222.1070709228516
 21
109.7737350463867
 31
0.0
  0
LINE
  5
94
330
22
100
AcDbEntity
  8
0
  6
Continuous
 62
     7
100
AcDbLine
 10
-224.3678588867188
 20
108.9271621704102
 30
0.0
 11
-223.5212860107422
 21
109.7737350463867
 31
0.0
  0
LINE
  5
95
330
22
100
AcDbEntity
  8
0
  6
CENTER
 62
     7
100
AcDbLine
 10
-159.2456512451172
 20
206.2737426757813
 30
0.0
 11
-298.2238159179688
 21
206.2737426757813
 31
0.0
  0
LINE
  5
96
330
22
100
AcDbEntity
  8
0
  6
Continuous
 62
     7
100
AcDbLine
 10
-220.3678588867188
 20
157.1182556152344
 30
0.0
 11
-220.3678588867188
 21
201.1182556152344
 31
0.0
  0
LINE
  5
97
330
22
100
AcDbEntity
  8
0
  6
Continuous
 62
     7
100
AcDbLine
 10
-272.498046875
 20
228.7358245849609
 30
0.0
 11
-269.7375183105469
 21
229.0818634033203
 31
0.0
  0
LINE
  5
98
330
22
100
AcDbEntity
  8
0
  6
Continuous
 62
     7
100
AcDbLine
 10
-272.6969909667969
 20
229.4782867431641
 30
0.0
 11
-270.1332702636719
 21
230.5588684082031
 31
0.0
  0
LINE
  5
99
330
22
100
AcDbEntity
  8
0
  6
Continuous
 62
     7
100
AcDbLine
 10
-234.3678588867188
 20
157.1182556152344
 30
0.0
 11
-234.3678588867188
 21
201.1182556152344
 31
0.0
  0
LINE
  5
9A
330
22
100
AcDbEntity
  8
0
  6
Continuous
 62
     7
100
AcDbLine
 10
-234.3678588867188
 20
254.6182556152344
 30
0.0
 11
-234.3678588867188
 21
210.6182556152344
 31
0.0
  0
LINE
  5
9B
330
22
100
AcDbEntity
  8
0
  6
Continuous
 62
     7
100
AcDbLine
 10
-208.9659423828125
 20
77.91177368164063
 30
0.0
 11
-227.3678588867188
 21
77.91177368164063
 31
0.0
  0
LINE
  5
9C
330
22
100
AcDbEntity
  8
0
  6
Continuous
 62
     7
100
AcDbLine
 10
-208.3678588867188
 20
74.77373504638672
 30
0.0
 11
-227.3678588867188
 21
74.77373504638672
 31
0.0
  0
LINE
  5
9D
330
22
100
AcDbEntity
  8
0
  6
Continuous
 62
     7
100
AcDbLine
 10
-253.3678588867188
 20
164.0404815673828
 30
0.0
 11
-253.3678588867188
 21
201.1182556152344
 31
0.0
  0
LINE
  5
9E
330
22
100
AcDbEntity
  8
0
  6
Continuous
 62
     7
100
AcDbLine
 10
-251.3678588867188
 20
57.77373886108398
 30
0.0
 11
-247.7228088378906
 21
57.77373886108398
 31
0.0
  0
LINE
  5
9F
330
22
100
AcDbEntity
  8
0
  6
Continuous
 62
     7
100
AcDbLine
 10
-250.3678588867188
 20
56.77373886108398
 30
0.0
 11
-251.3678588867188
 21
57.77373886108398
 31
0.0
  0
LINE
  5
A0
330
22
100
AcDbEntity
  8
0
  6
Continuous
 62
     7
100
AcDbLine
 10
-250.3678588867188
 20
56.77373886108398
 30
0.0
 11
-227.3678588867188
 21
56.77373886108398
 31
0.0
  0
LINE
  5
A1
330
22
100
AcDbEntity
  8
0
  6
Continuous
 62
     7
100
AcDbLine
 10
-242.47998046875
 20
57.77373886108398
 30
0.0
 11
-227.3678588867188
 21
57.77373886108398
 31
0.0
  0
LINE
  5
A2
330
22
100
AcDbEntity
  8
0
  6
Continuous
 62
     7
100
AcDbLine
 10
-242.1714324951172
 20
77.01141357421875
 30
0.0
 11
-227.3678588867188
 21
77.01141357421875
 31
0.0
  0
LINE
  5
A3
330
22
100
AcDbEntity
  8
0
  6
Continuous
 62
     7
100
AcDbLine
 10
-206.4347686767578
 20
57.31480407714844
 30
0.0
 11
-205.8937072753906
 21
56.77373886108398
 31
0.0
  0
LINE
  5
A4
330
22
100
AcDbEntity
  8
0
  6
Continuous
 62
     7
100
AcDbLine
 10
-206.4860992431641
 20
58.9571189880371
 30
0.0
 11
-204.3352813720703
 21
56.80631256103516
 31
0.0
  0
LINE
  5
A5
330
22
100
AcDbEntity
  8
0
  6
Continuous
 62
     7
100
AcDbLine
 10
-206.5032043457031
 20
59.50455856323242
 30
0.0
 11
-204.0701141357422
 21
57.07147598266602
 31
0.0
  0
LINE
  5
A6
330
22
100
AcDbEntity
  8
0
  6
Continuous
 62
     7
100
AcDbLine
 10
-206.5545196533203
 20
61.14687347412109
 30
0.0
 11
-203.3678588867188
 21
57.960205078125
 31
0.0
  0
LINE
  5
A7
330
22
100
AcDbEntity
  8
0
  6
Continuous
 62
     7
100
AcDbLine
 10
-206.5716400146484
 20
61.69430923461914
 30
0.0
 11
-203.3678588867188
 21
58.49053573608397
 31
0.0
  0
LINE
  5
A8
330
22
100
AcDbEntity
  8
0
  6
Continuous
 62
     7
100
AcDbLine
 10
-206.6229553222656
 20
63.33662414550781
 30
0.0
 11
-203.3678588867188
 21
60.08152389526367
 31
0.0
  0
LINE
  5
A9
330
22
100
AcDbEntity
  8
0
  6
Continuous
 62
     7
100
AcDbLine
 10
-206.6400604248047
 20
63.88406372070313
 30
0.0
 11
-203.3678588867188
 21
60.61185455322266
 31
0.0
  0
LINE
  5
AA
330
22
100
AcDbEntity
  8
0
  6
Continuous
 62
     7
100
AcDbLine
 10
-206.6913909912109
 20
65.52638244628906
 30
0.0
 11
-203.3678588867188
 21
62.20284652709961
 31
0.0
  0
LINE
  5
AB
330
22
100
AcDbEntity
  8
0
  6
Continuous
 62
     7
100
AcDbLine
 10
-206.70849609375
 20
66.07381439208984
 30
0.0
 11
-203.3678588867188
 21
62.73317718505859
 31
0.0
  0
LINE
  5
AC
330
22
100
AcDbEntity
  8
0
  6
Continuous
 62
     7
100
AcDbLine
 10
-206.7598266601563
 20
67.71613311767578
 30
0.0
 11
-203.3678588867188
 21
64.32416534423828
 31
0.0
  0
LINE
  5
AD
330
22
100
AcDbEntity
  8
0
  6
Continuous
 62
     7
100
AcDbLine
 10
-206.7769317626953
 20
68.26357269287109
 30
0.0
 11
-203.3678588867188
 21
64.8544921875
 31
0.0
  0
LINE
  5
AE
330
22
100
AcDbEntity
  8
0
  6
Continuous
 62
     7
100
AcDbLine
 10
-206.3678588867188
 20
69.44548797607422
 30
0.0
 11
-203.3678588867188
 21
66.44548797607422
 31
0.0
  0
LINE
  5
AF
330
22
100
AcDbEntity
  8
0
  6
Continuous
 62
     7
100
AcDbLine
 10
-206.3678588867188
 20
69.97581481933593
 30
0.0
 11
-203.3678588867188
 21
66.97581481933593
 31
0.0
  0
LINE
  5
B0
330
22
100
AcDbEntity
  8
0
  6
Continuous
 62
     7
100
AcDbLine
 10
-206.3678588867188
 20
71.56680297851562
 30
0.0
 11
-203.3678588867188
 21
68.56680297851564
 31
0.0
  0
LINE
  5
B1
330
22
100
AcDbEntity
  8
0
  6
Continuous
 62
     7
100
AcDbLine
 10
-206.3678588867188
 20
72.09713745117188
 30
0.0
 11
-203.3678588867188
 21
69.09713745117189
 31
0.0
  0
LINE
  5
B2
330
22
100
AcDbEntity
  8
0
  6
Continuous
 62
     7
100
AcDbLine
 10
-209.3478088378906
 20
76.66807556152344
 30
0.0
 11
-203.3678588867188
 21
70.68812561035156
 31
0.0
  0
LINE
  5
B3
330
22
100
AcDbEntity
  8
0
  6
Continuous
 62
     7
100
AcDbLine
 10
-209.2798614501953
 20
77.13046264648437
 30
0.0
 11
-203.3678588867188
 21
71.21846008300781
 31
0.0
  0
LINE
  5
B4
330
22
100
AcDbEntity
  8
0
  6
Continuous
 62
     7
100
AcDbLine
 10
-208.7676086425781
 20
78.20919799804688
 30
0.0
 11
-203.3678588867188
 21
72.8094482421875
 31
0.0
  0
LINE
  5
B5
330
22
100
AcDbEntity
  8
0
  6
Continuous
 62
     7
100
AcDbLine
 10
-208.5158386230469
 20
78.48775482177734
 30
0.0
 11
-203.3678588867188
 21
73.33977508544922
 31
0.0
  0
LINE
  5
B6
330
22
100
AcDbEntity
  8
0
  6
Continuous
 62
     7
100
AcDbLine
 10
-207.6010131835938
 20
79.1639175415039
 30
0.0
 11
-203.3678588867188
 21
74.93077087402344
 31
0.0
  0
LINE
  5
B7
330
22
100
AcDbEntity
  8
0
  6
Continuous
 62
     7
100
AcDbLine
 10
-207.2648010253906
 20
79.3580322265625
 30
0.0
 11
-203.3495635986328
 21
75.44280242919922
 31
0.0
  0
LINE
  5
B8
330
22
100
AcDbEntity
  8
0
  6
Continuous
 62
     7
100
AcDbLine
 10
-206.2561492919922
 20
79.94037628173828
 30
0.0
 11
-203.1033935546875
 21
76.78762817382812
 31
0.0
  0
LINE
  5
B9
330
22
100
AcDbEntity
  8
0
  6
Continuous
 62
     7
100
AcDbLine
 10
-205.9199371337891
 20
80.13449096679687
 30
0.0
 11
-202.9763488769531
 21
77.19090270996094
 31
0.0
  0
LINE
  5
BA
330
22
100
AcDbEntity
  8
0
  6
Continuous
 62
     7
100
AcDbLine
 10
-204.9112854003906
 20
80.71683502197265
 30
0.0
 11
-202.3918609619141
 21
78.1974105834961
 31
0.0
  0
LINE
  5
BB
330
22
100
AcDbEntity
  8
0
  6
Continuous
 62
     7
100
AcDbLine
 10
-204.5750732421875
 20
80.91094970703125
 30
0.0
 11
-202.1528167724609
 21
78.48869323730468
 31
0.0
  0
LINE
  5
BC
330
22
100
AcDbEntity
  8
0
  6
Continuous
 62
     7
100
AcDbLine
 10
-203.5664215087891
 20
81.49329376220704
 30
0.0
 11
-201.3334655761719
 21
79.26033782958985
 31
0.0
  0
LINE
  5
BD
330
22
100
AcDbEntity
  8
0
  6
Continuous
 62
     7
100
AcDbLine
 10
-203.2302093505859
 20
81.6874008178711
 30
0.0
 11
-201.0294952392578
 21
79.4866943359375
 31
0.0
  0
LINE
  5
BE
330
22
100
AcDbEntity
  8
0
  6
Continuous
 62
     7
100
AcDbLine
 10
-202.2215576171875
 20
82.26974487304687
 30
0.0
 11
-200.0254058837891
 21
80.07359313964844
 31
0.0
  0
LINE
  5
BF
330
22
100
AcDbEntity
  8
0
  6
Continuous
 62
     7
100
AcDbLine
 10
-201.8853454589844
 20
82.46385955810547
 30
0.0
 11
-199.6891937255859
 21
80.26770782470704
 31
0.0
  0
LINE
  5
C0
330
22
100
AcDbEntity
  8
0
  6
Continuous
 62
     7
100
AcDbLine
 10
-200.8766937255859
 20
83.04620361328124
 30
0.0
 11
-198.6805419921875
 21
80.85005187988281
 31
0.0
  0
LINE
  5
C1
330
22
100
AcDbEntity
  8
0
  6
Continuous
 62
     7
100
AcDbLine
 10
-200.5404815673828
 20
83.24031829833984
 30
0.0
 11
-198.3443298339844
 21
81.04416656494141
 31
0.0
  0
LINE
  5
C2
330
22
100
AcDbEntity
  8
0
  6
Continuous
 62
     7
100
AcDbLine
 10
-199.5318298339844
 20
83.82266235351563
 30
0.0
 11
-197.3356781005859
 21
81.62651062011718
 31
0.0
  0
LINE
  5
C3
330
22
100
AcDbEntity
  8
0
  6
Continuous
 62
     7
100
AcDbLine
 10
-199.1956176757813
 20
84.01677703857421
 30
0.0
 11
-196.9994659423828
 21
81.82062530517578
 31
0.0
  0
LINE
  5
C4
330
22
100
AcDbEntity
  8
0
  6
Continuous
 62
     7
100
AcDbLine
 10
-198.1869659423828
 20
84.59912109375
 30
0.0
 11
-195.9908142089844
 21
82.40296936035155
 31
0.0
  0
LINE
  5
C5
330
22
100
AcDbEntity
  8
0
  6
Continuous
 62
     7
100
AcDbLine
 10
-197.8507537841797
 20
84.7932357788086
 30
0.0
 11
-195.6546020507813
 21
82.59708404541015
 31
0.0
  0
LINE
  5
C6
330
22
100
AcDbEntity
  8
0
  6
Continuous
 62
     7
100
AcDbLine
 10
-196.8421020507813
 20
85.37557220458984
 30
0.0
 11
-194.6459503173828
 21
83.1794204711914
 31
0.0
  0
LINE
  5
C7
330
22
100
AcDbEntity
  8
0
  6
Continuous
 62
     7
100
AcDbLine
 10
-196.5058898925781
 20
85.56968688964843
 30
0.0
 11
-194.3097381591797
 21
83.37353515625
 31
0.0
  0
LINE
  5
C8
330
22
100
AcDbEntity
  8
0
  6
Continuous
 62
     7
100
AcDbLine
 10
-195.4972381591797
 20
86.15203094482422
 30
0.0
 11
-193.3010864257813
 21
83.95587921142578
 31
0.0
  0
LINE
  5
C9
330
22
100
AcDbEntity
  8
0
  6
Continuous
 62
     7
100
AcDbLine
 10
-195.1610260009766
 20
86.3461456298828
 30
0.0
 11
-192.9648742675781
 21
84.14999389648437
 31
0.0
  0
LINE
  5
CA
330
22
100
AcDbEntity
  8
0
  6
Continuous
 62
     7
100
AcDbLine
 10
-194.1523742675781
 20
86.9284896850586
 30
0.0
 11
-191.9562225341797
 21
84.73233795166015
 31
0.0
  0
LINE
  5
CB
330
22
100
AcDbEntity
  8
0
  6
Continuous
 62
     7
100
AcDbLine
 10
-193.816162109375
 20
87.12260437011719
 30
0.0
 11
-191.6200103759766
 21
84.92645263671875
 31
0.0
  0
LINE
  5
CC
330
22
100
AcDbEntity
  8
0
  6
Continuous
 62
     7
100
AcDbLine
 10
-192.8075103759766
 20
87.70494842529297
 30
0.0
 11
-190.6113586425781
 21
85.50879669189454
 31
0.0
  0
LINE
  5
CD
330
22
100
AcDbEntity
  8
0
  6
Continuous
 62
     7
100
AcDbLine
 10
-192.4712982177734
 20
87.89906311035156
 30
0.0
 11
-190.275146484375
 21
85.70291137695312
 31
0.0
  0
LINE
  5
CE
330
22
100
AcDbEntity
  8
0
  6
Continuous
 62
     7
100
AcDbLine
 10
-191.462646484375
 20
88.48140716552734
 30
0.0
 11
-189.2664947509766
 21
86.28525543212891
 31
0.0
  0
LINE
  5
CF
330
22
100
AcDbEntity
  8
0
  6
Continuous
 62
     7
100
AcDbLine
 10
-191.1264343261719
 20
88.67552185058594
 30
0.0
 11
-188.9302825927734
 21
86.47936248779297
 31
0.0
  0
LINE
  5
D0
330
22
100
AcDbEntity
  8
0
  6
Continuous
 62
     7
100
AcDbLine
 10
-190.1177825927734
 20
89.25785827636719
 30
0.0
 11
-187.921630859375
 21
87.06170654296874
 31
0.0
  0
LINE
  5
D1
330
22
100
AcDbEntity
  8
0
  6
Continuous
 62
     7
100
AcDbLine
 10
-189.7815704345703
 20
89.45197296142579
 30
0.0
 11
-187.5854187011719
 21
87.25582122802734
 31
0.0
  0
LINE
  5
D2
330
22
100
AcDbEntity
  8
0
  6
Continuous
 62
     7
100
AcDbLine
 10
-188.7729187011719
 20
90.03431701660156
 30
0.0
 11
-186.5767669677734
 21
87.83816528320313
 31
0.0
  0
LINE
  5
D3
330
22
100
AcDbEntity
  8
0
  6
Continuous
 62
     7
100
AcDbLine
 10
-188.4367065429688
 20
90.22843170166016
 30
0.0
 11
-186.2405548095703
 21
88.03227996826171
 31
0.0
  0
LINE
  5
D4
330
22
100
AcDbEntity
  8
0
  6
Continuous
 62
     7
100
AcDbLine
 10
-187.4280548095703
 20
90.81077575683593
 30
0.0
 11
-185.2319030761719
 21
88.6146240234375
 31
0.0
  0
LINE
  5
D5
330
22
100
AcDbEntity
  8
0
  6
Continuous
 62
     7
100
AcDbLine
 10
-187.0918426513672
 20
91.00489044189451
 30
0.0
 11
-184.8956909179688
 21
88.8087387084961
 31
0.0
  0
LINE
  5
D6
330
22
100
AcDbEntity
  8
0
  6
Continuous
 62
     7
100
AcDbLine
 10
-186.0832061767578
 20
91.5872344970703
 30
0.0
 11
-183.8870391845703
 21
89.39108276367187
 31
0.0
  0
LINE
  5
D7
330
22
100
AcDbEntity
  8
0
  6
Continuous
 62
     7
100
AcDbLine
 10
-185.7469787597656
 20
91.78134918212892
 30
0.0
 11
-183.5508270263671
 21
89.58519744873047
 31
0.0
  0
LINE
  5
D8
330
22
100
AcDbEntity
  8
0
  6
Continuous
 62
     7
100
AcDbLine
 10
-184.7383422851563
 20
92.36369323730469
 30
0.0
 11
-182.5421905517578
 21
90.16753387451172
 31
0.0
  0
LINE
  5
D9
330
22
100
AcDbEntity
  8
0
  6
Continuous
 62
     7
100
AcDbLine
 10
-184.4021148681641
 20
92.55780792236327
 30
0.0
 11
-182.2059631347656
 21
90.3616485595703
 31
0.0
  0
LINE
  5
DA
330
22
100
AcDbEntity
  8
0
  6
Continuous
 62
     7
100
AcDbLine
 10
-183.3934783935547
 20
93.14014434814451
 30
0.0
 11
-181.1973266601563
 21
90.94399261474608
 31
0.0
  0
LINE
  5
DB
330
22
100
AcDbEntity
  8
0
  6
Continuous
 62
     7
100
AcDbLine
 10
-183.0572509765625
 20
93.33425903320312
 30
0.0
 11
-180.8610992431641
 21
91.13810729980469
 31
0.0
  0
LINE
  5
DC
330
22
100
AcDbEntity
  8
0
  6
Continuous
 62
     7
100
AcDbLine
 10
-182.0486145019531
 20
93.91660308837892
 30
0.0
 11
-179.8524627685547
 21
91.72045135498049
 31
0.0
  0
LINE
  5
DD
330
22
100
AcDbEntity
  8
0
  6
Continuous
 62
     7
100
AcDbLine
 10
-181.7123870849609
 20
94.1107177734375
 30
0.0
 11
-179.5162353515625
 21
91.91456604003906
 31
0.0
  0
LINE
  5
DE
330
22
100
AcDbEntity
  8
0
  6
Continuous
 62
     7
100
AcDbLine
 10
-180.7037506103516
 20
94.69306182861329
 30
0.0
 11
-178.5075988769531
 21
92.49691009521484
 31
0.0
  0
LINE
  5
DF
330
22
100
AcDbEntity
  8
0
  6
Continuous
 62
     7
100
AcDbLine
 10
-180.3675231933594
 20
94.88717651367187
 30
0.0
 11
-178.1713714599609
 21
92.69102478027344
 31
0.0
  0
LINE
  5
E0
330
22
100
AcDbEntity
  8
0
  6
Continuous
 62
     7
100
AcDbLine
 10
-179.35888671875
 20
95.46952056884766
 30
0.0
 11
-177.1627349853516
 21
93.27336883544921
 31
0.0
  0
LINE
  5
E1
330
22
100
AcDbEntity
  8
0
  6
Continuous
 62
     7
100
AcDbLine
 10
-179.0226745605469
 20
95.66363525390624
 30
0.0
 11
-176.8265075683594
 21
93.46748352050779
 31
0.0
  0
LINE
  5
E2
330
22
100
AcDbEntity
  8
0
  6
Continuous
 62
     7
100
AcDbLine
 10
-178.0320434570313
 20
96.26400756835938
 30
0.0
 11
-175.81787109375
 21
94.04981994628906
 31
0.0
  0
LINE
  5
E3
330
22
100
AcDbEntity
  8
0
  6
Continuous
 62
     7
100
AcDbLine
 10
-177.7397613525391
 20
96.50204467773438
 30
0.0
 11
-175.4816589355469
 21
94.24393463134766
 31
0.0
  0
LINE
  5
E4
330
22
100
AcDbEntity
  8
0
  6
Continuous
 62
     7
100
AcDbLine
 10
-176.9491577148438
 20
97.30243682861328
 30
0.0
 11
-174.4730072021484
 21
94.82627868652343
 31
0.0
  0
LINE
  5
E5
330
22
100
AcDbEntity
  8
0
  6
Continuous
 62
     7
100
AcDbLine
 10
-176.7117919921875
 20
97.59539794921877
 30
0.0
 11
-174.1367950439453
 21
95.02039337158205
 31
0.0
  0
LINE
  5
E6
330
22
100
AcDbEntity
  8
0
  6
Continuous
 62
     7
100
AcDbLine
 10
-176.1876678466797
 20
98.66226959228516
 30
0.0
 11
-173.1281433105469
 21
95.6027374267578
 31
0.0
  0
LINE
  5
E7
330
22
100
AcDbEntity
  8
0
  6
Continuous
 62
     7
100
AcDbLine
 10
-176.0629577636719
 20
99.06788635253906
 30
0.0
 11
-172.7919311523438
 21
95.7968521118164
 31
0.0
  0
LINE
  5
E8
330
22
100
AcDbEntity
  8
0
  6
Continuous
 62
     7
100
AcDbLine
 10
-175.8678588867188
 20
100.4637756347656
 30
0.0
 11
-171.7847290039063
 21
96.38065338134765
 31
0.0
  0
LINE
  5
E9
330
22
100
AcDbEntity
  8
0
  6
Continuous
 62
     7
100
AcDbLine
 10
-175.8678588867188
 20
100.9941024780273
 30
0.0
 11
-171.4804840087891
 21
96.6067352294922
 31
0.0
  0
LINE
  5
EA
330
22
100
AcDbEntity
  8
0
  6
Continuous
 62
     7
100
AcDbLine
 10
-175.8678588867188
 20
102.5850982666016
 30
0.0
 11
-170.6432647705078
 21
97.36050415039064
 31
0.0
  0
LINE
  5
EB
330
22
100
AcDbEntity
  8
0
  6
Continuous
 62
     7
100
AcDbLine
 10
-175.8678588867188
 20
103.1154251098633
 30
0.0
 11
-170.3913726806641
 21
97.63894653320313
 31
0.0
  0
LINE
  5
EC
330
22
100
AcDbEntity
  8
0
  6
Continuous
 62
     7
100
AcDbLine
 10
-175.8678588867188
 20
104.706413269043
 30
0.0
 11
-169.8044891357422
 21
98.64305114746095
 31
0.0
  0
LINE
  5
ED
330
22
100
AcDbEntity
  8
0
  6
Continuous
 62
     7
100
AcDbLine
 10
-175.4048461914063
 20
104.7737350463867
 30
0.0
 11
-169.6650390625
 21
99.033935546875
 31
0.0
  0
LINE
  5
EE
330
22
100
AcDbEntity
  8
0
  6
Continuous
 62
     7
100
AcDbLine
 10
-173.8138580322266
 20
104.7737350463867
 30
0.0
 11
-169.3847351074219
 21
100.344612121582
 31
0.0
  0
LINE
  5
EF
330
22
100
AcDbEntity
  8
0
  6
Continuous
 62
     7
100
AcDbLine
 10
-173.2835235595703
 20
104.7737350463867
 30
0.0
 11
-169.3678588867188
 21
100.8580703735352
 31
0.0
  0
LINE
  5
F0
330
22
100
AcDbEntity
  8
0
  6
Continuous
 62
     7
100
AcDbLine
 10
-172.3678588867188
 20
105.4490585327148
 30
0.0
 11
-169.3678588867188
 21
102.4490585327148
 31
0.0
  0
LINE
  5
F1
330
22
100
AcDbEntity
  8
0
  6
Continuous
 62
     7
100
AcDbLine
 10
-172.3678588867188
 20
105.9793853759766
 30
0.0
 11
-169.3678588867188
 21
102.9793853759766
 31
0.0
  0
LINE
  5
F2
330
22
100
AcDbEntity
  8
0
  6
Continuous
 62
     7
100
AcDbLine
 10
-172.3678588867188
 20
107.5703811645508
 30
0.0
 11
-169.3678588867188
 21
104.5703811645508
 31
0.0
  0
LINE
  5
F3
330
22
100
AcDbEntity
  8
0
  6
Continuous
 62
     7
100
AcDbLine
 10
-172.3678588867188
 20
108.1007080078125
 30
0.0
 11
-169.3136138916016
 21
105.0464630126953
 31
0.0
  0
LINE
  5
F4
330
22
100
AcDbEntity
  8
0
  6
Continuous
 62
     7
100
AcDbLine
 10
-172.3678588867188
 20
109.6916961669922
 30
0.0
 11
-168.4362945556641
 21
105.760124206543
 31
0.0
  0
LINE
  5
F5
330
22
100
AcDbEntity
  8
0
  6
Continuous
 62
     7
100
AcDbLine
 10
-171.9195709228516
 20
109.7737350463867
 30
0.0
 11
-167.9195709228516
 21
105.7737350463867
 31
0.0
  0
LINE
  5
F6
330
22
100
AcDbEntity
  8
0
  6
Continuous
 62
     7
100
AcDbLine
 10
-170.3285827636719
 20
109.7737350463867
 30
0.0
 11
-166.3285827636719
 21
105.7737350463867
 31
0.0
  0
LINE
  5
F7
330
22
100
AcDbEntity
  8
0
  6
Continuous
 62
     7
100
AcDbLine
 10
-169.7982482910156
 20
109.7737350463867
 30
0.0
 11
-165.7982482910156
 21
105.7737350463867
 31
0.0
  0
LINE
  5
F8
330
22
100
AcDbEntity
  8
0
  6
Continuous
 62
     7
100
AcDbLine
 10
-168.2072601318359
 20
109.7737350463867
 30
0.0
 11
-164.2072601318359
 21
105.7737350463867
 31
0.0
  0
LINE
  5
F9
330
22
100
AcDbEntity
  8
0
  6
Continuous
 62
     7
100
AcDbLine
 10
-167.6769256591797
 20
109.7737350463867
 30
0.0
 11
-163.6769256591797
 21
105.7737350463867
 31
0.0
  0
LINE
  5
FA
330
22
100
AcDbEntity
  8
0
  6
Continuous
 62
     7
100
AcDbLine
 10
-166.0859375
 20
109.7737350463867
 30
0.0
 11
-162.5478363037109
 21
106.2356338500977
 31
0.0
  0
LINE
  5
FB
330
22
100
AcDbEntity
  8
0
  6
Continuous
 62
     7
100
AcDbLine
 10
-165.5556030273438
 20
109.7737350463867
 30
0.0
 11
-162.3990020751953
 21
106.6171417236328
 31
0.0
  0
LINE
  5
FC
330
22
100
AcDbEntity
  8
0
  6
Continuous
 62
     7
100
AcDbLine
 10
-163.9646148681641
 20
109.7737350463867
 30
0.0
 11
-162.3678588867188
 21
108.1769790649414
 31
0.0
  0
LINE
  5
FD
330
22
100
AcDbEntity
  8
0
  6
Continuous
 62
     7
100
AcDbLine
 10
-163.4342803955078
 20
109.7737350463867
 30
0.0
 11
-162.3678588867188
 21
108.7073059082031
 31
0.0
  0
LINE
  5
FE
330
22
100
AcDbEntity
  8
0
  6
Continuous
 62
     7
100
AcDbLine
 10
-171.8678588867188
 20
96.33036041259765
 30
0.0
 11
-200.8678588867188
 21
79.58720397949218
 31
0.0
  0
LINE
  5
FF
330
22
100
AcDbEntity
  8
0
  6
Continuous
 62
     7
100
AcDbLine
 10
-178.3678588867188
 20
96.04168701171877
 30
0.0
 11
-207.8678588867188
 21
79.00985717773437
 31
0.0
  0
LINE
  5
100
330
22
100
AcDbEntity
  8
0
  6
Continuous
 62
     7
100
AcDbLine
 10
-272.3678588867188
 20
191.2708740234375
 30
0.0
 11
-272.3678588867188
 21
205.8682556152344
 31
0.0
  0
LINE
  5
101
330
22
100
AcDbEntity
  8
0
  6
Continuous
 62
     7
100
AcDbLine
 10
-258.3678588867188
 20
167.5986480712891
 30
0.0
 11
-258.3678588867188
 21
201.1182556152344
 31
0.0
  0
LINE
  5
102
330
22
100
AcDbEntity
  8
0
  6
Continuous
 62
     7
100
AcDbLine
 10
-272.6969909667969
 20
229.4782867431641
 30
0.0
 11
-272.5975341796875
 21
229.1070556640625
 31
0.0
  0
LINE
  5
103
330
22
100
AcDbEntity
  8
0
  6
Continuous
 62
     7
100
AcDbLine
 10
-265.69677734375
 20
230.5582122802734
 30
0.0
 11
-265.7962646484375
 21
230.929443359375
 31
0.0
  0
LINE
  5
104
330
22
100
AcDbEntity
  8
0
  6
Continuous
 62
     7
100
AcDbLine
 10
-268.2802734375
 20
226.597412109375
 30
0.0
 11
-267.9087524414063
 21
226.6969604492188
 31
0.0
  0
LINE
  5
105
330
22
100
AcDbEntity
  8
0
  6
Continuous
 62
     7
100
AcDbLine
 10
-267.9087524414063
 20
226.6969604492188
 30
0.0
 11
-268.260498046875
 21
229.4776306152344
 31
0.0
  0
LINE
  5
106
330
22
100
AcDbEntity
  8
0
  6
Continuous
 62
     7
100
AcDbLine
 10
-265.69677734375
 20
230.5582122802734
 30
0.0
 11
-268.260498046875
 21
229.4776306152344
 31
0.0
  0
LINE
  5
107
330
22
100
AcDbEntity
  8
0
  6
Continuous
 62
     7
100
AcDbLine
 10
-265.8957214355469
 20
231.3006744384766
 30
0.0
 11
-268.65625
 21
230.9546356201172
 31
0.0
  0
LINE
  5
108
330
22
100
AcDbEntity
  8
0
  6
Continuous
 62
     7
100
AcDbLine
 10
-272.498046875
 20
228.7358245849609
 30
0.0
 11
-272.5975341796875
 21
229.1070556640625
 31
0.0
  0
LINE
  5
109
330
22
100
AcDbEntity
  8
0
  6
Continuous
 62
     7
100
AcDbLine
 10
-267.9087524414063
 20
226.6969604492188
 30
0.0
 11
-268.260498046875
 21
229.4776306152344
 31
0.0
  0
LINE
  5
10A
330
22
100
AcDbEntity
  8
0
  6
Continuous
 62
     7
100
AcDbLine
 10
-268.2802734375
 20
226.597412109375
 30
0.0
 11
-267.9087524414063
 21
226.6969604492188
 31
0.0
  0
LINE
  5
10B
330
22
100
AcDbEntity
  8
0
  6
Continuous
 62
     7
100
AcDbLine
 10
-268.2802734375
 20
226.597412109375
 30
0.0
 11
-268.6517944335938
 21
226.4978637695314
 31
0.0
  0
LINE
  5
10C
330
22
100
AcDbEntity
  8
0
  6
Continuous
 62
     7
100
AcDbLine
 10
-270.1134948730469
 20
233.4390869140625
 30
0.0
 11
-269.7419738769531
 21
233.5386352539063
 31
0.0
  0
LINE
  5
10D
330
22
100
AcDbEntity
  8
0
  6
Continuous
 62
     7
100
AcDbLine
 10
-267.8738708496094
 20
191.1087036132813
 30
0.0
 11
-267.8678588867188
 21
177.8448181152344
 31
0.0
  0
LINE
  5
10E
330
22
100
AcDbEntity
  8
0
  6
Continuous
 62
     7
100
AcDbLine
 10
-262.8678588867188
 20
191.1087036132813
 30
0.0
 11
-262.8678588867188
 21
171.7315826416016
 31
0.0
  0
LINE
  5
10F
330
22
100
AcDbEntity
  8
0
  6
Continuous
 62
     7
100
AcDbLine
 10
-243.8551177978516
 20
159.4599304199219
 30
0.0
 11
-243.8805999755859
 21
185.2435302734375
 31
0.0
  0
LINE
  5
110
330
22
100
AcDbEntity
  8
0
  6
Continuous
 62
     7
100
AcDbLine
 10
-248.8678588867188
 20
161.5589599609375
 30
0.0
 11
-248.8678588867188
 21
185.2435302734375
 31
0.0
  0
LINE
  5
111
330
22
100
AcDbEntity
  8
0
  6
Continuous
 62
     7
100
AcDbLine
 10
-248.8678588867188
 20
205.8682556152344
 30
0.0
 11
-248.8678588867188
 21
194.7180480957031
 31
0.0
  0
LINE
  5
112
330
22
100
AcDbEntity
  8
0
  6
Continuous
 62
     7
100
AcDbLine
 10
-243.8805999755859
 20
205.8682556152344
 30
0.0
 11
-243.8805999755859
 21
194.7180480957031
 31
0.0
  0
LINE
  5
113
330
22
100
AcDbEntity
  8
0
  6
Continuous
 62
     7
100
AcDbLine
 10
-239.3678588867188
 20
158.1025390625
 30
0.0
 11
-239.3678588867188
 21
201.1182556152344
 31
0.0
  0
LINE
  5
114
330
22
100
AcDbEntity
  8
0
  6
Continuous
 62
     7
100
AcDbLine
 10
-268.6517944335938
 20
226.4978637695314
 30
0.0
 11
-269.7375183105469
 21
229.0818634033203
 31
0.0
  0
LINE
  5
115
330
22
100
AcDbEntity
  8
0
  6
Continuous
 62
     7
100
AcDbLine
 10
-269.7419738769531
 20
233.5386352539063
 30
0.0
 11
-268.65625
 21
230.9546356201172
 31
0.0
  0
LINE
  5
116
330
22
100
AcDbEntity
  8
0
  6
Continuous
 62
     7
100
AcDbLine
 10
-270.4850158691406
 20
233.3395385742188
 30
0.0
 11
-270.1332702636719
 21
230.5588684082031
 31
0.0
  0
LINE
  5
117
330
22
100
AcDbEntity
  8
0
  6
CENTER
 62
     7
100
AcDbLine
 10
-227.3678588867188
 20
54.17183685302735
 30
0.0
 11
-227.3678588867188
 21
114.6778945922852
 31
0.0
  0
LINE
  5
118
330
22
100
AcDbEntity
  8
0
  6
Continuous
 62
     7
100
AcDbLine
 10
-265.8957214355469
 20
231.3006744384766
 30
0.0
 11
-265.7962646484375
 21
230.929443359375
 31
0.0
  0
LINE
  5
119
330
22
100
AcDbEntity
  8
0
  6
Continuous
 62
     7
100
AcDbLine
 10
-272.6969909667969
 20
229.4782867431641
 30
0.0
 11
-272.5975341796875
 21
229.1070556640625
 31
0.0
  0
LINE
  5
11A
330
22
100
AcDbEntity
  8
0
  6
Continuous
 62
     7
100
AcDbLine
 10
-270.1134948730469
 20
233.4390869140625
 30
0.0
 11
-270.4850158691406
 21
233.3395385742188
 31
0.0
  0
LINE
  5
11B
330
22
100
AcDbEntity
  8
0
  6
Continuous
 62
     7
100
AcDbLine
 10
-270.1134948730469
 20
233.4390869140625
 30
0.0
 11
-269.7419738769531
 21
233.5386352539063
 31
0.0
  0
LINE
  5
11C
330
22
100
AcDbEntity
  8
0
  6
Continuous
 62
     7
100
AcDbLine
 10
-258.3678588867188
 20
244.1378479003906
 30
0.0
 11
-258.3678588867188
 21
210.6182556152344
 31
0.0
  0
LINE
  5
11D
330
22
100
AcDbEntity
  8
0
  6
Continuous
 62
     7
100
AcDbLine
 10
-248.8678588867188
 20
205.8682556152344
 30
0.0
 11
-248.8678588867188
 21
217.0184478759766
 31
0.0
  0
LINE
  5
11E
330
22
100
AcDbEntity
  8
0
  6
Continuous
 62
     7
100
AcDbLine
 10
-253.3678588867188
 20
247.6960144042969
 30
0.0
 11
-253.3678588867188
 21
210.6182556152344
 31
0.0
  0
LINE
  5
11F
330
22
100
AcDbEntity
  8
0
  6
Continuous
 62
     7
100
AcDbLine
 10
-251.3678588867188
 20
57.77373886108398
 30
0.0
 11
-251.3678588867188
 21
75.257080078125
 31
0.0
  0
LINE
  5
120
330
22
100
AcDbEntity
  8
0
  6
Continuous
 62
     7
100
AcDbLine
 10
-251.6857299804688
 20
77.01141357421875
 30
0.0
 11
-247.841064453125
 21
77.01141357421875
 31
0.0
  0
LINE
  5
121
330
22
100
AcDbEntity
  8
0
  6
Continuous
 62
     7
100
AcDbLine
 10
-243.8551177978516
 20
252.2765808105469
 30
0.0
 11
-243.8805999755859
 21
226.4929656982422
 31
0.0
  0
LINE
  5
122
330
22
100
AcDbEntity
  8
0
  6
Continuous
 62
     7
100
AcDbLine
 10
-262.86767578125
 20
222.6087036132813
 30
0.0
 11
-262.86767578125
 21
200.6087036132814
 31
0.0
  0
LINE
  5
123
330
22
100
AcDbEntity
  8
0
  6
Continuous
 62
     7
100
AcDbLine
 10
-267.880615234375
 20
222.6214141845703
 30
0.0
 11
-267.878173828125
 21
200.6087036132814
 31
0.0
  0
LINE
  5
124
330
22
100
AcDbEntity
  8
0
  6
Continuous
 62
     7
100
AcDbLine
 10
-248.8678588867188
 20
250.1775360107422
 30
0.0
 11
-248.8678588867188
 21
226.4929656982422
 31
0.0
  0
LINE
  5
125
330
22
100
AcDbEntity
  8
0
  6
Continuous
 62
     7
100
AcDbLine
 10
-269.7419738769531
 20
233.5386352539063
 30
0.0
 11
-268.65625
 21
230.9546356201172
 31
0.0
  0
LINE
  5
126
330
22
100
AcDbEntity
  8
0
  6
Continuous
 62
     7
100
AcDbLine
 10
-272.3678588867188
 20
220.4656219482422
 30
0.0
 11
-272.3678588867188
 21
205.8682556152344
 31
0.0
  0
LINE
  5
127
330
22
100
AcDbEntity
  8
0
  6
Continuous
 62
     7
100
AcDbLine
 10
-239.3678588867188
 20
253.6339569091797
 30
0.0
 11
-239.3678588867188
 21
210.6182556152344
 31
0.0
  0
LINE
  5
128
330
22
100
AcDbEntity
  8
0
  6
Continuous
 62
     7
100
AcDbLine
 10
-243.8805999755859
 20
205.8682556152344
 30
0.0
 11
-243.8805999755859
 21
217.0184478759766
 31
0.0
  0
LINE
  5
129
330
22
100
AcDbEntity
  8
0
  6
Continuous
 62
     7
100
AcDbLine
 10
-229.8720855712891
 20
155.0640258789063
 30
0.0
 11
-229.6001129150391
 21
154.7920532226563
 31
0.0
  0
LINE
  5
12A
330
22
100
AcDbEntity
  8
0
  6
Continuous
 62
     7
100
AcDbLine
 10
-265.69677734375
 20
230.5582122802734
 30
0.0
 11
-265.7962646484375
 21
230.929443359375
 31
0.0
  0
LINE
  5
12B
330
22
100
AcDbEntity
  8
0
  6
Continuous
 62
     7
100
AcDbLine
 10
-272.498046875
 20
228.7358245849609
 30
0.0
 11
-272.5975341796875
 21
229.1070556640625
 31
0.0
  0
LINE
  5
12C
330
22
100
AcDbEntity
  8
0
  6
Continuous
 62
     7
100
AcDbLine
 10
-265.8957214355469
 20
231.3006744384766
 30
0.0
 11
-268.65625
 21
230.9546356201172
 31
0.0
  0
LINE
  5
12D
330
22
100
AcDbEntity
  8
0
  6
Continuous
 62
     7
100
AcDbLine
 10
-265.69677734375
 20
230.5582122802734
 30
0.0
 11
-268.260498046875
 21
229.4776306152344
 31
0.0
  0
LINE
  5
12E
330
22
100
AcDbEntity
  8
0
  6
Continuous
 62
     7
100
AcDbLine
 10
-265.8957214355469
 20
231.3006744384766
 30
0.0
 11
-265.7962646484375
 21
230.929443359375
 31
0.0
  0
LINE
  5
12F
330
22
100
AcDbEntity
  8
0
  6
Continuous
 62
     7
100
AcDbLine
 10
-268.6517944335938
 20
226.4978637695314
 30
0.0
 11
-269.7375183105469
 21
229.0818634033203
 31
0.0
  0
LINE
  5
130
330
22
100
AcDbEntity
  8
0
  6
Continuous
 62
     7
100
AcDbLine
 10
-268.2802734375
 20
226.597412109375
 30
0.0
 11
-268.6517944335938
 21
226.4978637695314
 31
0.0
  0
LINE
  5
131
330
22
100
AcDbEntity
  8
0
  6
Continuous
 62
     7
100
AcDbLine
 10
-270.4850158691406
 20
233.3395385742188
 30
0.0
 11
-270.1332702636719
 21
230.5588684082031
 31
0.0
  0
LINE
  5
132
330
22
100
AcDbEntity
  8
0
  6
Continuous
 62
     7
100
AcDbLine
 10
-270.1134948730469
 20
233.4390869140625
 30
0.0
 11
-270.4850158691406
 21
233.3395385742188
 31
0.0
  0
LINE
  5
133
330
22
100
AcDbEntity
  8
0
  6
Continuous
 62
     7
100
AcDbLine
 10
-272.6969909667969
 20
229.4782867431641
 30
0.0
 11
-270.1332702636719
 21
230.5588684082031
 31
0.0
  0
LINE
  5
134
330
22
100
AcDbEntity
  8
0
  6
Continuous
 62
     7
100
AcDbLine
 10
-272.498046875
 20
228.7358245849609
 30
0.0
 11
-269.7375183105469
 21
229.0818634033203
 31
0.0
  0
LINE
  5
135
330
22
100
AcDbEntity
  8
0
  6
Continuous
 62
     7
100
AcDbLine
 10
-225.1356048583984
 20
160.3444366455078
 30
0.0
 11
-227.3678588867188
 21
158.6494903564453
 31
0.0
  0
LINE
  5
136
330
22
100
AcDbEntity
  8
0
  6
Continuous
 62
     7
100
AcDbLine
 10
-225.1501770019531
 20
154.8070526123047
 30
0.0
 11
-227.3678588867188
 21
156.4869995117188
 31
0.0
  0
LINE
  5
137
330
22
100
AcDbEntity
  8
0
  6
Continuous
 62
     7
100
AcDbLine
 10
-229.6001129150391
 20
154.7920532226563
 30
0.0
 11
-227.3678588867188
 21
156.4869995117188
 31
0.0
  0
LINE
  5
138
330
22
100
AcDbEntity
  8
0
  6
Continuous
 62
     7
100
AcDbLine
 10
-227.3678588867188
 20
105.7737350463867
 30
0.0
 11
-291.3678588867188
 21
105.7737350463867
 31
0.0
  0
LINE
  5
139
330
22
100
AcDbEntity
  8
0
  6
Continuous
 62
     7
100
AcDbLine
 10
-292.3678588867188
 20
108.7737350463867
 30
0.0
 11
-292.3678588867188
 21
106.7737350463867
 31
0.0
  0
LINE
  5
13A
330
22
100
AcDbEntity
  8
0
  6
Continuous
 62
     7
100
AcDbLine
 10
-224.3678588867188
 20
109.2737350463867
 30
0.0
 11
-224.3678588867188
 21
107.2737350463867
 31
0.0
  0
LINE
  5
13B
330
22
100
AcDbEntity
  8
0
  6
Continuous
 62
     7
100
AcDbLine
 10
-207.8678588867188
 20
58.29706192016602
 30
0.0
 11
-208.1505432128906
 21
67.34273529052734
 31
0.0
  0
LINE
  5
13C
330
22
100
AcDbEntity
  8
0
  6
Continuous
 62
     7
100
AcDbLine
 10
-227.3678588867188
 20
56.77373886108398
 30
0.0
 11
-204.3678588867188
 21
56.77373886108398
 31
0.0
  0
LINE
  5
13D
330
22
100
AcDbEntity
  8
0
  6
Continuous
 62
     7
100
AcDbLine
 10
-203.3678588867188
 20
57.77373886108398
 30
0.0
 11
-203.3678588867188
 21
75.257080078125
 31
0.0
  0
LINE
  5
13E
330
22
100
AcDbEntity
  8
0
  6
Continuous
 62
     7
100
AcDbLine
 10
-285.3678588867188
 20
105.7737350463867
 30
0.0
 11
-285.3678588867188
 21
100.6604919433594
 31
0.0
  0
LINE
  5
13F
330
22
100
AcDbEntity
  8
0
  6
Continuous
 62
     7
100
AcDbLine
 10
-282.5916137695313
 20
98.16049194335938
 30
0.0
 11
-227.3678588867188
 21
98.16049194335938
 31
0.0
  0
LINE
  5
140
330
22
100
AcDbEntity
  8
0
  6
Continuous
 62
     7
100
AcDbLine
 10
-209.3678588867188
 20
76.41177368164062
 30
0.0
 11
-209.3678588867188
 21
75.77373504638671
 31
0.0
  0
LINE
  5
141
330
22
100
AcDbEntity
  8
0
  6
Continuous
 62
     7
100
AcDbLine
 10
-206.3678588867188
 20
69.27373504638672
 30
0.0
 11
-206.3678588867188
 21
72.77373504638672
 31
0.0
  0
LINE
  5
142
330
22
100
AcDbEntity
  8
0
  6
Continuous
 62
     7
100
AcDbLine
 10
-206.8678588867189
 20
68.77373504638672
 30
0.0
 11
-227.3678588867188
 21
68.77373504638672
 31
0.0
  0
LINE
  5
143
330
22
100
AcDbEntity
  8
0
  6
Continuous
 62
     7
100
AcDbLine
 10
-230.14404296875
 20
155.3359832763672
 30
0.0
 11
-228.4491119384766
 21
157.5682525634766
 31
0.0
  0
LINE
  5
144
330
22
100
AcDbEntity
  8
0
  6
Continuous
 62
     7
100
AcDbLine
 10
-224.6066589355469
 20
155.3505706787109
 30
0.0
 11
-224.87841796875
 21
155.0788116455078
 31
0.0
  0
LINE
  5
145
330
22
100
AcDbEntity
  8
0
  6
Continuous
 62
     7
100
AcDbLine
 10
-230.1290588378906
 20
159.7859191894531
 30
0.0
 11
-228.4491119384766
 21
157.5682525634766
 31
0.0
  0
LINE
  5
146
330
22
100
AcDbEntity
  8
0
  6
Continuous
 62
     7
100
AcDbLine
 10
-229.6001129150391
 20
154.7920532226563
 30
0.0
 11
-227.3678588867188
 21
156.4869995117188
 31
0.0
  0
LINE
  5
147
330
22
100
AcDbEntity
  8
0
  6
CENTER
 62
     7
100
AcDbLine
 10
-227.3678588867188
 20
136.0305786132812
 30
0.0
 11
-227.3678588867188
 21
275.6674194335938
 31
0.0
  0
LINE
  5
148
330
22
100
AcDbEntity
  8
0
  6
Continuous
 62
     7
100
AcDbLine
 10
-229.5855407714844
 20
160.3294525146484
 30
0.0
 11
-229.8572998046875
 21
160.0576782226563
 31
0.0
  0
LINE
  5
149
330
22
100
AcDbEntity
  8
0
  6
Continuous
 62
     7
100
AcDbLine
 10
-224.8636322021484
 20
160.0724792480469
 30
0.0
 11
-225.1356048583984
 21
160.3444366455078
 31
0.0
  0
LINE
  5
14A
330
22
100
AcDbEntity
  8
0
  6
Continuous
 62
     7
100
AcDbLine
 10
-224.8636322021484
 20
160.0724792480469
 30
0.0
 11
-224.5916748046875
 21
159.8005065917969
 31
0.0
  0
LINE
  5
14B
330
22
100
AcDbEntity
  8
0
  6
Continuous
 62
     7
100
AcDbLine
 10
-230.1290588378906
 20
159.7859191894531
 30
0.0
 11
-229.8572998046875
 21
160.0576782226563
 31
0.0
  0
LINE
  5
14C
330
22
100
AcDbEntity
  8
0
  6
Continuous
 62
     7
100
AcDbLine
 10
-230.1290588378906
 20
159.7859191894531
 30
0.0
 11
-229.8572998046875
 21
160.0576782226563
 31
0.0
  0
LINE
  5
14D
330
22
100
AcDbEntity
  8
0
  6
Continuous
 62
     7
100
AcDbLine
 10
-224.8636322021484
 20
160.0724792480469
 30
0.0
 11
-225.1356048583984
 21
160.3444366455078
 31
0.0
  0
LINE
  5
14E
330
22
100
AcDbEntity
  8
0
  6
Continuous
 62
     7
100
AcDbLine
 10
-229.5855407714844
 20
160.3294525146484
 30
0.0
 11
-229.8572998046875
 21
160.0576782226563
 31
0.0
  0
LINE
  5
14F
330
22
100
AcDbEntity
  8
0
  6
Continuous
 62
     7
100
AcDbLine
 10
-229.8678588867189
 20
181.1682434082031
 30
0.0
 11
-229.8678588867189
 21
165.4814910888672
 31
0.0
  0
LINE
  5
150
330
22
100
AcDbEntity
  8
0
  6
Continuous
 62
     7
100
AcDbLine
 10
-224.8678588867188
 20
190.6682434082031
 30
0.0
 11
-224.8678588867188
 21
214.5682525634766
 31
0.0
  0
LINE
  5
151
330
22
100
AcDbEntity
  8
0
  6
Continuous
 62
     7
100
AcDbLine
 10
-229.8678588867189
 20
190.6682434082031
 30
0.0
 11
-229.8678588867189
 21
214.5682525634766
 31
0.0
  0
LINE
  5
152
330
22
100
AcDbEntity
  8
0
  6
Continuous
 62
     7
100
AcDbLine
 10
-224.6066589355469
 20
155.3505706787109
 30
0.0
 11
-226.2866058349609
 21
157.5682525634766
 31
0.0
  0
LINE
  5
153
330
22
100
AcDbEntity
  8
0
  6
Continuous
 62
     7
100
AcDbLine
 10
-204.3678588867188
 20
56.77373886108398
 30
0.0
 11
-203.3678588867188
 21
57.77373886108398
 31
0.0
  0
LINE
  5
154
330
22
100
AcDbEntity
  8
0
  6
Continuous
 62
     7
100
AcDbLine
 10
-206.4178619384766
 20
56.77373886108398
 30
0.0
 11
-207.8678588867188
 21
58.29706192016602
 31
0.0
  0
LINE
  5
155
330
22
100
AcDbEntity
  8
0
  6
Continuous
 62
     7
100
AcDbLine
 10
-206.7928771972656
 20
68.77373504638672
 30
0.0
 11
-208.1505432128906
 21
67.34273529052734
 31
0.0
  0
LINE
  5
156
330
22
100
AcDbEntity
  8
0
  6
Continuous
 62
     7
100
AcDbLine
 10
-224.5916748046875
 20
159.8005065917969
 30
0.0
 11
-226.2866058349609
 21
157.5682525634766
 31
0.0
  0
LINE
  5
157
330
22
100
AcDbEntity
  8
0
  6
Continuous
 62
     7
100
AcDbLine
 10
-224.8678588867188
 20
181.1682434082031
 30
0.0
 11
-224.8678588867188
 21
165.4814910888672
 31
0.0
  0
LINE
  5
158
330
22
100
AcDbEntity
  8
0
  6
Continuous
 62
     7
100
AcDbLine
 10
-224.8636322021484
 20
160.0724792480469
 30
0.0
 11
-224.5916748046875
 21
159.8005065917969
 31
0.0
  0
LINE
  5
159
330
22
100
AcDbEntity
  8
0
  6
Continuous
 62
     7
100
AcDbLine
 10
-224.5916748046875
 20
159.8005065917969
 30
0.0
 11
-226.2866058349609
 21
157.5682525634766
 31
0.0
  0
LINE
  5
15A
330
22
100
AcDbEntity
  8
0
  6
Continuous
 62
     7
100
AcDbLine
 10
-229.5855407714844
 20
160.3294525146484
 30
0.0
 11
-227.3678588867188
 21
158.6494903564453
 31
0.0
  0
LINE
  5
15B
330
22
100
AcDbEntity
  8
0
  6
Continuous
 62
     7
100
AcDbLine
 10
-224.6066589355469
 20
155.3505706787109
 30
0.0
 11
-224.87841796875
 21
155.0788116455078
 31
0.0
  0
LINE
  5
15C
330
22
100
AcDbEntity
  8
0
  6
Continuous
 62
     7
100
AcDbLine
 10
-229.8720855712891
 20
155.0640258789063
 30
0.0
 11
-230.14404296875
 21
155.3359832763672
 31
0.0
  0
LINE
  5
15D
330
22
100
AcDbEntity
  8
0
  6
Continuous
 62
     7
100
AcDbLine
 10
-230.14404296875
 20
155.3359832763672
 30
0.0
 11
-228.4491119384766
 21
157.5682525634766
 31
0.0
  0
LINE
  5
15E
330
22
100
AcDbEntity
  8
0
  6
Continuous
 62
     7
100
AcDbLine
 10
-230.1290588378906
 20
159.7859191894531
 30
0.0
 11
-228.4491119384766
 21
157.5682525634766
 31
0.0
  0
LINE
  5
15F
330
22
100
AcDbEntity
  8
0
  6
Continuous
 62
     7
100
AcDbLine
 10
-224.6066589355469
 20
155.3505706787109
 30
0.0
 11
-226.2866058349609
 21
157.5682525634766
 31
0.0
  0
LINE
  5
160
330
22
100
AcDbEntity
  8
0
  6
Continuous
 62
     7
100
AcDbLine
 10
-225.1356048583984
 20
160.3444366455078
 30
0.0
 11
-227.3678588867188
 21
158.6494903564453
 31
0.0
  0
LINE
  5
161
330
22
100
AcDbEntity
  8
0
  6
Continuous
 62
     7
100
AcDbLine
 10
-229.5855407714844
 20
160.3294525146484
 30
0.0
 11
-227.3678588867188
 21
158.6494903564453
 31
0.0
  0
LINE
  5
162
330
22
100
AcDbEntity
  8
0
  6
Continuous
 62
     7
100
AcDbLine
 10
-229.8720855712891
 20
155.0640258789063
 30
0.0
 11
-230.14404296875
 21
155.3359832763672
 31
0.0
  0
LINE
  5
163
330
22
100
AcDbEntity
  8
0
  6
Continuous
 62
     7
100
AcDbLine
 10
-225.1501770019531
 20
154.8070526123047
 30
0.0
 11
-227.3678588867188
 21
156.4869995117188
 31
0.0
  0
LINE
  5
164
330
22
100
AcDbEntity
  8
0
  6
Continuous
 62
     7
100
AcDbLine
 10
-229.8720855712891
 20
155.0640258789063
 30
0.0
 11
-229.6001129150391
 21
154.7920532226563
 31
0.0
  0
LINE
  5
165
330
22
100
AcDbEntity
  8
0
  6
Continuous
 62
     7
100
AcDbLine
 10
-225.1501770019531
 20
154.8070526123047
 30
0.0
 11
-224.87841796875
 21
155.0788116455078
 31
0.0
  0
LINE
  5
166
330
22
100
AcDbEntity
  8
0
  6
Continuous
 62
     7
100
AcDbLine
 10
-225.1501770019531
 20
154.8070526123047
 30
0.0
 11
-224.87841796875
 21
155.0788116455078
 31
0.0
  0
LINE
  5
167
330
22
100
AcDbEntity
  8
0
  6
Continuous
 62
     7
100
AcDbLine
 10
-206.4178619384766
 20
56.77373886108398
 30
0.0
 11
-206.7928771972656
 21
68.77373504638672
 31
0.0
  0
LINE
  5
168
330
22
100
AcDbEntity
  8
0
  6
Continuous
 62
     7
100
AcDbLine
 10
-172.3678588867188
 20
109.7737350463867
 30
0.0
 11
-172.3678588867188
 21
104.7737350463867
 31
0.0
  0
LINE
  5
169
330
22
100
AcDbEntity
  8
0
  6
Continuous
 62
     7
100
AcDbLine
 10
-182.3678588867188
 20
109.2737350463867
 30
0.0
 11
-182.3678588867188
 21
107.2737350463867
 31
0.0
  0
LINE
  5
16A
330
22
100
AcDbEntity
  8
0
  6
Continuous
 62
     7
100
AcDbLine
 10
-175.8678588867188
 20
106.2737350463867
 30
0.0
 11
-175.8678588867188
 21
105.2737350463867
 31
0.0
  0
LINE
  5
16B
330
22
100
AcDbEntity
  8
0
  6
Continuous
 62
     7
100
AcDbLine
 10
-173.3678588867188
 20
104.7737350463867
 30
0.0
 11
-175.3678588867188
 21
104.7737350463867
 31
0.0
  0
LINE
  5
16C
330
22
100
AcDbEntity
  8
0
  6
Continuous
 62
     7
100
AcDbLine
 10
-210.8551177978516
 20
109.2737350463867
 30
0.0
 11
-210.8551177978516
 21
107.2737350463867
 31
0.0
  0
LINE
  5
16D
330
22
100
AcDbEntity
  8
0
  6
Continuous
 62
     7
100
AcDbLine
 10
-172.3678588867188
 20
104.7737350463867
 30
0.0
 11
-175.8678588867188
 21
104.7737350463867
 31
0.0
  0
LINE
  5
16E
330
22
100
AcDbEntity
  8
0
  6
Continuous
 62
     7
100
AcDbLine
 10
-186.8869323730469
 20
109.2887954711914
 30
0.0
 11
-186.8880615234375
 21
107.2739639282227
 31
0.0
  0
LINE
  5
16F
330
22
100
AcDbEntity
  8
0
  6
Continuous
 62
     7
100
AcDbLine
 10
-162.3678588867188
 20
108.7737350463867
 30
0.0
 11
-162.3678588867188
 21
106.7737350463867
 31
0.0
  0
LINE
  5
170
330
22
100
AcDbEntity
  8
0
  6
Continuous
 62
     7
100
AcDbLine
 10
-205.8551177978516
 20
109.2737350463867
 30
0.0
 11
-205.8551177978516
 21
107.2737350463867
 31
0.0
  0
LINE
  5
171
330
22
100
AcDbEntity
  8
0
  6
Continuous
 62
     7
100
AcDbLine
 10
-181.4029541015625
 20
104.7737350463867
 30
0.0
 11
-181.4029541015625
 21
106.7737350463867
 31
0.0
  0
LINE
  5
172
330
22
100
AcDbEntity
  8
0
  6
Continuous
 62
     7
100
AcDbLine
 10
-178.1178588867188
 20
109.2737350463867
 30
0.0
 11
-178.1178588867188
 21
107.2737350463867
 31
0.0
  0
LINE
  5
173
330
22
100
AcDbEntity
  8
0
  6
Continuous
 62
     7
100
AcDbLine
 10
-172.8678588867188
 20
105.2737350463867
 30
0.0
 11
-173.3678588867188
 21
104.7737350463867
 31
0.0
  0
LINE
  5
174
330
22
100
AcDbEntity
  8
0
  6
Continuous
 62
     7
100
AcDbLine
 10
-172.8678588867188
 20
109.2737350463867
 30
0.0
 11
-172.8678588867188
 21
105.2737350463867
 31
0.0
  0
LINE
  5
175
330
22
100
AcDbEntity
  8
0
  6
Continuous
 62
     7
100
AcDbLine
 10
-191.8678588867188
 20
109.2737350463867
 30
0.0
 11
-191.8678588867188
 21
107.2737350463867
 31
0.0
  0
LINE
  5
176
330
22
100
AcDbEntity
  8
0
  6
Continuous
 62
     7
100
AcDbLine
 10
-172.8678588867188
 20
109.2737350463867
 30
0.0
 11
-173.3678588867188
 21
109.7737350463867
 31
0.0
  0
LINE
  5
177
330
22
100
AcDbEntity
  8
0
  6
Continuous
 62
     7
100
AcDbLine
 10
-163.3678588867188
 20
105.7737350463867
 30
0.0
 11
-168.3678588867188
 21
105.7737350463867
 31
0.0
  0
LINE
  5
178
330
22
100
AcDbEntity
  8
0
  6
Continuous
 62
     7
100
AcDbLine
 10
-189.5388336181641
 20
104.7737350463867
 30
0.0
 11
-189.5388336181641
 21
106.7737350463867
 31
0.0
  0
LINE
  5
179
330
22
100
AcDbEntity
  8
0
  6
Continuous
 62
     7
100
AcDbLine
 10
-175.8678588867188
 20
104.7737350463867
 30
0.0
 11
-175.8678588867188
 21
100.3718109130859
 31
0.0
  0
LINE
  5
17A
330
22
100
AcDbEntity
  8
0
  6
Continuous
 62
     7
100
AcDbLine
 10
-169.3678588867188
 20
104.7737350463867
 30
0.0
 11
-169.3678588867188
 21
100.6604919433594
 31
0.0
  0
LINE
  5
17B
330
22
100
AcDbEntity
  8
0
  6
Continuous
 62
     7
100
AcDbLine
 10
-189.6086730957031
 20
104.7737350463867
 30
0.0
 11
-189.6086730957031
 21
93.28415679931641
 31
0.0
  0
LINE
  5
17C
330
22
100
AcDbEntity
  8
0
  6
Continuous
 62
     7
100
AcDbLine
 10
-181.4029541015625
 20
104.7737350463867
 30
0.0
 11
-181.4029541015625
 21
98.50448608398437
 31
0.0
  0
LINE
  5
17D
330
22
100
AcDbEntity
  8
0
  6
Continuous
 62
     7
100
AcDbLine
 10
-183.6007537841797
 20
94.86817932128905
 30
0.0
 11
-187.3791046142578
 21
92.6867446899414
 31
0.0
  0
LINE
  5
17E
330
22
100
AcDbEntity
  8
0
  6
Continuous
 62
     7
100
AcDbLine
 10
-224.8678588867188
 20
230.5682525634766
 30
0.0
 11
-224.8678588867188
 21
255.0547637939453
 31
0.0
  0
LINE
  5
17F
330
22
100
AcDbEntity
  8
0
  6
Continuous
 62
     7
100
AcDbLine
 10
-229.8678588867189
 20
230.5682525634766
 30
0.0
 11
-229.8678588867189
 21
255.0547637939453
 31
0.0
  0
LINE
  5
180
330
22
100
AcDbEntity
  8
0
  6
Continuous
 62
     7
100
AcDbLine
 10
-224.8678588867188
 20
221.0682525634766
 30
0.0
 11
-224.8678588867188
 21
214.5682525634766
 31
0.0
  0
LINE
  5
181
330
22
100
AcDbEntity
  8
0
  6
Continuous
 62
     7
100
AcDbLine
 10
-229.8678588867189
 20
221.0682525634766
 30
0.0
 11
-229.8678588867189
 21
214.5682525634766
 31
0.0
  0
LINE
  5
182
330
22
100
AcDbEntity
  8
0
  6
Continuous
 62
     7
100
AcDbLine
 10
-182.3678588867188
 20
191.2708740234375
 30
0.0
 11
-182.3678588867188
 21
205.8682556152344
 31
0.0
  0
LINE
  5
183
330
22
100
AcDbEntity
  8
0
  6
Continuous
 62
     7
100
AcDbLine
 10
-196.3678588867188
 20
167.5986480712891
 30
0.0
 11
-196.3678588867188
 21
200.9972381591797
 31
0.0
  0
LINE
  5
184
330
22
100
AcDbEntity
  8
0
  6
Continuous
 62
     7
100
AcDbLine
 10
-201.3678588867188
 20
164.0404815673828
 30
0.0
 11
-201.3678588867188
 21
200.9972381591797
 31
0.0
  0
LINE
  5
185
330
22
100
AcDbEntity
  8
0
  6
Continuous
 62
     7
100
AcDbLine
 10
-215.3678588867188
 20
158.1025390625
 30
0.0
 11
-215.3678588867188
 21
201.1182556152344
 31
0.0
  0
LINE
  5
186
330
22
100
AcDbEntity
  8
0
  6
Continuous
 62
     7
100
AcDbLine
 10
-210.8551177978516
 20
205.8682556152344
 30
0.0
 11
-210.8551177978516
 21
194.7180480957031
 31
0.0
  0
LINE
  5
187
330
22
100
AcDbEntity
  8
0
  6
Continuous
 62
     7
100
AcDbLine
 10
-205.8551177978516
 20
205.8555450439453
 30
0.0
 11
-205.8551177978516
 21
194.7053527832031
 31
0.0
  0
LINE
  5
188
330
22
100
AcDbEntity
  8
0
  6
Continuous
 62
     7
100
AcDbLine
 10
-191.8678588867188
 20
191.1087036132813
 30
0.0
 11
-191.8678588867188
 21
171.7315826416016
 31
0.0
  0
LINE
  5
189
330
22
100
AcDbEntity
  8
0
  6
Continuous
 62
     7
100
AcDbLine
 10
-182.0184478759766
 20
229.47314453125
 30
0.0
 11
-184.6024475097656
 21
230.5588684082031
 31
0.0
  0
LINE
  5
18A
330
22
100
AcDbEntity
  8
0
  6
Continuous
 62
     7
100
AcDbLine
 10
-186.0787963867188
 20
226.5181427001953
 30
0.0
 11
-184.9982147216797
 21
229.0818634033203
 31
0.0
  0
LINE
  5
18B
330
22
100
AcDbEntity
  8
0
  6
Continuous
 62
     7
100
AcDbLine
 10
-184.2564086914063
 20
233.3194122314453
 30
0.0
 11
-184.6276397705078
 21
233.4188842773438
 31
0.0
  0
LINE
  5
18C
330
22
100
AcDbEntity
  8
0
  6
Continuous
 62
     7
100
AcDbLine
 10
-184.9988708496094
 20
233.5183563232422
 30
0.0
 11
-186.0794525146484
 21
230.9546356201172
 31
0.0
  0
LINE
  5
18D
330
22
100
AcDbEntity
  8
0
  6
Continuous
 62
     7
100
AcDbLine
 10
-210.8678588867188
 20
185.2435302734375
 30
0.0
 11
-210.8805999755859
 21
159.4599304199219
 31
0.0
  0
LINE
  5
18E
330
22
100
AcDbEntity
  8
0
  6
Continuous
 62
     7
100
AcDbLine
 10
-205.8678588867188
 20
161.5589599609375
 30
0.0
 11
-205.8678588867188
 21
185.2435302734375
 31
0.0
  0
LINE
  5
18F
330
22
100
AcDbEntity
  8
0
  6
Continuous
 62
     7
100
AcDbLine
 10
-184.2564086914063
 20
233.3194122314453
 30
0.0
 11
-184.6276397705078
 21
233.4188842773438
 31
0.0
  0
LINE
  5
190
330
22
100
AcDbEntity
  8
0
  6
Continuous
 62
     7
100
AcDbLine
 10
-182.1179962158203
 20
229.1016387939453
 30
0.0
 11
-182.2175445556641
 21
228.7301330566406
 31
0.0
  0
LINE
  5
191
330
22
100
AcDbEntity
  8
0
  6
Continuous
 62
     7
100
AcDbLine
 10
-182.1179962158203
 20
229.1016387939453
 30
0.0
 11
-182.0184478759766
 21
229.47314453125
 31
0.0
  0
LINE
  5
192
330
22
100
AcDbEntity
  8
0
  6
Continuous
 62
     7
100
AcDbLine
 10
-182.1179962158203
 20
229.1016387939453
 30
0.0
 11
-182.2175445556641
 21
228.7301330566406
 31
0.0
  0
LINE
  5
193
330
22
100
AcDbEntity
  8
0
  6
Continuous
 62
     7
100
AcDbLine
 10
-186.8551177978516
 20
222.6214141845703
 30
0.0
 11
-186.8575286865234
 21
200.6087036132814
 31
0.0
  0
LINE
  5
194
330
22
100
AcDbEntity
  8
0
  6
Continuous
 62
     7
100
AcDbLine
 10
-188.9596710205078
 20
230.9348602294922
 30
0.0
 11
-188.8601226806641
 21
231.3063659667969
 31
0.0
  0
LINE
  5
195
330
22
100
AcDbEntity
  8
0
  6
Continuous
 62
     7
100
AcDbLine
 10
-196.3678588867188
 20
244.1378479003906
 30
0.0
 11
-196.3678588867188
 21
210.4972381591797
 31
0.0
  0
LINE
  5
196
330
22
100
AcDbEntity
  8
0
  6
Continuous
 62
     7
100
AcDbLine
 10
-205.8551177978516
 20
205.8555450439453
 30
0.0
 11
-205.8551177978516
 21
217.0057373046875
 31
0.0
  0
LINE
  5
197
330
22
100
AcDbEntity
  8
0
  6
Continuous
 62
     7
100
AcDbLine
 10
-182.3678588867188
 20
220.4656219482422
 30
0.0
 11
-182.3678588867188
 21
205.8682556152344
 31
0.0
  0
LINE
  5
198
330
22
100
AcDbEntity
  8
0
  6
Continuous
 62
     7
100
AcDbLine
 10
-184.9988708496094
 20
233.5183563232422
 30
0.0
 11
-186.0794525146484
 21
230.9546356201172
 31
0.0
  0
LINE
  5
199
330
22
100
AcDbEntity
  8
0
  6
Continuous
 62
     7
100
AcDbLine
 10
-184.2564086914063
 20
233.3194122314453
 30
0.0
 11
-184.6024475097656
 21
230.5588684082031
 31
0.0
  0
LINE
  5
19A
330
22
100
AcDbEntity
  8
0
  6
Continuous
 62
     7
100
AcDbLine
 10
-189.0592193603516
 20
230.5633544921875
 30
0.0
 11
-186.4752197265625
 21
229.4776306152344
 31
0.0
  0
LINE
  5
19B
330
22
100
AcDbEntity
  8
0
  6
Continuous
 62
     7
100
AcDbLine
 10
-182.1179962158203
 20
229.1016387939453
 30
0.0
 11
-182.0184478759766
 21
229.47314453125
 31
0.0
  0
LINE
  5
19C
330
22
100
AcDbEntity
  8
0
  6
Continuous
 62
     7
100
AcDbLine
 10
-188.9596710205078
 20
230.9348602294922
 30
0.0
 11
-188.8601226806641
 21
231.3063659667969
 31
0.0
  0
LINE
  5
19D
330
22
100
AcDbEntity
  8
0
  6
Continuous
 62
     7
100
AcDbLine
 10
-184.9988708496094
 20
233.5183563232422
 30
0.0
 11
-184.6276397705078
 21
233.4188842773438
 31
0.0
  0
LINE
  5
19E
330
22
100
AcDbEntity
  8
0
  6
Continuous
 62
     7
100
AcDbLine
 10
-186.8618469238281
 20
191.1087036132813
 30
0.0
 11
-186.8678588867188
 21
177.8448181152344
 31
0.0
  0
LINE
  5
19F
330
22
100
AcDbEntity
  8
0
  6
Continuous
 62
     7
100
AcDbLine
 10
-188.9596710205078
 20
230.9348602294922
 30
0.0
 11
-189.0592193603516
 21
230.5633544921875
 31
0.0
  0
LINE
  5
1A0
330
22
100
AcDbEntity
  8
0
  6
Continuous
 62
     7
100
AcDbLine
 10
-215.3678588867188
 20
253.6339569091797
 30
0.0
 11
-215.3678588867188
 21
210.6182556152344
 31
0.0
  0
LINE
  5
1A1
330
22
100
AcDbEntity
  8
0
  6
Continuous
 62
     7
100
AcDbLine
 10
-210.8678588867188
 20
226.4929656982422
 30
0.0
 11
-210.8805999755859
 21
252.2765808105469
 31
0.0
  0
LINE
  5
1A2
330
22
100
AcDbEntity
  8
0
  6
Continuous
 62
     7
100
AcDbLine
 10
-186.0787963867188
 20
226.5181427001953
 30
0.0
 11
-186.4500274658203
 21
226.6176147460938
 31
0.0
  0
LINE
  5
1A3
330
22
100
AcDbEntity
  8
0
  6
Continuous
 62
     7
100
AcDbLine
 10
-182.2175445556641
 20
228.7301330566406
 30
0.0
 11
-184.9982147216797
 21
229.0818634033203
 31
0.0
  0
LINE
  5
1A4
330
22
100
AcDbEntity
  8
0
  6
Continuous
 62
     7
100
AcDbLine
 10
-210.8551177978516
 20
205.8682556152344
 30
0.0
 11
-210.8551177978516
 21
217.0184478759766
 31
0.0
  0
LINE
  5
1A5
330
22
100
AcDbEntity
  8
0
  6
Continuous
 62
     7
100
AcDbLine
 10
-201.3678588867188
 20
247.6960144042969
 30
0.0
 11
-201.3678588867188
 21
210.4972381591797
 31
0.0
  0
LINE
  5
1A6
330
22
100
AcDbEntity
  8
0
  6
Continuous
 62
     7
100
AcDbLine
 10
-205.8678588867188
 20
250.1775360107422
 30
0.0
 11
-205.8678588867188
 21
226.4929656982422
 31
0.0
  0
LINE
  5
1A7
330
22
100
AcDbEntity
  8
0
  6
Continuous
 62
     7
100
AcDbLine
 10
-186.8212585449219
 20
226.7170867919922
 30
0.0
 11
-186.4500274658203
 21
226.6176147460938
 31
0.0
  0
LINE
  5
1A8
330
22
100
AcDbEntity
  8
0
  6
Continuous
 62
     7
100
AcDbLine
 10
-188.8601226806641
 20
231.3063659667969
 30
0.0
 11
-186.0794525146484
 21
230.9546356201172
 31
0.0
  0
LINE
  5
1A9
330
22
100
AcDbEntity
  8
0
  6
Continuous
 62
     7
100
AcDbLine
 10
-191.8680419921875
 20
222.6087036132813
 30
0.0
 11
-191.8680419921875
 21
200.6087036132814
 31
0.0
  0
LINE
  5
1AA
330
22
100
AcDbEntity
  8
0
  6
Continuous
 62
     7
100
AcDbLine
 10
-184.2564086914063
 20
233.3194122314453
 30
0.0
 11
-184.6024475097656
 21
230.5588684082031
 31
0.0
  0
LINE
  5
1AB
330
22
100
AcDbEntity
  8
0
  6
Continuous
 62
     7
100
AcDbLine
 10
-186.8212585449219
 20
226.7170867919922
 30
0.0
 11
-186.4752197265625
 21
229.4776306152344
 31
0.0
  0
LINE
  5
1AC
330
22
100
AcDbEntity
  8
0
  6
Continuous
 62
     7
100
AcDbLine
 10
-184.9988708496094
 20
233.5183563232422
 30
0.0
 11
-184.6276397705078
 21
233.4188842773438
 31
0.0
  0
LINE
  5
1AD
330
22
100
AcDbEntity
  8
0
  6
Continuous
 62
     7
100
AcDbLine
 10
-186.8212585449219
 20
226.7170867919922
 30
0.0
 11
-186.4500274658203
 21
226.6176147460938
 31
0.0
  0
LINE
  5
1AE
330
22
100
AcDbEntity
  8
0
  6
Continuous
 62
     7
100
AcDbLine
 10
-188.9596710205078
 20
230.9348602294922
 30
0.0
 11
-189.0592193603516
 21
230.5633544921875
 31
0.0
  0
LINE
  5
1AF
330
22
100
AcDbEntity
  8
0
  6
Continuous
 62
     7
100
AcDbLine
 10
-189.0592193603516
 20
230.5633544921875
 30
0.0
 11
-186.4752197265625
 21
229.4776306152344
 31
0.0
  0
LINE
  5
1B0
330
22
100
AcDbEntity
  8
0
  6
Continuous
 62
     7
100
AcDbLine
 10
-182.0184478759766
 20
229.47314453125
 30
0.0
 11
-184.6024475097656
 21
230.5588684082031
 31
0.0
  0
LINE
  5
1B1
330
22
100
AcDbEntity
  8
0
  6
Continuous
 62
     7
100
AcDbLine
 10
-182.2175445556641
 20
228.7301330566406
 30
0.0
 11
-184.9982147216797
 21
229.0818634033203
 31
0.0
  0
LINE
  5
1B2
330
22
100
AcDbEntity
  8
0
  6
Continuous
 62
     7
100
AcDbLine
 10
-186.8212585449219
 20
226.7170867919922
 30
0.0
 11
-186.4752197265625
 21
229.4776306152344
 31
0.0
  0
LINE
  5
1B3
330
22
100
AcDbEntity
  8
0
  6
Continuous
 62
     7
100
AcDbLine
 10
-186.0787963867188
 20
226.5181427001953
 30
0.0
 11
-184.9982147216797
 21
229.0818634033203
 31
0.0
  0
LINE
  5
1B4
330
22
100
AcDbEntity
  8
0
  6
Continuous
 62
     7
100
AcDbLine
 10
-186.0787963867188
 20
226.5181427001953
 30
0.0
 11
-186.4500274658203
 21
226.6176147460938
 31
0.0
  0
LINE
  5
1B5
330
22
100
AcDbEntity
  8
0
  6
Continuous
 62
     7
100
AcDbLine
 10
-188.8601226806641
 20
231.3063659667969
 30
0.0
 11
-186.0794525146484
 21
230.9546356201172
 31
0.0
  0
LINE
  5
1B6
330
22
100
AcDbEntity
  8
0
  6
Continuous
 62
     7
100
AcDbLine
 10
-208.1505432128906
 20
67.34273529052734
 30
0.0
 11
-227.3678588867188
 21
67.34273529052734
 31
0.0
  0
LINE
  5
1B7
330
22
100
AcDbEntity
  8
0
  6
Continuous
 62
     7
100
AcDbLine
 10
-207.8678588867188
 20
58.29706192016602
 30
0.0
 11
-227.3678588867188
 21
58.29706192016602
 31
0.0
  0
ARC
  5
1B8
330
22
100
AcDbEntity
  8
0
  6
Continuous
 62
     7
100
AcDbCircle
 10
-217.8678588867188
 20
201.1182556152344
 30
0.0
 40
2.5
100
AcDbArc
 50
0.0
 51
180.0000000000004
  0
ARC
  5
1B9
330
22
100
AcDbEntity
  8
0
  6
Continuous
 62
     7
100
AcDbCircle
 10
-217.8678588867188
 20
210.6182556152344
 30
0.0
 40
2.5
100
AcDbArc
 50
180.0000000000004
 51
0.0
  0
ARC
  5
1BA
330
22
100
AcDbEntity
  8
0
  6
Continuous
 62
     7
100
AcDbCircle
 10
-227.3678588867188
 20
205.8682556152344
 30
0.0
 40
49.25
100
AcDbArc
 50
75.89764732495712
 51
81.82876644005027
  0
CIRCLE
  5
1BB
330
22
100
AcDbEntity
  8
0
  6
Continuous
 62
     7
100
AcDbCircle
 10
-227.3678588867188
 20
157.5682525634766
 30
0.0
 40
4.75
  0
CIRCLE
  5
1BC
330
22
100
AcDbEntity
  8
0
  6
Continuous
 62
     7
100
AcDbCircle
 10
-227.3678588867188
 20
157.5682525634766
 30
0.0
 40
4.75
  0
CIRCLE
  5
1BD
330
22
100
AcDbEntity
  8
0
  6
Continuous
 62
     7
100
AcDbCircle
 10
-227.3678588867188
 20
157.5682525634766
 30
0.0
 40
4.5
  0
ARC
  5
1BE
330
22
100
AcDbEntity
  8
0
  6
CENTER
 62
     7
100
AcDbCircle
 10
-227.3678588867188
 20
218.0682525634766
 30
0.0
 40
60.5
100
AcDbArc
 50
263.3690079032323
 51
276.5790161528666
  0
ARC
  5
1BF
330
22
100
AcDbEntity
  8
0
  6
CENTER
 62
     7
100
AcDbCircle
 10
-227.3678588867188
 20
218.0682525634766
 30
0.0
 40
60.5
100
AcDbArc
 50
263.3690079032323
 51
276.5790161528666
  0
CIRCLE
  5
1C0
330
22
100
AcDbEntity
  8
0
  6
DASHED
 62
     7
100
AcDbCircle
 10
-227.3678588867188
 20
205.8682556152344
 30
0.0
 40
18.0
  0
CIRCLE
  5
1C1
330
22
100
AcDbEntity
  8
0
  6
Continuous
 62
     7
100
AcDbCircle
 10
-227.3678588867188
 20
157.5682525634766
 30
0.0
 40
4.5
  0
CIRCLE
  5
1C2
330
22
100
AcDbEntity
  8
0
  6
Continuous
 62
     7
100
AcDbCircle
 10
-227.3678588867188
 20
205.8682556152344
 30
0.0
 40
65.0
  0
CIRCLE
  5
1C3
330
22
100
AcDbEntity
  8
0
  6
Continuous
 62
     7
100
AcDbCircle
 10
-227.3678588867188
 20
205.8682556152344
 30
0.0
 40
54.5
  0
CIRCLE
  5
1C4
330
22
100
AcDbEntity
  8
0
  6
Continuous
 62
     7
100
AcDbCircle
 10
-227.3678588867188
 20
205.8682556152344
 30
0.0
 40
55.0
  0
ARC
  5
1C5
330
22
100
AcDbEntity
  8
0
  6
Continuous
 62
     7
100
AcDbCircle
 10
-245.9450836181641
 20
75.12844848632813
 30
0.0
 40
3.998277664184569
100
AcDbArc
 50
45.68163983118547
 51
91.90859880181035
  0
ARC
  5
1C6
330
22
100
AcDbEntity
  8
0
  6
Continuous
 62
     7
100
AcDbCircle
 10
-256.3678588867188
 20
75.257080078125
 30
0.0
 40
5.0
100
AcDbArc
 50
0.0
 51
59.99998213771593
  0
ARC
  5
1C7
330
22
100
AcDbEntity
  8
0
  6
Continuous
 62
     7
100
AcDbCircle
 10
-246.0242919921875
 20
77.9335708618164
 30
0.0
 40
1.19215989112854
100
AcDbArc
 50
87.40674498502812
 51
177.3304062924291
  0
ARC
  5
1C8
330
22
100
AcDbEntity
  8
0
  6
Continuous
 62
     7
100
AcDbCircle
 10
-227.3678588867188
 20
205.8682556152344
 30
0.0
 40
49.25
100
AcDbArc
 50
278.1712335599505
 51
284.1023483497917
  0
ARC
  5
1C9
330
22
100
AcDbEntity
  8
0
  6
Continuous
 62
     7
100
AcDbCircle
 10
-227.3678588867188
 20
205.8682556152344
 30
0.0
 40
49.25
100
AcDbArc
 50
255.8976516502096
 51
261.828766440051
  0
ARC
  5
1CA
330
22
100
AcDbEntity
  8
0
  6
Continuous
 62
     7
100
AcDbCircle
 10
-236.8678588867188
 20
210.6182556152344
 30
0.0
 40
2.5
100
AcDbArc
 50
180.0000000000004
 51
0.0
  0
ARC
  5
1CB
330
22
100
AcDbEntity
  8
0
  6
Continuous
 62
     7
100
AcDbCircle
 10
-236.8678588867188
 20
201.1182556152344
 30
0.0
 40
2.5
100
AcDbArc
 50
0.0
 51
180.0000000000004
  0
ARC
  5
1CC
330
22
100
AcDbEntity
  8
0
  6
Continuous
 62
     7
100
AcDbCircle
 10
-227.3678588867188
 20
205.8682556152344
 30
0.0
 40
49.25
100
AcDbArc
 50
98.17123355994976
 51
104.1023526750429
  0
ARC
  5
1CD
330
22
100
AcDbEntity
  8
0
  6
Continuous
 62
     7
100
AcDbCircle
 10
-223.8678588867188
 20
109.2737350463867
 30
0.0
 40
0.5
100
AcDbArc
 50
90.00000000000019
 51
180.0000000000004
  0
ARC
  5
1CE
330
22
100
AcDbEntity
  8
0
  6
Continuous
 62
     7
100
AcDbCircle
 10
-223.8678588867188
 20
107.2737350463867
 30
0.0
 40
0.5
100
AcDbArc
 50
180.0000000000004
 51
270.0000000000005
  0
ARC
  5
1CF
330
22
100
AcDbEntity
  8
0
  6
Continuous
 62
     7
100
AcDbCircle
 10
-245.9010162353516
 20
56.48677062988281
 30
0.0
 40
1.345117211341857
100
AcDbArc
 50
102.3177026895395
 51
167.6817864019126
  0
ARC
  5
1D0
330
22
100
AcDbEntity
  8
0
  6
Continuous
 62
     7
100
AcDbCircle
 10
-265.3805847167969
 20
200.6087036132814
 30
0.0
 40
2.5
100
AcDbArc
 50
180.0000000000004
 51
0.0
  0
ARC
  5
1D1
330
22
100
AcDbEntity
  8
0
  6
Continuous
 62
     7
100
AcDbCircle
 10
-265.3805847167969
 20
191.1087036132813
 30
0.0
 40
2.5
100
AcDbArc
 50
0.0
 51
180.0000000000004
  0
ARC
  5
1D2
330
22
100
AcDbEntity
  8
0
  6
Continuous
 62
     7
100
AcDbCircle
 10
-227.3678588867188
 20
205.8682556152344
 30
0.0
 40
49.25
100
AcDbArc
 50
180.0000000000004
 51
197.776472358131
  0
ARC
  5
1D3
330
22
100
AcDbEntity
  8
0
  6
Continuous
 62
     7
100
AcDbCircle
 10
-246.3805999755859
 20
194.7307586669922
 30
0.0
 40
2.5
100
AcDbArc
 50
180.0000000000004
 51
0.0
  0
CIRCLE
  5
1D4
330
22
100
AcDbEntity
  8
0
  6
Continuous
 62
     7
100
AcDbCircle
 10
-269.1968994140625
 20
230.0182495117188
 30
0.0
 40
4.5
  0
ARC
  5
1D5
330
22
100
AcDbEntity
  8
0
  6
Continuous
 62
     7
100
AcDbCircle
 10
-246.3805999755859
 20
185.2435302734375
 30
0.0
 40
2.5
100
AcDbArc
 50
0.0
 51
180.0000000000004
  0
ARC
  5
1D6
330
22
100
AcDbEntity
  8
0
  6
Continuous
 62
     7
100
AcDbCircle
 10
-273.3678588867188
 20
191.2708740234375
 30
0.0
 40
1.0
100
AcDbArc
 50
206.03096239476
 51
0.0
  0
ARC
  5
1D7
330
22
100
AcDbEntity
  8
0
  6
Continuous
 62
     7
100
AcDbCircle
 10
-227.3678588867188
 20
205.8682556152344
 30
0.0
 40
49.25
100
AcDbArc
 50
214.6807828820469
 51
223.8784227651543
  0
ARC
  5
1D8
330
22
100
AcDbEntity
  8
0
  6
Continuous
 62
     7
100
AcDbCircle
 10
-227.3678588867188
 20
205.8682556152344
 30
0.0
 40
49.25
100
AcDbArc
 50
230.9910648601775
 51
238.1350584852074
  0
ARC
  5
1D9
330
22
100
AcDbEntity
  8
0
  6
Continuous
 62
     7
100
AcDbCircle
 10
-227.3678588867188
 20
205.8682556152344
 30
0.0
 40
49.25
100
AcDbArc
 50
244.1161560514491
 51
250.4416489794556
  0
CIRCLE
  5
1DA
330
22
100
AcDbEntity
  8
0
  6
Continuous
 62
     7
100
AcDbCircle
 10
-269.1968994140625
 20
230.0182495117188
 30
0.0
 40
4.75
  0
ARC
  5
1DB
330
22
100
AcDbEntity
  8
0
  6
Continuous
 62
     7
100
AcDbCircle
 10
-206.3678588867188
 20
76.41177368164062
 30
0.0
 40
3.0
100
AcDbArc
 50
119.9999304359993
 51
180.0000000000004
  0
ARC
  5
1DC
330
22
100
AcDbEntity
  8
0
  6
Continuous
 62
     7
100
AcDbCircle
 10
-198.3678588867188
 20
75.257080078125
 30
0.0
 40
5.0
100
AcDbArc
 50
120.0000178622841
 51
180.0000000000004
  0
ARC
  5
1DD
330
22
100
AcDbEntity
  8
0
  6
Continuous
 62
     7
100
AcDbCircle
 10
-227.3678588867188
 20
165.4814910888672
 30
0.0
 40
2.5
100
AcDbArc
 50
180.0000000000004
 51
270.0000000000005
  0
ARC
  5
1DE
330
22
100
AcDbEntity
  8
0
  6
Continuous
 62
     7
100
AcDbCircle
 10
-227.3678588867188
 20
165.4814910888672
 30
0.0
 40
2.5
100
AcDbArc
 50
270.0000000000005
 51
0.0
  0
ARC
  5
1DF
330
22
100
AcDbEntity
  8
0
  6
Continuous
 62
     7
100
AcDbCircle
 10
-227.3678588867188
 20
205.8682556152344
 30
0.0
 40
49.25
100
AcDbArc
 50
162.2235276418697
 51
180.0000000000004
  0
ARC
  5
1E0
330
22
100
AcDbEntity
  8
0
  6
Continuous
 62
     7
100
AcDbCircle
 10
-255.8678588867188
 20
210.6182556152344
 30
0.0
 40
2.5
100
AcDbArc
 50
180.0000000000004
 51
0.0
  0
ARC
  5
1E1
330
22
100
AcDbEntity
  8
0
  6
Continuous
 62
     7
100
AcDbCircle
 10
-246.3805999755859
 20
217.0057373046875
 30
0.0
 40
2.5
100
AcDbArc
 50
0.0
 51
180.0000000000004
  0
ARC
  5
1E2
330
22
100
AcDbEntity
  8
0
  6
Continuous
 62
     7
100
AcDbCircle
 10
-227.3678588867188
 20
205.8682556152344
 30
0.0
 40
49.25
100
AcDbArc
 50
121.8649508861757
 51
129.0089463133936
  0
ARC
  5
1E3
330
22
100
AcDbEntity
  8
0
  6
Continuous
 62
     7
100
AcDbCircle
 10
-255.8678588867188
 20
201.1182556152344
 30
0.0
 40
2.5
100
AcDbArc
 50
0.0
 51
180.0000000000004
  0
ARC
  5
1E4
330
22
100
AcDbEntity
  8
0
  6
Continuous
 62
     7
100
AcDbCircle
 10
-227.3678588867188
 20
205.8682556152344
 30
0.0
 40
49.25
100
AcDbArc
 50
109.5583510205452
 51
115.883851697961
  0
ARC
  5
1E5
330
22
100
AcDbEntity
  8
0
  6
Continuous
 62
     7
100
AcDbCircle
 10
-246.3805999755859
 20
226.4929656982422
 30
0.0
 40
2.5
100
AcDbArc
 50
180.0000000000004
 51
0.0
  0
ARC
  5
1E6
330
22
100
AcDbEntity
  8
0
  6
Continuous
 62
     7
100
AcDbCircle
 10
-273.3678588867188
 20
220.4656219482422
 30
0.0
 40
1.0
100
AcDbArc
 50
0.0
 51
153.9682520364821
  0
ARC
  5
1E7
330
22
100
AcDbEntity
  8
0
  6
Continuous
 62
     7
100
AcDbCircle
 10
-265.3805847167969
 20
222.6087036132813
 30
0.0
 40
2.5
100
AcDbArc
 50
0.0
 51
180.0000000000004
  0
CIRCLE
  5
1E8
330
22
100
AcDbEntity
  8
0
  6
Continuous
 62
     7
100
AcDbCircle
 10
-269.1968994140625
 20
230.0182495117188
 30
0.0
 40
4.5
  0
ARC
  5
1E9
330
22
100
AcDbEntity
  8
0
  6
Continuous
 62
     7
100
AcDbCircle
 10
-227.3678588867188
 20
181.1682434082031
 30
0.0
 40
2.5
100
AcDbArc
 50
0.0
 51
90.00000000000019
  0
CIRCLE
  5
1EA
330
22
100
AcDbEntity
  8
0
  6
Continuous
 62
     7
100
AcDbCircle
 10
-269.1968994140625
 20
230.0182495117188
 30
0.0
 40
4.75
  0
ARC
  5
1EB
330
22
100
AcDbEntity
  8
0
  6
Continuous
 62
     7
100
AcDbCircle
 10
-245.7526397705078
 20
54.0866813659668
 30
0.0
 40
3.739664077758788
100
AcDbArc
 50
45.933040142948
 51
96.68493890517709
  0
ARC
  5
1EC
330
22
100
AcDbEntity
  8
0
  6
Continuous
 62
     7
100
AcDbCircle
 10
-291.3678588867188
 20
106.7737350463867
 30
0.0
 40
1.0
100
AcDbArc
 50
180.0000000000004
 51
270.0000000000005
  0
ARC
  5
1ED
330
22
100
AcDbEntity
  8
0
  6
Continuous
 62
     7
100
AcDbCircle
 10
-291.3678588867188
 20
108.7737350463867
 30
0.0
 40
1.0
100
AcDbArc
 50
90.00000000000019
 51
180.0000000000004
  0
ARC
  5
1EE
330
22
100
AcDbEntity
  8
0
  6
Continuous
 62
     7
100
AcDbCircle
 10
-280.3678588867188
 20
100.6604919433594
 30
0.0
 40
5.0
100
AcDbArc
 50
180.0000000000004
 51
240.0000258509168
  0
ARC
  5
1EF
330
22
100
AcDbEntity
  8
0
  6
Continuous
 62
     7
100
AcDbCircle
 10
-208.3678588867188
 20
75.77373504638671
 30
0.0
 40
1.0
100
AcDbArc
 50
180.0000000000004
 51
270.0000000000005
  0
ARC
  5
1F0
330
22
100
AcDbEntity
  8
0
  6
Continuous
 62
     7
100
AcDbCircle
 10
-208.3678588867188
 20
72.77373504638672
 30
0.0
 40
2.0
100
AcDbArc
 50
0.0
 51
90.00000000000019
  0
ARC
  5
1F1
330
22
100
AcDbEntity
  8
0
  6
Continuous
 62
     7
100
AcDbCircle
 10
-227.3678588867188
 20
205.8682556152344
 30
0.0
 40
49.25
100
AcDbArc
 50
90.00000000000019
 51
92.90966563162262
  0
ARC
  5
1F2
330
22
100
AcDbEntity
  8
0
  6
Continuous
 62
     7
100
AcDbCircle
 10
-227.3678588867188
 20
221.0682525634766
 30
0.0
 40
2.5
100
AcDbArc
 50
0.0
 51
90.00000000000019
  0
ARC
  5
1F3
330
22
100
AcDbEntity
  8
0
  6
Continuous
 62
     7
100
AcDbCircle
 10
-206.8678588867189
 20
69.27373504638672
 30
0.0
 40
0.5
100
AcDbArc
 50
270.0000000000005
 51
0.0
  0
ARC
  5
1F4
330
22
100
AcDbEntity
  8
0
  6
Continuous
 62
     7
100
AcDbCircle
 10
-163.3678588867188
 20
106.7737350463867
 30
0.0
 40
1.0
100
AcDbArc
 50
270.0000000000005
 51
0.0
  0
ARC
  5
1F5
330
22
100
AcDbEntity
  8
0
  6
Continuous
 62
     7
100
AcDbCircle
 10
-182.8678588867188
 20
109.2737350463867
 30
0.0
 40
0.5
100
AcDbArc
 50
0.0
 51
90.00000000000019
  0
ARC
  5
1F6
330
22
100
AcDbEntity
  8
0
  6
Continuous
 62
     7
100
AcDbCircle
 10
-175.3678588867188
 20
105.2737350463867
 30
0.0
 40
0.5
100
AcDbArc
 50
180.0000000000004
 51
270.0000000000005
  0
ARC
  5
1F7
330
22
100
AcDbEntity
  8
0
  6
Continuous
 62
     7
100
AcDbCircle
 10
-177.6178588867188
 20
107.2737350463867
 30
0.0
 40
0.5
100
AcDbArc
 50
180.0000000000004
 51
270.0000000000005
  0
ARC
  5
1F8
330
22
100
AcDbEntity
  8
0
  6
Continuous
 62
     7
100
AcDbCircle
 10
-211.3551177978516
 20
109.2737350463867
 30
0.0
 40
0.5
100
AcDbArc
 50
0.0
 51
90.00000000000019
  0
ARC
  5
1F9
330
22
100
AcDbEntity
  8
0
  6
Continuous
 62
     7
100
AcDbCircle
 10
-168.3678588867188
 20
104.7737350463867
 30
0.0
 40
1.0
100
AcDbArc
 50
90.00000000000019
 51
180.0000000000004
  0
ARC
  5
1FA
330
22
100
AcDbEntity
  8
0
  6
Continuous
 62
     7
100
AcDbCircle
 10
-211.3551177978516
 20
107.2737350463867
 30
0.0
 40
0.5
100
AcDbArc
 50
270.0000000000005
 51
0.0
  0
ARC
  5
1FB
330
22
100
AcDbEntity
  8
0
  6
Continuous
 62
     7
100
AcDbCircle
 10
-176.3678588867188
 20
106.2737350463867
 30
0.0
 40
0.5
100
AcDbArc
 50
0.0
 51
90.00000000000019
  0
ARC
  5
1FC
330
22
100
AcDbEntity
  8
0
  6
Continuous
 62
     7
100
AcDbCircle
 10
-186.3880615234375
 20
107.2737350463867
 30
0.0
 40
0.5
100
AcDbArc
 50
179.9737720754191
 51
270.0000000000005
  0
ARC
  5
1FD
330
22
100
AcDbEntity
  8
0
  6
Continuous
 62
     7
100
AcDbCircle
 10
-163.3678588867188
 20
108.7737350463867
 30
0.0
 40
1.0
100
AcDbArc
 50
0.0
 51
90.00000000000019
  0
ARC
  5
1FE
330
22
100
AcDbEntity
  8
0
  6
Continuous
 62
     7
100
AcDbCircle
 10
-205.3551177978516
 20
107.2737350463867
 30
0.0
 40
0.5
100
AcDbArc
 50
180.0000000000004
 51
270.0000000000005
  0
ARC
  5
1FF
330
22
100
AcDbEntity
  8
0
  6
Continuous
 62
     7
100
AcDbCircle
 10
-177.6178588867188
 20
109.2737350463867
 30
0.0
 40
0.5
100
AcDbArc
 50
90.00000000000019
 51
180.0000000000004
  0
ARC
  5
200
330
22
100
AcDbEntity
  8
0
  6
Continuous
 62
     7
100
AcDbCircle
 10
-192.3678588867188
 20
109.2737350463867
 30
0.0
 40
0.5
100
AcDbArc
 50
0.0
 51
90.00000000000019
  0
ARC
  5
201
330
22
100
AcDbEntity
  8
0
  6
Continuous
 62
     7
100
AcDbCircle
 10
-186.3871612548828
 20
109.2737350463867
 30
0.0
 40
0.5
100
AcDbArc
 50
90.00000000000019
 51
179.9737720754191
  0
ARC
  5
202
330
22
100
AcDbEntity
  8
0
  6
Continuous
 62
     7
100
AcDbCircle
 10
-192.3678588867188
 20
107.2737350463867
 30
0.0
 40
0.5
100
AcDbArc
 50
270.0000000000005
 51
0.0
  0
ARC
  5
203
330
22
100
AcDbEntity
  8
0
  6
Continuous
 62
     7
100
AcDbCircle
 10
-182.8678588867188
 20
107.2737350463867
 30
0.0
 40
0.5
100
AcDbArc
 50
270.0000000000005
 51
0.0
  0
ARC
  5
204
330
22
100
AcDbEntity
  8
0
  6
Continuous
 62
     7
100
AcDbCircle
 10
-205.3551177978516
 20
109.2737350463867
 30
0.0
 40
0.5
100
AcDbArc
 50
90.00000000000019
 51
180.0000000000004
  0
ARC
  5
205
330
22
100
AcDbEntity
  8
0
  6
Continuous
 62
     7
100
AcDbCircle
 10
-174.3678588867188
 20
100.6604919433594
 30
0.0
 40
5.0
100
AcDbArc
 50
299.9999741490847
 51
0.0
  0
ARC
  5
206
330
22
100
AcDbEntity
  8
0
  6
Continuous
 62
     7
100
AcDbCircle
 10
-180.8678588867188
 20
100.3718109130859
 30
0.0
 40
5.0
100
AcDbArc
 50
300.0000178622848
 51
0.0
  0
ARC
  5
207
330
22
100
AcDbEntity
  8
0
  6
Continuous
 62
     7
100
AcDbCircle
 10
-186.3755187988281
 20
99.02758789062501
 30
0.0
 40
5.0
100
AcDbArc
 50
299.9999741490847
 51
0.0
  0
ARC
  5
208
330
22
100
AcDbEntity
  8
0
  6
Continuous
 62
     7
100
AcDbCircle
 10
-188.1419830322266
 20
94.29878234863279
 30
0.0
 40
1.783435225486754
100
AcDbArc
 50
214.674675512012
 51
304.6748770861607
  0
ARC
  5
209
330
22
100
AcDbEntity
  8
0
  6
Continuous
 62
     7
100
AcDbCircle
 10
-227.3678588867188
 20
230.5682525634766
 30
0.0
 40
2.5
100
AcDbArc
 50
180.0000000000004
 51
270.0000000000005
  0
ARC
  5
20A
330
22
100
AcDbEntity
  8
0
  6
Continuous
 62
     7
100
AcDbCircle
 10
-227.3678588867188
 20
190.6682434082031
 30
0.0
 40
2.5
100
AcDbArc
 50
180.0000000000004
 51
270.0000000000005
  0
ARC
  5
20B
330
22
100
AcDbEntity
  8
0
  6
Continuous
 62
     7
100
AcDbCircle
 10
-227.3678588867188
 20
190.6682434082031
 30
0.0
 40
2.5
100
AcDbArc
 50
270.0000000000005
 51
0.0
  0
ARC
  5
20C
330
22
100
AcDbEntity
  8
0
  6
Continuous
 62
     7
100
AcDbCircle
 10
-227.3678588867188
 20
181.1682434082031
 30
0.0
 40
2.5
100
AcDbArc
 50
90.00000000000019
 51
180.0000000000004
  0
ARC
  5
20D
330
22
100
AcDbEntity
  8
0
  6
Continuous
 62
     7
100
AcDbCircle
 10
-227.3678588867188
 20
230.5682525634766
 30
0.0
 40
2.5
100
AcDbArc
 50
270.0000000000005
 51
0.0
  0
ARC
  5
20E
330
22
100
AcDbEntity
  8
0
  6
Continuous
 62
     7
100
AcDbCircle
 10
-227.3678588867188
 20
221.0682525634766
 30
0.0
 40
2.5
100
AcDbArc
 50
90.00000000000019
 51
180.0000000000004
  0
ARC
  5
20F
330
22
100
AcDbEntity
  8
0
  6
Continuous
 62
     7
100
AcDbCircle
 10
-227.3678588867188
 20
205.8682556152344
 30
0.0
 40
49.25
100
AcDbArc
 50
87.09033436837739
 51
90.00000000000019
  0
ARC
  5
210
330
22
100
AcDbEntity
  8
0
  6
Continuous
 62
     7
100
AcDbCircle
 10
-227.3678588867188
 20
205.8682556152344
 30
0.0
 40
49.25
100
AcDbArc
 50
342.2235222222428
 51
0.0
  0
ARC
  5
211
330
22
100
AcDbEntity
  8
0
  6
Continuous
 62
     7
100
AcDbCircle
 10
-189.3551177978516
 20
191.1087036132813
 30
0.0
 40
2.5
100
AcDbArc
 50
0.0
 51
180.0000000000004
  0
ARC
  5
212
330
22
100
AcDbEntity
  8
0
  6
Continuous
 62
     7
100
AcDbCircle
 10
-227.3678588867188
 20
205.8682556152344
 30
0.0
 40
49.25
100
AcDbArc
 50
289.5583510205459
 51
295.8838439485523
  0
ARC
  5
213
330
22
100
AcDbEntity
  8
0
  6
Continuous
 62
     7
100
AcDbCircle
 10
-208.3551177978516
 20
194.7307586669922
 30
0.0
 40
2.5
100
AcDbArc
 50
180.0000000000004
 51
0.0
  0
ARC
  5
214
330
22
100
AcDbEntity
  8
0
  6
Continuous
 62
     7
100
AcDbCircle
 10
-189.3551177978516
 20
200.6087036132814
 30
0.0
 40
2.5
100
AcDbArc
 50
180.0000000000004
 51
0.0
  0
ARC
  5
215
330
22
100
AcDbEntity
  8
0
  6
Continuous
 62
     7
100
AcDbCircle
 10
-208.3678588867188
 20
185.2435302734375
 30
0.0
 40
2.5
100
AcDbArc
 50
0.0
 51
180.0000000000004
  0
ARC
  5
216
330
22
100
AcDbEntity
  8
0
  6
Continuous
 62
     7
100
AcDbCircle
 10
-181.3678588867188
 20
191.2708740234375
 30
0.0
 40
1.0
100
AcDbArc
 50
180.0000000000004
 51
333.9686539242852
  0
ARC
  5
217
330
22
100
AcDbEntity
  8
0
  6
Continuous
 62
     7
100
AcDbCircle
 10
-208.3678588867188
 20
226.4929656982422
 30
0.0
 40
2.5
100
AcDbArc
 50
180.0000000000004
 51
0.0
  0
ARC
  5
218
330
22
100
AcDbEntity
  8
0
  6
Continuous
 62
     7
100
AcDbCircle
 10
-198.8678588867188
 20
200.9972381591797
 30
0.0
 40
2.5
100
AcDbArc
 50
0.0
 51
180.0000000000004
  0
ARC
  5
219
330
22
100
AcDbEntity
  8
0
  6
Continuous
 62
     7
100
AcDbCircle
 10
-227.3678588867188
 20
205.8682556152344
 30
0.0
 40
49.25
100
AcDbArc
 50
301.8649415147939
 51
309.008935139824
  0
ARC
  5
21A
330
22
100
AcDbEntity
  8
0
  6
Continuous
 62
     7
100
AcDbCircle
 10
-189.3551177978516
 20
222.6087036132813
 30
0.0
 40
2.5
100
AcDbArc
 50
0.0
 51
180.0000000000004
  0
ARC
  5
21B
330
22
100
AcDbEntity
  8
0
  6
Continuous
 62
     7
100
AcDbCircle
 10
-227.3678588867188
 20
205.8682556152344
 30
0.0
 40
49.25
100
AcDbArc
 50
0.0
 51
17.77647777775786
  0
CIRCLE
  5
21C
330
22
100
AcDbEntity
  8
0
  6
Continuous
 62
     7
100
AcDbCircle
 10
-185.5388336181641
 20
230.0182495117188
 30
0.0
 40
4.75
  0
CIRCLE
  5
21D
330
22
100
AcDbEntity
  8
0
  6
Continuous
 62
     7
100
AcDbCircle
 10
-185.5388336181641
 20
230.0182495117188
 30
0.0
 40
4.5
  0
CIRCLE
  5
21E
330
22
100
AcDbEntity
  8
0
  6
Continuous
 62
     7
100
AcDbCircle
 10
-185.5388336181641
 20
230.0182495117188
 30
0.0
 40
4.75
  0
ARC
  5
21F
330
22
100
AcDbEntity
  8
0
  6
Continuous
 62
     7
100
AcDbCircle
 10
-227.3678588867188
 20
205.8682556152344
 30
0.0
 40
49.25
100
AcDbArc
 50
316.1215772348471
 51
325.3192171179545
  0
ARC
  5
220
330
22
100
AcDbEntity
  8
0
  6
Continuous
 62
     7
100
AcDbCircle
 10
-227.3678588867188
 20
205.8682556152344
 30
0.0
 40
49.25
100
AcDbArc
 50
64.11614830203902
 51
70.44164897945484
  0
ARC
  5
221
330
22
100
AcDbEntity
  8
0
  6
Continuous
 62
     7
100
AcDbCircle
 10
-227.3678588867188
 20
205.8682556152344
 30
0.0
 40
49.25
100
AcDbArc
 50
50.99105368660645
 51
58.13504911382428
  0
ARC
  5
222
330
22
100
AcDbEntity
  8
0
  6
Continuous
 62
     7
100
AcDbCircle
 10
-198.8678588867188
 20
210.4972381591797
 30
0.0
 40
2.5
100
AcDbArc
 50
180.0000000000004
 51
0.0
  0
ARC
  5
223
330
22
100
AcDbEntity
  8
0
  6
Continuous
 62
     7
100
AcDbCircle
 10
-208.3551177978516
 20
217.0057373046875
 30
0.0
 40
2.5
100
AcDbArc
 50
0.0
 51
180.0000000000004
  0
ARC
  5
224
330
22
100
AcDbEntity
  8
0
  6
Continuous
 62
     7
100
AcDbCircle
 10
-181.3678588867188
 20
220.4656219482422
 30
0.0
 40
1.0
100
AcDbArc
 50
26.0321316526755
 51
180.0000000000004
  0
CIRCLE
  5
225
330
22
100
AcDbEntity
  8
0
  6
Continuous
 62
     7
100
AcDbCircle
 10
-185.5388336181641
 20
230.0182495117188
 30
0.0
 40
4.5
  0
TEXT
  5
226
330
22
100
AcDbEntity
  8
0
  6
Continuous
 62
     7
100
AcDbText
 10
-157.1730585098267
 20
136.4496612548828
 30
0.0
 40
7.0
  1
ＤＬ－ＣＳＧ－３２Ｇ
 41
0.8443929888818491
100
AcDbText
  0
DIMENSION
  5
227
330
22
100
AcDbEntity
  8
0
  6
Continuous
 62
     7
100
AcDbDimension
  2
*D1
 10
-289.3275886963402
 20
186.2215795116615
 30
0.0
 11
-137.1532440185547
 21
234.4742126464844
 31
0.0
 70
     3
 71
     5
 42
-1.0
  3
DIMSTYLE1
100
AcDbDiametricDimension
 15
-165.4081290770973
 25
225.5149317188073
 35
0.0
 40
0.0
  0
DIMENSION
  5
228
330
22
100
AcDbEntity
  8
0
  6
Continuous
 62
     7
100
AcDbDimension
  2
*D2
 10
-281.291607005733
 20
213.772646091237
 30
0.0
 11
-142.4842224121094
 21
193.4256134033203
 31
0.0
 70
     3
 71
     5
 42
-1.0
  3
DIMSTYLE2
100
AcDbDiametricDimension
 15
-173.4441107677046
 25
197.9638651392318
 35
0.0
 40
0.0
  0
DIMENSION
  5
229
330
22
100
AcDbEntity
  8
0
  6
Continuous
 62
     7
100
AcDbDimension
  2
*D3
 10
-136.1616058349609
 20
109.7737350463867
 30
0.0
 11
-136.1616058349609
 21
83.27373504638671
 31
0.0
 71
     5
 42
-1.0
  3
DIMSTYLE3
100
AcDbAlignedDimension
 13
-204.3678588867188
 23
56.77373886108398
 33
0.0
 14
-163.3678588867188
 24
109.7737350463867
 34
0.0
 50
90.0
100
AcDbRotatedDimension
  0
INSERT
  5
22A
330
22
100
AcDbEntity
  8
0
  6
Continuous
 62
     7
100
AcDbBlockReference
  2
KOZU0001
 10
-208.0394897460938
 20
63.78899383544922
 30
0.0
  0
ENDSEC
  0
SECTION
  2
OBJECTS
  0
DICTIONARY
  5
C
330
0
100
AcDbDictionary
281
     1
  3
ACAD_COLOR
350
1B
  3
ACAD_GROUP
350
D
  3
ACAD_LAYOUT
350
19
  3
ACAD_MATERIAL
350
1A
  3
ACAD_MLINESTYLE
350
16
  3
ACAD_PLOTSETTINGS
350
18
  3
ACAD_PLOTSTYLENAME
350
E
  3
ACAD_TABLESTYLE
350
1C
  3
AcDbVariableDictionary
350
23E
  0
DICTIONARY
  5
1B
102
{ACAD_REACTORS
330
C
102
}
330
C
100
AcDbDictionary
281
     1
  0
DICTIONARY
  5
D
102
{ACAD_REACTORS
330
C
102
}
330
C
100
AcDbDictionary
281
     1
  0
DICTIONARY
  5
19
102
{ACAD_REACTORS
330
C
102
}
330
C
100
AcDbDictionary
281
     1
  3
Model
350
25
  3
レイアウト1
350
21
  0
DICTIONARY
  5
1A
102
{ACAD_REACTORS
330
C
102
}
330
C
100
AcDbDictionary
281
     1
  0
DICTIONARY
  5
16
102
{ACAD_REACTORS
330
C
102
}
330
C
100
AcDbDictionary
281
     1
  3
Standard
350
17
  0
DICTIONARY
  5
18
102
{ACAD_REACTORS
330
C
102
}
330
C
100
AcDbDictionary
281
     1
  0
ACDBDICTIONARYWDFLT
  5
E
102
{ACAD_REACTORS
330
C
102
}
330
C
100
AcDbDictionary
281
     1
  3
Normal
350
F
100
AcDbDictionaryWithDefault
340
F
  0
DICTIONARY
  5
1C
102
{ACAD_REACTORS
330
C
102
}
330
C
100
AcDbDictionary
281
     1
  3
Standard
350
1D
  0
DICTIONARY
  5
23E
102
{ACAD_REACTORS
330
C
102
}
330
C
100
AcDbDictionary
281
     1
  3
CTABLESTYLE
350
23F
  0
LAYOUT
  5
25
102
{ACAD_REACTORS
330
19
102
}
330
19
100
AcDbPlotSettings
  1

  2
PDF reDirect v2
  4
A3
  6

 40
3.174999952316284
 41
3.174999952316284
 42
3.17498779296875
 43
3.17498779296875
 44
297.0530090332031
 45
420.1583251953125
 46
0.0
 47
0.0
 48
0.0
 49
0.0
140
0.0
141
0.0
142
1.0
143
1.0
 70
 11952
 72
     1
 73
     1
 74
     2
  7
C:\Users\ck\AppData\Roaming\Autodesk\AutoCAD 2005\R16.1\jpn\Plot Styles\black.ctb
 75
    16
147
1.0
 76
     0
 77
     2
 78
   300
148
423.0
149
2.0
100
AcDbLayout
  1
Model
 70
     1
 71
     0
 10
0.0
 20
0.0
 11
12.0
 21
9.0
 12
0.0
 22
0.0
 32
0.0
 14
0.0
 24
0.0
 34
0.0
 15
0.0
 25
0.0
 35
0.0
146
0.0
 13
0.0
 23
0.0
 33
0.0
 16
1.0
 26
0.0
 36
0.0
 17
0.0
 27
1.0
 37
0.0
 76
     0
330
22
1001
ACAD_PSEXT
1000
PDF reDirect v2
1000
PDF reDirect Pro
1000
PDF_REDIRECT_PORT:
1000
PDF reDirect provided by EXP Systems
1070
     0
  0
LAYOUT
  5
21
102
{ACAD_REACTORS
330
19
102
}
330
19
100
AcDbPlotSettings
  1

  2
PDF reDirect v2
  4

  6

 40
0.0
 41
0.0
 42
0.0
 43
0.0
 44
0.0
 45
0.0
 46
0.0
 47
0.0
 48
0.0
 49
0.0
140
0.0
141
0.0
142
1.0
143
1.0
 70
   688
 72
     0
 73
     0
 74
     5
  7
C:\Users\ck\AppData\Roaming\Autodesk\AutoCAD 2005\R16.1\jpn\Plot Styles\black.ctb
 75
    16
147
1.0
 76
     0
 77
     2
 78
   300
148
0.0
149
0.0
100
AcDbLayout
  1
レイアウト1
 70
     1
 71
     1
 10
-423.0
 20
-2.0
 11
-5.0
 21
293.0
 12
0.0
 22
0.0
 32
0.0
 14
1.000000000000000E+20
 24
1.000000000000000E+20
 34
1.000000000000000E+20
 15
-1.000000000000000E+20
 25
-1.000000000000000E+20
 35
-1.000000000000000E+20
146
0.0
 13
0.0
 23
0.0
 33
0.0
 16
1.0
 26
0.0
 36
0.0
 17
0.0
 27
1.0
 37
0.0
 76
     0
330
1E
  0
MLINESTYLE
  5
17
102
{ACAD_REACTORS
330
16
102
}
330
16
100
AcDbMlineStyle
  2
STANDARD
 70
     0
  3

 62
   256
 51
90.0
 52
90.0
 71
     2
 49
0.5
 62
   256
  6
BYLAYER
 49
-0.5
 62
   256
  6
BYLAYER
  0
ACDBPLACEHOLDER
  5
F
102
{ACAD_REACTORS
330
E
102
}
330
E
  0
TABLESTYLE
  5
1D
102
{ACAD_REACTORS
330
1C
102
}
330
1C
100
AcDbTableStyle
  3
Standard
 70
     0
 71
     0
 40
0.06
 41
0.06
280
     0
281
     0
  7
STANDARD
140
0.18
170
     2
 62
     0
 63
     7
283
     0
274
    -2
284
     1
 64
     0
275
    -2
285
     1
 65
     0
276
    -2
286
     1
 66
     0
277
    -2
287
     1
 67
     0
278
    -2
288
     1
 68
     0
279
    -2
289
     1
 69
     0
  7
STANDARD
140
0.25
170
     5
 62
     0
 63
     7
283
     0
274
    -2
284
     1
 64
     0
275
    -2
285
     1
 65
     0
276
    -2
286
     1
 66
     0
277
    -2
287
     1
 67
     0
278
    -2
288
     1
 68
     0
279
    -2
289
     1
 69
     0
  7
STANDARD
140
0.18
170
     5
 62
     0
 63
     7
283
     0
274
    -2
284
     1
 64
     0
275
    -2
285
     1
 65
     0
276
    -2
286
     1
 66
     0
277
    -2
287
     1
 67
     0
278
    -2
288
     1
 68
     0
279
    -2
289
     1
 69
     0
  0
DICTIONARYVAR
  5
23F
102
{ACAD_REACTORS
330
23E
102
}
330
23E
100
DictionaryVariables
280
     0
  1
STANDARD
  0
ENDSEC
  0
EOF
