  0
SECTION
  2
HEADER
  9
$ACADVER
  1
AC1018
  9
$ACADMAINTVER
 70
    39
  9
$DWGCODEPAGE
  3
ANSI_932
  9
$INSBASE
 10
0.0
 20
0.0
 30
0.0
  9
$EXTMIN
 10
-461.8496078451276
 20
34.30181986082096
 30
-0.0015258207003583
  9
$EXTMAX
 10
-127.5307604888578
 20
400.1538705813628
 30
0.0000000349246037
  9
$LIMMIN
 10
-592.0
 20
0.0
  9
$LIMMAX
 10
0.0
 20
418.0
  9
$ORTHOMODE
 70
     0
  9
$REGENMODE
 70
     1
  9
$FILLMODE
 70
     1
  9
$QTEXTMODE
 70
     0
  9
$MIRRTEXT
 70
     0
  9
$LTSCALE
 40
1.0
  9
$ATTMODE
 70
     1
  9
$TEXTSIZE
 40
0.2
  9
$TRACEWID
 40
0.05
  9
$TEXTSTYLE
  7
STANDARD
  9
$CLAYER
  8
0
  9
$CELTYPE
  6
CONTINUOUS
  9
$CECOLOR
 62
   256
  9
$CELTSCALE
 40
1.0
  9
$DISPSILH
 70
     0
  9
$DIMSCALE
 40
1.0
  9
$DIMASZ
 40
1.0
  9
$DIMEXO
 40
2.54
  9
$DIMDLI
 40
0.38
  9
$DIMRND
 40
0.0
  9
$DIMDLE
 40
0.0
  9
$DIMEXE
 40
2.54
  9
$DIMTP
 40
0.0
  9
$DIMTM
 40
0.0
  9
$DIMTXT
 40
3.0
  9
$DIMCEN
 40
0.09
  9
$DIMTSZ
 40
0.0
  9
$DIMTOL
 70
     0
  9
$DIMLIM
 70
     0
  9
$DIMTIH
 70
     0
  9
$DIMTOH
 70
     0
  9
$DIMSE1
 70
     0
  9
$DIMSE2
 70
     0
  9
$DIMTAD
 70
     1
  9
$DIMZIN
 70
     0
  9
$DIMBLK
  1

  9
$DIMASO
 70
     1
  9
$DIMSHO
 70
     0
  9
$DIMPOST
  1

  9
$DIMAPOST
  1

  9
$DIMALT
 70
     0
  9
$DIMALTD
 70
     2
  9
$DIMALTF
 40
25.4
  9
$DIMLFAC
 40
1.0
  9
$DIMTOFL
 70
     0
  9
$DIMTVP
 40
1.0
  9
$DIMTIX
 70
     0
  9
$DIMSOXD
 70
     0
  9
$DIMSAH
 70
     1
  9
$DIMBLK1
  1

  9
$DIMBLK2
  1

  9
$DIMSTYLE
  2
DIMSTYLE1
  9
$DIMCLRD
 70
     0
  9
$DIMCLRE
 70
     0
  9
$DIMCLRT
 70
     0
  9
$DIMTFAC
 40
1.0
  9
$DIMGAP
 40
1.5
  9
$DIMJUST
 70
     0
  9
$DIMSD1
 70
     0
  9
$DIMSD2
 70
     0
  9
$DIMTOLJ
 70
     1
  9
$DIMTZIN
 70
     0
  9
$DIMALTZ
 70
     0
  9
$DIMALTTZ
 70
     0
  9
$DIMUPT
 70
     0
  9
$DIMDEC
 70
     4
  9
$DIMTDEC
 70
     4
  9
$DIMALTU
 70
     2
  9
$DIMALTTD
 70
     2
  9
$DIMTXSTY
  7
STANDARD
  9
$DIMAUNIT
 70
     0
  9
$DIMADEC
 70
     0
  9
$DIMALTRND
 40
0.0
  9
$DIMAZIN
 70
     0
  9
$DIMDSEP
 70
    46
  9
$DIMATFIT
 70
     3
  9
$DIMFRAC
 70
     0
  9
$DIMLDRBLK
  1

  9
$DIMLUNIT
 70
     2
  9
$DIMLWD
 70
    -2
  9
$DIMLWE
 70
    -2
  9
$DIMTMOVE
 70
     0
  9
$LUNITS
 70
     2
  9
$LUPREC
 70
     4
  9
$SKETCHINC
 40
0.1
  9
$FILLETRAD
 40
0.0
  9
$AUNITS
 70
     0
  9
$AUPREC
 70
     0
  9
$MENU
  1
.
  9
$ELEVATION
 40
0.0
  9
$PELEVATION
 40
0.0
  9
$THICKNESS
 40
0.0
  9
$LIMCHECK
 70
     0
  9
$CHAMFERA
 40
0.0
  9
$CHAMFERB
 40
0.0
  9
$CHAMFERC
 40
0.0
  9
$CHAMFERD
 40
0.0
  9
$SKPOLY
 70
     0
  9
$TDCREATE
 40
2457841.942300845
  9
$TDUCREATE
 40
2457841.567300845
  9
$TDUPDATE
 40
2457841.943027917
  9
$TDUUPDATE
 40
2457841.568027917
  9
$TDINDWG
 40
0.0007283449
  9
$TDUSRTIMER
 40
0.0007283449
  9
$USRTIMER
 70
     1
  9
$ANGBASE
 50
0.0
  9
$ANGDIR
 70
     0
  9
$PDMODE
 70
     0
  9
$PDSIZE
 40
0.0
  9
$PLINEWID
 40
0.0
  9
$SPLFRAME
 70
     0
  9
$SPLINETYPE
 70
     6
  9
$SPLINESEGS
 70
     8
  9
$HANDSEED
  5
335
  9
$SURFTAB1
 70
     6
  9
$SURFTAB2
 70
     6
  9
$SURFTYPE
 70
     6
  9
$SURFU
 70
     6
  9
$SURFV
 70
     6
  9
$UCSBASE
  2

  9
$UCSNAME
  2

  9
$UCSORG
 10
0.0
 20
0.0
 30
0.0
  9
$UCSXDIR
 10
1.0
 20
0.0
 30
0.0
  9
$UCSYDIR
 10
0.0
 20
1.0
 30
0.0
  9
$UCSORTHOREF
  2

  9
$UCSORTHOVIEW
 70
     0
  9
$UCSORGTOP
 10
0.0
 20
0.0
 30
0.0
  9
$UCSORGBOTTOM
 10
0.0
 20
0.0
 30
0.0
  9
$UCSORGLEFT
 10
0.0
 20
0.0
 30
0.0
  9
$UCSORGRIGHT
 10
0.0
 20
0.0
 30
0.0
  9
$UCSORGFRONT
 10
0.0
 20
0.0
 30
0.0
  9
$UCSORGBACK
 10
0.0
 20
0.0
 30
0.0
  9
$PUCSBASE
  2

  9
$PUCSNAME
  2

  9
$PUCSORG
 10
0.0
 20
0.0
 30
0.0
  9
$PUCSXDIR
 10
1.0
 20
0.0
 30
0.0
  9
$PUCSYDIR
 10
0.0
 20
1.0
 30
0.0
  9
$PUCSORTHOREF
  2

  9
$PUCSORTHOVIEW
 70
     0
  9
$PUCSORGTOP
 10
0.0
 20
0.0
 30
0.0
  9
$PUCSORGBOTTOM
 10
0.0
 20
0.0
 30
0.0
  9
$PUCSORGLEFT
 10
0.0
 20
0.0
 30
0.0
  9
$PUCSORGRIGHT
 10
0.0
 20
0.0
 30
0.0
  9
$PUCSORGFRONT
 10
0.0
 20
0.0
 30
0.0
  9
$PUCSORGBACK
 10
0.0
 20
0.0
 30
0.0
  9
$USERI1
 70
     0
  9
$USERI2
 70
     0
  9
$USERI3
 70
     0
  9
$USERI4
 70
     0
  9
$USERI5
 70
     0
  9
$USERR1
 40
0.0
  9
$USERR2
 40
0.0
  9
$USERR3
 40
0.0
  9
$USERR4
 40
0.0
  9
$USERR5
 40
0.0
  9
$WORLDVIEW
 70
     1
  9
$SHADEDGE
 70
     3
  9
$SHADEDIF
 70
    70
  9
$TILEMODE
 70
     1
  9
$MAXACTVP
 70
    64
  9
$PINSBASE
 10
0.0
 20
0.0
 30
0.0
  9
$PLIMCHECK
 70
     0
  9
$PEXTMIN
 10
1.000000000000000E+20
 20
1.000000000000000E+20
 30
1.000000000000000E+20
  9
$PEXTMAX
 10
-1.000000000000000E+20
 20
-1.000000000000000E+20
 30
-1.000000000000000E+20
  9
$PLIMMIN
 10
-592.0
 20
0.0
  9
$PLIMMAX
 10
0.0
 20
418.0
  9
$UNITMODE
 70
     0
  9
$VISRETAIN
 70
     1
  9
$PLINEGEN
 70
     0
  9
$PSLTSCALE
 70
     1
  9
$TREEDEPTH
 70
  3020
  9
$CMLSTYLE
  2
Standard
  9
$CMLJUST
 70
     0
  9
$CMLSCALE
 40
1.0
  9
$PROXYGRAPHICS
 70
     1
  9
$MEASUREMENT
 70
     0
  9
$CELWEIGHT
370
    -1
  9
$ENDCAPS
280
     0
  9
$JOINSTYLE
280
     0
  9
$LWDISPLAY
290
     0
  9
$INSUNITS
 70
     0
  9
$HYPERLINKBASE
  1

  9
$STYLESHEET
  1

  9
$XEDIT
290
     1
  9
$CEPSNTYPE
380
     0
  9
$PSTYLEMODE
290
     1
  9
$FINGERPRINTGUID
  2
{8F439E32-3E55-4EF8-BA52-32D7F4BA19D1}
  9
$VERSIONGUID
  2
{76430DAB-3D5D-4177-B48E-570C24BD4ADD}
  9
$EXTNAMES
290
     1
  9
$PSVPSCALE
 40
0.0
  9
$OLESTARTUP
290
     0
  9
$SORTENTS
280
   127
  9
$INDEXCTL
280
     0
  9
$HIDETEXT
280
     0
  9
$XCLIPFRAME
290
     0
  9
$HALOGAP
280
     0
  9
$OBSCOLOR
 70
   257
  9
$OBSLTYPE
280
     0
  9
$INTERSECTIONDISPLAY
280
     0
  9
$INTERSECTIONCOLOR
 70
   257
  9
$DIMASSOC
280
     1
  9
$PROJECTNAME
  1

  0
ENDSEC
  0
SECTION
  2
CLASSES
  0
CLASS
  1
ACDBDICTIONARYWDFLT
  2
AcDbDictionaryWithDefault
  3
ObjectDBX Classes
 90
        0
 91
        1
280
     0
281
     0
  0
CLASS
  1
TABLESTYLE
  2
AcDbTableStyle
  3
ObjectDBX Classes
 90
     2047
 91
        1
280
     0
281
     0
  0
CLASS
  1
DICTIONARYVAR
  2
AcDbDictionaryVar
  3
ObjectDBX Classes
 90
        0
 91
        1
280
     0
281
     0
  0
ENDSEC
  0
SECTION
  2
TABLES
  0
TABLE
  2
VPORT
  5
8
330
0
100
AcDbSymbolTable
 70
     2
  0
VPORT
  5
334
330
8
100
AcDbSymbolTableRecord
100
AcDbViewportTableRecord
  2
*Active
 70
     0
 10
0.0
 20
0.0
 11
1.0
 21
1.0
 12
-296.0
 22
209.0
 13
0.0
 23
0.0
 14
1.0
 24
1.0
 15
0.0
 25
0.0
 16
0.0
 26
0.0
 36
1.0
 17
0.0
 27
0.0
 37
0.0
 40
421.3043478260869
 41
1.707124010554089
 42
50.0
 43
0.0
 44
0.0
 50
0.0
 51
0.0
 71
     0
 72
   100
 73
     1
 74
     1
 75
     0
 76
     0
 77
     0
 78
     0
281
     0
 65
     1
110
0.0
120
0.0
130
0.0
111
1.0
121
0.0
131
0.0
112
0.0
122
1.0
132
0.0
 79
     0
146
0.0
  0
ENDTAB
  0
TABLE
  2
LTYPE
  5
5
330
0
100
AcDbSymbolTable
 70
     6
  0
LTYPE
  5
13
330
5
100
AcDbSymbolTableRecord
100
AcDbLinetypeTableRecord
  2
ByBlock
 70
     0
  3

 72
    65
 73
     0
 40
0.0
  0
LTYPE
  5
14
330
5
100
AcDbSymbolTableRecord
100
AcDbLinetypeTableRecord
  2
ByLayer
 70
     0
  3

 72
    65
 73
     0
 40
0.0
  0
LTYPE
  5
15
330
5
100
AcDbSymbolTableRecord
100
AcDbLinetypeTableRecord
  2
CONTINUOUS
 70
     0
  3
Solid line
 72
    65
 73
     0
 40
0.0
  0
LTYPE
  5
26
330
5
100
AcDbSymbolTableRecord
100
AcDbLinetypeTableRecord
  2
DASHED
 70
     0
  3
__ __ __ __ __ __ __ __ __ __ __ __ __ __ __
 72
    65
 73
     2
 40
3.5
 49
2.0
 74
     0
 49
-1.5
 74
     0
  0
LTYPE
  5
27
330
5
100
AcDbSymbolTableRecord
100
AcDbLinetypeTableRecord
  2
CENTER
 70
     0
  3
____ _ ____ _ ____ _ ____ _ ____ _ ____ _ ____
 72
    65
 73
     4
 40
17.5
 49
13.0
 74
     0
 49
-1.5
 74
     0
 49
1.5
 74
     0
 49
-1.5
 74
     0
  0
LTYPE
  5
28
330
5
100
AcDbSymbolTableRecord
100
AcDbLinetypeTableRecord
  2
PHANTOM
 70
     0
  3
_____ _ _ _____ _ _ _____ _ _ _____ _ _ ____  
 72
    65
 73
     6
 40
15.5
 49
8.0
 74
     0
 49
-1.5
 74
     0
 49
1.5
 74
     0
 49
-1.5
 74
     0
 49
1.5
 74
     0
 49
-1.5
 74
     0
  0
LTYPE
  5
29
330
5
100
AcDbSymbolTableRecord
100
AcDbLinetypeTableRecord
  2
DOT
 70
     0
  3
. . . . . . . . . . . . . . . . . . . . . . . .
 72
    65
 73
     2
 40
0.25
 49
0.0
 74
     0
 49
-0.25
 74
     0
  0
LTYPE
  5
2A
330
5
100
AcDbSymbolTableRecord
100
AcDbLinetypeTableRecord
  2
HIDDEN
 70
     0
  3
__ __ __ __ __ __ __ __ __ __ __ __ __ __ __
 72
    65
 73
     2
 40
3.5
 49
2.0
 74
     0
 49
-1.5
 74
     0
  0
ENDTAB
  0
TABLE
  2
LAYER
  5
2
330
0
100
AcDbSymbolTable
 70
     2
  0
LAYER
  5
10
330
2
100
AcDbSymbolTableRecord
100
AcDbLayerTableRecord
  2
0
 70
     0
 62
     7
  6
CONTINUOUS
370
    -3
390
F
  0
LAYER
  5
2B
330
2
100
AcDbSymbolTableRecord
100
AcDbLayerTableRecord
  2
DEFPOINTS
 70
     0
 62
     7
  6
CONTINUOUS
290
     0
370
    -3
390
F
  0
ENDTAB
  0
TABLE
  2
STYLE
  5
3
330
0
100
AcDbSymbolTable
 70
     2
  0
STYLE
  5
11
330
3
100
AcDbSymbolTableRecord
100
AcDbTextStyleTableRecord
  2
STANDARD
 70
     0
 40
0.0
 41
1.0
 50
0.0
 71
     0
 42
0.2
  3

  4

1001
ACAD
1000
MS Gothic
1071
    32817
  0
ENDTAB
  0
TABLE
  2
VIEW
  5
6
330
0
100
AcDbSymbolTable
 70
     0
  0
ENDTAB
  0
TABLE
  2
UCS
  5
7
330
0
100
AcDbSymbolTable
 70
     0
  0
ENDTAB
  0
TABLE
  2
APPID
  5
9
330
0
100
AcDbSymbolTable
 70
     2
  0
APPID
  5
12
330
9
100
AcDbSymbolTableRecord
100
AcDbRegAppTableRecord
  2
ACAD
 70
     0
  0
APPID
  5
329
330
9
100
AcDbSymbolTableRecord
100
AcDbRegAppTableRecord
  2
ACAD_PSEXT
 70
     0
  0
ENDTAB
  0
TABLE
  2
DIMSTYLE
  5
A
330
0
100
AcDbSymbolTable
 70
     4
100
AcDbDimStyleTable
 71
     1
340
2C
  0
DIMSTYLE
105
2C
102
{ACAD_REACTORS
330
324
102
}
330
A
100
AcDbSymbolTableRecord
100
AcDbDimStyleTableRecord
  2
DIMSTYLE1
 70
     0
 41
1.0
 42
2.54
 44
2.54
 73
     0
 74
     0
 75
     1
 76
     1
 77
     1
140
3.0
145
1.0
147
1.5
172
     1
173
     1
279
     2
340
11
  0
DIMSTYLE
105
2D
102
{ACAD_REACTORS
330
325
102
}
330
A
100
AcDbSymbolTableRecord
100
AcDbDimStyleTableRecord
  2
DIMSTYLE2
 70
     0
 41
1.0
 42
2.54
 44
2.54
 73
     0
 74
     0
 75
     1
 76
     1
 77
     1
140
3.0
145
1.0
147
1.5
172
     1
173
     1
279
     2
340
11
  0
DIMSTYLE
105
2E
102
{ACAD_REACTORS
330
326
102
}
330
A
100
AcDbSymbolTableRecord
100
AcDbDimStyleTableRecord
  2
DIMSTYLE3
 70
     0
 41
1.0
 42
2.54
 44
2.54
 73
     0
 74
     0
 77
     1
140
3.0
145
1.0
147
1.5
172
     1
173
     1
279
     2
340
11
  0
ENDTAB
  0
TABLE
  2
BLOCK_RECORD
  5
1
330
0
100
AcDbSymbolTable
 70
     6
  0
BLOCK_RECORD
  5
22
330
1
100
AcDbSymbolTableRecord
100
AcDbBlockTableRecord
  2
*Model_Space
340
25
  0
BLOCK_RECORD
  5
1E
330
1
100
AcDbSymbolTableRecord
100
AcDbBlockTableRecord
  2
*Paper_Space
340
21
  0
BLOCK_RECORD
  5
32
330
1
100
AcDbSymbolTableRecord
100
AcDbBlockTableRecord
  2
_OPEN30
340
0
102
{BLKREFS
331
3C
331
3D
331
46
331
47
331
4F
331
50
102
}
  0
BLOCK_RECORD
  5
38
330
1
100
AcDbSymbolTableRecord
100
AcDbBlockTableRecord
  2
*D1
340
0
  0
BLOCK_RECORD
  5
42
330
1
100
AcDbSymbolTableRecord
100
AcDbBlockTableRecord
  2
*D2
340
0
  0
BLOCK_RECORD
  5
4C
330
1
100
AcDbSymbolTableRecord
100
AcDbBlockTableRecord
  2
*D3
340
0
  0
BLOCK_RECORD
  5
58
330
1
100
AcDbSymbolTableRecord
100
AcDbBlockTableRecord
  2
KOZU0001
340
0
102
{BLKREFS
331
323
102
}
  0
ENDTAB
  0
ENDSEC
  0
SECTION
  2
BLOCKS
  0
BLOCK
  5
23
330
22
100
AcDbEntity
  8
0
100
AcDbBlockBegin
  2
*Model_Space
 70
     0
 10
0.0
 20
0.0
 30
0.0
  3
*Model_Space
  1

  0
ENDBLK
  5
24
330
22
100
AcDbEntity
  8
0
100
AcDbBlockEnd
  0
BLOCK
  5
1F
330
1E
100
AcDbEntity
 67
     1
  8
0
100
AcDbBlockBegin
  2
*Paper_Space
 70
     0
 10
0.0
 20
0.0
 30
0.0
  3
*Paper_Space
  1

  0
ENDBLK
  5
20
330
1E
100
AcDbEntity
 67
     1
  8
0
100
AcDbBlockEnd
  0
BLOCK
  5
33
330
32
100
AcDbEntity
  8
0
100
AcDbBlockBegin
  2
_OPEN30
 70
     0
 10
0.0
 20
0.0
 30
0.0
  3
_OPEN30
  1

  0
LINE
  5
34
330
32
100
AcDbEntity
  8
0
  6
ByBlock
 62
     0
100
AcDbLine
 10
0.0
 20
0.0
 30
0.0
 11
-2.999999999999993
 21
-1.000000000000017
 31
0.0
  0
LINE
  5
35
330
32
100
AcDbEntity
  8
0
  6
ByBlock
 62
     0
100
AcDbLine
 10
0.0
 20
0.0
 30
0.0
 11
-3.000000000000006
 21
0.9999999999999815
 31
0.0
  0
LINE
  5
36
330
32
100
AcDbEntity
  8
0
  6
ByBlock
 62
     0
100
AcDbLine
 10
0.0
 20
0.0
 30
0.0
 11
-3.0
 21
0.0
 31
0.0
  0
ENDBLK
  5
37
330
32
100
AcDbEntity
  8
0
100
AcDbBlockEnd
  0
BLOCK
  5
39
330
38
100
AcDbEntity
  8
0
100
AcDbBlockBegin
  2
*D1
 70
     1
 10
0.0
 20
0.0
 30
0.0
  3
*D1
  1

  0
LINE
  5
3A
330
38
100
AcDbEntity
  8
0
  6
Continuous
 62
     7
100
AcDbLine
 10
-246.6332244873047
 20
349.6405334472656
 30
0.0
 11
-212.7496643066406
 21
376.0000305175781
 31
0.0
  0
LINE
  5
3B
330
38
100
AcDbEntity
  8
0
  6
Continuous
 62
     7
100
AcDbLine
 10
-425.8018111264685
 20
210.2575172069124
 30
0.0
 11
-249.0010910952111
 21
347.7984672901579
 31
0.0
  0
INSERT
  5
3C
330
38
100
AcDbEntity
  8
0
  6
Continuous
 62
     7
100
AcDbBlockReference
  2
_OPEN30
 10
-428.169677734375
 20
208.4154510498047
 30
0.0
 50
217.8808951944831
  0
INSERT
  5
3D
330
38
100
AcDbEntity
  8
0
  6
Continuous
 62
     7
100
AcDbBlockReference
  2
_OPEN30
 10
-246.6332244873047
 20
349.6405334472656
 30
0.0
 50
37.88089519448242
  0
TEXT
  5
3E
330
38
100
AcDbEntity
  8
0
  6
Continuous
 62
     7
100
AcDbText
 10
-240.9423841443538
 20
355.0104918049395
 30
0.0
 40
3.0
  1
%%C２３０　（目皿受外径）
 50
37.89999911944332
 41
0.8436974815103043
100
AcDbText
  0
POINT
  5
3F
330
38
100
AcDbEntity
  8
DEFPOINTS
  6
Continuous
 62
     7
100
AcDbPoint
 10
-428.169677734375
 20
208.4154510498047
 30
0.0
  0
POINT
  5
40
330
38
100
AcDbEntity
  8
DEFPOINTS
  6
Continuous
 62
     7
100
AcDbPoint
 10
-246.6332244873047
 20
349.6405334472656
 30
0.0
  0
ENDBLK
  5
41
330
38
100
AcDbEntity
  8
0
100
AcDbBlockEnd
  0
BLOCK
  5
43
330
42
100
AcDbEntity
  8
0
100
AcDbBlockBegin
  2
*D2
 70
     1
 10
0.0
 20
0.0
 30
0.0
  3
*D2
  1

  0
LINE
  5
44
330
42
100
AcDbEntity
  8
0
  6
Continuous
 62
     7
100
AcDbLine
 10
-239.9630584716797
 20
316.79052734375
 30
0.0
 11
-192.5497741699219
 21
335.1656799316406
 31
0.0
  0
LINE
  5
45
330
42
100
AcDbEntity
  8
0
  6
Continuous
 62
     7
100
AcDbLine
 10
-432.0425692454882
 20
242.3495490988715
 30
0.0
 11
-242.7603329761913
 21
315.7064353981987
 31
0.0
  0
INSERT
  5
46
330
42
100
AcDbEntity
  8
0
  6
Continuous
 62
     7
100
AcDbBlockReference
  2
_OPEN30
 10
-434.83984375
 20
241.2654571533203
 30
0.0
 50
201.1839864682245
  0
INSERT
  5
47
330
42
100
AcDbEntity
  8
0
  6
Continuous
 62
     7
100
AcDbBlockReference
  2
_OPEN30
 10
-239.9630584716797
 20
316.79052734375
 30
0.0
 50
21.18398646822375
  0
TEXT
  5
48
330
42
100
AcDbEntity
  8
0
  6
Continuous
 62
     7
100
AcDbText
 10
-222.7875064693667
 20
324.2464866738176
 30
0.0
 40
3.0
  1
%%C２０９　（目皿外径）
 50
21.20000047610726
 41
0.8440126077968535
100
AcDbText
  0
POINT
  5
49
330
42
100
AcDbEntity
  8
DEFPOINTS
  6
Continuous
 62
     7
100
AcDbPoint
 10
-434.83984375
 20
241.2654571533203
 30
0.0
  0
POINT
  5
4A
330
42
100
AcDbEntity
  8
DEFPOINTS
  6
Continuous
 62
     7
100
AcDbPoint
 10
-239.9630584716797
 20
316.79052734375
 30
0.0
  0
ENDBLK
  5
4B
330
42
100
AcDbEntity
  8
0
100
AcDbBlockEnd
  0
BLOCK
  5
4D
330
4C
100
AcDbEntity
  8
0
100
AcDbBlockBegin
  2
*D3
 70
     1
 10
0.0
 20
0.0
 30
0.0
  3
*D3
  1

  0
LINE
  5
4E
330
4C
100
AcDbEntity
  8
0
  6
Continuous
 62
     7
100
AcDbLine
 10
-200.6806335449219
 20
57.02799224853515
 30
0.0
 11
-200.6806335449219
 21
126.0279846191405
 31
0.0
  0
INSERT
  5
4F
330
4C
100
AcDbEntity
  8
0
  6
Continuous
 62
     7
100
AcDbBlockReference
  2
_OPEN30
 10
-200.6806335449219
 20
54.02799224853516
 30
0.0
 50
270.0000000000005
  0
INSERT
  5
50
330
4C
100
AcDbEntity
  8
0
  6
Continuous
 62
     7
100
AcDbBlockReference
  2
_OPEN30
 10
-200.6806335449219
 20
129.0279846191406
 30
0.0
 50
90.00000000000019
  0
LINE
  5
51
330
4C
100
AcDbEntity
  8
0
  6
Continuous
 62
     7
100
AcDbLine
 10
-274.7256860351562
 20
54.02799224853516
 30
0.0
 11
-198.3946380615234
 21
54.02799224853516
 31
0.0
  0
LINE
  5
52
330
4C
100
AcDbEntity
  8
0
  6
Continuous
 62
     7
100
AcDbLine
 10
-221.2256860351563
 20
129.0279846191406
 30
0.0
 11
-198.3946380615234
 21
129.0279846191406
 31
0.0
  0
TEXT
  5
53
330
4C
100
AcDbEntity
  8
0
  6
Continuous
 62
     7
100
AcDbText
 10
-201.4306334325836
 20
88.95799210369487
 30
0.0
 40
3.0
  1
75
 50
90.00000250447815
 41
1.028000020980834
100
AcDbText
  0
POINT
  5
54
330
4C
100
AcDbEntity
  8
DEFPOINTS
  6
Continuous
 62
     7
100
AcDbPoint
 10
-277.2656860351563
 20
54.02799224853516
 30
0.0
  0
POINT
  5
55
330
4C
100
AcDbEntity
  8
DEFPOINTS
  6
Continuous
 62
     7
100
AcDbPoint
 10
-223.7656860351563
 20
129.0279846191406
 30
0.0
  0
POINT
  5
56
330
4C
100
AcDbEntity
  8
DEFPOINTS
  6
Continuous
 62
     7
100
AcDbPoint
 10
-200.6806335449219
 20
129.0279846191406
 30
0.0
  0
ENDBLK
  5
57
330
4C
100
AcDbEntity
  8
0
100
AcDbBlockEnd
  0
BLOCK
  5
59
330
58
100
AcDbEntity
  8
0
100
AcDbBlockBegin
  2
KOZU0001
 70
     0
 10
0.0
 20
0.0
 30
0.0
  3
KOZU0001
  1

  0
LINE
  5
5A
330
58
100
AcDbEntity
  8
0
  6
Continuous
 62
     7
100
AcDbLine
 10
0.0
 20
0.0
 30
0.0
 11
-44.10430908203125
 21
-27.5572395324707
 31
0.0
  0
LINE
  5
5B
330
58
100
AcDbEntity
  8
0
  6
Continuous
 62
     7
100
AcDbLine
 10
-44.10430908203125
 20
-27.5572395324707
 30
0.0
 11
-75.23989868164062
 21
-27.5572395324707
 31
0.0
  0
LINE
  5
5C
330
58
100
AcDbEntity
  8
0
  6
Continuous
 62
     7
100
AcDbLine
 10
0.0
 20
0.0
 30
0.0
 11
-2.014312141420708
 21
-2.437733906094985
 31
0.0
  0
LINE
  5
5D
330
58
100
AcDbEntity
  8
0
  6
Continuous
 62
     7
100
AcDbLine
 10
0.0
 20
0.0
 30
0.0
 11
-3.074090056793558
 21
-0.7415998400235639
 31
0.0
  0
TEXT
  5
5E
330
58
100
AcDbEntity
  8
0
  6
Continuous
 62
     7
100
AcDbText
 10
-73.51989841461182
 20
-26.8072395324707
 30
0.0
 40
3.0
  1
配管接続口
 41
0.8487395020950888
100
AcDbText
  0
TEXT
  5
5F
330
58
100
AcDbEntity
  8
0
  6
Continuous
 62
     7
100
AcDbText
 10
-73.51989841461182
 20
-32.0722395324707
 30
0.0
 40
3.0
  1
Ｒｃ４（１００Ａ）
 41
0.8448610247221777
100
AcDbText
  0
ENDBLK
  5
60
330
58
100
AcDbEntity
  8
0
100
AcDbBlockEnd
  0
ENDSEC
  0
SECTION
  2
ENTITIES
  0
LINE
  5
61
330
22
100
AcDbEntity
  8
0
  6
Continuous
 62
     7
100
AcDbLine
 10
-267.5780029296875
 20
344.1634521484375
 30
0.0
 11
-267.1202697753906
 21
347.4811706542969
 31
0.0
  0
LINE
  5
62
330
22
100
AcDbEntity
  8
0
  6
Continuous
 62
     7
100
AcDbLine
 10
-267.5780029296875
 20
352.6396179199219
 30
0.0
 11
-267.1202697753906
 21
349.3218994140625
 31
0.0
  0
LINE
  5
63
330
22
100
AcDbEntity
  8
0
  6
Continuous
 62
     7
100
AcDbLine
 10
-345.6514587402344
 20
303.0613098144531
 30
0.0
 11
-345.6514587402344
 21
284.8446655273438
 31
0.0
  0
LINE
  5
64
330
22
100
AcDbEntity
  8
0
  6
Continuous
 62
     7
100
AcDbLine
 10
-345.6514587402344
 20
344.0943603515625
 30
0.0
 11
-345.6514587402344
 21
313.7276916503906
 31
0.0
  0
LINE
  5
65
330
22
100
AcDbEntity
  8
0
  6
Continuous
 62
     7
100
AcDbLine
 10
-345.6514587402344
 20
373.0307312011719
 30
0.0
 11
-345.6514587402344
 21
354.7276916503906
 31
0.0
  0
LINE
  5
66
330
22
100
AcDbEntity
  8
0
  6
Continuous
 62
     7
100
AcDbLine
 10
-345.6514587402344
 20
213.9616241455078
 30
0.0
 11
-345.6514587402344
 21
244.3282928466797
 31
0.0
  0
LINE
  5
67
330
22
100
AcDbEntity
  8
0
  6
Continuous
 62
     7
100
AcDbLine
 10
-345.6514587402344
 20
185.0252380371094
 30
0.0
 11
-345.6514587402344
 21
203.3282928466797
 31
0.0
  0
LINE
  5
68
330
22
100
AcDbEntity
  8
0
  6
Continuous
 62
     7
100
AcDbLine
 10
-345.6514587402344
 20
254.9946594238281
 30
0.0
 11
-345.6514587402344
 21
273.2113342285156
 31
0.0
  0
LINE
  5
69
330
22
100
AcDbEntity
  8
0
  6
Continuous
 62
     7
100
AcDbLine
 10
-403.1514587402344
 20
248.8446502685547
 30
0.0
 11
-403.1514587402344
 21
273.2113342285156
 31
0.0
  0
LINE
  5
6A
330
22
100
AcDbEntity
  8
0
  6
Continuous
 62
     7
100
AcDbLine
 10
-426.1514587402343
 20
249.2842864990234
 30
0.0
 11
-426.1514587402343
 21
273.2113342285156
 31
0.0
  0
LINE
  5
6B
330
22
100
AcDbEntity
  8
0
  6
Continuous
 62
     7
100
AcDbLine
 10
-409.6514587402343
 20
248.8446502685547
 30
0.0
 11
-409.6514587402343
 21
273.2113342285156
 31
0.0
  0
LINE
  5
6C
330
22
100
AcDbEntity
  8
0
  6
Continuous
 62
     7
100
AcDbLine
 10
-363.6514587402344
 20
245.7446594238281
 30
0.0
 11
-363.6514587402344
 21
273.2113342285156
 31
0.0
  0
LINE
  5
6D
330
22
100
AcDbEntity
  8
0
  6
Continuous
 62
     7
100
AcDbLine
 10
-398.1514587402344
 20
243.8446502685547
 30
0.0
 11
-398.1514587402344
 21
273.2113342285156
 31
0.0
  0
LINE
  5
6E
330
22
100
AcDbEntity
  8
0
  6
Continuous
 62
     7
100
AcDbLine
 10
-352.1514587402344
 20
254.9946594238281
 30
0.0
 11
-352.1514587402344
 21
273.2113342285156
 31
0.0
  0
LINE
  5
6F
330
22
100
AcDbEntity
  8
0
  6
Continuous
 62
     7
100
AcDbLine
 10
-432.6514587402344
 20
258.2028198242188
 30
0.0
 11
-432.6514587402344
 21
273.2113342285156
 31
0.0
  0
LINE
  5
70
330
22
100
AcDbEntity
  8
0
  6
Continuous
 62
     7
100
AcDbLine
 10
-288.1514587402344
 20
361.7446594238281
 30
0.0
 11
-288.1514587402344
 21
338.6476745605469
 31
0.0
  0
LINE
  5
71
330
22
100
AcDbEntity
  8
0
  6
Continuous
 62
     7
100
AcDbLine
 10
-283.1514587402344
 20
314.2113342285156
 30
0.0
 11
-283.1514587402344
 21
284.8446655273438
 31
0.0
  0
LINE
  5
72
330
22
100
AcDbEntity
  8
0
  6
Continuous
 62
     7
100
AcDbLine
 10
-271.6514587402344
 20
309.2113342285156
 30
0.0
 11
-271.6514587402344
 21
284.8446655273438
 31
0.0
  0
LINE
  5
73
330
22
100
AcDbEntity
  8
0
  6
Continuous
 62
     7
100
AcDbLine
 10
-276.6514587402344
 20
314.2113342285156
 30
0.0
 11
-276.6514587402344
 21
284.8446655273438
 31
0.0
  0
LINE
  5
74
330
22
100
AcDbEntity
  8
0
  6
Continuous
 62
     7
100
AcDbLine
 10
-294.6514587402344
 20
328.0113220214844
 30
0.0
 11
-294.6514587402344
 21
318.6446533203125
 31
0.0
  0
LINE
  5
75
330
22
100
AcDbEntity
  8
0
  6
Continuous
 62
     7
100
AcDbLine
 10
-288.1514587402344
 20
328.0113220214844
 30
0.0
 11
-288.1514587402344
 21
318.6446533203125
 31
0.0
  0
LINE
  5
76
330
22
100
AcDbEntity
  8
0
  6
Continuous
 62
     7
100
AcDbLine
 10
-299.6514587402344
 20
342.1644897460938
 30
0.0
 11
-299.6514587402344
 21
309.8446655273438
 31
0.0
  0
LINE
  5
77
330
22
100
AcDbEntity
  8
0
  6
Continuous
 62
     7
100
AcDbLine
 10
-294.6514587402344
 20
308.0113220214844
 30
0.0
 11
-294.6514587402344
 21
284.8446655273438
 31
0.0
  0
LINE
  5
78
330
22
100
AcDbEntity
  8
0
  6
Continuous
 62
     7
100
AcDbLine
 10
-375.1514587402344
 20
258.8446655273438
 30
0.0
 11
-375.1514587402344
 21
273.2113342285156
 31
0.0
  0
LINE
  5
79
330
22
100
AcDbEntity
  8
0
  6
Continuous
 62
     7
100
AcDbLine
 10
-368.6514587402344
 20
258.8446655273438
 30
0.0
 11
-368.6514587402344
 21
273.2113342285156
 31
0.0
  0
LINE
  5
7A
330
22
100
AcDbEntity
  8
0
  6
CENTER
 62
     7
100
AcDbLine
 10
-461.8219909667969
 20
279.0279846191406
 30
0.0
 11
-212.9809265136719
 21
279.0279846191406
 31
0.0
  0
LINE
  5
7B
330
22
100
AcDbEntity
  8
0
  6
Continuous
 62
     7
100
AcDbLine
 10
-276.6514587402344
 20
354.1315612792969
 30
0.0
 11
-276.6514587402344
 21
324.8446655273438
 31
0.0
  0
LINE
  5
7C
330
22
100
AcDbEntity
  8
0
  6
Continuous
 62
     7
100
AcDbLine
 10
-317.6514587402344
 20
312.5113220214844
 30
0.0
 11
-317.6514587402344
 21
284.8446655273438
 31
0.0
  0
LINE
  5
7D
330
22
100
AcDbEntity
  8
0
  6
Continuous
 62
     7
100
AcDbLine
 10
-317.6514587402344
 20
332.5113220214844
 30
0.0
 11
-317.6514587402344
 21
323.1446533203125
 31
0.0
  0
LINE
  5
7E
330
22
100
AcDbEntity
  8
0
  6
Continuous
 62
     7
100
AcDbLine
 10
-317.6514587402344
 20
370.9005432128906
 30
0.0
 11
-317.6514587402344
 21
343.1476745605469
 31
0.0
  0
LINE
  5
7F
330
22
100
AcDbEntity
  8
0
  6
Continuous
 62
     7
100
AcDbLine
 10
-311.1514587402344
 20
332.5113220214844
 30
0.0
 11
-311.1514587402344
 21
323.1446533203125
 31
0.0
  0
LINE
  5
80
330
22
100
AcDbEntity
  8
0
  6
Continuous
 62
     7
100
AcDbLine
 10
-334.1514587402344
 20
373.7113342285156
 30
0.0
 11
-334.1514587402344
 21
351.9446716308594
 31
0.0
  0
LINE
  5
81
330
22
100
AcDbEntity
  8
0
  6
Continuous
 62
     7
100
AcDbLine
 10
-329.1514587402344
 20
303.0613098144531
 30
0.0
 11
-329.1514587402344
 21
284.8446655273438
 31
0.0
  0
LINE
  5
82
330
22
100
AcDbEntity
  8
0
  6
Continuous
 62
     7
100
AcDbLine
 10
-334.1514587402344
 20
307.927978515625
 30
0.0
 11
-334.1514587402344
 21
285.7779846191406
 31
0.0
  0
LINE
  5
83
330
22
100
AcDbEntity
  8
0
  6
Continuous
 62
     7
100
AcDbLine
 10
-340.6514587402344
 20
340.3779907226563
 30
0.0
 11
-340.6514587402344
 21
320.4779968261719
 31
0.0
  0
LINE
  5
84
330
22
100
AcDbEntity
  8
0
  6
Continuous
 62
     7
100
AcDbLine
 10
-340.6514587402344
 20
250.1279907226563
 30
0.0
 11
-340.6514587402344
 21
270.0279846191406
 31
0.0
  0
LINE
  5
85
330
22
100
AcDbEntity
  8
0
  6
Continuous
 62
     7
100
AcDbLine
 10
-288.1514587402344
 20
308.0113220214844
 30
0.0
 11
-288.1514587402344
 21
284.8446655273438
 31
0.0
  0
LINE
  5
86
330
22
100
AcDbEntity
  8
0
  6
Continuous
 62
     7
100
AcDbLine
 10
-334.1514587402344
 20
250.1279907226563
 30
0.0
 11
-334.1514587402344
 21
270.0279846191406
 31
0.0
  0
LINE
  5
87
330
22
100
AcDbEntity
  8
0
  6
Continuous
 62
     7
100
AcDbLine
 10
-329.1514587402344
 20
254.9946594238281
 30
0.0
 11
-329.1514587402344
 21
273.2113342285156
 31
0.0
  0
LINE
  5
88
330
22
100
AcDbEntity
  8
0
  6
Continuous
 62
     7
100
AcDbLine
 10
-306.1514587402344
 20
258.8446655273438
 30
0.0
 11
-306.1514587402344
 21
273.2113342285156
 31
0.0
  0
LINE
  5
89
330
22
100
AcDbEntity
  8
0
  6
Continuous
 62
     7
100
AcDbLine
 10
-299.6514587402344
 20
258.8446655273438
 30
0.0
 11
-299.6514587402344
 21
273.2113342285156
 31
0.0
  0
LINE
  5
8A
330
22
100
AcDbEntity
  8
0
  6
Continuous
 62
     7
100
AcDbLine
 10
-242.1514434814453
 20
258.2028198242188
 30
0.0
 11
-242.1514434814453
 21
273.2113342285156
 31
0.0
  0
LINE
  5
8B
330
22
100
AcDbEntity
  8
0
  6
Continuous
 62
     7
100
AcDbLine
 10
-283.1514587402344
 20
243.8446502685547
 30
0.0
 11
-283.1514587402344
 21
273.2113342285156
 31
0.0
  0
LINE
  5
8C
330
22
100
AcDbEntity
  8
0
  6
Continuous
 62
     7
100
AcDbLine
 10
-271.6514587402344
 20
248.8446502685547
 30
0.0
 11
-271.6514587402344
 21
273.2113342285156
 31
0.0
  0
LINE
  5
8D
330
22
100
AcDbEntity
  8
0
  6
Continuous
 62
     7
100
AcDbLine
 10
-317.6514587402344
 20
245.7446594238281
 30
0.0
 11
-317.6514587402344
 21
273.2113342285156
 31
0.0
  0
LINE
  5
8E
330
22
100
AcDbEntity
  8
0
  6
Continuous
 62
     7
100
AcDbLine
 10
-311.1514587402344
 20
245.7446594238281
 30
0.0
 11
-311.1514587402344
 21
273.2113342285156
 31
0.0
  0
LINE
  5
8F
330
22
100
AcDbEntity
  8
0
  6
Continuous
 62
     7
100
AcDbLine
 10
-288.1514587402344
 20
250.0446624755859
 30
0.0
 11
-288.1514587402344
 21
273.2113342285156
 31
0.0
  0
LINE
  5
90
330
22
100
AcDbEntity
  8
0
  6
Continuous
 62
     7
100
AcDbLine
 10
-294.6514587402344
 20
250.0446624755859
 30
0.0
 11
-294.6514587402344
 21
273.2113342285156
 31
0.0
  0
LINE
  5
91
330
22
100
AcDbEntity
  8
0
  6
Continuous
 62
     7
100
AcDbLine
 10
-248.6514434814453
 20
249.2842864990234
 30
0.0
 11
-248.6514434814453
 21
273.2113342285156
 31
0.0
  0
LINE
  5
92
330
22
100
AcDbEntity
  8
0
  6
Continuous
 62
     7
100
AcDbLine
 10
-265.1514587402344
 20
248.8446502685547
 30
0.0
 11
-265.1514587402344
 21
273.2113342285156
 31
0.0
  0
LINE
  5
93
330
22
100
AcDbEntity
  8
0
  6
Continuous
 62
     7
100
AcDbLine
 10
-276.6514587402344
 20
243.8446502685547
 30
0.0
 11
-276.6514587402344
 21
273.2113342285156
 31
0.0
  0
LINE
  5
94
330
22
100
AcDbEntity
  8
0
  6
Continuous
 62
     7
100
AcDbLine
 10
-391.6514587402344
 20
243.8446502685547
 30
0.0
 11
-391.6514587402344
 21
273.2113342285156
 31
0.0
  0
LINE
  5
95
330
22
100
AcDbEntity
  8
0
  6
Continuous
 62
     7
100
AcDbLine
 10
-357.1514587402344
 20
245.7446594238281
 30
0.0
 11
-357.1514587402344
 21
273.2113342285156
 31
0.0
  0
LINE
  5
96
330
22
100
AcDbEntity
  8
0
  6
Continuous
 62
     7
100
AcDbLine
 10
-386.6514587402344
 20
250.0446624755859
 30
0.0
 11
-386.6514587402344
 21
273.2113342285156
 31
0.0
  0
LINE
  5
97
330
22
100
AcDbEntity
  8
0
  6
Continuous
 62
     7
100
AcDbLine
 10
-380.1514587402344
 20
250.0446624755859
 30
0.0
 11
-380.1514587402344
 21
273.2113342285156
 31
0.0
  0
LINE
  5
98
330
22
100
AcDbEntity
  8
0
  6
Continuous
 62
     7
100
AcDbLine
 10
-263.7894592285156
 20
210.1302032470703
 30
0.0
 11
-267.107177734375
 21
210.5879211425781
 31
0.0
  0
LINE
  5
99
330
22
100
AcDbEntity
  8
0
  6
Continuous
 62
     7
100
AcDbLine
 10
-263.7894592285156
 20
209.2049102783203
 30
0.0
 11
-267.107177734375
 21
208.7471771240234
 31
0.0
  0
LINE
  5
9A
330
22
100
AcDbEntity
  8
0
  6
Continuous
 62
     7
100
AcDbLine
 10
-426.1514587402343
 20
308.7716979980469
 30
0.0
 11
-426.1514587402343
 21
284.8446655273438
 31
0.0
  0
LINE
  5
9B
330
22
100
AcDbEntity
  8
0
  6
Continuous
 62
     7
100
AcDbLine
 10
-322.6514587402344
 20
254.9946594238281
 30
0.0
 11
-322.6514587402344
 21
273.2113342285156
 31
0.0
  0
LINE
  5
9C
330
22
100
AcDbEntity
  8
0
  6
CENTER
 62
     7
100
AcDbLine
 10
-337.7656860351563
 20
153.2724151611328
 30
0.0
 11
-337.7656860351563
 21
400.128662109375
 31
0.0
  0
LINE
  5
9D
330
22
100
AcDbEntity
  8
0
  6
Continuous
 62
     7
100
AcDbLine
 10
-260.1514587402344
 20
294.2113342285156
 30
0.0
 11
-260.1514587402344
 21
284.8446655273438
 31
0.0
  0
LINE
  5
9E
330
22
100
AcDbEntity
  8
0
  6
Continuous
 62
     7
100
AcDbLine
 10
-263.7774047851563
 20
348.8645324707031
 30
0.0
 11
-267.1202697753906
 21
349.3218994140625
 31
0.0
  0
LINE
  5
9F
330
22
100
AcDbEntity
  8
0
  6
Continuous
 62
     7
100
AcDbLine
 10
-263.7774047851563
 20
347.9385375976563
 30
0.0
 11
-267.1202697753906
 21
347.4811706542969
 31
0.0
  0
LINE
  5
A0
330
22
100
AcDbEntity
  8
0
  6
Continuous
 62
     7
100
AcDbLine
 10
-260.1514587402344
 20
263.8446655273438
 30
0.0
 11
-260.1514587402344
 21
273.2113342285156
 31
0.0
  0
LINE
  5
A1
330
22
100
AcDbEntity
  8
0
  6
Continuous
 62
     7
100
AcDbLine
 10
-260.1514587402344
 20
229.5179290771484
 30
0.0
 11
-260.1514587402344
 21
253.2113189697266
 31
0.0
  0
LINE
  5
A2
330
22
100
AcDbEntity
  8
0
  6
Continuous
 62
     7
100
AcDbLine
 10
-263.7894592285156
 20
209.2049102783203
 30
0.0
 11
-263.7894592285156
 21
209.6675567626953
 31
0.0
  0
LINE
  5
A3
330
22
100
AcDbEntity
  8
0
  6
Continuous
 62
     7
100
AcDbLine
 10
-263.7894592285156
 20
210.1302032470703
 30
0.0
 11
-263.7894592285156
 21
209.6675567626953
 31
0.0
  0
LINE
  5
A4
330
22
100
AcDbEntity
  8
0
  6
Continuous
 62
     7
100
AcDbLine
 10
-265.1514587402344
 20
219.3446502685547
 30
0.0
 11
-265.1514587402344
 21
238.2113189697266
 31
0.0
  0
LINE
  5
A5
330
22
100
AcDbEntity
  8
0
  6
Continuous
 62
     7
100
AcDbLine
 10
-265.1514587402344
 20
338.7113342285156
 30
0.0
 11
-265.1514587402344
 21
319.8446655273438
 31
0.0
  0
LINE
  5
A6
330
22
100
AcDbEntity
  8
0
  6
Continuous
 62
     7
100
AcDbLine
 10
-263.7774047851563
 20
348.4015502929688
 30
0.0
 11
-263.7774047851563
 21
347.9385375976563
 31
0.0
  0
LINE
  5
A7
330
22
100
AcDbEntity
  8
0
  6
Continuous
 62
     7
100
AcDbLine
 10
-263.7774047851563
 20
348.4015502929688
 30
0.0
 11
-263.7774047851563
 21
348.8645324707031
 31
0.0
  0
LINE
  5
A8
330
22
100
AcDbEntity
  8
0
  6
Continuous
 62
     7
100
AcDbLine
 10
-260.1514587402344
 20
328.5380554199219
 30
0.0
 11
-260.1514587402344
 21
304.8446655273438
 31
0.0
  0
LINE
  5
A9
330
22
100
AcDbEntity
  8
0
  6
Continuous
 62
     7
100
AcDbLine
 10
-265.1514587402344
 20
309.2113342285156
 30
0.0
 11
-265.1514587402344
 21
284.8446655273438
 31
0.0
  0
LINE
  5
AA
330
22
100
AcDbEntity
  8
0
  6
Continuous
 62
     7
100
AcDbLine
 10
-406.2988586425781
 20
213.8925170898438
 30
0.0
 11
-406.7615051269531
 21
213.8925170898438
 31
0.0
  0
LINE
  5
AB
330
22
100
AcDbEntity
  8
0
  6
Continuous
 62
     7
100
AcDbLine
 10
-409.6514587402343
 20
219.3446502685547
 30
0.0
 11
-409.6514587402343
 21
238.2113189697266
 31
0.0
  0
LINE
  5
AC
330
22
100
AcDbEntity
  8
0
  6
Continuous
 62
     7
100
AcDbLine
 10
-411.0247802734375
 20
209.6544494628906
 30
0.0
 11
-411.0247802734375
 21
209.1914367675781
 31
0.0
  0
LINE
  5
AD
330
22
100
AcDbEntity
  8
0
  6
Continuous
 62
     7
100
AcDbLine
 10
-411.0247802734375
 20
209.6544494628906
 30
0.0
 11
-411.0247802734375
 21
210.1174468994141
 31
0.0
  0
LINE
  5
AE
330
22
100
AcDbEntity
  8
0
  6
Continuous
 62
     7
100
AcDbLine
 10
-306.1514587402344
 20
342.1644897460938
 30
0.0
 11
-306.1514587402344
 21
309.8446655273438
 31
0.0
  0
LINE
  5
AF
330
22
100
AcDbEntity
  8
0
  6
Continuous
 62
     7
100
AcDbLine
 10
-306.1514587402344
 20
299.2113342285156
 30
0.0
 11
-306.1514587402344
 21
284.8446655273438
 31
0.0
  0
LINE
  5
B0
330
22
100
AcDbEntity
  8
0
  6
Continuous
 62
     7
100
AcDbLine
 10
-272.3038940429688
 20
348.4015502929688
 30
0.0
 11
-272.3038940429688
 21
347.9385375976563
 31
0.0
  0
LINE
  5
B1
330
22
100
AcDbEntity
  8
0
  6
Continuous
 62
     7
100
AcDbLine
 10
-272.3038940429688
 20
348.4015502929688
 30
0.0
 11
-272.3038940429688
 21
348.8645324707031
 31
0.0
  0
LINE
  5
B2
330
22
100
AcDbEntity
  8
0
  6
Continuous
 62
     7
100
AcDbLine
 10
-406.2988586425781
 20
205.4163665771484
 30
0.0
 11
-405.8411560058593
 21
208.7340698242188
 31
0.0
  0
LINE
  5
B3
330
22
100
AcDbEntity
  8
0
  6
Continuous
 62
     7
100
AcDbLine
 10
-406.2988586425781
 20
205.4163665771484
 30
0.0
 11
-406.7615051269531
 21
205.4163665771484
 31
0.0
  0
LINE
  5
B4
330
22
100
AcDbEntity
  8
0
  6
Continuous
 62
     7
100
AcDbLine
 10
-407.2241821289063
 20
205.4163665771484
 30
0.0
 11
-406.7615051269531
 21
205.4163665771484
 31
0.0
  0
LINE
  5
B5
330
22
100
AcDbEntity
  8
0
  6
Continuous
 62
     7
100
AcDbLine
 10
-299.6514587402344
 20
299.2113342285156
 30
0.0
 11
-299.6514587402344
 21
284.8446655273438
 31
0.0
  0
LINE
  5
B6
330
22
100
AcDbEntity
  8
0
  6
Continuous
 62
     7
100
AcDbLine
 10
-407.2241821289063
 20
205.4163665771484
 30
0.0
 11
-407.681884765625
 21
208.7340698242188
 31
0.0
  0
LINE
  5
B7
330
22
100
AcDbEntity
  8
0
  6
Continuous
 62
     7
100
AcDbLine
 10
-411.0247802734375
 20
209.1914367675781
 30
0.0
 11
-407.681884765625
 21
208.7340698242188
 31
0.0
  0
LINE
  5
B8
330
22
100
AcDbEntity
  8
0
  6
Continuous
 62
     7
100
AcDbLine
 10
-414.6514587402343
 20
229.5179290771484
 30
0.0
 11
-414.6514587402343
 21
253.2113189697266
 31
0.0
  0
LINE
  5
B9
330
22
100
AcDbEntity
  8
0
  6
Continuous
 62
     7
100
AcDbLine
 10
-421.1514587402343
 20
229.5179290771484
 30
0.0
 11
-421.1514587402343
 21
253.2113189697266
 31
0.0
  0
LINE
  5
BA
330
22
100
AcDbEntity
  8
0
  6
Continuous
 62
     7
100
AcDbLine
 10
-402.4982604980468
 20
209.6544494628906
 30
0.0
 11
-402.4982604980468
 21
209.1914367675781
 31
0.0
  0
LINE
  5
BB
330
22
100
AcDbEntity
  8
0
  6
Continuous
 62
     7
100
AcDbLine
 10
-402.4982604980468
 20
209.6544494628906
 30
0.0
 11
-402.4982604980468
 21
210.1174468994141
 31
0.0
  0
LINE
  5
BC
330
22
100
AcDbEntity
  8
0
  6
Continuous
 62
     7
100
AcDbLine
 10
-402.4982604980468
 20
210.1174468994141
 30
0.0
 11
-405.8411560058593
 21
210.5748138427734
 31
0.0
  0
LINE
  5
BD
330
22
100
AcDbEntity
  8
0
  6
Continuous
 62
     7
100
AcDbLine
 10
-402.4982604980468
 20
209.1914367675781
 30
0.0
 11
-405.8411560058593
 21
208.7340698242188
 31
0.0
  0
LINE
  5
BE
330
22
100
AcDbEntity
  8
0
  6
Continuous
 62
     7
100
AcDbLine
 10
-403.1514587402344
 20
219.3446502685547
 30
0.0
 11
-403.1514587402344
 21
238.2113189697266
 31
0.0
  0
LINE
  5
BF
330
22
100
AcDbEntity
  8
0
  6
Continuous
 62
     7
100
AcDbLine
 10
-380.1514587402344
 20
196.4847717285156
 30
0.0
 11
-380.1514587402344
 21
219.3082885742188
 31
0.0
  0
LINE
  5
C0
330
22
100
AcDbEntity
  8
0
  6
Continuous
 62
     7
100
AcDbLine
 10
-357.1514587402344
 20
187.3288879394531
 30
0.0
 11
-357.1514587402344
 21
214.9082946777344
 31
0.0
  0
LINE
  5
C1
330
22
100
AcDbEntity
  8
0
  6
Continuous
 62
     7
100
AcDbLine
 10
-363.6514587402344
 20
187.3288879394531
 30
0.0
 11
-363.6514587402344
 21
214.9082946777344
 31
0.0
  0
LINE
  5
C2
330
22
100
AcDbEntity
  8
0
  6
Continuous
 62
     7
100
AcDbLine
 10
-375.1514587402344
 20
191.0619049072266
 30
0.0
 11
-375.1514587402344
 21
205.255126953125
 31
0.0
  0
LINE
  5
C3
330
22
100
AcDbEntity
  8
0
  6
Continuous
 62
     7
100
AcDbLine
 10
-352.1514587402344
 20
185.0252380371094
 30
0.0
 11
-352.1514587402344
 21
203.3282928466797
 31
0.0
  0
LINE
  5
C4
330
22
100
AcDbEntity
  8
0
  6
Continuous
 62
     7
100
AcDbLine
 10
-368.6514587402344
 20
191.0619049072266
 30
0.0
 11
-368.6514587402344
 21
205.255126953125
 31
0.0
  0
LINE
  5
C5
330
22
100
AcDbEntity
  8
0
  6
Continuous
 62
     7
100
AcDbLine
 10
-368.6514587402344
 20
215.9914855957031
 30
0.0
 11
-368.6514587402344
 21
248.2113189697266
 31
0.0
  0
LINE
  5
C6
330
22
100
AcDbEntity
  8
0
  6
Continuous
 62
     7
100
AcDbLine
 10
-352.1514587402344
 20
213.9616241455078
 30
0.0
 11
-352.1514587402344
 21
244.3282928466797
 31
0.0
  0
LINE
  5
C7
330
22
100
AcDbEntity
  8
0
  6
Continuous
 62
     7
100
AcDbLine
 10
-375.1514587402344
 20
215.9914855957031
 30
0.0
 11
-375.1514587402344
 21
248.2113189697266
 31
0.0
  0
LINE
  5
C8
330
22
100
AcDbEntity
  8
0
  6
Continuous
 62
     7
100
AcDbLine
 10
-357.1514587402344
 20
225.6446533203125
 30
0.0
 11
-357.1514587402344
 21
235.111328125
 31
0.0
  0
LINE
  5
C9
330
22
100
AcDbEntity
  8
0
  6
Continuous
 62
     7
100
AcDbLine
 10
-406.2988586425781
 20
213.8925170898438
 30
0.0
 11
-405.8411560058593
 21
210.5748138427734
 31
0.0
  0
LINE
  5
CA
330
22
100
AcDbEntity
  8
0
  6
Continuous
 62
     7
100
AcDbLine
 10
-407.2241821289063
 20
213.8925170898438
 30
0.0
 11
-407.681884765625
 21
210.5748138427734
 31
0.0
  0
LINE
  5
CB
330
22
100
AcDbEntity
  8
0
  6
Continuous
 62
     7
100
AcDbLine
 10
-407.2241821289063
 20
213.8925170898438
 30
0.0
 11
-406.7615051269531
 21
213.8925170898438
 31
0.0
  0
LINE
  5
CC
330
22
100
AcDbEntity
  8
0
  6
Continuous
 62
     7
100
AcDbLine
 10
-411.0247802734375
 20
210.1174468994141
 30
0.0
 11
-407.681884765625
 21
210.5748138427734
 31
0.0
  0
LINE
  5
CD
330
22
100
AcDbEntity
  8
0
  6
Continuous
 62
     7
100
AcDbLine
 10
-403.1514587402344
 20
338.7113342285156
 30
0.0
 11
-403.1514587402344
 21
319.8446655273438
 31
0.0
  0
LINE
  5
CE
330
22
100
AcDbEntity
  8
0
  6
Continuous
 62
     7
100
AcDbLine
 10
-402.5365600585938
 20
347.92578125
 30
0.0
 11
-402.5365600585938
 21
348.388427734375
 31
0.0
  0
LINE
  5
CF
330
22
100
AcDbEntity
  8
0
  6
Continuous
 62
     7
100
AcDbLine
 10
-402.5365600585938
 20
347.92578125
 30
0.0
 11
-405.854248046875
 21
347.4680480957031
 31
0.0
  0
LINE
  5
D0
330
22
100
AcDbEntity
  8
0
  6
Continuous
 62
     7
100
AcDbLine
 10
-421.1514587402343
 20
263.8446655273438
 30
0.0
 11
-421.1514587402343
 21
273.2113342285156
 31
0.0
  0
LINE
  5
D1
330
22
100
AcDbEntity
  8
0
  6
Continuous
 62
     7
100
AcDbLine
 10
-414.6514587402343
 20
263.8446655273438
 30
0.0
 11
-414.6514587402343
 21
273.2113342285156
 31
0.0
  0
LINE
  5
D2
330
22
100
AcDbEntity
  8
0
  6
Continuous
 62
     7
100
AcDbLine
 10
-432.6514587402344
 20
299.8531494140625
 30
0.0
 11
-432.6514587402344
 21
284.8446655273438
 31
0.0
  0
LINE
  5
D3
330
22
100
AcDbEntity
  8
0
  6
Continuous
 62
     7
100
AcDbLine
 10
-386.6514587402344
 20
230.0446624755859
 30
0.0
 11
-386.6514587402344
 21
239.4113311767578
 31
0.0
  0
LINE
  5
D4
330
22
100
AcDbEntity
  8
0
  6
Continuous
 62
     7
100
AcDbLine
 10
-380.1514587402344
 20
230.0446624755859
 30
0.0
 11
-380.1514587402344
 21
239.4113311767578
 31
0.0
  0
LINE
  5
D5
330
22
100
AcDbEntity
  8
0
  6
Continuous
 62
     7
100
AcDbLine
 10
-363.6514587402344
 20
225.6446533203125
 30
0.0
 11
-363.6514587402344
 21
235.111328125
 31
0.0
  0
LINE
  5
D6
330
22
100
AcDbEntity
  8
0
  6
Continuous
 62
     7
100
AcDbLine
 10
-398.1514587402344
 20
203.9244232177734
 30
0.0
 11
-398.1514587402344
 21
233.2113189697266
 31
0.0
  0
LINE
  5
D7
330
22
100
AcDbEntity
  8
0
  6
Continuous
 62
     7
100
AcDbLine
 10
-391.6514587402344
 20
203.9244232177734
 30
0.0
 11
-391.6514587402344
 21
233.2113189697266
 31
0.0
  0
LINE
  5
D8
330
22
100
AcDbEntity
  8
0
  6
Continuous
 62
     7
100
AcDbLine
 10
-386.6514587402344
 20
196.4847717285156
 30
0.0
 11
-386.6514587402344
 21
219.3082885742188
 31
0.0
  0
LINE
  5
D9
330
22
100
AcDbEntity
  8
0
  6
Continuous
 62
     7
100
AcDbLine
 10
-411.0126953125
 20
347.92578125
 30
0.0
 11
-407.6950073242188
 21
347.4680480957031
 31
0.0
  0
LINE
  5
DA
330
22
100
AcDbEntity
  8
0
  6
Continuous
 62
     7
100
AcDbLine
 10
-407.2376403808593
 20
352.6516723632813
 30
0.0
 11
-407.6950073242188
 21
349.3088073730469
 31
0.0
  0
LINE
  5
DB
330
22
100
AcDbEntity
  8
0
  6
Continuous
 62
     7
100
AcDbLine
 10
-406.7746276855468
 20
352.6516723632813
 30
0.0
 11
-407.2376403808593
 21
352.6516723632813
 31
0.0
  0
LINE
  5
DC
330
22
100
AcDbEntity
  8
0
  6
Continuous
 62
     7
100
AcDbLine
 10
-406.7746276855468
 20
344.1251831054688
 30
0.0
 11
-407.2376403808593
 21
344.1251831054688
 31
0.0
  0
LINE
  5
DD
330
22
100
AcDbEntity
  8
0
  6
Continuous
 62
     7
100
AcDbLine
 10
-407.2376403808593
 20
344.1251831054688
 30
0.0
 11
-407.6950073242188
 21
347.4680480957031
 31
0.0
  0
LINE
  5
DE
330
22
100
AcDbEntity
  8
0
  6
Continuous
 62
     7
100
AcDbLine
 10
-406.3116149902343
 20
344.1251831054688
 30
0.0
 11
-405.854248046875
 21
347.4680480957031
 31
0.0
  0
LINE
  5
DF
330
22
100
AcDbEntity
  8
0
  6
Continuous
 62
     7
100
AcDbLine
 10
-406.3116149902343
 20
352.6516723632813
 30
0.0
 11
-405.854248046875
 21
349.3088073730469
 31
0.0
  0
LINE
  5
E0
330
22
100
AcDbEntity
  8
0
  6
Continuous
 62
     7
100
AcDbLine
 10
-411.0126953125
 20
348.85107421875
 30
0.0
 11
-411.0126953125
 21
348.388427734375
 31
0.0
  0
LINE
  5
E1
330
22
100
AcDbEntity
  8
0
  6
Continuous
 62
     7
100
AcDbLine
 10
-406.7746276855468
 20
344.1251831054688
 30
0.0
 11
-406.3116149902343
 21
344.1251831054688
 31
0.0
  0
LINE
  5
E2
330
22
100
AcDbEntity
  8
0
  6
Continuous
 62
     7
100
AcDbLine
 10
-406.7746276855468
 20
352.6516723632813
 30
0.0
 11
-406.3116149902343
 21
352.6516723632813
 31
0.0
  0
LINE
  5
E3
330
22
100
AcDbEntity
  8
0
  6
Continuous
 62
     7
100
AcDbLine
 10
-414.6514587402343
 20
294.2113342285156
 30
0.0
 11
-414.6514587402343
 21
284.8446655273438
 31
0.0
  0
LINE
  5
E4
330
22
100
AcDbEntity
  8
0
  6
Continuous
 62
     7
100
AcDbLine
 10
-421.1514587402343
 20
328.5380554199219
 30
0.0
 11
-421.1514587402343
 21
304.8446655273438
 31
0.0
  0
LINE
  5
E5
330
22
100
AcDbEntity
  8
0
  6
Continuous
 62
     7
100
AcDbLine
 10
-421.1514587402343
 20
294.2113342285156
 30
0.0
 11
-421.1514587402343
 21
284.8446655273438
 31
0.0
  0
LINE
  5
E6
330
22
100
AcDbEntity
  8
0
  6
Continuous
 62
     7
100
AcDbLine
 10
-403.1514587402344
 20
309.2113342285156
 30
0.0
 11
-403.1514587402344
 21
284.8446655273438
 31
0.0
  0
LINE
  5
E7
330
22
100
AcDbEntity
  8
0
  6
Continuous
 62
     7
100
AcDbLine
 10
-402.5365600585938
 20
348.85107421875
 30
0.0
 11
-405.854248046875
 21
349.3088073730469
 31
0.0
  0
LINE
  5
E8
330
22
100
AcDbEntity
  8
0
  6
Continuous
 62
     7
100
AcDbLine
 10
-402.5365600585938
 20
348.85107421875
 30
0.0
 11
-402.5365600585938
 21
348.388427734375
 31
0.0
  0
LINE
  5
E9
330
22
100
AcDbEntity
  8
0
  6
Continuous
 62
     7
100
AcDbLine
 10
-386.6514587402344
 20
328.0113220214844
 30
0.0
 11
-386.6514587402344
 21
318.6446533203125
 31
0.0
  0
LINE
  5
EA
330
22
100
AcDbEntity
  8
0
  6
Continuous
 62
     7
100
AcDbLine
 10
-375.1514587402344
 20
366.9940795898438
 30
0.0
 11
-375.1514587402344
 21
352.8008422851563
 31
0.0
  0
LINE
  5
EB
330
22
100
AcDbEntity
  8
0
  6
Continuous
 62
     7
100
AcDbLine
 10
-368.6514587402344
 20
366.9940795898438
 30
0.0
 11
-368.6514587402344
 21
352.8008422851563
 31
0.0
  0
LINE
  5
EC
330
22
100
AcDbEntity
  8
0
  6
Continuous
 62
     7
100
AcDbLine
 10
-368.6514587402344
 20
342.0644836425781
 30
0.0
 11
-368.6514587402344
 21
309.8446655273438
 31
0.0
  0
LINE
  5
ED
330
22
100
AcDbEntity
  8
0
  6
Continuous
 62
     7
100
AcDbLine
 10
-368.6514587402344
 20
299.2113342285156
 30
0.0
 11
-368.6514587402344
 21
284.8446655273438
 31
0.0
  0
LINE
  5
EE
330
22
100
AcDbEntity
  8
0
  6
Continuous
 62
     7
100
AcDbLine
 10
-375.1514587402344
 20
299.2113342285156
 30
0.0
 11
-375.1514587402344
 21
284.8446655273438
 31
0.0
  0
LINE
  5
EF
330
22
100
AcDbEntity
  8
0
  6
Continuous
 62
     7
100
AcDbLine
 10
-363.6514587402344
 20
312.3113098144531
 30
0.0
 11
-363.6514587402344
 21
284.8446655273438
 31
0.0
  0
LINE
  5
F0
330
22
100
AcDbEntity
  8
0
  6
Continuous
 62
     7
100
AcDbLine
 10
-375.1514587402344
 20
342.0644836425781
 30
0.0
 11
-375.1514587402344
 21
309.8446655273438
 31
0.0
  0
LINE
  5
F1
330
22
100
AcDbEntity
  8
0
  6
Continuous
 62
     7
100
AcDbLine
 10
-363.6514587402344
 20
370.7271118164063
 30
0.0
 11
-363.6514587402344
 21
343.1476745605469
 31
0.0
  0
LINE
  5
F2
330
22
100
AcDbEntity
  8
0
  6
Continuous
 62
     7
100
AcDbLine
 10
-380.1514587402344
 20
361.5711975097656
 30
0.0
 11
-380.1514587402344
 21
338.7476806640625
 31
0.0
  0
LINE
  5
F3
330
22
100
AcDbEntity
  8
0
  6
Continuous
 62
     7
100
AcDbLine
 10
-380.1514587402344
 20
328.0113220214844
 30
0.0
 11
-380.1514587402344
 21
318.6446533203125
 31
0.0
  0
LINE
  5
F4
330
22
100
AcDbEntity
  8
0
  6
Continuous
 62
     7
100
AcDbLine
 10
-411.0126953125
 20
348.85107421875
 30
0.0
 11
-407.6950073242188
 21
349.3088073730469
 31
0.0
  0
LINE
  5
F5
330
22
100
AcDbEntity
  8
0
  6
Continuous
 62
     7
100
AcDbLine
 10
-414.6514587402343
 20
328.5380554199219
 30
0.0
 11
-414.6514587402343
 21
304.8446655273438
 31
0.0
  0
LINE
  5
F6
330
22
100
AcDbEntity
  8
0
  6
Continuous
 62
     7
100
AcDbLine
 10
-411.0126953125
 20
347.92578125
 30
0.0
 11
-411.0126953125
 21
348.388427734375
 31
0.0
  0
LINE
  5
F7
330
22
100
AcDbEntity
  8
0
  6
Continuous
 62
     7
100
AcDbLine
 10
-409.6514587402343
 20
309.2113342285156
 30
0.0
 11
-409.6514587402343
 21
284.8446655273438
 31
0.0
  0
LINE
  5
F8
330
22
100
AcDbEntity
  8
0
  6
Continuous
 62
     7
100
AcDbLine
 10
-409.6514587402343
 20
338.7113342285156
 30
0.0
 11
-409.6514587402343
 21
319.8446655273438
 31
0.0
  0
LINE
  5
F9
330
22
100
AcDbEntity
  8
0
  6
Continuous
 62
     7
100
AcDbLine
 10
-357.1514587402344
 20
312.3113098144531
 30
0.0
 11
-357.1514587402344
 21
284.8446655273438
 31
0.0
  0
LINE
  5
FA
330
22
100
AcDbEntity
  8
0
  6
Continuous
 62
     7
100
AcDbLine
 10
-386.6514587402344
 20
308.0113220214844
 30
0.0
 11
-386.6514587402344
 21
284.8446655273438
 31
0.0
  0
LINE
  5
FB
330
22
100
AcDbEntity
  8
0
  6
Continuous
 62
     7
100
AcDbLine
 10
-352.1514587402344
 20
344.0943603515625
 30
0.0
 11
-352.1514587402344
 21
313.7276916503906
 31
0.0
  0
LINE
  5
FC
330
22
100
AcDbEntity
  8
0
  6
Continuous
 62
     7
100
AcDbLine
 10
-352.1514587402344
 20
303.0613098144531
 30
0.0
 11
-352.1514587402344
 21
284.8446655273438
 31
0.0
  0
LINE
  5
FD
330
22
100
AcDbEntity
  8
0
  6
Continuous
 62
     7
100
AcDbLine
 10
-398.1514587402344
 20
314.2113342285156
 30
0.0
 11
-398.1514587402344
 21
284.8446655273438
 31
0.0
  0
LINE
  5
FE
330
22
100
AcDbEntity
  8
0
  6
Continuous
 62
     7
100
AcDbLine
 10
-363.6514587402344
 20
332.4113159179688
 30
0.0
 11
-363.6514587402344
 21
322.9446716308594
 31
0.0
  0
LINE
  5
FF
330
22
100
AcDbEntity
  8
0
  6
Continuous
 62
     7
100
AcDbLine
 10
-357.1514587402344
 20
332.4113159179688
 30
0.0
 11
-357.1514587402344
 21
322.9446716308594
 31
0.0
  0
LINE
  5
100
330
22
100
AcDbEntity
  8
0
  6
Continuous
 62
     7
100
AcDbLine
 10
-357.1514587402344
 20
370.7271118164063
 30
0.0
 11
-357.1514587402344
 21
343.1476745605469
 31
0.0
  0
LINE
  5
101
330
22
100
AcDbEntity
  8
0
  6
Continuous
 62
     7
100
AcDbLine
 10
-352.1514587402344
 20
373.0307312011719
 30
0.0
 11
-352.1514587402344
 21
354.7276916503906
 31
0.0
  0
LINE
  5
102
330
22
100
AcDbEntity
  8
0
  6
Continuous
 62
     7
100
AcDbLine
 10
-386.6514587402344
 20
361.5711975097656
 30
0.0
 11
-386.6514587402344
 21
338.7476806640625
 31
0.0
  0
LINE
  5
103
330
22
100
AcDbEntity
  8
0
  6
Continuous
 62
     7
100
AcDbLine
 10
-398.1514587402344
 20
354.1315612792969
 30
0.0
 11
-398.1514587402344
 21
324.8446655273438
 31
0.0
  0
LINE
  5
104
330
22
100
AcDbEntity
  8
0
  6
Continuous
 62
     7
100
AcDbLine
 10
-391.6514587402344
 20
354.1315612792969
 30
0.0
 11
-391.6514587402344
 21
324.8446655273438
 31
0.0
  0
LINE
  5
105
330
22
100
AcDbEntity
  8
0
  6
Continuous
 62
     7
100
AcDbLine
 10
-306.1514587402344
 20
215.9914855957031
 30
0.0
 11
-306.1514587402344
 21
248.2113189697266
 31
0.0
  0
LINE
  5
106
330
22
100
AcDbEntity
  8
0
  6
Continuous
 62
     7
100
AcDbLine
 10
-299.6514587402344
 20
215.9914855957031
 30
0.0
 11
-299.6514587402344
 21
248.2113189697266
 31
0.0
  0
LINE
  5
107
330
22
100
AcDbEntity
  8
0
  6
Continuous
 62
     7
100
AcDbLine
 10
-311.1514587402344
 20
187.3288879394531
 30
0.0
 11
-311.1514587402344
 21
214.9082946777344
 31
0.0
  0
LINE
  5
108
330
22
100
AcDbEntity
  8
0
  6
Continuous
 62
     7
100
AcDbLine
 10
-311.1514587402344
 20
225.6446533203125
 30
0.0
 11
-311.1514587402344
 21
235.111328125
 31
0.0
  0
LINE
  5
109
330
22
100
AcDbEntity
  8
0
  6
Continuous
 62
     7
100
AcDbLine
 10
-271.6514587402344
 20
338.7113342285156
 30
0.0
 11
-271.6514587402344
 21
319.8446655273438
 31
0.0
  0
LINE
  5
10A
330
22
100
AcDbEntity
  8
0
  6
Continuous
 62
     7
100
AcDbLine
 10
-306.1514587402344
 20
367.1675109863281
 30
0.0
 11
-306.1514587402344
 21
352.8008422851563
 31
0.0
  0
LINE
  5
10B
330
22
100
AcDbEntity
  8
0
  6
Continuous
 62
     7
100
AcDbLine
 10
-299.6514587402344
 20
367.1675109863281
 30
0.0
 11
-299.6514587402344
 21
352.8008422851563
 31
0.0
  0
LINE
  5
10C
330
22
100
AcDbEntity
  8
0
  6
Continuous
 62
     7
100
AcDbLine
 10
-294.6514587402344
 20
361.7446594238281
 30
0.0
 11
-294.6514587402344
 21
338.6476745605469
 31
0.0
  0
LINE
  5
10D
330
22
100
AcDbEntity
  8
0
  6
Continuous
 62
     7
100
AcDbLine
 10
-253.6514434814453
 20
294.2113342285156
 30
0.0
 11
-253.6514434814453
 21
284.8446655273438
 31
0.0
  0
LINE
  5
10E
330
22
100
AcDbEntity
  8
0
  6
Continuous
 62
     7
100
AcDbLine
 10
-248.6514434814453
 20
308.7716979980469
 30
0.0
 11
-248.6514434814453
 21
284.8446655273438
 31
0.0
  0
LINE
  5
10F
330
22
100
AcDbEntity
  8
0
  6
Continuous
 62
     7
100
AcDbLine
 10
-253.6514434814453
 20
263.8446655273438
 30
0.0
 11
-253.6514434814453
 21
273.2113342285156
 31
0.0
  0
LINE
  5
110
330
22
100
AcDbEntity
  8
0
  6
Continuous
 62
     7
100
AcDbLine
 10
-322.6514587402344
 20
373.0307312011719
 30
0.0
 11
-322.6514587402344
 21
354.7276916503906
 31
0.0
  0
LINE
  5
111
330
22
100
AcDbEntity
  8
0
  6
Continuous
 62
     7
100
AcDbLine
 10
-322.6514587402344
 20
344.0943603515625
 30
0.0
 11
-322.6514587402344
 21
313.7276916503906
 31
0.0
  0
LINE
  5
112
330
22
100
AcDbEntity
  8
0
  6
Continuous
 62
     7
100
AcDbLine
 10
-272.265625
 20
210.1302032470703
 30
0.0
 11
-268.9479064941405
 21
210.5879211425781
 31
0.0
  0
LINE
  5
113
330
22
100
AcDbEntity
  8
0
  6
Continuous
 62
     7
100
AcDbLine
 10
-268.4905395507813
 20
213.9308013916016
 30
0.0
 11
-268.9479064941405
 21
210.5879211425781
 31
0.0
  0
LINE
  5
114
330
22
100
AcDbEntity
  8
0
  6
Continuous
 62
     7
100
AcDbLine
 10
-268.0275268554688
 20
213.9308013916016
 30
0.0
 11
-268.4905395507813
 21
213.9308013916016
 31
0.0
  0
LINE
  5
115
330
22
100
AcDbEntity
  8
0
  6
Continuous
 62
     7
100
AcDbLine
 10
-268.0275268554688
 20
213.9308013916016
 30
0.0
 11
-267.5645446777344
 21
213.9308013916016
 31
0.0
  0
LINE
  5
116
330
22
100
AcDbEntity
  8
0
  6
Continuous
 62
     7
100
AcDbLine
 10
-267.5645446777344
 20
213.9308013916016
 30
0.0
 11
-267.107177734375
 21
210.5879211425781
 31
0.0
  0
LINE
  5
117
330
22
100
AcDbEntity
  8
0
  6
Continuous
 62
     7
100
AcDbLine
 10
-268.0275268554688
 20
205.404296875
 30
0.0
 11
-268.4905395507813
 21
205.404296875
 31
0.0
  0
LINE
  5
118
330
22
100
AcDbEntity
  8
0
  6
Continuous
 62
     7
100
AcDbLine
 10
-268.4905395507813
 20
205.404296875
 30
0.0
 11
-268.9479064941405
 21
208.7471771240234
 31
0.0
  0
LINE
  5
119
330
22
100
AcDbEntity
  8
0
  6
Continuous
 62
     7
100
AcDbLine
 10
-267.5645446777344
 20
205.404296875
 30
0.0
 11
-267.107177734375
 21
208.7471771240234
 31
0.0
  0
LINE
  5
11A
330
22
100
AcDbEntity
  8
0
  6
Continuous
 62
     7
100
AcDbLine
 10
-268.0275268554688
 20
205.404296875
 30
0.0
 11
-267.5645446777344
 21
205.404296875
 31
0.0
  0
LINE
  5
11B
330
22
100
AcDbEntity
  8
0
  6
Continuous
 62
     7
100
AcDbLine
 10
-272.265625
 20
209.2049102783203
 30
0.0
 11
-268.9479064941405
 21
208.7471771240234
 31
0.0
  0
LINE
  5
11C
330
22
100
AcDbEntity
  8
0
  6
Continuous
 62
     7
100
AcDbLine
 10
-391.6514587402344
 20
314.2113342285156
 30
0.0
 11
-391.6514587402344
 21
284.8446655273438
 31
0.0
  0
LINE
  5
11D
330
22
100
AcDbEntity
  8
0
  6
Continuous
 62
     7
100
AcDbLine
 10
-380.1514587402344
 20
308.0113220214844
 30
0.0
 11
-380.1514587402344
 21
284.8446655273438
 31
0.0
  0
LINE
  5
11E
330
22
100
AcDbEntity
  8
0
  6
Continuous
 62
     7
100
AcDbLine
 10
-340.6514587402344
 20
185.2779846191406
 30
0.0
 11
-340.6514587402344
 21
205.1779937744141
 31
0.0
  0
LINE
  5
11F
330
22
100
AcDbEntity
  8
0
  6
Continuous
 62
     7
100
AcDbLine
 10
-272.265625
 20
209.2049102783203
 30
0.0
 11
-272.265625
 21
209.6675567626953
 31
0.0
  0
LINE
  5
120
330
22
100
AcDbEntity
  8
0
  6
Continuous
 62
     7
100
AcDbLine
 10
-317.6514587402344
 20
187.3288879394531
 30
0.0
 11
-317.6514587402344
 21
214.9082946777344
 31
0.0
  0
LINE
  5
121
330
22
100
AcDbEntity
  8
0
  6
Continuous
 62
     7
100
AcDbLine
 10
-317.6514587402344
 20
225.6446533203125
 30
0.0
 11
-317.6514587402344
 21
235.111328125
 31
0.0
  0
LINE
  5
122
330
22
100
AcDbEntity
  8
0
  6
Continuous
 62
     7
100
AcDbLine
 10
-272.265625
 20
210.1302032470703
 30
0.0
 11
-272.265625
 21
209.6675567626953
 31
0.0
  0
LINE
  5
123
330
22
100
AcDbEntity
  8
0
  6
Continuous
 62
     7
100
AcDbLine
 10
-271.6514587402344
 20
219.3446502685547
 30
0.0
 11
-271.6514587402344
 21
238.2113189697266
 31
0.0
  0
LINE
  5
124
330
22
100
AcDbEntity
  8
0
  6
Continuous
 62
     7
100
AcDbLine
 10
-294.6514587402344
 20
196.4847717285156
 30
0.0
 11
-294.6514587402344
 21
219.3082885742188
 31
0.0
  0
LINE
  5
125
330
22
100
AcDbEntity
  8
0
  6
Continuous
 62
     7
100
AcDbLine
 10
-288.1514587402344
 20
196.4847717285156
 30
0.0
 11
-288.1514587402344
 21
219.3082885742188
 31
0.0
  0
LINE
  5
126
330
22
100
AcDbEntity
  8
0
  6
Continuous
 62
     7
100
AcDbLine
 10
-283.1514587402344
 20
203.9244232177734
 30
0.0
 11
-283.1514587402344
 21
233.2113189697266
 31
0.0
  0
LINE
  5
127
330
22
100
AcDbEntity
  8
0
  6
Continuous
 62
     7
100
AcDbLine
 10
-276.6514587402344
 20
203.9244232177734
 30
0.0
 11
-276.6514587402344
 21
233.2113189697266
 31
0.0
  0
LINE
  5
128
330
22
100
AcDbEntity
  8
0
  6
Continuous
 62
     7
100
AcDbLine
 10
-306.1514587402344
 20
191.0619049072266
 30
0.0
 11
-306.1514587402344
 21
205.255126953125
 31
0.0
  0
LINE
  5
129
330
22
100
AcDbEntity
  8
0
  6
Continuous
 62
     7
100
AcDbLine
 10
-288.1514587402344
 20
230.0446624755859
 30
0.0
 11
-288.1514587402344
 21
239.4113311767578
 31
0.0
  0
LINE
  5
12A
330
22
100
AcDbEntity
  8
0
  6
Continuous
 62
     7
100
AcDbLine
 10
-294.6514587402344
 20
230.0446624755859
 30
0.0
 11
-294.6514587402344
 21
239.4113311767578
 31
0.0
  0
LINE
  5
12B
330
22
100
AcDbEntity
  8
0
  6
Continuous
 62
     7
100
AcDbLine
 10
-299.6514587402344
 20
191.0619049072266
 30
0.0
 11
-299.6514587402344
 21
205.255126953125
 31
0.0
  0
LINE
  5
12C
330
22
100
AcDbEntity
  8
0
  6
Continuous
 62
     7
100
AcDbLine
 10
-253.6514434814453
 20
229.5179290771484
 30
0.0
 11
-253.6514434814453
 21
253.2113189697266
 31
0.0
  0
LINE
  5
12D
330
22
100
AcDbEntity
  8
0
  6
Continuous
 62
     7
100
AcDbLine
 10
-322.6514587402344
 20
213.9616241455078
 30
0.0
 11
-322.6514587402344
 21
244.3282928466797
 31
0.0
  0
LINE
  5
12E
330
22
100
AcDbEntity
  8
0
  6
Continuous
 62
     7
100
AcDbLine
 10
-322.6514587402344
 20
185.0252380371094
 30
0.0
 11
-322.6514587402344
 21
203.3282928466797
 31
0.0
  0
LINE
  5
12F
330
22
100
AcDbEntity
  8
0
  6
Continuous
 62
     7
100
AcDbLine
 10
-334.1514587402344
 20
185.2779846191406
 30
0.0
 11
-334.1514587402344
 21
205.1779937744141
 31
0.0
  0
LINE
  5
130
330
22
100
AcDbEntity
  8
0
  6
Continuous
 62
     7
100
AcDbLine
 10
-329.1514587402344
 20
185.0252380371094
 30
0.0
 11
-329.1514587402344
 21
203.3282928466797
 31
0.0
  0
LINE
  5
131
330
22
100
AcDbEntity
  8
0
  6
Continuous
 62
     7
100
AcDbLine
 10
-334.1514587402344
 20
217.6779937744141
 30
0.0
 11
-334.1514587402344
 21
237.5779876708984
 31
0.0
  0
LINE
  5
132
330
22
100
AcDbEntity
  8
0
  6
Continuous
 62
     7
100
AcDbLine
 10
-329.1514587402344
 20
213.9616241455078
 30
0.0
 11
-329.1514587402344
 21
244.3282928466797
 31
0.0
  0
LINE
  5
133
330
22
100
AcDbEntity
  8
0
  6
Continuous
 62
     7
100
AcDbLine
 10
-340.6514587402344
 20
217.6779937744141
 30
0.0
 11
-340.6514587402344
 21
237.5779876708984
 31
0.0
  0
LINE
  5
134
330
22
100
AcDbEntity
  8
0
  6
Continuous
 62
     7
100
AcDbLine
 10
-311.1514587402344
 20
312.5113220214844
 30
0.0
 11
-311.1514587402344
 21
284.8446655273438
 31
0.0
  0
LINE
  5
135
330
22
100
AcDbEntity
  8
0
  6
Continuous
 62
     7
100
AcDbLine
 10
-311.1514587402344
 20
370.9005432128906
 30
0.0
 11
-311.1514587402344
 21
343.1476745605469
 31
0.0
  0
LINE
  5
136
330
22
100
AcDbEntity
  8
0
  6
Continuous
 62
     7
100
AcDbLine
 10
-267.5780029296875
 20
352.6396179199219
 30
0.0
 11
-268.0406494140625
 21
352.6396179199219
 31
0.0
  0
LINE
  5
137
330
22
100
AcDbEntity
  8
0
  6
Continuous
 62
     7
100
AcDbLine
 10
-268.5032958984375
 20
344.1634521484375
 30
0.0
 11
-268.9610290527344
 21
347.4811706542969
 31
0.0
  0
LINE
  5
138
330
22
100
AcDbEntity
  8
0
  6
Continuous
 62
     7
100
AcDbLine
 10
-268.5032958984375
 20
344.1634521484375
 30
0.0
 11
-268.0406494140625
 21
344.1634521484375
 31
0.0
  0
LINE
  5
139
330
22
100
AcDbEntity
  8
0
  6
Continuous
 62
     7
100
AcDbLine
 10
-272.3038940429688
 20
347.9385375976563
 30
0.0
 11
-268.9610290527344
 21
347.4811706542969
 31
0.0
  0
LINE
  5
13A
330
22
100
AcDbEntity
  8
0
  6
Continuous
 62
     7
100
AcDbLine
 10
-283.1514587402344
 20
354.1315612792969
 30
0.0
 11
-283.1514587402344
 21
324.8446655273438
 31
0.0
  0
LINE
  5
13B
330
22
100
AcDbEntity
  8
0
  6
Continuous
 62
     7
100
AcDbLine
 10
-322.6514587402344
 20
303.0613098144531
 30
0.0
 11
-322.6514587402344
 21
284.8446655273438
 31
0.0
  0
LINE
  5
13C
330
22
100
AcDbEntity
  8
0
  6
Continuous
 62
     7
100
AcDbLine
 10
-340.6514587402344
 20
373.7113342285156
 30
0.0
 11
-340.6514587402344
 21
351.9446716308594
 31
0.0
  0
LINE
  5
13D
330
22
100
AcDbEntity
  8
0
  6
Continuous
 62
     7
100
AcDbLine
 10
-340.6514587402344
 20
307.927978515625
 30
0.0
 11
-340.6514587402344
 21
285.7779846191406
 31
0.0
  0
LINE
  5
13E
330
22
100
AcDbEntity
  8
0
  6
Continuous
 62
     7
100
AcDbLine
 10
-329.1514587402344
 20
373.0307312011719
 30
0.0
 11
-329.1514587402344
 21
354.7276916503906
 31
0.0
  0
LINE
  5
13F
330
22
100
AcDbEntity
  8
0
  6
Continuous
 62
     7
100
AcDbLine
 10
-329.1514587402344
 20
344.0943603515625
 30
0.0
 11
-329.1514587402344
 21
313.7276916503906
 31
0.0
  0
LINE
  5
140
330
22
100
AcDbEntity
  8
0
  6
Continuous
 62
     7
100
AcDbLine
 10
-334.1514587402344
 20
340.3779907226563
 30
0.0
 11
-334.1514587402344
 21
320.4779968261719
 31
0.0
  0
LINE
  5
141
330
22
100
AcDbEntity
  8
0
  6
Continuous
 62
     7
100
AcDbLine
 10
-242.1514434814453
 20
299.8531494140625
 30
0.0
 11
-242.1514434814453
 21
284.8446655273438
 31
0.0
  0
LINE
  5
142
330
22
100
AcDbEntity
  8
0
  6
Continuous
 62
     7
100
AcDbLine
 10
-253.6514434814453
 20
328.5380554199219
 30
0.0
 11
-253.6514434814453
 21
304.8446655273438
 31
0.0
  0
LINE
  5
143
330
22
100
AcDbEntity
  8
0
  6
Continuous
 62
     7
100
AcDbLine
 10
-272.3038940429688
 20
348.8645324707031
 30
0.0
 11
-268.9610290527344
 21
349.3218994140625
 31
0.0
  0
LINE
  5
144
330
22
100
AcDbEntity
  8
0
  6
Continuous
 62
     7
100
AcDbLine
 10
-268.5032958984375
 20
352.6396179199219
 30
0.0
 11
-268.0406494140625
 21
352.6396179199219
 31
0.0
  0
LINE
  5
145
330
22
100
AcDbEntity
  8
0
  6
Continuous
 62
     7
100
AcDbLine
 10
-268.5032958984375
 20
352.6396179199219
 30
0.0
 11
-268.9610290527344
 21
349.3218994140625
 31
0.0
  0
LINE
  5
146
330
22
100
AcDbEntity
  8
0
  6
Continuous
 62
     7
100
AcDbLine
 10
-267.5780029296875
 20
344.1634521484375
 30
0.0
 11
-268.0406494140625
 21
344.1634521484375
 31
0.0
  0
LINE
  5
147
330
22
100
AcDbEntity
  8
0
  6
Continuous
 62
     7
100
AcDbLine
 10
-235.7656860351563
 20
124.0279922485352
 30
0.0
 11
-233.7656860351563
 21
124.0279922485352
 31
0.0
  0
LINE
  5
148
330
22
100
AcDbEntity
  8
0
  6
Continuous
 62
     7
100
AcDbLine
 10
-337.7656860351563
 20
72.63327026367187
 30
0.0
 11
-283.3118591308594
 21
72.63327026367187
 31
0.0
  0
LINE
  5
149
330
22
100
AcDbEntity
  8
0
  6
Continuous
 62
     7
100
AcDbLine
 10
-282.7781372070313
 20
55.55544662475586
 30
0.0
 11
-281.2506713867188
 21
54.02799224853516
 31
0.0
  0
LINE
  5
14A
330
22
100
AcDbEntity
  8
0
  6
Continuous
 62
     7
100
AcDbLine
 10
-337.7656860351563
 20
74.02799224853516
 30
0.0
 11
-281.7656860351563
 21
74.02799224853516
 31
0.0
  0
LINE
  5
14B
330
22
100
AcDbEntity
  8
0
  6
Continuous
 62
     7
100
AcDbLine
 10
-238.7656860351563
 20
115.2959365844727
 30
0.0
 11
-284.7656860351563
 21
88.73783111572265
 31
0.0
  0
LINE
  5
14C
330
22
100
AcDbEntity
  8
0
  6
Continuous
 62
     7
100
AcDbLine
 10
-232.2656860351564
 20
115.5846176147461
 30
0.0
 11
-273.7656860351563
 21
91.62458038330077
 31
0.0
  0
LINE
  5
14D
330
22
100
AcDbEntity
  8
0
  6
Continuous
 62
     7
100
AcDbLine
 10
-443.2656860351563
 20
115.5846176147461
 30
0.0
 11
-402.2656860351562
 21
91.91325378417969
 31
0.0
  0
LINE
  5
14E
330
22
100
AcDbEntity
  8
0
  6
Continuous
 62
     7
100
AcDbLine
 10
-236.7656860351563
 20
126.0279922485352
 30
0.0
 11
-337.7656860351563
 21
126.0279922485352
 31
0.0
  0
LINE
  5
14F
330
22
100
AcDbEntity
  8
0
  6
Continuous
 62
     7
100
AcDbLine
 10
-243.7656860351563
 20
124.0279922485352
 30
0.0
 11
-337.7656860351563
 21
124.0279922485352
 31
0.0
  0
LINE
  5
150
330
22
100
AcDbEntity
  8
0
  6
Continuous
 62
     7
100
AcDbLine
 10
-235.1772003173828
 20
124.0279922485352
 30
0.0
 11
-233.2656860351563
 21
125.9395065307617
 31
0.0
  0
LINE
  5
151
330
22
100
AcDbEntity
  8
0
  6
Continuous
 62
     7
100
AcDbLine
 10
-236.1785430908203
 20
124.4408569335938
 30
0.0
 11
-233.2656860351563
 21
127.3537139892578
 31
0.0
  0
LINE
  5
152
330
22
100
AcDbEntity
  8
0
  6
Continuous
 62
     7
100
AcDbLine
 10
-236.3359527587891
 20
125.6976547241211
 30
0.0
 11
-233.3856506347656
 21
128.6479644775391
 31
0.0
  0
LINE
  5
153
330
22
100
AcDbEntity
  8
0
  6
Continuous
 62
     7
100
AcDbLine
 10
-237.4198303222656
 20
126.0279922485352
 30
0.0
 11
-234.4198303222656
 21
129.0279846191406
 31
0.0
  0
LINE
  5
154
330
22
100
AcDbEntity
  8
0
  6
Continuous
 62
     7
100
AcDbLine
 10
-238.8340454101563
 20
126.0279922485352
 30
0.0
 11
-235.8340454101564
 21
129.0279846191406
 31
0.0
  0
LINE
  5
155
330
22
100
AcDbEntity
  8
0
  6
Continuous
 62
     7
100
AcDbLine
 10
-240.2482604980469
 20
126.0279922485352
 30
0.0
 11
-237.2482604980469
 21
129.0279846191406
 31
0.0
  0
LINE
  5
156
330
22
100
AcDbEntity
  8
0
  6
Continuous
 62
     7
100
AcDbLine
 10
-241.6624755859375
 20
126.0279922485352
 30
0.0
 11
-238.6624755859375
 21
129.0279846191406
 31
0.0
  0
LINE
  5
157
330
22
100
AcDbEntity
  8
0
  6
Continuous
 62
     7
100
AcDbLine
 10
-243.0766906738281
 20
126.0279922485352
 30
0.0
 11
-240.0766906738281
 21
129.0279846191406
 31
0.0
  0
LINE
  5
158
330
22
100
AcDbEntity
  8
0
  6
Continuous
 62
     7
100
AcDbLine
 10
-244.4909057617188
 20
126.0279922485352
 30
0.0
 11
-241.4909057617188
 21
129.0279846191406
 31
0.0
  0
LINE
  5
159
330
22
100
AcDbEntity
  8
0
  6
Continuous
 62
     7
100
AcDbLine
 10
-245.9051208496094
 20
126.0279922485352
 30
0.0
 11
-242.9051208496094
 21
129.0279846191406
 31
0.0
  0
LINE
  5
15A
330
22
100
AcDbEntity
  8
0
  6
Continuous
 62
     7
100
AcDbLine
 10
-247.3193359375
 20
126.0279922485352
 30
0.0
 11
-244.3193359375
 21
129.0279846191406
 31
0.0
  0
LINE
  5
15B
330
22
100
AcDbEntity
  8
0
  6
Continuous
 62
     7
100
AcDbLine
 10
-248.7335357666016
 20
126.0279922485352
 30
0.0
 11
-245.7335357666016
 21
129.0279846191406
 31
0.0
  0
LINE
  5
15C
330
22
100
AcDbEntity
  8
0
  6
Continuous
 62
     7
100
AcDbLine
 10
-250.1477508544922
 20
126.0279922485352
 30
0.0
 11
-247.1477508544922
 21
129.0279846191406
 31
0.0
  0
LINE
  5
15D
330
22
100
AcDbEntity
  8
0
  6
Continuous
 62
     7
100
AcDbLine
 10
-251.5619659423828
 20
126.0279922485352
 30
0.0
 11
-248.5619659423828
 21
129.0279846191406
 31
0.0
  0
LINE
  5
15E
330
22
100
AcDbEntity
  8
0
  6
Continuous
 62
     7
100
AcDbLine
 10
-252.9761810302734
 20
126.0279922485352
 30
0.0
 11
-249.9761810302734
 21
129.0279846191406
 31
0.0
  0
LINE
  5
15F
330
22
100
AcDbEntity
  8
0
  6
Continuous
 62
     7
100
AcDbLine
 10
-254.3903961181641
 20
126.0279922485352
 30
0.0
 11
-251.3903961181641
 21
129.0279846191406
 31
0.0
  0
LINE
  5
160
330
22
100
AcDbEntity
  8
0
  6
Continuous
 62
     7
100
AcDbLine
 10
-255.8046112060547
 20
126.0279922485352
 30
0.0
 11
-252.8046112060547
 21
129.0279846191406
 31
0.0
  0
LINE
  5
161
330
22
100
AcDbEntity
  8
0
  6
Continuous
 62
     7
100
AcDbLine
 10
-257.2188110351563
 20
126.0279922485352
 30
0.0
 11
-254.2188262939453
 21
129.0279846191406
 31
0.0
  0
LINE
  5
162
330
22
100
AcDbEntity
  8
0
  6
Continuous
 62
     7
100
AcDbLine
 10
-258.6330261230469
 20
126.0279922485352
 30
0.0
 11
-255.6330413818359
 21
129.0279846191406
 31
0.0
  0
LINE
  5
163
330
22
100
AcDbEntity
  8
0
  6
Continuous
 62
     7
100
AcDbLine
 10
-260.0472412109375
 20
126.0279922485352
 30
0.0
 11
-257.0472412109375
 21
129.0279846191406
 31
0.0
  0
LINE
  5
164
330
22
100
AcDbEntity
  8
0
  6
Continuous
 62
     7
100
AcDbLine
 10
-261.4614562988281
 20
126.0279922485352
 30
0.0
 11
-258.4614562988281
 21
129.0279846191406
 31
0.0
  0
LINE
  5
165
330
22
100
AcDbEntity
  8
0
  6
Continuous
 62
     7
100
AcDbLine
 10
-262.8756713867188
 20
126.0279922485352
 30
0.0
 11
-259.8756713867188
 21
129.0279846191406
 31
0.0
  0
LINE
  5
166
330
22
100
AcDbEntity
  8
0
  6
Continuous
 62
     7
100
AcDbLine
 10
-264.2898864746094
 20
126.0279922485352
 30
0.0
 11
-261.2898864746094
 21
129.0279846191406
 31
0.0
  0
LINE
  5
167
330
22
100
AcDbEntity
  8
0
  6
Continuous
 62
     7
100
AcDbLine
 10
-265.7041015625
 20
126.0279922485352
 30
0.0
 11
-262.7041015625
 21
129.0279846191406
 31
0.0
  0
LINE
  5
168
330
22
100
AcDbEntity
  8
0
  6
Continuous
 62
     7
100
AcDbLine
 10
-267.1183166503906
 20
126.0279922485352
 30
0.0
 11
-264.1183166503906
 21
129.0279846191406
 31
0.0
  0
LINE
  5
169
330
22
100
AcDbEntity
  8
0
  6
Continuous
 62
     7
100
AcDbLine
 10
-268.5325317382813
 20
126.0279922485352
 30
0.0
 11
-265.5325317382813
 21
129.0279846191406
 31
0.0
  0
LINE
  5
16A
330
22
100
AcDbEntity
  8
0
  6
Continuous
 62
     7
100
AcDbLine
 10
-269.9467468261719
 20
126.0279922485352
 30
0.0
 11
-266.9467468261719
 21
129.0279846191406
 31
0.0
  0
LINE
  5
16B
330
22
100
AcDbEntity
  8
0
  6
Continuous
 62
     7
100
AcDbLine
 10
-271.3609619140625
 20
126.0279922485352
 30
0.0
 11
-268.3609619140625
 21
129.0279846191406
 31
0.0
  0
LINE
  5
16C
330
22
100
AcDbEntity
  8
0
  6
Continuous
 62
     7
100
AcDbLine
 10
-272.7751770019531
 20
126.0279922485352
 30
0.0
 11
-269.7751770019531
 21
129.0279846191406
 31
0.0
  0
LINE
  5
16D
330
22
100
AcDbEntity
  8
0
  6
Continuous
 62
     7
100
AcDbLine
 10
-274.1893920898438
 20
126.0279922485352
 30
0.0
 11
-271.1893920898438
 21
129.0279846191406
 31
0.0
  0
LINE
  5
16E
330
22
100
AcDbEntity
  8
0
  6
Continuous
 62
     7
100
AcDbLine
 10
-275.6036071777344
 20
126.0279922485352
 30
0.0
 11
-272.6036071777344
 21
129.0279846191406
 31
0.0
  0
LINE
  5
16F
330
22
100
AcDbEntity
  8
0
  6
Continuous
 62
     7
100
AcDbLine
 10
-277.017822265625
 20
126.0279922485352
 30
0.0
 11
-274.017822265625
 21
129.0279846191406
 31
0.0
  0
LINE
  5
170
330
22
100
AcDbEntity
  8
0
  6
Continuous
 62
     7
100
AcDbLine
 10
-278.4320373535156
 20
126.0279922485352
 30
0.0
 11
-275.4320373535156
 21
129.0279846191406
 31
0.0
  0
LINE
  5
171
330
22
100
AcDbEntity
  8
0
  6
Continuous
 62
     7
100
AcDbLine
 10
-279.8462524414063
 20
126.0279922485352
 30
0.0
 11
-276.8462524414063
 21
129.0279846191406
 31
0.0
  0
LINE
  5
172
330
22
100
AcDbEntity
  8
0
  6
Continuous
 62
     7
100
AcDbLine
 10
-281.2604675292969
 20
126.0279922485352
 30
0.0
 11
-278.2604675292969
 21
129.0279846191406
 31
0.0
  0
LINE
  5
173
330
22
100
AcDbEntity
  8
0
  6
Continuous
 62
     7
100
AcDbLine
 10
-282.6746826171875
 20
126.0279922485352
 30
0.0
 11
-279.6746826171875
 21
129.0279846191406
 31
0.0
  0
LINE
  5
174
330
22
100
AcDbEntity
  8
0
  6
Continuous
 62
     7
100
AcDbLine
 10
-284.0888671875
 20
126.0279922485352
 30
0.0
 11
-281.0888671875
 21
129.0279846191406
 31
0.0
  0
LINE
  5
175
330
22
100
AcDbEntity
  8
0
  6
Continuous
 62
     7
100
AcDbLine
 10
-285.5030822753906
 20
126.0279922485352
 30
0.0
 11
-282.5030822753906
 21
129.0279846191406
 31
0.0
  0
LINE
  5
176
330
22
100
AcDbEntity
  8
0
  6
Continuous
 62
     7
100
AcDbLine
 10
-286.9172973632813
 20
126.0279922485352
 30
0.0
 11
-283.9172973632813
 21
129.0279846191406
 31
0.0
  0
LINE
  5
177
330
22
100
AcDbEntity
  8
0
  6
Continuous
 62
     7
100
AcDbLine
 10
-288.3315124511719
 20
126.0279922485352
 30
0.0
 11
-285.3315124511719
 21
129.0279846191406
 31
0.0
  0
LINE
  5
178
330
22
100
AcDbEntity
  8
0
  6
Continuous
 62
     7
100
AcDbLine
 10
-289.7457275390625
 20
126.0279922485352
 30
0.0
 11
-286.7457275390625
 21
129.0279846191406
 31
0.0
  0
LINE
  5
179
330
22
100
AcDbEntity
  8
0
  6
Continuous
 62
     7
100
AcDbLine
 10
-291.1599426269532
 20
126.0279922485352
 30
0.0
 11
-288.1599426269531
 21
129.0279846191406
 31
0.0
  0
LINE
  5
17A
330
22
100
AcDbEntity
  8
0
  6
Continuous
 62
     7
100
AcDbLine
 10
-292.5741577148438
 20
126.0279922485352
 30
0.0
 11
-289.5741577148438
 21
129.0279846191406
 31
0.0
  0
LINE
  5
17B
330
22
100
AcDbEntity
  8
0
  6
Continuous
 62
     7
100
AcDbLine
 10
-293.9883728027344
 20
126.0279922485352
 30
0.0
 11
-290.9883728027344
 21
129.0279846191406
 31
0.0
  0
LINE
  5
17C
330
22
100
AcDbEntity
  8
0
  6
Continuous
 62
     7
100
AcDbLine
 10
-295.402587890625
 20
126.0279922485352
 30
0.0
 11
-292.402587890625
 21
129.0279846191406
 31
0.0
  0
LINE
  5
17D
330
22
100
AcDbEntity
  8
0
  6
Continuous
 62
     7
100
AcDbLine
 10
-296.8168029785156
 20
126.0279922485352
 30
0.0
 11
-293.8168029785156
 21
129.0279846191406
 31
0.0
  0
LINE
  5
17E
330
22
100
AcDbEntity
  8
0
  6
Continuous
 62
     7
100
AcDbLine
 10
-298.2310180664063
 20
126.0279922485352
 30
0.0
 11
-295.2310180664063
 21
129.0279846191406
 31
0.0
  0
LINE
  5
17F
330
22
100
AcDbEntity
  8
0
  6
Continuous
 62
     7
100
AcDbLine
 10
-299.6452331542969
 20
126.0279922485352
 30
0.0
 11
-296.6452331542969
 21
129.0279846191406
 31
0.0
  0
LINE
  5
180
330
22
100
AcDbEntity
  8
0
  6
Continuous
 62
     7
100
AcDbLine
 10
-301.0594482421875
 20
126.0279922485352
 30
0.0
 11
-298.0594482421875
 21
129.0279846191406
 31
0.0
  0
LINE
  5
181
330
22
100
AcDbEntity
  8
0
  6
Continuous
 62
     7
100
AcDbLine
 10
-302.4736633300781
 20
126.0279922485352
 30
0.0
 11
-299.4736633300781
 21
129.0279846191406
 31
0.0
  0
LINE
  5
182
330
22
100
AcDbEntity
  8
0
  6
Continuous
 62
     7
100
AcDbLine
 10
-303.8878784179688
 20
126.0279922485352
 30
0.0
 11
-300.8878784179688
 21
129.0279846191406
 31
0.0
  0
LINE
  5
183
330
22
100
AcDbEntity
  8
0
  6
Continuous
 62
     7
100
AcDbLine
 10
-305.3020935058594
 20
126.0279922485352
 30
0.0
 11
-302.3020935058594
 21
129.0279846191406
 31
0.0
  0
LINE
  5
184
330
22
100
AcDbEntity
  8
0
  6
Continuous
 62
     7
100
AcDbLine
 10
-306.71630859375
 20
126.0279922485352
 30
0.0
 11
-303.71630859375
 21
129.0279846191406
 31
0.0
  0
LINE
  5
185
330
22
100
AcDbEntity
  8
0
  6
Continuous
 62
     7
100
AcDbLine
 10
-308.1305236816406
 20
126.0279922485352
 30
0.0
 11
-305.1305236816406
 21
129.0279846191406
 31
0.0
  0
LINE
  5
186
330
22
100
AcDbEntity
  8
0
  6
Continuous
 62
     7
100
AcDbLine
 10
-309.5447387695313
 20
126.0279922485352
 30
0.0
 11
-306.5447387695313
 21
129.0279846191406
 31
0.0
  0
LINE
  5
187
330
22
100
AcDbEntity
  8
0
  6
Continuous
 62
     7
100
AcDbLine
 10
-310.9589538574219
 20
126.0279922485352
 30
0.0
 11
-307.9589538574219
 21
129.0279846191406
 31
0.0
  0
LINE
  5
188
330
22
100
AcDbEntity
  8
0
  6
Continuous
 62
     7
100
AcDbLine
 10
-312.3731384277344
 20
126.0279922485352
 30
0.0
 11
-309.3731384277344
 21
129.0279846191406
 31
0.0
  0
LINE
  5
189
330
22
100
AcDbEntity
  8
0
  6
Continuous
 62
     7
100
AcDbLine
 10
-313.787353515625
 20
126.0279922485352
 30
0.0
 11
-310.787353515625
 21
129.0279846191406
 31
0.0
  0
LINE
  5
18A
330
22
100
AcDbEntity
  8
0
  6
Continuous
 62
     7
100
AcDbLine
 10
-315.2015686035156
 20
126.0279922485352
 30
0.0
 11
-312.2015686035156
 21
129.0279846191406
 31
0.0
  0
LINE
  5
18B
330
22
100
AcDbEntity
  8
0
  6
Continuous
 62
     7
100
AcDbLine
 10
-365.4062194824219
 20
55.02799224853515
 30
0.0
 11
-337.7656860351563
 21
55.02799224853515
 31
0.0
  0
LINE
  5
18C
330
22
100
AcDbEntity
  8
0
  6
Continuous
 62
     7
100
AcDbLine
 10
-364.156494140625
 20
89.22179412841797
 30
0.0
 11
-337.7656860351563
 21
89.22179412841797
 31
0.0
  0
LINE
  5
18D
330
22
100
AcDbEntity
  8
0
  6
Continuous
 62
     7
100
AcDbLine
 10
-400.2656860351563
 20
54.02799224853516
 30
0.0
 11
-337.7656860351563
 21
54.02799224853516
 31
0.0
  0
LINE
  5
18E
330
22
100
AcDbEntity
  8
0
  6
Continuous
 62
     7
100
AcDbLine
 10
-402.2656860351562
 20
91.91325378417969
 30
0.0
 11
-337.7656860351563
 21
91.91325378417969
 31
0.0
  0
LINE
  5
18F
330
22
100
AcDbEntity
  8
0
  6
CENTER
 62
     7
100
AcDbLine
 10
-337.7656860351563
 20
49.69691467285156
 30
0.0
 11
-337.7656860351563
 21
139.6820983886719
 31
0.0
  0
LINE
  5
190
330
22
100
AcDbEntity
  8
0
  6
Continuous
 62
     7
100
AcDbLine
 10
-445.7656860351563
 20
125.0279922485352
 30
0.0
 11
-445.7656860351563
 21
119.9147415161133
 31
0.0
  0
LINE
  5
191
330
22
100
AcDbEntity
  8
0
  6
Continuous
 62
     7
100
AcDbLine
 10
-440.7656860351563
 20
117.0279922485352
 30
0.0
 11
-337.7656860351563
 21
117.0279922485352
 31
0.0
  0
LINE
  5
192
330
22
100
AcDbEntity
  8
0
  6
Continuous
 62
     7
100
AcDbLine
 10
-236.2656860351563
 20
124.0279922485352
 30
0.0
 11
-236.2656860351563
 21
119.6260681152344
 31
0.0
  0
LINE
  5
193
330
22
100
AcDbEntity
  8
0
  6
Continuous
 62
     7
100
AcDbLine
 10
-229.7656860351563
 20
124.0279922485352
 30
0.0
 11
-229.7656860351563
 21
119.9147415161133
 31
0.0
  0
LINE
  5
194
330
22
100
AcDbEntity
  8
0
  6
Continuous
 62
     7
100
AcDbLine
 10
-273.8323364257813
 20
112.7947692871094
 30
0.0
 11
-273.8323364257813
 21
124.0279922485352
 31
0.0
  0
LINE
  5
195
330
22
100
AcDbEntity
  8
0
  6
Continuous
 62
     7
100
AcDbLine
 10
-260.8323364257813
 20
113.017578125
 30
0.0
 11
-260.8323364257813
 21
124.0279922485352
 31
0.0
  0
LINE
  5
196
330
22
100
AcDbEntity
  8
0
  6
Continuous
 62
     7
100
AcDbLine
 10
-281.2675170898438
 20
54.56712341308594
 30
0.0
 11
-280.7283935546875
 21
54.02799224853516
 31
0.0
  0
LINE
  5
197
330
22
100
AcDbEntity
  8
0
  6
Continuous
 62
     7
100
AcDbLine
 10
-281.31884765625
 20
56.20943832397461
 30
0.0
 11
-279.1374206542969
 21
54.02799224853516
 31
0.0
  0
LINE
  5
198
330
22
100
AcDbEntity
  8
0
  6
Continuous
 62
     7
100
AcDbLine
 10
-281.3359680175781
 20
56.75687789916992
 30
0.0
 11
-278.6070861816406
 21
54.02799224853516
 31
0.0
  0
LINE
  5
199
330
22
100
AcDbEntity
  8
0
  6
Continuous
 62
     7
100
AcDbLine
 10
-281.3872985839844
 20
58.39919281005859
 30
0.0
 11
-277.140869140625
 21
54.15278625488281
 31
0.0
  0
LINE
  5
19A
330
22
100
AcDbEntity
  8
0
  6
Continuous
 62
     7
100
AcDbLine
 10
-281.4043884277344
 20
58.94662857055664
 30
0.0
 11
-276.875732421875
 21
54.41795349121093
 31
0.0
  0
LINE
  5
19B
330
22
100
AcDbEntity
  8
0
  6
Continuous
 62
     7
100
AcDbLine
 10
-281.4557189941406
 20
60.58894348144531
 30
0.0
 11
-276.2656860351563
 21
55.3989028930664
 31
0.0
  0
LINE
  5
19C
330
22
100
AcDbEntity
  8
0
  6
Continuous
 62
     7
100
AcDbLine
 10
-281.4728393554688
 20
61.13638305664063
 30
0.0
 11
-276.2656860351563
 21
55.92923355102539
 31
0.0
  0
LINE
  5
19D
330
22
100
AcDbEntity
  8
0
  6
Continuous
 62
     7
100
AcDbLine
 10
-281.5241394042969
 20
62.7786979675293
 30
0.0
 11
-276.2656860351563
 21
57.52022552490235
 31
0.0
  0
LINE
  5
19E
330
22
100
AcDbEntity
  8
0
  6
Continuous
 62
     7
100
AcDbLine
 10
-281.541259765625
 20
63.32613754272461
 30
0.0
 11
-276.2656860351563
 21
58.05055618286132
 31
0.0
  0
LINE
  5
19F
330
22
100
AcDbEntity
  8
0
  6
Continuous
 62
     7
100
AcDbLine
 10
-281.5925903320313
 20
64.96845245361328
 30
0.0
 11
-276.2656860351563
 21
59.64154434204102
 31
0.0
  0
LINE
  5
1A0
330
22
100
AcDbEntity
  8
0
  6
Continuous
 62
     7
100
AcDbLine
 10
-281.6096801757813
 20
65.51589202880859
 30
0.0
 11
-276.2656860351563
 21
60.171875
 31
0.0
  0
LINE
  5
1A1
330
22
100
AcDbEntity
  8
0
  6
Continuous
 62
     7
100
AcDbLine
 10
-281.6610107421875
 20
67.158203125
 30
0.0
 11
-276.2656860351563
 21
61.76286697387695
 31
0.0
  0
LINE
  5
1A2
330
22
100
AcDbEntity
  8
0
  6
Continuous
 62
     7
100
AcDbLine
 10
-281.6781311035157
 20
67.70564270019531
 30
0.0
 11
-276.2656860351563
 21
62.29319763183593
 31
0.0
  0
LINE
  5
1A3
330
22
100
AcDbEntity
  8
0
  6
Continuous
 62
     7
100
AcDbLine
 10
-281.7294616699219
 20
69.34796142578125
 30
0.0
 11
-276.2656860351563
 21
63.88418579101563
 31
0.0
  0
LINE
  5
1A4
330
22
100
AcDbEntity
  8
0
  6
Continuous
 62
     7
100
AcDbLine
 10
-281.7465515136719
 20
69.89540100097656
 30
0.0
 11
-276.2656860351563
 21
64.41451263427734
 31
0.0
  0
LINE
  5
1A5
330
22
100
AcDbEntity
  8
0
  6
Continuous
 62
     7
100
AcDbLine
 10
-281.7978820800781
 20
71.53771209716797
 30
0.0
 11
-276.2656860351563
 21
66.00550842285156
 31
0.0
  0
LINE
  5
1A6
330
22
100
AcDbEntity
  8
0
  6
Continuous
 62
     7
100
AcDbLine
 10
-281.8150024414063
 20
72.08515167236328
 30
0.0
 11
-276.2656860351563
 21
66.53583526611328
 31
0.0
  0
LINE
  5
1A7
330
22
100
AcDbEntity
  8
0
  6
Continuous
 62
     7
100
AcDbLine
 10
-281.8663330078125
 20
73.72746276855469
 30
0.0
 11
-276.2656860351563
 21
68.12682342529297
 31
0.0
  0
LINE
  5
1A8
330
22
100
AcDbEntity
  8
0
  6
Continuous
 62
     7
100
AcDbLine
 10
-281.6601867675781
 20
74.05166625976562
 30
0.0
 11
-276.2656860351563
 21
68.65715789794922
 31
0.0
  0
LINE
  5
1A9
330
22
100
AcDbEntity
  8
0
  6
Continuous
 62
     7
100
AcDbLine
 10
-281.2656860351563
 20
75.2481460571289
 30
0.0
 11
-276.2656860351563
 21
70.2481460571289
 31
0.0
  0
LINE
  5
1AA
330
22
100
AcDbEntity
  8
0
  6
Continuous
 62
     7
100
AcDbLine
 10
-281.2656860351563
 20
75.77848052978516
 30
0.0
 11
-276.2656860351563
 21
70.77848052978516
 31
0.0
  0
LINE
  5
1AB
330
22
100
AcDbEntity
  8
0
  6
Continuous
 62
     7
100
AcDbLine
 10
-281.2656860351563
 20
77.36946868896485
 30
0.0
 11
-276.2656860351563
 21
72.36946868896485
 31
0.0
  0
LINE
  5
1AC
330
22
100
AcDbEntity
  8
0
  6
Continuous
 62
     7
100
AcDbLine
 10
-281.2656860351563
 20
77.89979553222656
 30
0.0
 11
-276.2656860351563
 21
72.89979553222656
 31
0.0
  0
LINE
  5
1AD
330
22
100
AcDbEntity
  8
0
  6
Continuous
 62
     7
100
AcDbLine
 10
-281.2656860351563
 20
79.49079132080078
 30
0.0
 11
-276.2656860351563
 21
74.49079132080078
 31
0.0
  0
LINE
  5
1AE
330
22
100
AcDbEntity
  8
0
  6
Continuous
 62
     7
100
AcDbLine
 10
-281.2656860351563
 20
80.0211181640625
 30
0.0
 11
-276.2656860351563
 21
75.0211181640625
 31
0.0
  0
LINE
  5
1AF
330
22
100
AcDbEntity
  8
0
  6
Continuous
 62
     7
100
AcDbLine
 10
-281.2656860351563
 20
81.61210632324218
 30
0.0
 11
-276.2656860351563
 21
76.61210632324219
 31
0.0
  0
LINE
  5
1B0
330
22
100
AcDbEntity
  8
0
  6
Continuous
 62
     7
100
AcDbLine
 10
-281.2656860351563
 20
82.14244079589844
 30
0.0
 11
-276.2656860351563
 21
77.14244079589843
 31
0.0
  0
LINE
  5
1B1
330
22
100
AcDbEntity
  8
0
  6
Continuous
 62
     7
100
AcDbLine
 10
-285.2656860351563
 20
87.73342895507813
 30
0.0
 11
-283.5602416992188
 21
86.02799224853516
 31
0.0
  0
LINE
  5
1B2
330
22
100
AcDbEntity
  8
0
  6
Continuous
 62
     7
100
AcDbLine
 10
-316.6157836914063
 20
126.0279922485352
 30
0.0
 11
-313.6157836914063
 21
129.0279846191406
 31
0.0
  0
LINE
  5
1B3
330
22
100
AcDbEntity
  8
0
  6
Continuous
 62
     7
100
AcDbLine
 10
-318.0299987792969
 20
126.0279922485352
 30
0.0
 11
-315.0299987792969
 21
129.0279846191406
 31
0.0
  0
LINE
  5
1B4
330
22
100
AcDbEntity
  8
0
  6
Continuous
 62
     7
100
AcDbLine
 10
-319.4442138671875
 20
126.0279922485352
 30
0.0
 11
-316.4442138671875
 21
129.0279846191406
 31
0.0
  0
LINE
  5
1B5
330
22
100
AcDbEntity
  8
0
  6
Continuous
 62
     7
100
AcDbLine
 10
-320.8584289550781
 20
126.0279922485352
 30
0.0
 11
-317.8584289550781
 21
129.0279846191406
 31
0.0
  0
LINE
  5
1B6
330
22
100
AcDbEntity
  8
0
  6
Continuous
 62
     7
100
AcDbLine
 10
-322.2726440429688
 20
126.0279922485352
 30
0.0
 11
-319.2726440429688
 21
129.0279846191406
 31
0.0
  0
LINE
  5
1B7
330
22
100
AcDbEntity
  8
0
  6
Continuous
 62
     7
100
AcDbLine
 10
-323.6868591308594
 20
126.0279922485352
 30
0.0
 11
-320.6868591308594
 21
129.0279846191406
 31
0.0
  0
LINE
  5
1B8
330
22
100
AcDbEntity
  8
0
  6
Continuous
 62
     7
100
AcDbLine
 10
-325.10107421875
 20
126.0279922485352
 30
0.0
 11
-322.10107421875
 21
129.0279846191406
 31
0.0
  0
LINE
  5
1B9
330
22
100
AcDbEntity
  8
0
  6
Continuous
 62
     7
100
AcDbLine
 10
-326.5152893066406
 20
126.0279922485352
 30
0.0
 11
-323.5152893066406
 21
129.0279846191406
 31
0.0
  0
LINE
  5
1BA
330
22
100
AcDbEntity
  8
0
  6
Continuous
 62
     7
100
AcDbLine
 10
-327.9295043945313
 20
126.0279922485352
 30
0.0
 11
-324.9295043945313
 21
129.0279846191406
 31
0.0
  0
LINE
  5
1BB
330
22
100
AcDbEntity
  8
0
  6
Continuous
 62
     7
100
AcDbLine
 10
-329.3437194824219
 20
126.0279922485352
 30
0.0
 11
-326.3437194824219
 21
129.0279846191406
 31
0.0
  0
LINE
  5
1BC
330
22
100
AcDbEntity
  8
0
  6
Continuous
 62
     7
100
AcDbLine
 10
-330.7579345703125
 20
126.0279922485352
 30
0.0
 11
-327.7579345703125
 21
129.0279846191406
 31
0.0
  0
LINE
  5
1BD
330
22
100
AcDbEntity
  8
0
  6
Continuous
 62
     7
100
AcDbLine
 10
-332.1721496582031
 20
126.0279922485352
 30
0.0
 11
-329.1721496582031
 21
129.0279846191406
 31
0.0
  0
LINE
  5
1BE
330
22
100
AcDbEntity
  8
0
  6
Continuous
 62
     7
100
AcDbLine
 10
-333.5863647460938
 20
126.0279922485352
 30
0.0
 11
-330.5863647460938
 21
129.0279846191406
 31
0.0
  0
LINE
  5
1BF
330
22
100
AcDbEntity
  8
0
  6
Continuous
 62
     7
100
AcDbLine
 10
-335.0005798339844
 20
126.0279922485352
 30
0.0
 11
-332.0005798339844
 21
129.0279846191406
 31
0.0
  0
LINE
  5
1C0
330
22
100
AcDbEntity
  8
0
  6
Continuous
 62
     7
100
AcDbLine
 10
-336.414794921875
 20
126.0279922485352
 30
0.0
 11
-333.414794921875
 21
129.0279846191406
 31
0.0
  0
LINE
  5
1C1
330
22
100
AcDbEntity
  8
0
  6
Continuous
 62
     7
100
AcDbLine
 10
-337.7656860351563
 20
126.09130859375
 30
0.0
 11
-334.8290100097656
 21
129.0279846191406
 31
0.0
  0
LINE
  5
1C2
330
22
100
AcDbEntity
  8
0
  6
Continuous
 62
     7
100
AcDbLine
 10
-337.7656860351563
 20
127.5055236816406
 30
0.0
 11
-336.2432250976563
 21
129.0279846191406
 31
0.0
  0
LINE
  5
1C3
330
22
100
AcDbEntity
  8
0
  6
Continuous
 62
     7
100
AcDbLine
 10
-337.7656860351563
 20
128.9197387695313
 30
0.0
 11
-337.6574096679688
 21
129.0279846191406
 31
0.0
  0
LINE
  5
1C4
330
22
100
AcDbEntity
  8
0
  6
Continuous
 62
     7
100
AcDbLine
 10
-281.2656860351563
 20
83.73342895507812
 30
0.0
 11
-276.2656860351563
 21
78.73342895507812
 31
0.0
  0
LINE
  5
1C5
330
22
100
AcDbEntity
  8
0
  6
Continuous
 62
     7
100
AcDbLine
 10
-285.1977844238281
 20
88.19586181640625
 30
0.0
 11
-282.9752502441406
 21
85.97331237792969
 31
0.0
  0
LINE
  5
1C6
330
22
100
AcDbEntity
  8
0
  6
Continuous
 62
     7
100
AcDbLine
 10
-281.3194580078125
 20
84.31754302978516
 30
0.0
 11
-276.2656860351563
 21
79.26375579833984
 31
0.0
  0
LINE
  5
1C7
330
22
100
AcDbEntity
  8
0
  6
Continuous
 62
     7
100
AcDbLine
 10
-371.5155334472656
 20
54.02799224853516
 30
0.0
 11
-371.5155334472656
 21
90.60795593261721
 31
0.0
  0
LINE
  5
1C8
330
22
100
AcDbEntity
  8
0
  6
Continuous
 62
     7
100
AcDbLine
 10
-365.8026733398438
 20
54.02799224853516
 30
0.0
 11
-365.8026733398438
 21
89.22179412841797
 31
0.0
  0
LINE
  5
1C9
330
22
100
AcDbEntity
  8
0
  6
Continuous
 62
     7
100
AcDbLine
 10
-402.2656860351562
 20
55.02799224853515
 30
0.0
 11
-402.2656860351562
 21
91.78115844726564
 31
0.0
  0
LINE
  5
1CA
330
22
100
AcDbEntity
  8
0
  6
Continuous
 62
     7
100
AcDbLine
 10
-400.2656860351563
 20
54.02799224853516
 30
0.0
 11
-400.2656860351563
 21
88.65493774414062
 31
0.0
  0
LINE
  5
1CB
330
22
100
AcDbEntity
  8
0
  6
Continuous
 62
     7
100
AcDbLine
 10
-373.54345703125
 20
89.22179412841797
 30
0.0
 11
-399.4342956542969
 21
89.22179412841797
 31
0.0
  0
LINE
  5
1CC
330
22
100
AcDbEntity
  8
0
  6
Continuous
 62
     7
100
AcDbLine
 10
-400.2656860351563
 20
54.02799224853516
 30
0.0
 11
-401.2656860351563
 21
54.02799224853516
 31
0.0
  0
LINE
  5
1CD
330
22
100
AcDbEntity
  8
0
  6
Continuous
 62
     7
100
AcDbLine
 10
-401.2656860351563
 20
54.02799224853516
 30
0.0
 11
-402.2656860351562
 21
55.02799224853515
 31
0.0
  0
LINE
  5
1CE
330
22
100
AcDbEntity
  8
0
  6
Continuous
 62
     7
100
AcDbLine
 10
-398.4894409179688
 20
55.02799224853515
 30
0.0
 11
-372.0110168457031
 21
55.02799224853515
 31
0.0
  0
LINE
  5
1CF
330
22
100
AcDbEntity
  8
0
  6
Continuous
 62
     7
100
AcDbLine
 10
-284.3745727539063
 20
88.96363830566405
 30
0.0
 11
-276.2656860351563
 21
80.85475158691407
 31
0.0
  0
LINE
  5
1D0
330
22
100
AcDbEntity
  8
0
  6
Continuous
 62
     7
100
AcDbLine
 10
-284.0383605957031
 20
89.15775299072265
 30
0.0
 11
-276.2656860351563
 21
81.38507843017578
 31
0.0
  0
LINE
  5
1D1
330
22
100
AcDbEntity
  8
0
  6
Continuous
 62
     7
100
AcDbLine
 10
-283.0296936035156
 20
89.74009704589844
 30
0.0
 11
-276.2656860351563
 21
82.97606658935547
 31
0.0
  0
LINE
  5
1D2
330
22
100
AcDbEntity
  8
0
  6
Continuous
 62
     7
100
AcDbLine
 10
-282.6934814453125
 20
89.9342041015625
 30
0.0
 11
-276.2656860351563
 21
83.50640106201172
 31
0.0
  0
LINE
  5
1D3
330
22
100
AcDbEntity
  8
0
  6
Continuous
 62
     7
100
AcDbLine
 10
-281.6848449707031
 20
90.51654815673828
 30
0.0
 11
-276.2656860351563
 21
85.0973892211914
 31
0.0
  0
LINE
  5
1D4
330
22
100
AcDbEntity
  8
0
  6
Continuous
 62
     7
100
AcDbLine
 10
-281.3486328125
 20
90.71066284179687
 30
0.0
 11
-276.2656860351563
 21
85.62771606445313
 31
0.0
  0
LINE
  5
1D5
330
22
100
AcDbEntity
  8
0
  6
Continuous
 62
     7
100
AcDbLine
 10
-452.7656860351562
 20
128.0279846191406
 30
0.0
 11
-452.7656860351562
 21
126.0279922485352
 31
0.0
  0
LINE
  5
1D6
330
22
100
AcDbEntity
  8
0
  6
Continuous
 62
     7
100
AcDbLine
 10
-285.1317138671875
 20
88.73783111572265
 30
0.0
 11
-337.7656860351563
 21
88.73783111572265
 31
0.0
  0
LINE
  5
1D7
330
22
100
AcDbEntity
  8
0
  6
Continuous
 62
     7
100
AcDbLine
 10
-284.2656860351563
 20
86.02799224853516
 30
0.0
 11
-337.7656860351563
 21
86.02799224853516
 31
0.0
  0
LINE
  5
1D8
330
22
100
AcDbEntity
  8
0
  6
Continuous
 62
     7
100
AcDbLine
 10
-276.2656860351563
 20
55.02799224853515
 30
0.0
 11
-276.2656860351563
 21
87.29444885253906
 31
0.0
  0
LINE
  5
1D9
330
22
100
AcDbEntity
  8
0
  6
Continuous
 62
     7
100
AcDbLine
 10
-281.2656860351563
 20
74.52799224853515
 30
0.0
 11
-281.2656860351563
 21
84.02799224853515
 31
0.0
  0
LINE
  5
1DA
330
22
100
AcDbEntity
  8
0
  6
Continuous
 62
     7
100
AcDbLine
 10
-337.7656860351563
 20
55.55544662475586
 30
0.0
 11
-282.7781372070313
 21
55.55544662475586
 31
0.0
  0
LINE
  5
1DB
330
22
100
AcDbEntity
  8
0
  6
Continuous
 62
     7
100
AcDbLine
 10
-280.3399658203125
 20
91.29300689697265
 30
0.0
 11
-276.2656860351563
 21
87.21871185302735
 31
0.0
  0
LINE
  5
1DC
330
22
100
AcDbEntity
  8
0
  6
Continuous
 62
     7
100
AcDbLine
 10
-280.0037536621094
 20
91.48712158203123
 30
0.0
 11
-276.2256469726563
 21
87.70900726318359
 31
0.0
  0
LINE
  5
1DD
330
22
100
AcDbEntity
  8
0
  6
Continuous
 62
     7
100
AcDbLine
 10
-278.9951171875
 20
92.06946563720704
 30
0.0
 11
-275.9411010742188
 21
89.01544189453124
 31
0.0
  0
LINE
  5
1DE
330
22
100
AcDbEntity
  8
0
  6
Continuous
 62
     7
100
AcDbLine
 10
-278.6589050292969
 20
92.26358032226563
 30
0.0
 11
-275.7887573242188
 21
89.39344024658202
 31
0.0
  0
LINE
  5
1DF
330
22
100
AcDbEntity
  8
0
  6
Continuous
 62
     7
100
AcDbLine
 10
-277.6502380371094
 20
92.84592437744141
 30
0.0
 11
-275.1774597167969
 21
90.37313842773437
 31
0.0
  0
LINE
  5
1E0
330
22
100
AcDbEntity
  8
0
  6
Continuous
 62
     7
100
AcDbLine
 10
-277.3140258789063
 20
93.04003906250001
 30
0.0
 11
-274.9361877441406
 21
90.66217803955078
 31
0.0
  0
LINE
  5
1E1
330
22
100
AcDbEntity
  8
0
  6
Continuous
 62
     7
100
AcDbLine
 10
-276.3053894042969
 20
93.62237548828124
 30
0.0
 11
-274.0912475585938
 21
91.40824127197266
 31
0.0
  0
LINE
  5
1E2
330
22
100
AcDbEntity
  8
0
  6
Continuous
 62
     7
100
AcDbLine
 10
-275.9691772460938
 20
93.81649017333984
 30
0.0
 11
-273.7728576660156
 21
91.6201629638672
 31
0.0
  0
LINE
  5
1E3
330
22
100
AcDbEntity
  8
0
  6
Continuous
 62
     7
100
AcDbLine
 10
-274.9605102539063
 20
94.39883422851563
 30
0.0
 11
-272.7643737792969
 21
92.2026824951172
 31
0.0
  0
LINE
  5
1E4
330
22
100
AcDbEntity
  8
0
  6
Continuous
 62
     7
100
AcDbLine
 10
-274.6242980957031
 20
94.59294891357421
 30
0.0
 11
-272.4281616210938
 21
92.39679718017578
 31
0.0
  0
LINE
  5
1E5
330
22
100
AcDbEntity
  8
0
  6
Continuous
 62
     7
100
AcDbLine
 10
-273.6156616210938
 20
95.17529296875
 30
0.0
 11
-271.4194946289063
 21
92.97914123535155
 31
0.0
  0
LINE
  5
1E6
330
22
100
AcDbEntity
  8
0
  6
Continuous
 62
     7
100
AcDbLine
 10
-273.2794494628906
 20
95.3694076538086
 30
0.0
 11
-271.0832824707031
 21
93.17325592041015
 31
0.0
  0
LINE
  5
1E7
330
22
100
AcDbEntity
  8
0
  6
Continuous
 62
     7
100
AcDbLine
 10
-272.2708129882813
 20
95.95175170898437
 30
0.0
 11
-270.0746459960938
 21
93.75559997558594
 31
0.0
  0
LINE
  5
1E8
330
22
100
AcDbEntity
  8
0
  6
Continuous
 62
     7
100
AcDbLine
 10
-271.9345703125
 20
96.14586639404295
 30
0.0
 11
-269.7384338378906
 21
93.94971466064452
 31
0.0
  0
LINE
  5
1E9
330
22
100
AcDbEntity
  8
0
  6
Continuous
 62
     7
100
AcDbLine
 10
-270.9259338378906
 20
96.72821044921876
 30
0.0
 11
-268.7297973632813
 21
94.53205871582031
 31
0.0
  0
LINE
  5
1EA
330
22
100
AcDbEntity
  8
0
  6
Continuous
 62
     7
100
AcDbLine
 10
-270.5897216796875
 20
96.92232513427734
 30
0.0
 11
-268.3935546875
 21
94.72617340087891
 31
0.0
  0
LINE
  5
1EB
330
22
100
AcDbEntity
  8
0
  6
Continuous
 62
     7
100
AcDbLine
 10
-269.5810852050781
 20
97.5046615600586
 30
0.0
 11
-267.3849182128906
 21
95.30850982666015
 31
0.0
  0
LINE
  5
1EC
330
22
100
AcDbEntity
  8
0
  6
Continuous
 62
     7
100
AcDbLine
 10
-269.2448425292969
 20
97.69877624511721
 30
0.0
 11
-267.0487060546875
 21
95.50262451171876
 31
0.0
  0
LINE
  5
1ED
330
22
100
AcDbEntity
  8
0
  6
Continuous
 62
     7
100
AcDbLine
 10
-268.2362060546875
 20
98.28112030029295
 30
0.0
 11
-266.0400695800781
 21
96.08496856689452
 31
0.0
  0
LINE
  5
1EE
330
22
100
AcDbEntity
  8
0
  6
Continuous
 62
     7
100
AcDbLine
 10
-267.8999938964844
 20
98.47523498535156
 30
0.0
 11
-265.7038269042969
 21
96.27908325195313
 31
0.0
  0
LINE
  5
1EF
330
22
100
AcDbEntity
  8
0
  6
Continuous
 62
     7
100
AcDbLine
 10
-266.891357421875
 20
99.05757904052734
 30
0.0
 11
-264.6951904296875
 21
96.86142730712893
 31
0.0
  0
LINE
  5
1F0
330
22
100
AcDbEntity
  8
0
  6
Continuous
 62
     7
100
AcDbLine
 10
-266.5551147460938
 20
99.25169372558594
 30
0.0
 11
-264.3589782714844
 21
97.05554199218751
 31
0.0
  0
LINE
  5
1F1
330
22
100
AcDbEntity
  8
0
  6
Continuous
 62
     7
100
AcDbLine
 10
-265.5464782714844
 20
99.83403778076173
 30
0.0
 11
-263.350341796875
 21
97.63788604736328
 31
0.0
  0
LINE
  5
1F2
330
22
100
AcDbEntity
  8
0
  6
Continuous
 62
     7
100
AcDbLine
 10
-265.2102661132813
 20
100.0281524658203
 30
0.0
 11
-263.0140991210938
 21
97.83200073242188
 31
0.0
  0
LINE
  5
1F3
330
22
100
AcDbEntity
  8
0
  6
Continuous
 62
     7
100
AcDbLine
 10
-264.2016296386719
 20
100.6104965209961
 30
0.0
 11
-262.0054626464844
 21
98.41434478759765
 31
0.0
  0
LINE
  5
1F4
330
22
100
AcDbEntity
  8
0
  6
Continuous
 62
     7
100
AcDbLine
 10
-263.8654174804688
 20
100.8046112060547
 30
0.0
 11
-261.6692504882813
 21
98.60845184326173
 31
0.0
  0
LINE
  5
1F5
330
22
100
AcDbEntity
  8
0
  6
Continuous
 62
     7
100
AcDbLine
 10
-262.8567504882813
 20
101.3869476318359
 30
0.0
 11
-260.6606140136719
 21
99.1907958984375
 31
0.0
  0
LINE
  5
1F6
330
22
100
AcDbEntity
  8
0
  6
Continuous
 62
     7
100
AcDbLine
 10
-262.5205383300781
 20
101.5810623168945
 30
0.0
 11
-260.3244018554688
 21
99.38491058349608
 31
0.0
  0
LINE
  5
1F7
330
22
100
AcDbEntity
  8
0
  6
Continuous
 62
     7
100
AcDbLine
 10
-261.5119018554688
 20
102.1634063720703
 30
0.0
 11
-259.3157348632813
 21
99.96725463867187
 31
0.0
  0
LINE
  5
1F8
330
22
100
AcDbEntity
  8
0
  6
Continuous
 62
     7
100
AcDbLine
 10
-261.1756896972656
 20
102.3575210571289
 30
0.0
 11
-258.9795227050781
 21
100.1613693237305
 31
0.0
  0
LINE
  5
1F9
330
22
100
AcDbEntity
  8
0
  6
Continuous
 62
     7
100
AcDbLine
 10
-260.1670227050781
 20
102.9398651123047
 30
0.0
 11
-257.9708862304688
 21
100.7437133789063
 31
0.0
  0
LINE
  5
1FA
330
22
100
AcDbEntity
  8
0
  6
Continuous
 62
     7
100
AcDbLine
 10
-259.830810546875
 20
103.1339797973633
 30
0.0
 11
-257.6346740722656
 21
100.9378280639648
 31
0.0
  0
LINE
  5
1FB
330
22
100
AcDbEntity
  8
0
  6
Continuous
 62
     7
100
AcDbLine
 10
-258.8221740722655
 20
103.7163238525391
 30
0.0
 11
-256.6260070800781
 21
101.5201721191406
 31
0.0
  0
LINE
  5
1FC
330
22
100
AcDbEntity
  8
0
  6
Continuous
 62
     7
100
AcDbLine
 10
-258.4859619140625
 20
103.9104385375977
 30
0.0
 11
-256.289794921875
 21
101.7142868041992
 31
0.0
  0
LINE
  5
1FD
330
22
100
AcDbEntity
  8
0
  6
Continuous
 62
     7
100
AcDbLine
 10
-257.477294921875
 20
104.4927825927734
 30
0.0
 11
-255.2811431884766
 21
102.2966232299805
 31
0.0
  0
LINE
  5
1FE
330
22
100
AcDbEntity
  8
0
  6
Continuous
 62
     7
100
AcDbLine
 10
-257.1410827636719
 20
104.6868896484375
 30
0.0
 11
-254.9449310302734
 21
102.4907379150391
 31
0.0
  0
LINE
  5
1FF
330
22
100
AcDbEntity
  8
0
  6
Continuous
 62
     7
100
AcDbLine
 10
-256.1324462890625
 20
105.2692337036133
 30
0.0
 11
-253.9362945556641
 21
103.0730819702148
 31
0.0
  0
LINE
  5
200
330
22
100
AcDbEntity
  8
0
  6
Continuous
 62
     7
100
AcDbLine
 10
-255.7962188720703
 20
105.4633483886719
 30
0.0
 11
-253.6000671386719
 21
103.2671966552734
 31
0.0
  0
LINE
  5
201
330
22
100
AcDbEntity
  8
0
  6
Continuous
 62
     7
100
AcDbLine
 10
-254.7875823974609
 20
106.0456924438477
 30
0.0
 11
-252.5914306640625
 21
103.8495407104492
 31
0.0
  0
LINE
  5
202
330
22
100
AcDbEntity
  8
0
  6
Continuous
 62
     7
100
AcDbLine
 10
-254.4513549804688
 20
106.2398071289063
 30
0.0
 11
-252.2552032470703
 21
104.0436553955078
 31
0.0
  0
LINE
  5
203
330
22
100
AcDbEntity
  8
0
  6
Continuous
 62
     7
100
AcDbLine
 10
-253.4427185058594
 20
106.822151184082
 30
0.0
 11
-251.2465667724609
 21
104.6259994506836
 31
0.0
  0
LINE
  5
204
330
22
100
AcDbEntity
  8
0
  6
Continuous
 62
     7
100
AcDbLine
 10
-253.1064910888672
 20
107.0162658691406
 30
0.0
 11
-250.9103393554688
 21
104.8201141357422
 31
0.0
  0
LINE
  5
205
330
22
100
AcDbEntity
  8
0
  6
Continuous
 62
     7
100
AcDbLine
 10
-252.0978546142578
 20
107.5986099243164
 30
0.0
 11
-249.9017028808594
 21
105.402458190918
 31
0.0
  0
LINE
  5
206
330
22
100
AcDbEntity
  8
0
  6
Continuous
 62
     7
100
AcDbLine
 10
-251.7616271972656
 20
107.792724609375
 30
0.0
 11
-249.5654754638672
 21
105.5965728759766
 31
0.0
  0
LINE
  5
207
330
22
100
AcDbEntity
  8
0
  6
Continuous
 62
     7
100
AcDbLine
 10
-250.7529907226563
 20
108.3750610351563
 30
0.0
 11
-248.5568389892578
 21
106.1789093017578
 31
0.0
  0
LINE
  5
208
330
22
100
AcDbEntity
  8
0
  6
Continuous
 62
     7
100
AcDbLine
 10
-250.4167785644531
 20
108.5691757202148
 30
0.0
 11
-248.2206115722656
 21
106.3730239868164
 31
0.0
  0
LINE
  5
209
330
22
100
AcDbEntity
  8
0
  6
Continuous
 62
     7
100
AcDbLine
 10
-249.4081268310547
 20
109.1515197753906
 30
0.0
 11
-247.2119750976563
 21
106.9553680419922
 31
0.0
  0
LINE
  5
20A
330
22
100
AcDbEntity
  8
0
  6
Continuous
 62
     7
100
AcDbLine
 10
-249.0719146728516
 20
109.3456344604492
 30
0.0
 11
-246.8757629394531
 21
107.1494827270508
 31
0.0
  0
LINE
  5
20B
330
22
100
AcDbEntity
  8
0
  6
Continuous
 62
     7
100
AcDbLine
 10
-248.0632629394531
 20
109.927978515625
 30
0.0
 11
-245.8671112060547
 21
107.7318267822266
 31
0.0
  0
LINE
  5
20C
330
22
100
AcDbEntity
  8
0
  6
Continuous
 62
     7
100
AcDbLine
 10
-247.72705078125
 20
110.1220932006836
 30
0.0
 11
-245.5308990478516
 21
107.9259414672852
 31
0.0
  0
LINE
  5
20D
330
22
100
AcDbEntity
  8
0
  6
Continuous
 62
     7
100
AcDbLine
 10
-246.7183990478516
 20
110.7044372558594
 30
0.0
 11
-244.5222473144531
 21
108.5082855224609
 31
0.0
  0
LINE
  5
20E
330
22
100
AcDbEntity
  8
0
  6
Continuous
 62
     7
100
AcDbLine
 10
-246.3821868896484
 20
110.898551940918
 30
0.0
 11
-244.18603515625
 21
108.7024002075195
 31
0.0
  0
LINE
  5
20F
330
22
100
AcDbEntity
  8
0
  6
Continuous
 62
     7
100
AcDbLine
 10
-245.37353515625
 20
111.4808959960938
 30
0.0
 11
-243.1773834228516
 21
109.2847442626953
 31
0.0
  0
LINE
  5
210
330
22
100
AcDbEntity
  8
0
  6
Continuous
 62
     7
100
AcDbLine
 10
-245.0373229980469
 20
111.6750106811523
 30
0.0
 11
-242.8411712646484
 21
109.4788589477539
 31
0.0
  0
LINE
  5
211
330
22
100
AcDbEntity
  8
0
  6
Continuous
 62
     7
100
AcDbLine
 10
-244.0286712646484
 20
112.2573471069336
 30
0.0
 11
-241.83251953125
 21
110.0611953735352
 31
0.0
  0
LINE
  5
212
330
22
100
AcDbEntity
  8
0
  6
Continuous
 62
     7
100
AcDbLine
 10
-243.6924591064453
 20
112.4514617919922
 30
0.0
 11
-241.4963073730469
 21
110.2553100585938
 31
0.0
  0
LINE
  5
213
330
22
100
AcDbEntity
  8
0
  6
Continuous
 62
     7
100
AcDbLine
 10
-242.6838073730469
 20
113.033805847168
 30
0.0
 11
-240.4876556396484
 21
110.8376541137695
 31
0.0
  0
LINE
  5
214
330
22
100
AcDbEntity
  8
0
  6
Continuous
 62
     7
100
AcDbLine
 10
-242.3475952148439
 20
113.2279205322266
 30
0.0
 11
-240.1514434814453
 21
111.0317687988281
 31
0.0
  0
LINE
  5
215
330
22
100
AcDbEntity
  8
0
  6
Continuous
 62
     7
100
AcDbLine
 10
-241.3389434814453
 20
113.8102645874023
 30
0.0
 11
-239.1427917480469
 21
111.6141128540039
 31
0.0
  0
LINE
  5
216
330
22
100
AcDbEntity
  8
0
  6
Continuous
 62
     7
100
AcDbLine
 10
-241.0027313232422
 20
114.0043792724609
 30
0.0
 11
-238.8065795898438
 21
111.8082275390625
 31
0.0
  0
LINE
  5
217
330
22
100
AcDbEntity
  8
0
  6
Continuous
 62
     7
100
AcDbLine
 10
-239.9940795898438
 20
114.5867233276367
 30
0.0
 11
-237.7979278564453
 21
112.3905715942383
 31
0.0
  0
LINE
  5
218
330
22
100
AcDbEntity
  8
0
  6
Continuous
 62
     7
100
AcDbLine
 10
-239.6578674316406
 20
114.7808380126953
 30
0.0
 11
-237.4617156982422
 21
112.5846862792969
 31
0.0
  0
LINE
  5
219
330
22
100
AcDbEntity
  8
0
  6
Continuous
 62
     7
100
AcDbLine
 10
-238.6524200439453
 20
115.3663711547852
 30
0.0
 11
-236.4530639648438
 21
113.1670303344727
 31
0.0
  0
LINE
  5
21A
330
22
100
AcDbEntity
  8
0
  6
Continuous
 62
     7
100
AcDbLine
 10
-238.3431549072266
 20
115.5874481201172
 30
0.0
 11
-236.1168518066406
 21
113.3611373901367
 31
0.0
  0
LINE
  5
21B
330
22
100
AcDbEntity
  8
0
  6
Continuous
 62
     7
100
AcDbLine
 10
-237.5160827636719
 20
116.3513641357422
 30
0.0
 11
-235.1082000732422
 21
113.9434814453125
 31
0.0
  0
LINE
  5
21C
330
22
100
AcDbEntity
  8
0
  6
Continuous
 62
     7
100
AcDbLine
 10
-237.2770385742188
 20
116.6426467895508
 30
0.0
 11
-234.7719879150391
 21
114.1375961303711
 31
0.0
  0
LINE
  5
21D
330
22
100
AcDbEntity
  8
0
  6
Continuous
 62
     7
100
AcDbLine
 10
-236.6845092773438
 20
117.6411209106445
 30
0.0
 11
-233.7633361816406
 21
114.7199401855469
 31
0.0
  0
LINE
  5
21E
330
22
100
AcDbEntity
  8
0
  6
Continuous
 62
     7
100
AcDbLine
 10
-236.5484008789064
 20
118.0353317260742
 30
0.0
 11
-233.4271240234375
 21
114.9140548706055
 31
0.0
  0
LINE
  5
21F
330
22
100
AcDbEntity
  8
0
  6
Continuous
 62
     7
100
AcDbLine
 10
-236.2910003662109
 20
119.3689270019531
 30
0.0
 11
-232.4184722900391
 21
115.4963989257813
 31
0.0
  0
LINE
  5
220
330
22
100
AcDbEntity
  8
0
  6
Continuous
 62
     7
100
AcDbLine
 10
-281.2506713867188
 20
54.02799224853516
 30
0.0
 11
-281.8757019042969
 21
74.02799224853516
 31
0.0
  0
LINE
  5
221
330
22
100
AcDbEntity
  8
0
  6
Continuous
 62
     7
100
AcDbLine
 10
-283.3118591308594
 20
72.63327026367187
 30
0.0
 11
-281.9171142578125
 21
74.02799224853516
 31
0.0
  0
LINE
  5
222
330
22
100
AcDbEntity
  8
0
  6
Continuous
 62
     7
100
AcDbLine
 10
-277.2656860351563
 20
54.02799224853516
 30
0.0
 11
-276.2656860351563
 21
55.02799224853515
 31
0.0
  0
LINE
  5
223
330
22
100
AcDbEntity
  8
0
  6
Continuous
 62
     7
100
AcDbLine
 10
-337.7656860351563
 20
54.02799224853516
 30
0.0
 11
-277.2656860351563
 21
54.02799224853516
 31
0.0
  0
LINE
  5
224
330
22
100
AcDbEntity
  8
0
  6
Continuous
 62
     7
100
AcDbLine
 10
-285.2656860351563
 20
87.8718032836914
 30
0.0
 11
-285.2656860351563
 21
87.02799224853515
 31
0.0
  0
LINE
  5
225
330
22
100
AcDbEntity
  8
0
  6
Continuous
 62
     7
100
AcDbLine
 10
-236.2656860351563
 20
119.8739318847656
 30
0.0
 11
-232.0967407226564
 21
115.7049942016602
 31
0.0
  0
LINE
  5
226
330
22
100
AcDbEntity
  8
0
  6
Continuous
 62
     7
100
AcDbLine
 10
-236.2656860351563
 20
121.4649200439453
 30
0.0
 11
-231.2208404541016
 21
116.4200820922852
 31
0.0
  0
LINE
  5
227
330
22
100
AcDbEntity
  8
0
  6
Continuous
 62
     7
100
AcDbLine
 10
-236.2656860351563
 20
121.9952545166016
 30
0.0
 11
-230.9648590087891
 21
116.6944351196289
 31
0.0
  0
LINE
  5
228
330
22
100
AcDbEntity
  8
0
  6
Continuous
 62
     7
100
AcDbLine
 10
-236.2656860351563
 20
123.5862426757813
 30
0.0
 11
-230.3207702636719
 21
117.6413345336914
 31
0.0
  0
LINE
  5
229
330
22
100
AcDbEntity
  8
0
  6
Continuous
 62
     7
100
AcDbLine
 10
-236.1770935058594
 20
124.0279922485352
 30
0.0
 11
-230.1637878417969
 21
118.0146789550781
 31
0.0
  0
LINE
  5
22A
330
22
100
AcDbEntity
  8
0
  6
Continuous
 62
     7
100
AcDbLine
 10
-234.5861053466797
 20
124.0279922485352
 30
0.0
 11
-229.8290100097656
 21
119.2708969116211
 31
0.0
  0
LINE
  5
22B
330
22
100
AcDbEntity
  8
0
  6
Continuous
 62
     7
100
AcDbLine
 10
-234.0557708740234
 20
124.0279922485352
 30
0.0
 11
-229.7711029052734
 21
119.7433242797852
 31
0.0
  0
LINE
  5
22C
330
22
100
AcDbEntity
  8
0
  6
Continuous
 62
     7
100
AcDbLine
 10
-232.7656860351563
 20
124.3288803100586
 30
0.0
 11
-229.7656860351563
 21
121.3288803100586
 31
0.0
  0
LINE
  5
22D
330
22
100
AcDbEntity
  8
0
  6
Continuous
 62
     7
100
AcDbLine
 10
-232.7656860351563
 20
124.8592147827148
 30
0.0
 11
-229.7656860351563
 21
121.8592147827148
 31
0.0
  0
LINE
  5
22E
330
22
100
AcDbEntity
  8
0
  6
Continuous
 62
     7
100
AcDbLine
 10
-232.7656860351563
 20
126.4502029418945
 30
0.0
 11
-229.7656860351563
 21
123.4502029418945
 31
0.0
  0
LINE
  5
22F
330
22
100
AcDbEntity
  8
0
  6
Continuous
 62
     7
100
AcDbLine
 10
-232.7656860351563
 20
126.9805297851563
 30
0.0
 11
-229.7656860351563
 21
123.9805297851563
 31
0.0
  0
LINE
  5
230
330
22
100
AcDbEntity
  8
0
  6
Continuous
 62
     7
100
AcDbLine
 10
-232.7656860351563
 20
128.5715179443359
 30
0.0
 11
-229.1464080810547
 21
124.9522552490234
 31
0.0
  0
LINE
  5
231
330
22
100
AcDbEntity
  8
0
  6
Continuous
 62
     7
100
AcDbLine
 10
-232.6918182373047
 20
129.0279846191406
 30
0.0
 11
-228.6918182373047
 21
125.0279922485352
 31
0.0
  0
LINE
  5
232
330
22
100
AcDbEntity
  8
0
  6
Continuous
 62
     7
100
AcDbLine
 10
-284.2656860351563
 20
86.02799224853516
 30
0.0
 11
-283.2656860351563
 21
86.02799224853516
 31
0.0
  0
LINE
  5
233
330
22
100
AcDbEntity
  8
0
  6
Continuous
 62
     7
100
AcDbLine
 10
-282.7781372070313
 20
55.55544662475586
 30
0.0
 11
-283.3118591308594
 21
72.63327026367187
 31
0.0
  0
LINE
  5
234
330
22
100
AcDbEntity
  8
0
  6
Continuous
 62
     7
100
AcDbLine
 10
-451.7656860351562
 20
125.0279922485352
 30
0.0
 11
-445.7656860351563
 21
125.0279922485352
 31
0.0
  0
LINE
  5
235
330
22
100
AcDbEntity
  8
0
  6
Continuous
 62
     7
100
AcDbLine
 10
-236.2656860351563
 20
124.5279922485352
 30
0.0
 11
-235.7656860351563
 21
124.0279922485352
 31
0.0
  0
LINE
  5
236
330
22
100
AcDbEntity
  8
0
  6
Continuous
 62
     7
100
AcDbLine
 10
-236.2656860351563
 20
125.5279922485352
 30
0.0
 11
-236.2656860351563
 21
124.5279922485352
 31
0.0
  0
LINE
  5
237
330
22
100
AcDbEntity
  8
0
  6
Continuous
 62
     7
100
AcDbLine
 10
-231.100830078125
 20
129.0279846191406
 30
0.0
 11
-227.100830078125
 21
125.0279922485352
 31
0.0
  0
LINE
  5
238
330
22
100
AcDbEntity
  8
0
  6
Continuous
 62
     7
100
AcDbLine
 10
-230.5704956054688
 20
129.0279846191406
 30
0.0
 11
-226.5704956054688
 21
125.0279922485352
 31
0.0
  0
LINE
  5
239
330
22
100
AcDbEntity
  8
0
  6
Continuous
 62
     7
100
AcDbLine
 10
-228.9795074462891
 20
129.0279846191406
 30
0.0
 11
-224.9795074462891
 21
125.0279922485352
 31
0.0
  0
LINE
  5
23A
330
22
100
AcDbEntity
  8
0
  6
Continuous
 62
     7
100
AcDbLine
 10
-228.4491729736328
 20
129.0279846191406
 30
0.0
 11
-224.4491729736328
 21
125.0279922485352
 31
0.0
  0
LINE
  5
23B
330
22
100
AcDbEntity
  8
0
  6
Continuous
 62
     7
100
AcDbLine
 10
-226.8581848144531
 20
129.0279846191406
 30
0.0
 11
-223.1140289306641
 21
125.2838287353516
 31
0.0
  0
LINE
  5
23C
330
22
100
AcDbEntity
  8
0
  6
Continuous
 62
     7
100
AcDbLine
 10
-226.3278503417969
 20
129.0279846191406
 30
0.0
 11
-222.8832092285156
 21
125.5833435058594
 31
0.0
  0
LINE
  5
23D
330
22
100
AcDbEntity
  8
0
  6
Continuous
 62
     7
100
AcDbLine
 10
-224.7368621826172
 20
129.0279846191406
 30
0.0
 11
-222.7656860351563
 21
127.0568084716797
 31
0.0
  0
LINE
  5
23E
330
22
100
AcDbEntity
  8
0
  6
Continuous
 62
     7
100
AcDbLine
 10
-224.2065277099609
 20
129.0279846191406
 30
0.0
 11
-222.7656860351563
 21
127.5871353149414
 31
0.0
  0
LINE
  5
23F
330
22
100
AcDbEntity
  8
0
  6
Continuous
 62
     7
100
AcDbLine
 10
-451.7656860351562
 20
129.0279846191406
 30
0.0
 11
-223.7656860351563
 21
129.0279846191406
 31
0.0
  0
LINE
  5
240
330
22
100
AcDbEntity
  8
0
  6
Continuous
 62
     7
100
AcDbLine
 10
-445.7656860351563
 20
125.0279922485352
 30
0.0
 11
-337.7656860351563
 21
125.0279922485352
 31
0.0
  0
LINE
  5
241
330
22
100
AcDbEntity
  8
0
  6
Continuous
 62
     7
100
AcDbLine
 10
-233.2656860351563
 20
128.5279846191406
 30
0.0
 11
-233.2656860351563
 21
124.5279922485352
 31
0.0
  0
LINE
  5
242
330
22
100
AcDbEntity
  8
0
  6
Continuous
 62
     7
100
AcDbLine
 10
-222.7656860351563
 20
128.0279846191406
 30
0.0
 11
-222.7656860351563
 21
126.0279922485352
 31
0.0
  0
LINE
  5
243
330
22
100
AcDbEntity
  8
0
  6
Continuous
 62
     7
100
AcDbLine
 10
-232.7656860351563
 20
129.0279846191406
 30
0.0
 11
-232.7656860351563
 21
124.0279922485352
 31
0.0
  0
LINE
  5
244
330
22
100
AcDbEntity
  8
0
  6
Continuous
 62
     7
100
AcDbLine
 10
-232.7656860351563
 20
124.0279922485352
 30
0.0
 11
-243.7656860351563
 21
124.0279922485352
 31
0.0
  0
LINE
  5
245
330
22
100
AcDbEntity
  8
0
  6
Continuous
 62
     7
100
AcDbLine
 10
-233.2656860351563
 20
124.5279922485352
 30
0.0
 11
-233.7656860351563
 21
124.0279922485352
 31
0.0
  0
LINE
  5
246
330
22
100
AcDbEntity
  8
0
  6
Continuous
 62
     7
100
AcDbLine
 10
-223.7656860351563
 20
125.0279922485352
 30
0.0
 11
-228.7656860351563
 21
125.0279922485352
 31
0.0
  0
LINE
  5
247
330
22
100
AcDbEntity
  8
0
  6
Continuous
 62
     7
100
AcDbLine
 10
-233.2656860351563
 20
128.5279846191406
 30
0.0
 11
-233.7656860351563
 21
129.0279846191406
 31
0.0
  0
ARC
  5
248
330
22
100
AcDbEntity
  8
0
  6
Continuous
 62
     7
100
AcDbCircle
 10
-279.9014587402344
 20
272.7446594238281
 30
0.0
 40
3.283333301544189
100
AcDbArc
 50
351.8286258693902
 51
188.1713741306112
  0
ARC
  5
249
330
22
100
AcDbEntity
  8
0
  6
Continuous
 62
     7
100
AcDbCircle
 10
-291.4014587402344
 20
272.7446594238281
 30
0.0
 40
3.283333301544189
100
AcDbArc
 50
351.8286258693902
 51
188.1713741306112
  0
CIRCLE
  5
24A
330
22
100
AcDbEntity
  8
0
  6
DASHED
 62
     7
100
AcDbCircle
 10
-337.4014587402344
 20
279.0279846191406
 30
0.0
 40
52.5
  0
CIRCLE
  5
24B
330
22
100
AcDbEntity
  8
0
  6
Continuous
 62
     7
100
AcDbCircle
 10
-337.4014587402344
 20
279.0279846191406
 30
0.0
 40
104.5
  0
CIRCLE
  5
24C
330
22
100
AcDbEntity
  8
0
  6
Continuous
 62
     7
100
AcDbCircle
 10
-337.4014587402344
 20
279.0279846191406
 30
0.0
 40
105.0
  0
ARC
  5
24D
330
22
100
AcDbEntity
  8
0
  6
Continuous
 62
     7
100
AcDbCircle
 10
-348.9014587402344
 20
302.5946655273438
 30
0.0
 40
3.283333301544189
100
AcDbArc
 50
351.8286258693902
 51
188.1713741306112
  0
ARC
  5
24E
330
22
100
AcDbEntity
  8
0
  6
Continuous
 62
     7
100
AcDbCircle
 10
-348.9014587402344
 20
343.627685546875
 30
0.0
 40
3.283333301544189
100
AcDbArc
 50
351.8286258693902
 51
188.1713741306112
  0
ARC
  5
24F
330
22
100
AcDbEntity
  8
0
  6
Continuous
 62
     7
100
AcDbCircle
 10
-348.9014587402344
 20
285.3113098144531
 30
0.0
 40
3.283333301544189
100
AcDbArc
 50
171.8286258693895
 51
8.171374130610477
  0
ARC
  5
250
330
22
100
AcDbEntity
  8
0
  6
Continuous
 62
     7
100
AcDbCircle
 10
-348.9014587402344
 20
314.1943664550781
 30
0.0
 40
3.283333301544189
100
AcDbArc
 50
171.8291530098779
 51
8.170846990122083
  0
ARC
  5
251
330
22
100
AcDbEntity
  8
0
  6
Continuous
 62
     7
100
AcDbCircle
 10
-348.9014587402344
 20
355.1943664550781
 30
0.0
 40
3.283333301544189
100
AcDbArc
 50
171.8291530098779
 51
8.170846990122083
  0
ARC
  5
252
330
22
100
AcDbEntity
  8
0
  6
Continuous
 62
     7
100
AcDbCircle
 10
-348.9014587402344
 20
372.5640869140625
 30
0.0
 40
3.283333301544189
100
AcDbArc
 50
351.8286258693902
 51
188.1713741306112
  0
ARC
  5
253
330
22
100
AcDbEntity
  8
0
  6
Continuous
 62
     7
100
AcDbCircle
 10
-348.9014587402344
 20
255.4613189697266
 30
0.0
 40
3.283333301544189
100
AcDbArc
 50
171.8286258693895
 51
8.171374130610477
  0
ARC
  5
254
330
22
100
AcDbEntity
  8
0
  6
Continuous
 62
     7
100
AcDbCircle
 10
-348.9014587402344
 20
243.8616333007813
 30
0.0
 40
3.283333301544189
100
AcDbArc
 50
351.8286258693902
 51
188.1713741306112
  0
ARC
  5
255
330
22
100
AcDbEntity
  8
0
  6
Continuous
 62
     7
100
AcDbCircle
 10
-348.9014587402344
 20
202.8616333007813
 30
0.0
 40
3.283333301544189
100
AcDbArc
 50
351.8286258693902
 51
188.1713741306112
  0
ARC
  5
256
330
22
100
AcDbEntity
  8
0
  6
Continuous
 62
     7
100
AcDbCircle
 10
-348.9014587402344
 20
214.4282989501953
 30
0.0
 40
3.283333301544189
100
AcDbArc
 50
171.8288894394597
 51
8.171110560540375
  0
ARC
  5
257
330
22
100
AcDbEntity
  8
0
  6
Continuous
 62
     7
100
AcDbCircle
 10
-348.9014587402344
 20
185.4918975830078
 30
0.0
 40
3.283333301544189
100
AcDbArc
 50
171.8286258693895
 51
8.171374130610477
  0
ARC
  5
258
330
22
100
AcDbEntity
  8
0
  6
Continuous
 62
     7
100
AcDbCircle
 10
-348.9014587402344
 20
272.7446594238281
 30
0.0
 40
3.283333301544189
100
AcDbArc
 50
351.8286258693902
 51
188.1713741306112
  0
ARC
  5
259
330
22
100
AcDbEntity
  8
0
  6
Continuous
 62
     7
100
AcDbCircle
 10
-302.9014587402344
 20
272.7446594238281
 30
0.0
 40
3.283333301544189
100
AcDbArc
 50
351.8286258693902
 51
188.1713741306112
  0
ARC
  5
25A
330
22
100
AcDbEntity
  8
0
  6
Continuous
 62
     7
100
AcDbCircle
 10
-314.4014587402344
 20
272.7446594238281
 30
0.0
 40
3.283333301544189
100
AcDbArc
 50
351.8286258693902
 51
188.1713741306112
  0
ARC
  5
25B
330
22
100
AcDbEntity
  8
0
  6
Continuous
 62
     7
100
AcDbCircle
 10
-291.4014587402344
 20
361.2779846191406
 30
0.0
 40
3.283333301544189
100
AcDbArc
 50
8.171374130610477
 51
171.8286258693895
  0
ARC
  5
25C
330
22
100
AcDbEntity
  8
0
  6
Continuous
 62
     7
100
AcDbCircle
 10
-279.9014587402344
 20
285.3113098144531
 30
0.0
 40
3.283333301544189
100
AcDbArc
 50
171.8286258693895
 51
8.171374130610477
  0
ARC
  5
25D
330
22
100
AcDbEntity
  8
0
  6
Continuous
 62
     7
100
AcDbCircle
 10
-279.9014587402344
 20
325.3113098144531
 30
0.0
 40
3.283333301544189
100
AcDbArc
 50
171.8286258693895
 51
8.171374130610477
  0
ARC
  5
25E
330
22
100
AcDbEntity
  8
0
  6
Continuous
 62
     7
100
AcDbCircle
 10
-279.9014587402344
 20
353.6648864746094
 30
0.0
 40
3.283333301544189
100
AcDbArc
 50
8.171374130610477
 51
171.8286258693895
  0
ARC
  5
25F
330
22
100
AcDbEntity
  8
0
  6
Continuous
 62
     7
100
AcDbCircle
 10
-291.4014587402344
 20
319.111328125
 30
0.0
 40
3.283333301544189
100
AcDbArc
 50
171.8286258693895
 51
8.171374130610477
  0
ARC
  5
260
330
22
100
AcDbEntity
  8
0
  6
Continuous
 62
     7
100
AcDbCircle
 10
-291.4014587402344
 20
285.3113098144531
 30
0.0
 40
3.283333301544189
100
AcDbArc
 50
171.8286258693895
 51
8.171374130610477
  0
ARC
  5
261
330
22
100
AcDbEntity
  8
0
  6
Continuous
 62
     7
100
AcDbCircle
 10
-291.4014587402344
 20
327.5446472167969
 30
0.0
 40
3.283333301544189
100
AcDbArc
 50
351.8291530098786
 51
188.1708469901228
  0
ARC
  5
262
330
22
100
AcDbEntity
  8
0
  6
Continuous
 62
     7
100
AcDbCircle
 10
-291.4014587402344
 20
339.1143493652344
 30
0.0
 40
3.283333301544189
100
AcDbArc
 50
171.8286258693895
 51
8.171374130610477
  0
ARC
  5
263
330
22
100
AcDbEntity
  8
0
  6
Continuous
 62
     7
100
AcDbCircle
 10
-291.4014587402344
 20
307.5446472167969
 30
0.0
 40
3.283333301544189
100
AcDbArc
 50
351.8291530098786
 51
188.1708469901228
  0
CIRCLE
  5
264
330
22
100
AcDbEntity
  8
0
  6
Continuous
 62
     7
100
AcDbCircle
 10
-337.4014587402344
 20
279.0279846191406
 30
0.0
 40
115.0
  0
ARC
  5
265
330
22
100
AcDbEntity
  8
0
  6
Continuous
 62
     7
100
AcDbCircle
 10
-279.9014587402344
 20
313.7446594238281
 30
0.0
 40
3.283333301544189
100
AcDbArc
 50
351.8286258693902
 51
188.1713741306112
  0
ARC
  5
266
330
22
100
AcDbEntity
  8
0
  6
Continuous
 62
     7
100
AcDbCircle
 10
-314.4014587402344
 20
323.611328125
 30
0.0
 40
3.283333301544189
100
AcDbArc
 50
171.8286258693895
 51
8.171374130610477
  0
ARC
  5
267
330
22
100
AcDbEntity
  8
0
  6
Continuous
 62
     7
100
AcDbCircle
 10
-314.4014587402344
 20
332.0446472167969
 30
0.0
 40
3.283333301544189
100
AcDbArc
 50
351.8291530098786
 51
188.1708469901228
  0
ARC
  5
268
330
22
100
AcDbEntity
  8
0
  6
Continuous
 62
     7
100
AcDbCircle
 10
-337.4014587402344
 20
320.0113220214844
 30
0.0
 40
3.283333301544189
100
AcDbArc
 50
171.8286258693895
 51
8.171374130610477
  0
ARC
  5
269
330
22
100
AcDbEntity
  8
0
  6
Continuous
 62
     7
100
AcDbCircle
 10
-337.4014587402344
 20
352.4113159179688
 30
0.0
 40
3.283333301544189
100
AcDbArc
 50
188.1708469901228
 51
351.8291530098786
  0
ARC
  5
26A
330
22
100
AcDbEntity
  8
0
  6
Continuous
 62
     7
100
AcDbCircle
 10
-337.4014587402344
 20
340.8446655273438
 30
0.0
 40
3.283333301544189
100
AcDbArc
 50
351.8286258693902
 51
188.1713741306112
  0
ARC
  5
26B
330
22
100
AcDbEntity
  8
0
  6
Continuous
 62
     7
100
AcDbCircle
 10
-337.4014587402344
 20
270.4946594238281
 30
0.0
 40
3.283333301544189
100
AcDbArc
 50
351.8286258693902
 51
188.1713741306112
  0
ARC
  5
26C
330
22
100
AcDbEntity
  8
0
  6
Continuous
 62
     7
100
AcDbCircle
 10
-302.9014587402344
 20
298.7446594238281
 30
0.0
 40
3.283333301544189
100
AcDbArc
 50
351.8286258693902
 51
188.1713741306112
  0
ARC
  5
26D
330
22
100
AcDbEntity
  8
0
  6
Continuous
 62
     7
100
AcDbCircle
 10
-337.4014587402344
 20
279.0279846191406
 30
0.0
 40
97.5
100
AcDbArc
 50
341.8532298497634
 51
347.6670989704658
  0
ARC
  5
26E
330
22
100
AcDbEntity
  8
0
  6
Continuous
 62
     7
100
AcDbCircle
 10
-302.9014587402344
 20
259.3113098144531
 30
0.0
 40
3.283333301544189
100
AcDbArc
 50
171.8286258693895
 51
8.171374130610477
  0
ARC
  5
26F
330
22
100
AcDbEntity
  8
0
  6
Continuous
 62
     7
100
AcDbCircle
 10
-256.9014587402344
 20
264.3113098144531
 30
0.0
 40
3.283333301544189
100
AcDbArc
 50
171.8286258693895
 51
8.171336284190809
  0
ARC
  5
270
330
22
100
AcDbEntity
  8
0
  6
Continuous
 62
     7
100
AcDbCircle
 10
-302.9014587402344
 20
353.2675170898438
 30
0.0
 40
3.283333301544189
100
AcDbArc
 50
171.8286258693895
 51
8.171374130610477
  0
ARC
  5
271
330
22
100
AcDbEntity
  8
0
  6
Continuous
 62
     7
100
AcDbCircle
 10
-302.9014587402344
 20
285.3113098144531
 30
0.0
 40
3.283333301544189
100
AcDbArc
 50
171.8286258693895
 51
8.171374130610477
  0
ARC
  5
272
330
22
100
AcDbEntity
  8
0
  6
Continuous
 62
     7
100
AcDbCircle
 10
-371.9014587402344
 20
259.3113098144531
 30
0.0
 40
3.283333301544189
100
AcDbArc
 50
171.8286258693895
 51
8.171374130610477
  0
ARC
  5
273
330
22
100
AcDbEntity
  8
0
  6
Continuous
 62
     7
100
AcDbCircle
 10
-337.4014587402344
 20
279.0279846191406
 30
0.0
 40
97.5
100
AcDbArc
 50
192.3329029447696
 51
198.1467729429721
  0
ARC
  5
274
330
22
100
AcDbEntity
  8
0
  6
Continuous
 62
     7
100
AcDbCircle
 10
-417.9014587402344
 20
264.3113098144531
 30
0.0
 40
3.283333301544189
100
AcDbArc
 50
171.8286258693895
 51
8.171374130610477
  0
CIRCLE
  5
275
330
22
100
AcDbEntity
  8
0
  6
Continuous
 62
     7
100
AcDbCircle
 10
-268.0275268554688
 20
209.6675567626953
 30
0.0
 40
5.0
  0
ARC
  5
276
330
22
100
AcDbEntity
  8
0
  6
Continuous
 62
     7
100
AcDbCircle
 10
-268.4014587402344
 20
219.8113250732422
 30
0.0
 40
3.283333301544189
100
AcDbArc
 50
171.8288894394597
 51
8.171110560540375
  0
CIRCLE
  5
277
330
22
100
AcDbEntity
  8
0
  6
Continuous
 62
     7
100
AcDbCircle
 10
-268.0275268554688
 20
209.6675567626953
 30
0.0
 40
5.5
  0
ARC
  5
278
330
22
100
AcDbEntity
  8
0
  6
Continuous
 62
     7
100
AcDbCircle
 10
-429.4014587402343
 20
285.3113098144531
 30
0.0
 40
3.283333301544189
100
AcDbArc
 50
171.8286258693895
 51
8.171374130610477
  0
ARC
  5
279
330
22
100
AcDbEntity
  8
0
  6
Continuous
 62
     7
100
AcDbCircle
 10
-428.1514587402344
 20
308.7716979980469
 30
0.0
 40
2.0
100
AcDbArc
 50
0.0
 51
161.8534090319294
  0
ARC
  5
27A
330
22
100
AcDbEntity
  8
0
  6
Continuous
 62
     7
100
AcDbCircle
 10
-337.4014587402344
 20
279.0279846191406
 30
0.0
 40
97.5
100
AcDbArc
 50
161.8532185362085
 51
167.667097055231
  0
ARC
  5
27B
330
22
100
AcDbEntity
  8
0
  6
Continuous
 62
     7
100
AcDbCircle
 10
-429.4014587402343
 20
272.7446594238281
 30
0.0
 40
3.283333301544189
100
AcDbArc
 50
351.8286258693902
 51
188.1713741306112
  0
ARC
  5
27C
330
22
100
AcDbEntity
  8
0
  6
Continuous
 62
     7
100
AcDbCircle
 10
-428.1514587402344
 20
249.2842864990234
 30
0.0
 40
2.0
100
AcDbArc
 50
198.1465909680713
 51
0.0
  0
ARC
  5
27D
330
22
100
AcDbEntity
  8
0
  6
Continuous
 62
     7
100
AcDbCircle
 10
-256.9014587402344
 20
285.3113098144531
 30
0.0
 40
3.283333301544189
100
AcDbArc
 50
171.8286258693895
 51
8.171336284190809
  0
ARC
  5
27E
330
22
100
AcDbEntity
  8
0
  6
Continuous
 62
     7
100
AcDbCircle
 10
-256.9014587402344
 20
328.0713806152344
 30
0.0
 40
3.283333301544189
100
AcDbArc
 50
8.171336284190809
 51
171.8286258693895
  0
ARC
  5
27F
330
22
100
AcDbEntity
  8
0
  6
Continuous
 62
     7
100
AcDbCircle
 10
-268.4014587402344
 20
308.7446594238281
 30
0.0
 40
3.283333301544189
100
AcDbArc
 50
351.8286258693902
 51
188.1713741306112
  0
ARC
  5
280
330
22
100
AcDbEntity
  8
0
  6
Continuous
 62
     7
100
AcDbCircle
 10
-268.4014587402344
 20
320.3113098144531
 30
0.0
 40
3.283333301544189
100
AcDbArc
 50
171.8286258693895
 51
8.171374130610477
  0
ARC
  5
281
330
22
100
AcDbEntity
  8
0
  6
Continuous
 62
     7
100
AcDbCircle
 10
-268.4014587402344
 20
285.3113098144531
 30
0.0
 40
3.283333301544189
100
AcDbArc
 50
171.8286258693895
 51
8.171374130610477
  0
CIRCLE
  5
282
330
22
100
AcDbEntity
  8
0
  6
Continuous
 62
     7
100
AcDbCircle
 10
-268.0406494140625
 20
348.4015502929688
 30
0.0
 40
5.5
  0
CIRCLE
  5
283
330
22
100
AcDbEntity
  8
0
  6
Continuous
 62
     7
100
AcDbCircle
 10
-268.0406494140625
 20
348.4015502929688
 30
0.0
 40
5.0
  0
ARC
  5
284
330
22
100
AcDbEntity
  8
0
  6
Continuous
 62
     7
100
AcDbCircle
 10
-268.4014587402344
 20
338.2446594238281
 30
0.0
 40
3.283333301544189
100
AcDbArc
 50
8.171374130610477
 51
171.8286258693895
  0
ARC
  5
285
330
22
100
AcDbEntity
  8
0
  6
Continuous
 62
     7
100
AcDbCircle
 10
-268.4014587402344
 20
272.7446594238281
 30
0.0
 40
3.283333301544189
100
AcDbArc
 50
351.8286258693902
 51
188.1713741306112
  0
ARC
  5
286
330
22
100
AcDbEntity
  8
0
  6
Continuous
 62
     7
100
AcDbCircle
 10
-256.9014587402344
 20
272.7446594238281
 30
0.0
 40
3.283333301544189
100
AcDbArc
 50
351.8286637158098
 51
188.1713741306112
  0
ARC
  5
287
330
22
100
AcDbEntity
  8
0
  6
Continuous
 62
     7
100
AcDbCircle
 10
-256.9014587402344
 20
252.7446594238281
 30
0.0
 40
3.283333301544189
100
AcDbArc
 50
351.8286637158098
 51
188.1713741306112
  0
ARC
  5
288
330
22
100
AcDbEntity
  8
0
  6
Continuous
 62
     7
100
AcDbCircle
 10
-256.9014587402344
 20
229.9846038818359
 30
0.0
 40
3.283333301544189
100
AcDbArc
 50
171.8288894394597
 51
8.17107271530817
  0
ARC
  5
289
330
22
100
AcDbEntity
  8
0
  6
Continuous
 62
     7
100
AcDbCircle
 10
-268.4014587402344
 20
237.7446594238281
 30
0.0
 40
3.283333301544189
100
AcDbArc
 50
351.8286258693902
 51
188.1713741306112
  0
ARC
  5
28A
330
22
100
AcDbEntity
  8
0
  6
Continuous
 62
     7
100
AcDbCircle
 10
-268.4014587402344
 20
249.3113250732422
 30
0.0
 40
3.283333301544189
100
AcDbArc
 50
171.8288894394597
 51
8.171110560540375
  0
ARC
  5
28B
330
22
100
AcDbEntity
  8
0
  6
Continuous
 62
     7
100
AcDbCircle
 10
-256.9014587402344
 20
293.7446594238281
 30
0.0
 40
3.283333301544189
100
AcDbArc
 50
351.8286637158098
 51
188.1713741306112
  0
ARC
  5
28C
330
22
100
AcDbEntity
  8
0
  6
Continuous
 62
     7
100
AcDbCircle
 10
-256.9014587402344
 20
305.3113098144531
 30
0.0
 40
3.283333301544189
100
AcDbArc
 50
171.8286258693895
 51
8.171336284190809
  0
ARC
  5
28D
330
22
100
AcDbEntity
  8
0
  6
Continuous
 62
     7
100
AcDbCircle
 10
-302.9014587402344
 20
310.3113098144531
 30
0.0
 40
3.283333301544189
100
AcDbArc
 50
171.8286258693895
 51
8.171374130610477
  0
ARC
  5
28E
330
22
100
AcDbEntity
  8
0
  6
Continuous
 62
     7
100
AcDbCircle
 10
-302.9014587402344
 20
341.6978149414063
 30
0.0
 40
3.283333301544189
100
AcDbArc
 50
351.8291530098786
 51
188.1708469901228
  0
ARC
  5
28F
330
22
100
AcDbEntity
  8
0
  6
Continuous
 62
     7
100
AcDbCircle
 10
-302.9014587402344
 20
366.7008666992188
 30
0.0
 40
3.283333301544189
100
AcDbArc
 50
8.170846990122083
 51
171.8291530098779
  0
ARC
  5
290
330
22
100
AcDbEntity
  8
0
  6
Continuous
 62
     7
100
AcDbCircle
 10
-417.9014587402344
 20
252.7446594238281
 30
0.0
 40
3.283333301544189
100
AcDbArc
 50
351.8286258693902
 51
188.1713741306112
  0
ARC
  5
291
330
22
100
AcDbEntity
  8
0
  6
Continuous
 62
     7
100
AcDbCircle
 10
-417.9014587402344
 20
229.9846038818359
 30
0.0
 40
3.283333301544189
100
AcDbArc
 50
171.8288894394597
 51
8.171110560540375
  0
CIRCLE
  5
292
330
22
100
AcDbEntity
  8
0
  6
Continuous
 62
     7
100
AcDbCircle
 10
-406.7615051269531
 20
209.6544494628906
 30
0.0
 40
5.0
  0
ARC
  5
293
330
22
100
AcDbEntity
  8
0
  6
Continuous
 62
     7
100
AcDbCircle
 10
-406.4014587402343
 20
237.7446594238281
 30
0.0
 40
3.283333301544189
100
AcDbArc
 50
351.8286258693902
 51
188.1713741306112
  0
CIRCLE
  5
294
330
22
100
AcDbEntity
  8
0
  6
Continuous
 62
     7
100
AcDbCircle
 10
-406.7615051269531
 20
209.6544494628906
 30
0.0
 40
5.5
  0
ARC
  5
295
330
22
100
AcDbEntity
  8
0
  6
Continuous
 62
     7
100
AcDbCircle
 10
-406.4014587402343
 20
249.3113250732422
 30
0.0
 40
3.283333301544189
100
AcDbArc
 50
171.8288894394597
 51
8.171110560540375
  0
ARC
  5
296
330
22
100
AcDbEntity
  8
0
  6
Continuous
 62
     7
100
AcDbCircle
 10
-406.4014587402343
 20
219.8113250732422
 30
0.0
 40
3.283333301544189
100
AcDbArc
 50
171.8288894394597
 51
8.171110560540375
  0
ARC
  5
297
330
22
100
AcDbEntity
  8
0
  6
Continuous
 62
     7
100
AcDbCircle
 10
-394.9014587402344
 20
204.3910980224609
 30
0.0
 40
3.283333301544189
100
AcDbArc
 50
171.8288894394597
 51
8.171110560540375
  0
ARC
  5
298
330
22
100
AcDbEntity
  8
0
  6
Continuous
 62
     7
100
AcDbCircle
 10
-371.9014587402344
 20
204.7884674072266
 30
0.0
 40
3.283333301544189
100
AcDbArc
 50
351.8286258693902
 51
188.1713741306112
  0
ARC
  5
299
330
22
100
AcDbEntity
  8
0
  6
Continuous
 62
     7
100
AcDbCircle
 10
-360.4014587402344
 20
187.6221008300781
 30
0.0
 40
3.283333301544189
100
AcDbArc
 50
171.8286258693895
 51
8.171374130610477
  0
ARC
  5
29A
330
22
100
AcDbEntity
  8
0
  6
Continuous
 62
     7
100
AcDbCircle
 10
-371.9014587402344
 20
191.3551330566406
 30
0.0
 40
3.283333301544189
100
AcDbArc
 50
171.8288894394597
 51
8.171110560540375
  0
ARC
  5
29B
330
22
100
AcDbEntity
  8
0
  6
Continuous
 62
     7
100
AcDbCircle
 10
-383.4014587402344
 20
196.7779846191406
 30
0.0
 40
3.283333301544189
100
AcDbArc
 50
171.8286258693895
 51
8.171374130610477
  0
ARC
  5
29C
330
22
100
AcDbEntity
  8
0
  6
Continuous
 62
     7
100
AcDbCircle
 10
-383.4014587402344
 20
250.5113220214844
 30
0.0
 40
3.283333301544189
100
AcDbArc
 50
171.8286258693895
 51
8.171374130610477
  0
ARC
  5
29D
330
22
100
AcDbEntity
  8
0
  6
Continuous
 62
     7
100
AcDbCircle
 10
-371.9014587402344
 20
247.7446594238281
 30
0.0
 40
3.283333301544189
100
AcDbArc
 50
351.8286258693902
 51
188.1713741306112
  0
ARC
  5
29E
330
22
100
AcDbEntity
  8
0
  6
Continuous
 62
     7
100
AcDbCircle
 10
-394.9014587402344
 20
244.3113250732422
 30
0.0
 40
3.283333301544189
100
AcDbArc
 50
171.8288894394597
 51
8.171110560540375
  0
ARC
  5
29F
330
22
100
AcDbEntity
  8
0
  6
Continuous
 62
     7
100
AcDbCircle
 10
-360.4014587402344
 20
246.2113189697266
 30
0.0
 40
3.283333301544189
100
AcDbArc
 50
171.8286258693895
 51
8.171374130610477
  0
ARC
  5
2A0
330
22
100
AcDbEntity
  8
0
  6
Continuous
 62
     7
100
AcDbCircle
 10
-360.4014587402344
 20
226.111328125
 30
0.0
 40
3.283333301544189
100
AcDbArc
 50
171.8288894394597
 51
8.171110560540375
  0
ARC
  5
2A1
330
22
100
AcDbEntity
  8
0
  6
Continuous
 62
     7
100
AcDbCircle
 10
-383.4014587402344
 20
218.8416290283203
 30
0.0
 40
3.283333301544189
100
AcDbArc
 50
351.8288894394603
 51
188.1711105605411
  0
CIRCLE
  5
2A2
330
22
100
AcDbEntity
  8
0
  6
Continuous
 62
     7
100
AcDbCircle
 10
-406.7746276855468
 20
348.388427734375
 30
0.0
 40
5.5
  0
ARC
  5
2A3
330
22
100
AcDbEntity
  8
0
  6
Continuous
 62
     7
100
AcDbCircle
 10
-360.4014587402344
 20
272.7446594238281
 30
0.0
 40
3.283333301544189
100
AcDbArc
 50
351.8286258693902
 51
188.1713741306112
  0
ARC
  5
2A4
330
22
100
AcDbEntity
  8
0
  6
Continuous
 62
     7
100
AcDbCircle
 10
-371.9014587402344
 20
272.7446594238281
 30
0.0
 40
3.283333301544189
100
AcDbArc
 50
351.8286258693902
 51
188.1713741306112
  0
ARC
  5
2A5
330
22
100
AcDbEntity
  8
0
  6
Continuous
 62
     7
100
AcDbCircle
 10
-383.4014587402344
 20
272.7446594238281
 30
0.0
 40
3.283333301544189
100
AcDbArc
 50
351.8286258693902
 51
188.1713741306112
  0
ARC
  5
2A6
330
22
100
AcDbEntity
  8
0
  6
Continuous
 62
     7
100
AcDbCircle
 10
-417.9014587402344
 20
272.7446594238281
 30
0.0
 40
3.283333301544189
100
AcDbArc
 50
351.8286258693902
 51
188.1713741306112
  0
ARC
  5
2A7
330
22
100
AcDbEntity
  8
0
  6
Continuous
 62
     7
100
AcDbCircle
 10
-406.4014587402343
 20
272.7446594238281
 30
0.0
 40
3.283333301544189
100
AcDbArc
 50
351.8286258693902
 51
188.1713741306112
  0
ARC
  5
2A8
330
22
100
AcDbEntity
  8
0
  6
Continuous
 62
     7
100
AcDbCircle
 10
-394.9014587402344
 20
272.7446594238281
 30
0.0
 40
3.283333301544189
100
AcDbArc
 50
351.8286258693902
 51
188.1713741306112
  0
ARC
  5
2A9
330
22
100
AcDbEntity
  8
0
  6
Continuous
 62
     7
100
AcDbCircle
 10
-360.4014587402344
 20
234.6446533203125
 30
0.0
 40
3.283333301544189
100
AcDbArc
 50
351.8288894394603
 51
188.1711105605411
  0
ARC
  5
2AA
330
22
100
AcDbEntity
  8
0
  6
Continuous
 62
     7
100
AcDbCircle
 10
-383.4014587402344
 20
238.9446563720703
 30
0.0
 40
3.283333301544189
100
AcDbArc
 50
351.8288894394603
 51
188.1711105605411
  0
ARC
  5
2AB
330
22
100
AcDbEntity
  8
0
  6
Continuous
 62
     7
100
AcDbCircle
 10
-394.9014587402344
 20
232.7446594238281
 30
0.0
 40
3.283333301544189
100
AcDbArc
 50
351.8286258693902
 51
188.1713741306112
  0
ARC
  5
2AC
330
22
100
AcDbEntity
  8
0
  6
Continuous
 62
     7
100
AcDbCircle
 10
-383.4014587402344
 20
230.5113220214844
 30
0.0
 40
3.283333301544189
100
AcDbArc
 50
171.8286258693895
 51
8.171374130610477
  0
ARC
  5
2AD
330
22
100
AcDbEntity
  8
0
  6
Continuous
 62
     7
100
AcDbCircle
 10
-360.4014587402344
 20
214.4416351318359
 30
0.0
 40
3.283333301544189
100
AcDbArc
 50
351.8286258693902
 51
188.1713741306112
  0
ARC
  5
2AE
330
22
100
AcDbEntity
  8
0
  6
Continuous
 62
     7
100
AcDbCircle
 10
-371.9014587402344
 20
216.4581604003906
 30
0.0
 40
3.283333301544189
100
AcDbArc
 50
171.8288894394597
 51
8.171110560540375
  0
ARC
  5
2AF
330
22
100
AcDbEntity
  8
0
  6
Continuous
 62
     7
100
AcDbCircle
 10
-417.9014587402344
 20
328.0713806152344
 30
0.0
 40
3.283333301544189
100
AcDbArc
 50
351.8286258693902
 51
188.1713741306112
  0
ARC
  5
2B0
330
22
100
AcDbEntity
  8
0
  6
Continuous
 62
     7
100
AcDbCircle
 10
-417.9014587402344
 20
305.3113098144531
 30
0.0
 40
3.283333301544189
100
AcDbArc
 50
171.8286258693895
 51
8.171374130610477
  0
ARC
  5
2B1
330
22
100
AcDbEntity
  8
0
  6
Continuous
 62
     7
100
AcDbCircle
 10
-417.9014587402344
 20
293.7446594238281
 30
0.0
 40
3.283333301544189
100
AcDbArc
 50
351.8286258693902
 51
188.1713741306112
  0
ARC
  5
2B2
330
22
100
AcDbEntity
  8
0
  6
Continuous
 62
     7
100
AcDbCircle
 10
-417.9014587402344
 20
285.3113098144531
 30
0.0
 40
3.283333301544189
100
AcDbArc
 50
171.8286258693895
 51
8.171374130610477
  0
ARC
  5
2B3
330
22
100
AcDbEntity
  8
0
  6
Continuous
 62
     7
100
AcDbCircle
 10
-406.4014587402343
 20
285.3113098144531
 30
0.0
 40
3.283333301544189
100
AcDbArc
 50
171.8286258693895
 51
8.171374130610477
  0
ARC
  5
2B4
330
22
100
AcDbEntity
  8
0
  6
Continuous
 62
     7
100
AcDbCircle
 10
-406.4014587402343
 20
308.7446594238281
 30
0.0
 40
3.283333301544189
100
AcDbArc
 50
351.8286258693902
 51
188.1713741306112
  0
ARC
  5
2B5
330
22
100
AcDbEntity
  8
0
  6
Continuous
 62
     7
100
AcDbCircle
 10
-406.4014587402343
 20
320.3113098144531
 30
0.0
 40
3.283333301544189
100
AcDbArc
 50
171.8286258693895
 51
8.171374130610477
  0
ARC
  5
2B6
330
22
100
AcDbEntity
  8
0
  6
Continuous
 62
     7
100
AcDbCircle
 10
-406.4014587402343
 20
338.2446594238281
 30
0.0
 40
3.283333301544189
100
AcDbArc
 50
351.8286258693902
 51
188.1713741306112
  0
CIRCLE
  5
2B7
330
22
100
AcDbEntity
  8
0
  6
Continuous
 62
     7
100
AcDbCircle
 10
-406.7746276855468
 20
348.388427734375
 30
0.0
 40
5.0
  0
ARC
  5
2B8
330
22
100
AcDbEntity
  8
0
  6
Continuous
 62
     7
100
AcDbCircle
 10
-371.9014587402344
 20
353.2675170898438
 30
0.0
 40
3.283333301544189
100
AcDbArc
 50
171.8286258693895
 51
8.171374130610477
  0
ARC
  5
2B9
330
22
100
AcDbEntity
  8
0
  6
Continuous
 62
     7
100
AcDbCircle
 10
-383.4014587402344
 20
361.2779846191406
 30
0.0
 40
3.283333301544189
100
AcDbArc
 50
351.8286258693902
 51
188.1713741306112
  0
ARC
  5
2BA
330
22
100
AcDbEntity
  8
0
  6
Continuous
 62
     7
100
AcDbCircle
 10
-383.4014587402344
 20
285.3113098144531
 30
0.0
 40
3.283333301544189
100
AcDbArc
 50
171.8286258693895
 51
8.171374130610477
  0
ARC
  5
2BB
330
22
100
AcDbEntity
  8
0
  6
Continuous
 62
     7
100
AcDbCircle
 10
-371.9014587402344
 20
366.7008666992188
 30
0.0
 40
3.283333301544189
100
AcDbArc
 50
351.8286258693902
 51
188.1713741306112
  0
ARC
  5
2BC
330
22
100
AcDbEntity
  8
0
  6
Continuous
 62
     7
100
AcDbCircle
 10
-360.4014587402344
 20
285.3113098144531
 30
0.0
 40
3.283333301544189
100
AcDbArc
 50
171.8286258693895
 51
8.171374130610477
  0
ARC
  5
2BD
330
22
100
AcDbEntity
  8
0
  6
Continuous
 62
     7
100
AcDbCircle
 10
-383.4014587402344
 20
319.111328125
 30
0.0
 40
3.283333301544189
100
AcDbArc
 50
171.8286258693895
 51
8.171374130610477
  0
ARC
  5
2BE
330
22
100
AcDbEntity
  8
0
  6
Continuous
 62
     7
100
AcDbCircle
 10
-360.4014587402344
 20
311.8446655273438
 30
0.0
 40
3.283333301544189
100
AcDbArc
 50
351.8286258693902
 51
188.1713741306112
  0
ARC
  5
2BF
330
22
100
AcDbEntity
  8
0
  6
Continuous
 62
     7
100
AcDbCircle
 10
-360.4014587402344
 20
343.6143493652344
 30
0.0
 40
3.283333301544189
100
AcDbArc
 50
171.8286258693895
 51
8.171374130610477
  0
ARC
  5
2C0
330
22
100
AcDbEntity
  8
0
  6
Continuous
 62
     7
100
AcDbCircle
 10
-360.4014587402344
 20
323.4113159179688
 30
0.0
 40
3.283333301544189
100
AcDbArc
 50
171.8286258693895
 51
8.171374130610477
  0
ARC
  5
2C1
330
22
100
AcDbEntity
  8
0
  6
Continuous
 62
     7
100
AcDbCircle
 10
-394.9014587402344
 20
325.3113098144531
 30
0.0
 40
3.283333301544189
100
AcDbArc
 50
171.8286258693895
 51
8.171374130610477
  0
ARC
  5
2C2
330
22
100
AcDbEntity
  8
0
  6
Continuous
 62
     7
100
AcDbCircle
 10
-394.9014587402344
 20
313.7446594238281
 30
0.0
 40
3.283333301544189
100
AcDbArc
 50
351.8286258693902
 51
188.1713741306112
  0
ARC
  5
2C3
330
22
100
AcDbEntity
  8
0
  6
Continuous
 62
     7
100
AcDbCircle
 10
-383.4014587402344
 20
307.5446472167969
 30
0.0
 40
3.283333301544189
100
AcDbArc
 50
351.8291530098786
 51
188.1708469901228
  0
ARC
  5
2C4
330
22
100
AcDbEntity
  8
0
  6
Continuous
 62
     7
100
AcDbCircle
 10
-371.9014587402344
 20
310.3113098144531
 30
0.0
 40
3.283333301544189
100
AcDbArc
 50
171.8286258693895
 51
8.171374130610477
  0
ARC
  5
2C5
330
22
100
AcDbEntity
  8
0
  6
Continuous
 62
     7
100
AcDbCircle
 10
-394.9014587402344
 20
285.3113098144531
 30
0.0
 40
3.283333301544189
100
AcDbArc
 50
171.8286258693895
 51
8.171374130610477
  0
ARC
  5
2C6
330
22
100
AcDbEntity
  8
0
  6
Continuous
 62
     7
100
AcDbCircle
 10
-371.9014587402344
 20
298.7446594238281
 30
0.0
 40
3.283333301544189
100
AcDbArc
 50
351.8286258693902
 51
188.1713741306112
  0
ARC
  5
2C7
330
22
100
AcDbEntity
  8
0
  6
Continuous
 62
     7
100
AcDbCircle
 10
-360.4014587402344
 20
331.9446716308594
 30
0.0
 40
3.283333301544189
100
AcDbArc
 50
351.8286258693902
 51
188.1713741306112
  0
ARC
  5
2C8
330
22
100
AcDbEntity
  8
0
  6
Continuous
 62
     7
100
AcDbCircle
 10
-383.4014587402344
 20
339.21435546875
 30
0.0
 40
3.283333301544189
100
AcDbArc
 50
171.8286258693895
 51
8.171374130610477
  0
ARC
  5
2C9
330
22
100
AcDbEntity
  8
0
  6
Continuous
 62
     7
100
AcDbCircle
 10
-371.9014587402344
 20
285.3113098144531
 30
0.0
 40
3.283333301544189
100
AcDbArc
 50
171.8286258693895
 51
8.171374130610477
  0
ARC
  5
2CA
330
22
100
AcDbEntity
  8
0
  6
Continuous
 62
     7
100
AcDbCircle
 10
-371.9014587402344
 20
341.5978393554688
 30
0.0
 40
3.283333301544189
100
AcDbArc
 50
351.8286258693902
 51
188.1713741306112
  0
ARC
  5
2CB
330
22
100
AcDbEntity
  8
0
  6
Continuous
 62
     7
100
AcDbCircle
 10
-394.9014587402344
 20
353.6648864746094
 30
0.0
 40
3.283333301544189
100
AcDbArc
 50
351.8286258693902
 51
188.1713741306112
  0
ARC
  5
2CC
330
22
100
AcDbEntity
  8
0
  6
Continuous
 62
     7
100
AcDbCircle
 10
-360.4014587402344
 20
370.4338684082031
 30
0.0
 40
3.283333301544189
100
AcDbArc
 50
351.8286258693902
 51
188.1713741306112
  0
ARC
  5
2CD
330
22
100
AcDbEntity
  8
0
  6
Continuous
 62
     7
100
AcDbCircle
 10
-383.4014587402344
 20
327.5446472167969
 30
0.0
 40
3.283333301544189
100
AcDbArc
 50
351.8291530098786
 51
188.1708469901228
  0
ARC
  5
2CE
330
22
100
AcDbEntity
  8
0
  6
Continuous
 62
     7
100
AcDbCircle
 10
-302.9014587402344
 20
216.4581604003906
 30
0.0
 40
3.283333301544189
100
AcDbArc
 50
171.8288894394597
 51
8.171110560540375
  0
ARC
  5
2CF
330
22
100
AcDbEntity
  8
0
  6
Continuous
 62
     7
100
AcDbCircle
 10
-279.9014587402344
 20
244.3113250732422
 30
0.0
 40
3.283333301544189
100
AcDbArc
 50
171.8288894394597
 51
8.171110560540375
  0
ARC
  5
2D0
330
22
100
AcDbEntity
  8
0
  6
Continuous
 62
     7
100
AcDbCircle
 10
-314.4014587402344
 20
246.2113189697266
 30
0.0
 40
3.283333301544189
100
AcDbArc
 50
171.8286258693895
 51
8.171374130610477
  0
ARC
  5
2D1
330
22
100
AcDbEntity
  8
0
  6
Continuous
 62
     7
100
AcDbCircle
 10
-302.9014587402344
 20
247.7446594238281
 30
0.0
 40
3.283333301544189
100
AcDbArc
 50
351.8286258693902
 51
188.1713741306112
  0
ARC
  5
2D2
330
22
100
AcDbEntity
  8
0
  6
Continuous
 62
     7
100
AcDbCircle
 10
-291.4014587402344
 20
250.5113220214844
 30
0.0
 40
3.283333301544189
100
AcDbArc
 50
171.8286258693895
 51
8.171374130610477
  0
ARC
  5
2D3
330
22
100
AcDbEntity
  8
0
  6
Continuous
 62
     7
100
AcDbCircle
 10
-314.4014587402344
 20
187.6221008300781
 30
0.0
 40
3.283333301544189
100
AcDbArc
 50
171.8286258693895
 51
8.171374130610477
  0
ARC
  5
2D4
330
22
100
AcDbEntity
  8
0
  6
Continuous
 62
     7
100
AcDbCircle
 10
-314.4014587402344
 20
234.6446533203125
 30
0.0
 40
3.283333301544189
100
AcDbArc
 50
351.8288894394603
 51
188.1711105605411
  0
ARC
  5
2D5
330
22
100
AcDbEntity
  8
0
  6
Continuous
 62
     7
100
AcDbCircle
 10
-337.4014587402344
 20
279.0279846191406
 30
0.0
 40
97.5
100
AcDbArc
 50
12.33290102953498
 51
18.14677867105627
  0
ARC
  5
2D6
330
22
100
AcDbEntity
  8
0
  6
Continuous
 62
     7
100
AcDbCircle
 10
-246.6514434814453
 20
308.7716979980469
 30
0.0
 40
2.0
100
AcDbArc
 50
18.14659096807063
 51
180.0000000000004
  0
ARC
  5
2D7
330
22
100
AcDbEntity
  8
0
  6
Continuous
 62
     7
100
AcDbCircle
 10
-245.4014434814453
 20
285.3113098144531
 30
0.0
 40
3.283333301544189
100
AcDbArc
 50
171.8286258693895
 51
8.171374130610477
  0
ARC
  5
2D8
330
22
100
AcDbEntity
  8
0
  6
Continuous
 62
     7
100
AcDbCircle
 10
-245.4014434814453
 20
272.7446594238281
 30
0.0
 40
3.283333301544189
100
AcDbArc
 50
351.8286258693902
 51
188.1713741306112
  0
ARC
  5
2D9
330
22
100
AcDbEntity
  8
0
  6
Continuous
 62
     7
100
AcDbCircle
 10
-325.9014587402344
 20
314.1943664550781
 30
0.0
 40
3.283333301544189
100
AcDbArc
 50
171.8291530098779
 51
8.170846990122083
  0
ARC
  5
2DA
330
22
100
AcDbEntity
  8
0
  6
Continuous
 62
     7
100
AcDbCircle
 10
-314.4014587402344
 20
226.111328125
 30
0.0
 40
3.283333301544189
100
AcDbArc
 50
171.8288894394597
 51
8.171110560540375
  0
ARC
  5
2DB
330
22
100
AcDbEntity
  8
0
  6
Continuous
 62
     7
100
AcDbCircle
 10
-314.4014587402344
 20
214.4416351318359
 30
0.0
 40
3.283333301544189
100
AcDbArc
 50
351.8286258693902
 51
188.1713741306112
  0
ARC
  5
2DC
330
22
100
AcDbEntity
  8
0
  6
Continuous
 62
     7
100
AcDbCircle
 10
-337.4014587402344
 20
217.2113189697266
 30
0.0
 40
3.283333301544189
100
AcDbArc
 50
171.8286258693895
 51
8.171374130610477
  0
ARC
  5
2DD
330
22
100
AcDbEntity
  8
0
  6
Continuous
 62
     7
100
AcDbCircle
 10
-337.4014587402344
 20
205.6446533203125
 30
0.0
 40
3.283333301544189
100
AcDbArc
 50
351.8288894394603
 51
188.1711105605411
  0
ARC
  5
2DE
330
22
100
AcDbEntity
  8
0
  6
Continuous
 62
     7
100
AcDbCircle
 10
-337.4014587402344
 20
249.6613311767578
 30
0.0
 40
3.283333301544189
100
AcDbArc
 50
171.8288894394597
 51
8.171110560540375
  0
ARC
  5
2DF
330
22
100
AcDbEntity
  8
0
  6
Continuous
 62
     7
100
AcDbCircle
 10
-302.9014587402344
 20
191.3551330566406
 30
0.0
 40
3.283333301544189
100
AcDbArc
 50
171.8288894394597
 51
8.171110560540375
  0
ARC
  5
2E0
330
22
100
AcDbEntity
  8
0
  6
Continuous
 62
     7
100
AcDbCircle
 10
-279.9014587402344
 20
204.3910980224609
 30
0.0
 40
3.283333301544189
100
AcDbArc
 50
171.8288894394597
 51
8.171110560540375
  0
ARC
  5
2E1
330
22
100
AcDbEntity
  8
0
  6
Continuous
 62
     7
100
AcDbCircle
 10
-291.4014587402344
 20
218.8416290283203
 30
0.0
 40
3.283333301544189
100
AcDbArc
 50
351.8288894394603
 51
188.1711105605411
  0
ARC
  5
2E2
330
22
100
AcDbEntity
  8
0
  6
Continuous
 62
     7
100
AcDbCircle
 10
-291.4014587402344
 20
230.5113220214844
 30
0.0
 40
3.283333301544189
100
AcDbArc
 50
171.8286258693895
 51
8.171374130610477
  0
ARC
  5
2E3
330
22
100
AcDbEntity
  8
0
  6
Continuous
 62
     7
100
AcDbCircle
 10
-291.4014587402344
 20
238.9446563720703
 30
0.0
 40
3.283333301544189
100
AcDbArc
 50
351.8288894394603
 51
188.1711105605411
  0
ARC
  5
2E4
330
22
100
AcDbEntity
  8
0
  6
Continuous
 62
     7
100
AcDbCircle
 10
-279.9014587402344
 20
232.7446594238281
 30
0.0
 40
3.283333301544189
100
AcDbArc
 50
351.8286258693902
 51
188.1713741306112
  0
ARC
  5
2E5
330
22
100
AcDbEntity
  8
0
  6
Continuous
 62
     7
100
AcDbCircle
 10
-291.4014587402344
 20
196.7779846191406
 30
0.0
 40
3.283333301544189
100
AcDbArc
 50
171.8286258693895
 51
8.171374130610477
  0
ARC
  5
2E6
330
22
100
AcDbEntity
  8
0
  6
Continuous
 62
     7
100
AcDbCircle
 10
-302.9014587402344
 20
204.7884674072266
 30
0.0
 40
3.283333301544189
100
AcDbArc
 50
351.8286258693902
 51
188.1713741306112
  0
ARC
  5
2E7
330
22
100
AcDbEntity
  8
0
  6
Continuous
 62
     7
100
AcDbCircle
 10
-246.6514434814453
 20
249.2842864990234
 30
0.0
 40
2.0
100
AcDbArc
 50
180.0000000000004
 51
341.8534090319301
  0
ARC
  5
2E8
330
22
100
AcDbEntity
  8
0
  6
Continuous
 62
     7
100
AcDbCircle
 10
-325.9014587402344
 20
214.4282989501953
 30
0.0
 40
3.283333301544189
100
AcDbArc
 50
171.8288894394597
 51
8.171110560540375
  0
ARC
  5
2E9
330
22
100
AcDbEntity
  8
0
  6
Continuous
 62
     7
100
AcDbCircle
 10
-325.9014587402344
 20
255.4613189697266
 30
0.0
 40
3.283333301544189
100
AcDbArc
 50
171.8286258693895
 51
8.171374130610477
  0
ARC
  5
2EA
330
22
100
AcDbEntity
  8
0
  6
Continuous
 62
     7
100
AcDbCircle
 10
-325.9014587402344
 20
243.8616333007813
 30
0.0
 40
3.283333301544189
100
AcDbArc
 50
351.8286258693902
 51
188.1713741306112
  0
ARC
  5
2EB
330
22
100
AcDbEntity
  8
0
  6
Continuous
 62
     7
100
AcDbCircle
 10
-325.9014587402344
 20
202.8616333007813
 30
0.0
 40
3.283333301544189
100
AcDbArc
 50
351.8286258693902
 51
188.1713741306112
  0
ARC
  5
2EC
330
22
100
AcDbEntity
  8
0
  6
Continuous
 62
     7
100
AcDbCircle
 10
-325.9014587402344
 20
185.4918975830078
 30
0.0
 40
3.283333301544189
100
AcDbArc
 50
171.8286258693895
 51
8.171374130610477
  0
ARC
  5
2ED
330
22
100
AcDbEntity
  8
0
  6
Continuous
 62
     7
100
AcDbCircle
 10
-337.4014587402344
 20
184.8113250732422
 30
0.0
 40
3.283333301544189
100
AcDbArc
 50
171.8288894394597
 51
8.171110560540375
  0
ARC
  5
2EE
330
22
100
AcDbEntity
  8
0
  6
Continuous
 62
     7
100
AcDbCircle
 10
-337.4014587402344
 20
238.0446624755859
 30
0.0
 40
3.283333301544189
100
AcDbArc
 50
351.8286258693902
 51
188.1713741306112
  0
ARC
  5
2EF
330
22
100
AcDbEntity
  8
0
  6
Continuous
 62
     7
100
AcDbCircle
 10
-314.4014587402344
 20
312.0446472167969
 30
0.0
 40
3.283333301544189
100
AcDbArc
 50
351.8291530098786
 51
188.1708469901228
  0
ARC
  5
2F0
330
22
100
AcDbEntity
  8
0
  6
Continuous
 62
     7
100
AcDbCircle
 10
-314.4014587402344
 20
370.4338684082031
 30
0.0
 40
3.283333301544189
100
AcDbArc
 50
8.171374130610477
 51
171.8286258693895
  0
ARC
  5
2F1
330
22
100
AcDbEntity
  8
0
  6
Continuous
 62
     7
100
AcDbCircle
 10
-314.4014587402344
 20
285.3113098144531
 30
0.0
 40
3.283333301544189
100
AcDbArc
 50
171.8286258693895
 51
8.171374130610477
  0
ARC
  5
2F2
330
22
100
AcDbEntity
  8
0
  6
Continuous
 62
     7
100
AcDbCircle
 10
-314.4014587402344
 20
343.6143493652344
 30
0.0
 40
3.283333301544189
100
AcDbArc
 50
171.8286258693895
 51
8.171374130610477
  0
ARC
  5
2F3
330
22
100
AcDbEntity
  8
0
  6
Continuous
 62
     7
100
AcDbCircle
 10
-325.9014587402344
 20
355.1943664550781
 30
0.0
 40
3.283333301544189
100
AcDbArc
 50
171.8291530098779
 51
8.170846990122083
  0
ARC
  5
2F4
330
22
100
AcDbEntity
  8
0
  6
Continuous
 62
     7
100
AcDbCircle
 10
-325.9014587402344
 20
302.5946655273438
 30
0.0
 40
3.283333301544189
100
AcDbArc
 50
351.8286258693902
 51
188.1713741306112
  0
ARC
  5
2F5
330
22
100
AcDbEntity
  8
0
  6
Continuous
 62
     7
100
AcDbCircle
 10
-325.9014587402344
 20
285.3113098144531
 30
0.0
 40
3.283333301544189
100
AcDbArc
 50
171.8286258693895
 51
8.171374130610477
  0
ARC
  5
2F6
330
22
100
AcDbEntity
  8
0
  6
Continuous
 62
     7
100
AcDbCircle
 10
-325.9014587402344
 20
372.5640869140625
 30
0.0
 40
3.283333301544189
100
AcDbArc
 50
351.8286258693902
 51
171.8291530098779
  0
ARC
  5
2F7
330
22
100
AcDbEntity
  8
0
  6
Continuous
 62
     7
100
AcDbCircle
 10
-325.9014587402344
 20
272.7446594238281
 30
0.0
 40
3.283333301544189
100
AcDbArc
 50
351.8286258693902
 51
188.1713741306112
  0
ARC
  5
2F8
330
22
100
AcDbEntity
  8
0
  6
Continuous
 62
     7
100
AcDbCircle
 10
-337.4014587402344
 20
373.2446594238281
 30
0.0
 40
3.283333301544189
100
AcDbArc
 50
8.171374130610477
 51
171.8286258693895
  0
ARC
  5
2F9
330
22
100
AcDbEntity
  8
0
  6
Continuous
 62
     7
100
AcDbCircle
 10
-337.4014587402344
 20
285.3113098144531
 30
0.0
 40
3.283333301544189
100
AcDbArc
 50
171.8286258693895
 51
8.171374130610477
  0
ARC
  5
2FA
330
22
100
AcDbEntity
  8
0
  6
Continuous
 62
     7
100
AcDbCircle
 10
-337.4014587402344
 20
308.3946533203125
 30
0.0
 40
3.283333301544189
100
AcDbArc
 50
351.8286258693902
 51
188.1713741306112
  0
ARC
  5
2FB
330
22
100
AcDbEntity
  8
0
  6
Continuous
 62
     7
100
AcDbCircle
 10
-325.9014587402344
 20
343.627685546875
 30
0.0
 40
3.283333301544189
100
AcDbArc
 50
351.8286258693902
 51
188.1713741306112
  0
ARC
  5
2FC
330
22
100
AcDbEntity
  8
0
  6
Continuous
 62
     7
100
AcDbCircle
 10
-268.5858459472656
 20
123.3184967041016
 30
0.0
 40
12.89286136627197
100
AcDbArc
 50
268.904531247404
 51
306.9688052921438
  0
ARC
  5
2FD
330
22
100
AcDbEntity
  8
0
  6
Continuous
 62
     7
100
AcDbCircle
 10
-440.7656860351563
 20
119.9147415161133
 30
0.0
 40
5.0
100
AcDbArc
 50
180.0000000000004
 51
239.9999821377166
  0
ARC
  5
2FE
330
22
100
AcDbEntity
  8
0
  6
Continuous
 62
     7
100
AcDbCircle
 10
-234.7656860351563
 20
119.9147415161133
 30
0.0
 40
5.0
100
AcDbArc
 50
300.0000178622848
 51
0.0
  0
ARC
  5
2FF
330
22
100
AcDbEntity
  8
0
  6
Continuous
 62
     7
100
AcDbCircle
 10
-241.2656860351563
 20
119.6260681152344
 30
0.0
 40
5.0
100
AcDbArc
 50
299.9999741490847
 51
0.0
  0
ARC
  5
300
330
22
100
AcDbEntity
  8
0
  6
Continuous
 62
     7
100
AcDbCircle
 10
-370.0772705078125
 20
45.51830291748046
 30
0.0
 40
9.522980690002439
100
AcDbArc
 50
63.328652682142
 51
93.02787590646829
  0
ARC
  5
301
330
22
100
AcDbEntity
  8
0
  6
Continuous
 62
     7
100
AcDbCircle
 10
-369.9048767089844
 20
53.45898818969727
 30
0.0
 40
1.708203315734863
100
AcDbArc
 50
113.2906083532925
 51
160.5429810723855
  0
ARC
  5
302
330
22
100
AcDbEntity
  8
0
  6
Continuous
 62
     7
100
AcDbCircle
 10
-405.2032165527343
 20
87.86717224121094
 30
0.0
 40
5.0
100
AcDbArc
 50
9.064937697373572
 51
54.01965193787703
  0
ARC
  5
303
330
22
100
AcDbEntity
  8
0
  6
Continuous
 62
     7
100
AcDbCircle
 10
-269.6227111816406
 20
115.2230987548828
 30
0.0
 40
4.859811782836914
100
AcDbArc
 50
209.9785708329918
 51
279.3598748099739
  0
ARC
  5
304
330
22
100
AcDbEntity
  8
0
  6
Continuous
 62
     7
100
AcDbCircle
 10
-451.7656860351562
 20
128.0279846191406
 30
0.0
 40
1.0
100
AcDbArc
 50
90.00000000000019
 51
180.0000000000004
  0
ARC
  5
305
330
22
100
AcDbEntity
  8
0
  6
Continuous
 62
     7
100
AcDbCircle
 10
-283.2656860351563
 20
84.02799224853515
 30
0.0
 40
2.0
100
AcDbArc
 50
0.0
 51
90.00000000000019
  0
ARC
  5
306
330
22
100
AcDbEntity
  8
0
  6
Continuous
 62
     7
100
AcDbCircle
 10
-284.2656860351563
 20
87.8718032836914
 30
0.0
 40
1.0
100
AcDbArc
 50
119.9999304359993
 51
180.0000000000004
  0
ARC
  5
307
330
22
100
AcDbEntity
  8
0
  6
Continuous
 62
     7
100
AcDbCircle
 10
-281.7656860351563
 20
74.52799224853515
 30
0.0
 40
0.5
100
AcDbArc
 50
270.0000000000005
 51
0.0
  0
ARC
  5
308
330
22
100
AcDbEntity
  8
0
  6
Continuous
 62
     7
100
AcDbCircle
 10
-271.2656860351563
 20
87.29444885253906
 30
0.0
 40
5.0
100
AcDbArc
 50
119.9999741490839
 51
180.0000000000004
  0
ARC
  5
309
330
22
100
AcDbEntity
  8
0
  6
Continuous
 62
     7
100
AcDbCircle
 10
-284.2656860351563
 20
87.02799224853515
 30
0.0
 40
1.0
100
AcDbArc
 50
180.0000000000004
 51
270.0000000000005
  0
ARC
  5
30A
330
22
100
AcDbEntity
  8
0
  6
Continuous
 62
     7
100
AcDbCircle
 10
-451.7656860351562
 20
126.0279922485352
 30
0.0
 40
1.0
100
AcDbArc
 50
180.0000000000004
 51
270.0000000000005
  0
ARC
  5
30B
330
22
100
AcDbEntity
  8
0
  6
Continuous
 62
     7
100
AcDbCircle
 10
-236.7656860351563
 20
125.5279922485352
 30
0.0
 40
0.5
100
AcDbArc
 50
0.0
 51
90.00000000000019
  0
ARC
  5
30C
330
22
100
AcDbEntity
  8
0
  6
Continuous
 62
     7
100
AcDbCircle
 10
-228.7656860351563
 20
124.0279922485352
 30
0.0
 40
1.0
100
AcDbArc
 50
90.00000000000019
 51
180.0000000000004
  0
ARC
  5
30D
330
22
100
AcDbEntity
  8
0
  6
Continuous
 62
     7
100
AcDbCircle
 10
-223.7656860351563
 20
126.0279922485352
 30
0.0
 40
1.0
100
AcDbArc
 50
270.0000000000005
 51
0.0
  0
ARC
  5
30E
330
22
100
AcDbEntity
  8
0
  6
Continuous
 62
     7
100
AcDbCircle
 10
-223.7656860351563
 20
128.0279846191406
 30
0.0
 40
1.0
100
AcDbArc
 50
0.0
 51
90.00000000000019
  0
LWPOLYLINE
  5
30F
330
22
100
AcDbEntity
  8
0
  6
Continuous
 62
     7
100
AcDbPolyline
 90
       17
 70
     0
 43
0.0
 10
-365.8026561478926
 20
89.2217941283917
 42
0.0401679067373625
 10
-365.9738002859632
 20
89.63102640192841
 42
0.0401679067373625
 10
-366.2140429725195
 20
90.02972820063888
 42
0.0401679067373625
 10
-366.5172022181956
 20
90.40764002270405
 42
0.0401679067373625
 10
-366.8754770478202
 20
90.75503733957027
 42
0.0401679067373625
 10
-367.2796482372061
 20
91.06298083013136
 42
0.0401679067373625
 10
-367.7193155447034
 20
91.32354640974105
 42
0.0401679067373625
 10
-368.1831653330133
 20
91.53002913488853
 42
0.0401679067373625
 10
-368.6592616947427
 20
91.67711573660669
 42
0.0401679067373625
 10
-369.1353535903798
 20
91.76102134293655
 42
0.0401679067373625
 10
-369.5991900953366
 20
91.77958687226999
 42
0.0401679067373625
 10
-370.0388356440303
 20
91.73233459141744
 42
0.0401679067373625
 10
-370.4429771590654
 20
91.62048040876683
 42
0.0401679067373625
 10
-370.8012151623807
 20
91.44690258620242
 42
0.0401679067373625
 10
-371.1043313774132
 20
91.21606767489623
 42
0.0401679067373625
 10
-371.3445259362678
 20
90.93391558081341
 42
0.0401679067373625
 10
-371.5156180880135
 20
90.60770671745556
 42
-1.0
  0
TEXT
  5
322
330
22
100
AcDbEntity
  8
0
  6
Continuous
 62
     7
100
AcDbText
 10
-211.9917078018189
 20
174.4565124511719
 30
0.0
 40
7.0
  1
ＤＬ－ＣＳＧ－１００Ｇ
 41
0.8440126641457824
100
AcDbText
  0
INSERT
  5
323
330
22
100
AcDbEntity
  8
0
  6
Continuous
 62
     7
100
AcDbBlockReference
  2
KOZU0001
 10
-283.1339416503906
 20
66.94065856933594
 30
0.0
  0
DIMENSION
  5
324
330
22
100
AcDbEntity
  8
0
  6
Continuous
 62
     7
100
AcDbDimension
  2
*D1
 10
-428.1696788506606
 20
208.4154487775127
 30
0.0
 11
-226.6174621582031
 21
365.211669921875
 31
0.0
 70
     3
 71
     5
 42
-1.0
  3
DIMSTYLE1
100
AcDbDiametricDimension
 15
-246.633238629808
 25
349.6405204607687
 35
0.0
 40
0.0
  0
DIMENSION
  5
325
330
22
100
AcDbEntity
  8
0
  6
Continuous
 62
     7
100
AcDbDimension
  2
*D2
 10
-434.8398569421489
 20
241.2654561571173
 30
0.0
 11
-207.5338439941406
 21
329.3585510253906
 31
0.0
 70
     3
 71
     5
 42
-1.0
  3
DIMSTYLE2
100
AcDbDiametricDimension
 15
-239.9630605383198
 25
316.790513081164
 35
0.0
 40
0.0
  0
DIMENSION
  5
326
330
22
100
AcDbEntity
  8
0
  6
Continuous
 62
     7
100
AcDbDimension
  2
*D3
 10
-200.6806335449219
 20
129.0279846191406
 30
0.0
 11
-200.6806335449219
 21
91.52799224853515
 31
0.0
 71
     5
 42
-1.0
  3
DIMSTYLE3
100
AcDbAlignedDimension
 13
-277.2656860351563
 23
54.02799224853516
 33
0.0
 14
-223.7656860351563
 24
129.0279846191406
 34
0.0
 50
90.0
100
AcDbRotatedDimension
  0
ENDSEC
  0
SECTION
  2
OBJECTS
  0
DICTIONARY
  5
C
330
0
100
AcDbDictionary
281
     1
  3
ACAD_COLOR
350
1B
  3
ACAD_GROUP
350
D
  3
ACAD_LAYOUT
350
19
  3
ACAD_MATERIAL
350
1A
  3
ACAD_MLINESTYLE
350
16
  3
ACAD_PLOTSETTINGS
350
18
  3
ACAD_PLOTSTYLENAME
350
E
  3
ACAD_TABLESTYLE
350
1C
  3
AcDbVariableDictionary
350
332
  0
DICTIONARY
  5
1B
102
{ACAD_REACTORS
330
C
102
}
330
C
100
AcDbDictionary
281
     1
  0
DICTIONARY
  5
D
102
{ACAD_REACTORS
330
C
102
}
330
C
100
AcDbDictionary
281
     1
  0
DICTIONARY
  5
19
102
{ACAD_REACTORS
330
C
102
}
330
C
100
AcDbDictionary
281
     1
  3
Model
350
25
  3
レイアウト1
350
21
  0
DICTIONARY
  5
1A
102
{ACAD_REACTORS
330
C
102
}
330
C
100
AcDbDictionary
281
     1
  0
DICTIONARY
  5
16
102
{ACAD_REACTORS
330
C
102
}
330
C
100
AcDbDictionary
281
     1
  3
Standard
350
17
  0
DICTIONARY
  5
18
102
{ACAD_REACTORS
330
C
102
}
330
C
100
AcDbDictionary
281
     1
  0
ACDBDICTIONARYWDFLT
  5
E
102
{ACAD_REACTORS
330
C
102
}
330
C
100
AcDbDictionary
281
     1
  3
Normal
350
F
100
AcDbDictionaryWithDefault
340
F
  0
DICTIONARY
  5
1C
102
{ACAD_REACTORS
330
C
102
}
330
C
100
AcDbDictionary
281
     1
  3
Standard
350
1D
  0
DICTIONARY
  5
332
102
{ACAD_REACTORS
330
C
102
}
330
C
100
AcDbDictionary
281
     1
  3
CTABLESTYLE
350
333
  0
LAYOUT
  5
25
102
{ACAD_REACTORS
330
19
102
}
330
19
100
AcDbPlotSettings
  1

  2
PDF reDirect v2
  4
User66
  6

 40
3.174999952316284
 41
3.174999952316284
 42
3.17498779296875
 43
3.17498779296875
 44
420.0
 45
594.0
 46
0.0
 47
0.0
 48
0.0
 49
0.0
140
0.0
141
0.0
142
1.0
143
1.0
 70
 11952
 72
     1
 73
     1
 74
     2
  7
C:\Users\ck\AppData\Roaming\Autodesk\AutoCAD 2005\R16.1\jpn\Plot Styles\black.ctb
 75
    16
147
1.0
 76
     0
 77
     2
 78
   300
148
592.0
149
0.0
100
AcDbLayout
  1
Model
 70
     1
 71
     0
 10
0.0
 20
0.0
 11
12.0
 21
9.0
 12
0.0
 22
0.0
 32
0.0
 14
0.0
 24
0.0
 34
0.0
 15
0.0
 25
0.0
 35
0.0
146
0.0
 13
0.0
 23
0.0
 33
0.0
 16
1.0
 26
0.0
 36
0.0
 17
0.0
 27
1.0
 37
0.0
 76
     0
330
22
1001
ACAD_PSEXT
1000
PDF reDirect v2
1000
PDF reDirect Pro
1000
PDF_REDIRECT_PORT:
1000
PDF reDirect provided by EXP Systems
1070
     0
  0
LAYOUT
  5
21
102
{ACAD_REACTORS
330
19
102
}
330
19
100
AcDbPlotSettings
  1

  2
PDF reDirect v2
  4

  6

 40
0.0
 41
0.0
 42
0.0
 43
0.0
 44
0.0
 45
0.0
 46
0.0
 47
0.0
 48
0.0
 49
0.0
140
0.0
141
0.0
142
1.0
143
1.0
 70
   688
 72
     0
 73
     0
 74
     5
  7
C:\Users\ck\AppData\Roaming\Autodesk\AutoCAD 2005\R16.1\jpn\Plot Styles\black.ctb
 75
    16
147
1.0
 76
     0
 77
     2
 78
   300
148
0.0
149
0.0
100
AcDbLayout
  1
レイアウト1
 70
     1
 71
     1
 10
-592.0
 20
0.0
 11
0.0
 21
418.0
 12
0.0
 22
0.0
 32
0.0
 14
1.000000000000000E+20
 24
1.000000000000000E+20
 34
1.000000000000000E+20
 15
-1.000000000000000E+20
 25
-1.000000000000000E+20
 35
-1.000000000000000E+20
146
0.0
 13
0.0
 23
0.0
 33
0.0
 16
1.0
 26
0.0
 36
0.0
 17
0.0
 27
1.0
 37
0.0
 76
     0
330
1E
  0
MLINESTYLE
  5
17
102
{ACAD_REACTORS
330
16
102
}
330
16
100
AcDbMlineStyle
  2
STANDARD
 70
     0
  3

 62
   256
 51
90.0
 52
90.0
 71
     2
 49
0.5
 62
   256
  6
BYLAYER
 49
-0.5
 62
   256
  6
BYLAYER
  0
ACDBPLACEHOLDER
  5
F
102
{ACAD_REACTORS
330
E
102
}
330
E
  0
TABLESTYLE
  5
1D
102
{ACAD_REACTORS
330
1C
102
}
330
1C
100
AcDbTableStyle
  3
Standard
 70
     0
 71
     0
 40
0.06
 41
0.06
280
     0
281
     0
  7
STANDARD
140
0.18
170
     2
 62
     0
 63
     7
283
     0
274
    -2
284
     1
 64
     0
275
    -2
285
     1
 65
     0
276
    -2
286
     1
 66
     0
277
    -2
287
     1
 67
     0
278
    -2
288
     1
 68
     0
279
    -2
289
     1
 69
     0
  7
STANDARD
140
0.25
170
     5
 62
     0
 63
     7
283
     0
274
    -2
284
     1
 64
     0
275
    -2
285
     1
 65
     0
276
    -2
286
     1
 66
     0
277
    -2
287
     1
 67
     0
278
    -2
288
     1
 68
     0
279
    -2
289
     1
 69
     0
  7
STANDARD
140
0.18
170
     5
 62
     0
 63
     7
283
     0
274
    -2
284
     1
 64
     0
275
    -2
285
     1
 65
     0
276
    -2
286
     1
 66
     0
277
    -2
287
     1
 67
     0
278
    -2
288
     1
 68
     0
279
    -2
289
     1
 69
     0
  0
DICTIONARYVAR
  5
333
102
{ACAD_REACTORS
330
332
102
}
330
332
100
DictionaryVariables
280
     0
  1
STANDARD
  0
ENDSEC
  0
EOF
