  0
SECTION
  2
HEADER
  9
$ACADVER
  1
AC1018
  9
$ACADMAINTVER
 70
    39
  9
$DWGCODEPAGE
  3
ANSI_932
  9
$INSBASE
 10
0.0
 20
0.0
 30
0.0
  9
$EXTMIN
 10
-574.9817940038417
 20
18.19821306713652
 30
-0.0015258207003583
  9
$EXTMAX
 10
-288.7903121034501
 20
564.27983227754
 30
0.0000000349246037
  9
$LIMMIN
 10
-839.0
 20
0.0
  9
$LIMMAX
 10
0.0
 20
591.0
  9
$ORTHOMODE
 70
     0
  9
$REGENMODE
 70
     1
  9
$FILLMODE
 70
     1
  9
$QTEXTMODE
 70
     0
  9
$MIRRTEXT
 70
     0
  9
$LTSCALE
 40
1.0
  9
$ATTMODE
 70
     1
  9
$TEXTSIZE
 40
0.2
  9
$TRACEWID
 40
0.05
  9
$TEXTSTYLE
  7
STANDARD
  9
$CLAYER
  8
0
  9
$CELTYPE
  6
CONTINUOUS
  9
$CECOLOR
 62
   256
  9
$CELTSCALE
 40
1.0
  9
$DISPSILH
 70
     0
  9
$DIMSCALE
 40
1.0
  9
$DIMASZ
 40
1.0
  9
$DIMEXO
 40
2.54
  9
$DIMDLI
 40
0.38
  9
$DIMRND
 40
0.0
  9
$DIMDLE
 40
0.0
  9
$DIMEXE
 40
2.54
  9
$DIMTP
 40
0.0
  9
$DIMTM
 40
0.0
  9
$DIMTXT
 40
3.0
  9
$DIMCEN
 40
0.09
  9
$DIMTSZ
 40
0.0
  9
$DIMTOL
 70
     0
  9
$DIMLIM
 70
     0
  9
$DIMTIH
 70
     0
  9
$DIMTOH
 70
     0
  9
$DIMSE1
 70
     0
  9
$DIMSE2
 70
     0
  9
$DIMTAD
 70
     1
  9
$DIMZIN
 70
     0
  9
$DIMBLK
  1

  9
$DIMASO
 70
     1
  9
$DIMSHO
 70
     0
  9
$DIMPOST
  1

  9
$DIMAPOST
  1

  9
$DIMALT
 70
     0
  9
$DIMALTD
 70
     2
  9
$DIMALTF
 40
25.4
  9
$DIMLFAC
 40
1.0
  9
$DIMTOFL
 70
     0
  9
$DIMTVP
 40
1.0
  9
$DIMTIX
 70
     0
  9
$DIMSOXD
 70
     0
  9
$DIMSAH
 70
     1
  9
$DIMBLK1
  1

  9
$DIMBLK2
  1

  9
$DIMSTYLE
  2
DIMSTYLE1
  9
$DIMCLRD
 70
     0
  9
$DIMCLRE
 70
     0
  9
$DIMCLRT
 70
     0
  9
$DIMTFAC
 40
1.0
  9
$DIMGAP
 40
1.5
  9
$DIMJUST
 70
     0
  9
$DIMSD1
 70
     0
  9
$DIMSD2
 70
     0
  9
$DIMTOLJ
 70
     1
  9
$DIMTZIN
 70
     0
  9
$DIMALTZ
 70
     0
  9
$DIMALTTZ
 70
     0
  9
$DIMUPT
 70
     0
  9
$DIMDEC
 70
     4
  9
$DIMTDEC
 70
     4
  9
$DIMALTU
 70
     2
  9
$DIMALTTD
 70
     2
  9
$DIMTXSTY
  7
STANDARD
  9
$DIMAUNIT
 70
     0
  9
$DIMADEC
 70
     0
  9
$DIMALTRND
 40
0.0
  9
$DIMAZIN
 70
     0
  9
$DIMDSEP
 70
    46
  9
$DIMATFIT
 70
     3
  9
$DIMFRAC
 70
     0
  9
$DIMLDRBLK
  1

  9
$DIMLUNIT
 70
     2
  9
$DIMLWD
 70
    -2
  9
$DIMLWE
 70
    -2
  9
$DIMTMOVE
 70
     0
  9
$LUNITS
 70
     2
  9
$LUPREC
 70
     4
  9
$SKETCHINC
 40
0.1
  9
$FILLETRAD
 40
0.0
  9
$AUNITS
 70
     0
  9
$AUPREC
 70
     0
  9
$MENU
  1
.
  9
$ELEVATION
 40
0.0
  9
$PELEVATION
 40
0.0
  9
$THICKNESS
 40
0.0
  9
$LIMCHECK
 70
     0
  9
$CHAMFERA
 40
0.0
  9
$CHAMFERB
 40
0.0
  9
$CHAMFERC
 40
0.0
  9
$CHAMFERD
 40
0.0
  9
$SKPOLY
 70
     0
  9
$TDCREATE
 40
2457694.668435544
  9
$TDUCREATE
 40
2457694.293435544
  9
$TDUPDATE
 40
2457694.672360475
  9
$TDUUPDATE
 40
2457694.297360475
  9
$TDINDWG
 40
0.0039262037
  9
$TDUSRTIMER
 40
0.0039262037
  9
$USRTIMER
 70
     1
  9
$ANGBASE
 50
0.0
  9
$ANGDIR
 70
     0
  9
$PDMODE
 70
     0
  9
$PDSIZE
 40
0.0
  9
$PLINEWID
 40
0.0
  9
$SPLFRAME
 70
     0
  9
$SPLINETYPE
 70
     6
  9
$SPLINESEGS
 70
     8
  9
$HANDSEED
  5
445
  9
$SURFTAB1
 70
     6
  9
$SURFTAB2
 70
     6
  9
$SURFTYPE
 70
     6
  9
$SURFU
 70
     6
  9
$SURFV
 70
     6
  9
$UCSBASE
  2

  9
$UCSNAME
  2

  9
$UCSORG
 10
0.0
 20
0.0
 30
0.0
  9
$UCSXDIR
 10
1.0
 20
0.0
 30
0.0
  9
$UCSYDIR
 10
0.0
 20
1.0
 30
0.0
  9
$UCSORTHOREF
  2

  9
$UCSORTHOVIEW
 70
     0
  9
$UCSORGTOP
 10
0.0
 20
0.0
 30
0.0
  9
$UCSORGBOTTOM
 10
0.0
 20
0.0
 30
0.0
  9
$UCSORGLEFT
 10
0.0
 20
0.0
 30
0.0
  9
$UCSORGRIGHT
 10
0.0
 20
0.0
 30
0.0
  9
$UCSORGFRONT
 10
0.0
 20
0.0
 30
0.0
  9
$UCSORGBACK
 10
0.0
 20
0.0
 30
0.0
  9
$PUCSBASE
  2

  9
$PUCSNAME
  2

  9
$PUCSORG
 10
0.0
 20
0.0
 30
0.0
  9
$PUCSXDIR
 10
1.0
 20
0.0
 30
0.0
  9
$PUCSYDIR
 10
0.0
 20
1.0
 30
0.0
  9
$PUCSORTHOREF
  2

  9
$PUCSORTHOVIEW
 70
     0
  9
$PUCSORGTOP
 10
0.0
 20
0.0
 30
0.0
  9
$PUCSORGBOTTOM
 10
0.0
 20
0.0
 30
0.0
  9
$PUCSORGLEFT
 10
0.0
 20
0.0
 30
0.0
  9
$PUCSORGRIGHT
 10
0.0
 20
0.0
 30
0.0
  9
$PUCSORGFRONT
 10
0.0
 20
0.0
 30
0.0
  9
$PUCSORGBACK
 10
0.0
 20
0.0
 30
0.0
  9
$USERI1
 70
     0
  9
$USERI2
 70
     0
  9
$USERI3
 70
     0
  9
$USERI4
 70
     0
  9
$USERI5
 70
     0
  9
$USERR1
 40
0.0
  9
$USERR2
 40
0.0
  9
$USERR3
 40
0.0
  9
$USERR4
 40
0.0
  9
$USERR5
 40
0.0
  9
$WORLDVIEW
 70
     1
  9
$SHADEDGE
 70
     3
  9
$SHADEDIF
 70
    70
  9
$TILEMODE
 70
     1
  9
$MAXACTVP
 70
    64
  9
$PINSBASE
 10
0.0
 20
0.0
 30
0.0
  9
$PLIMCHECK
 70
     0
  9
$PEXTMIN
 10
1.000000000000000E+20
 20
1.000000000000000E+20
 30
1.000000000000000E+20
  9
$PEXTMAX
 10
-1.000000000000000E+20
 20
-1.000000000000000E+20
 30
-1.000000000000000E+20
  9
$PLIMMIN
 10
-839.0
 20
0.0
  9
$PLIMMAX
 10
0.0
 20
591.0
  9
$UNITMODE
 70
     0
  9
$VISRETAIN
 70
     1
  9
$PLINEGEN
 70
     0
  9
$PSLTSCALE
 70
     1
  9
$TREEDEPTH
 70
  3020
  9
$CMLSTYLE
  2
Standard
  9
$CMLJUST
 70
     0
  9
$CMLSCALE
 40
1.0
  9
$PROXYGRAPHICS
 70
     1
  9
$MEASUREMENT
 70
     0
  9
$CELWEIGHT
370
    -1
  9
$ENDCAPS
280
     0
  9
$JOINSTYLE
280
     0
  9
$LWDISPLAY
290
     0
  9
$INSUNITS
 70
     0
  9
$HYPERLINKBASE
  1

  9
$STYLESHEET
  1

  9
$XEDIT
290
     1
  9
$CEPSNTYPE
380
     0
  9
$PSTYLEMODE
290
     1
  9
$FINGERPRINTGUID
  2
{F5951D66-21D7-4222-BB0D-C7EF7C4130FD}
  9
$VERSIONGUID
  2
{F2A32B7E-5515-405A-B704-EE56E550B9FB}
  9
$EXTNAMES
290
     1
  9
$PSVPSCALE
 40
0.0
  9
$OLESTARTUP
290
     0
  9
$SORTENTS
280
   127
  9
$INDEXCTL
280
     0
  9
$HIDETEXT
280
     0
  9
$XCLIPFRAME
290
     0
  9
$HALOGAP
280
     0
  9
$OBSCOLOR
 70
   257
  9
$OBSLTYPE
280
     0
  9
$INTERSECTIONDISPLAY
280
     0
  9
$INTERSECTIONCOLOR
 70
   257
  9
$DIMASSOC
280
     1
  9
$PROJECTNAME
  1

  0
ENDSEC
  0
SECTION
  2
CLASSES
  0
CLASS
  1
ACDBDICTIONARYWDFLT
  2
AcDbDictionaryWithDefault
  3
ObjectDBX Classes
 90
        0
 91
        1
280
     0
281
     0
  0
CLASS
  1
TABLESTYLE
  2
AcDbTableStyle
  3
ObjectDBX Classes
 90
     2047
 91
        1
280
     0
281
     0
  0
CLASS
  1
DICTIONARYVAR
  2
AcDbDictionaryVar
  3
ObjectDBX Classes
 90
        0
 91
        1
280
     0
281
     0
  0
ENDSEC
  0
SECTION
  2
TABLES
  0
TABLE
  2
VPORT
  5
8
330
0
100
AcDbSymbolTable
 70
     2
  0
VPORT
  5
444
330
8
100
AcDbSymbolTableRecord
100
AcDbViewportTableRecord
  2
*Active
 70
     0
 10
0.0
 20
0.0
 11
1.0
 21
1.0
 12
-419.5
 22
295.5
 13
0.0
 23
0.0
 14
1.0
 24
1.0
 15
0.0
 25
0.0
 16
0.0
 26
0.0
 36
1.0
 17
0.0
 27
0.0
 37
0.0
 40
595.6657894736842
 41
1.56258234519104
 42
50.0
 43
0.0
 44
0.0
 50
0.0
 51
0.0
 71
     0
 72
   100
 73
     1
 74
     1
 75
     0
 76
     0
 77
     0
 78
     0
281
     0
 65
     1
110
0.0
120
0.0
130
0.0
111
1.0
121
0.0
131
0.0
112
0.0
122
1.0
132
0.0
 79
     0
146
0.0
  0
ENDTAB
  0
TABLE
  2
LTYPE
  5
5
330
0
100
AcDbSymbolTable
 70
     6
  0
LTYPE
  5
13
330
5
100
AcDbSymbolTableRecord
100
AcDbLinetypeTableRecord
  2
ByBlock
 70
     0
  3

 72
    65
 73
     0
 40
0.0
  0
LTYPE
  5
14
330
5
100
AcDbSymbolTableRecord
100
AcDbLinetypeTableRecord
  2
ByLayer
 70
     0
  3

 72
    65
 73
     0
 40
0.0
  0
LTYPE
  5
15
330
5
100
AcDbSymbolTableRecord
100
AcDbLinetypeTableRecord
  2
CONTINUOUS
 70
     0
  3
Solid line
 72
    65
 73
     0
 40
0.0
  0
LTYPE
  5
26
330
5
100
AcDbSymbolTableRecord
100
AcDbLinetypeTableRecord
  2
DASHED
 70
     0
  3
__ __ __ __ __ __ __ __ __ __ __ __ __ __ __
 72
    65
 73
     2
 40
3.5
 49
2.0
 74
     0
 49
-1.5
 74
     0
  0
LTYPE
  5
27
330
5
100
AcDbSymbolTableRecord
100
AcDbLinetypeTableRecord
  2
CENTER
 70
     0
  3
____ _ ____ _ ____ _ ____ _ ____ _ ____ _ ____
 72
    65
 73
     4
 40
17.5
 49
13.0
 74
     0
 49
-1.5
 74
     0
 49
1.5
 74
     0
 49
-1.5
 74
     0
  0
LTYPE
  5
28
330
5
100
AcDbSymbolTableRecord
100
AcDbLinetypeTableRecord
  2
PHANTOM
 70
     0
  3
_____ _ _ _____ _ _ _____ _ _ _____ _ _ ____  
 72
    65
 73
     6
 40
15.5
 49
8.0
 74
     0
 49
-1.5
 74
     0
 49
1.5
 74
     0
 49
-1.5
 74
     0
 49
1.5
 74
     0
 49
-1.5
 74
     0
  0
LTYPE
  5
29
330
5
100
AcDbSymbolTableRecord
100
AcDbLinetypeTableRecord
  2
DOT
 70
     0
  3
. . . . . . . . . . . . . . . . . . . . . . . .
 72
    65
 73
     2
 40
0.25
 49
0.0
 74
     0
 49
-0.25
 74
     0
  0
LTYPE
  5
2A
330
5
100
AcDbSymbolTableRecord
100
AcDbLinetypeTableRecord
  2
HIDDEN
 70
     0
  3
__ __ __ __ __ __ __ __ __ __ __ __ __ __ __
 72
    65
 73
     2
 40
3.5
 49
2.0
 74
     0
 49
-1.5
 74
     0
  0
ENDTAB
  0
TABLE
  2
LAYER
  5
2
330
0
100
AcDbSymbolTable
 70
     2
  0
LAYER
  5
10
330
2
100
AcDbSymbolTableRecord
100
AcDbLayerTableRecord
  2
0
 70
     0
 62
     7
  6
CONTINUOUS
370
    -3
390
F
  0
LAYER
  5
2B
330
2
100
AcDbSymbolTableRecord
100
AcDbLayerTableRecord
  2
DEFPOINTS
 70
     0
 62
     7
  6
CONTINUOUS
290
     0
370
    -3
390
F
  0
ENDTAB
  0
TABLE
  2
STYLE
  5
3
330
0
100
AcDbSymbolTable
 70
     2
  0
STYLE
  5
11
330
3
100
AcDbSymbolTableRecord
100
AcDbTextStyleTableRecord
  2
STANDARD
 70
     0
 40
0.0
 41
1.0
 50
0.0
 71
     0
 42
0.2
  3

  4

1001
ACAD
1000
MS Gothic
1071
    32817
  0
ENDTAB
  0
TABLE
  2
VIEW
  5
6
330
0
100
AcDbSymbolTable
 70
     0
  0
ENDTAB
  0
TABLE
  2
UCS
  5
7
330
0
100
AcDbSymbolTable
 70
     0
  0
ENDTAB
  0
TABLE
  2
APPID
  5
9
330
0
100
AcDbSymbolTable
 70
     2
  0
APPID
  5
12
330
9
100
AcDbSymbolTableRecord
100
AcDbRegAppTableRecord
  2
ACAD
 70
     0
  0
APPID
  5
439
330
9
100
AcDbSymbolTableRecord
100
AcDbRegAppTableRecord
  2
ACAD_PSEXT
 70
     0
  0
ENDTAB
  0
TABLE
  2
DIMSTYLE
  5
A
330
0
100
AcDbSymbolTable
 70
    14
100
AcDbDimStyleTable
 71
     1
340
2C
  0
DIMSTYLE
105
2C
102
{ACAD_REACTORS
330
428
102
}
330
A
100
AcDbSymbolTableRecord
100
AcDbDimStyleTableRecord
  2
DIMSTYLE1
 70
     0
 41
1.0
 42
2.54
 44
2.54
 73
     0
 74
     0
 77
     1
140
3.0
145
1.0
147
1.5
172
     1
173
     1
279
     2
340
11
  0
DIMSTYLE
105
2D
102
{ACAD_REACTORS
330
429
102
}
330
A
100
AcDbSymbolTableRecord
100
AcDbDimStyleTableRecord
  2
DIMSTYLE2
 70
     0
 41
1.0
 42
2.54
 44
2.54
 73
     0
 74
     0
 77
     1
140
3.0
145
1.0
147
1.5
172
     1
173
     1
279
     2
340
11
  0
DIMSTYLE
105
2E
102
{ACAD_REACTORS
330
42A
102
}
330
A
100
AcDbSymbolTableRecord
100
AcDbDimStyleTableRecord
  2
DIMSTYLE3
 70
     0
 41
1.0
 42
2.54
 44
2.54
 73
     0
 74
     0
 77
     1
140
3.0
145
1.0
147
1.5
172
     1
173
     1
279
     2
340
11
  0
DIMSTYLE
105
2F
102
{ACAD_REACTORS
330
42B
102
}
330
A
100
AcDbSymbolTableRecord
100
AcDbDimStyleTableRecord
  2
DIMSTYLE4
 70
     0
 41
1.0
 42
2.54
 44
2.54
 73
     0
 74
     0
 77
     1
140
3.0
145
1.0
147
1.5
172
     1
173
     1
279
     2
340
11
  0
DIMSTYLE
105
30
102
{ACAD_REACTORS
330
42E
102
}
330
A
100
AcDbSymbolTableRecord
100
AcDbDimStyleTableRecord
  2
DIMSTYLE5
 70
     0
 41
1.0
 42
2.54
 44
2.54
 73
     0
 74
     0
 77
     1
140
3.0
145
1.0
147
1.5
172
     1
173
     1
279
     2
340
11
  0
DIMSTYLE
105
31
102
{ACAD_REACTORS
330
42F
102
}
330
A
100
AcDbSymbolTableRecord
100
AcDbDimStyleTableRecord
  2
DIMSTYLE6
 70
     0
 41
1.0
 42
2.54
 44
2.54
 73
     0
 74
     0
 77
     1
140
3.0
145
1.0
147
1.5
172
     1
173
     1
279
     2
340
11
  0
DIMSTYLE
105
32
102
{ACAD_REACTORS
330
430
102
}
330
A
100
AcDbSymbolTableRecord
100
AcDbDimStyleTableRecord
  2
DIMSTYLE7
 70
     0
 41
1.0
 42
2.54
 44
2.54
 73
     0
 74
     0
 77
     1
140
3.0
145
1.0
147
1.5
172
     1
173
     1
279
     2
340
11
  0
DIMSTYLE
105
33
102
{ACAD_REACTORS
330
431
102
}
330
A
100
AcDbSymbolTableRecord
100
AcDbDimStyleTableRecord
  2
DIMSTYLE8
 70
     0
 41
1.0
 42
2.54
 44
2.54
 73
     0
 74
     0
 77
     1
140
3.0
145
1.0
147
1.5
172
     1
173
     1
279
     2
340
11
  0
DIMSTYLE
105
34
102
{ACAD_REACTORS
330
432
102
}
330
A
100
AcDbSymbolTableRecord
100
AcDbDimStyleTableRecord
  2
DIMSTYLE9
 70
     0
 41
1.0
 42
2.54
 44
2.54
 73
     0
 74
     0
 77
     1
140
3.0
145
1.0
147
1.5
172
     1
173
     1
279
     2
340
11
  0
DIMSTYLE
105
35
102
{ACAD_REACTORS
330
433
102
}
330
A
100
AcDbSymbolTableRecord
100
AcDbDimStyleTableRecord
  2
DIMSTYLE10
 70
     0
 41
1.0
 42
2.54
 44
2.54
 73
     0
 74
     0
 77
     1
140
3.0
145
1.0
147
1.5
172
     1
173
     1
279
     2
340
11
  0
DIMSTYLE
105
36
102
{ACAD_REACTORS
330
434
102
}
330
A
100
AcDbSymbolTableRecord
100
AcDbDimStyleTableRecord
  2
DIMSTYLE11
 70
     0
 41
1.0
 42
2.54
 44
2.54
 73
     0
 74
     0
 75
     1
 76
     1
 77
     1
140
3.0
145
1.0
147
1.5
172
     1
173
     1
279
     2
340
11
  0
DIMSTYLE
105
37
102
{ACAD_REACTORS
330
435
102
}
330
A
100
AcDbSymbolTableRecord
100
AcDbDimStyleTableRecord
  2
DIMSTYLE12
 70
     0
 41
1.0
 42
2.54
 44
2.54
 73
     0
 74
     0
 75
     1
 76
     1
 77
     1
140
3.0
145
1.0
147
1.5
172
     1
173
     1
279
     2
340
11
  0
DIMSTYLE
105
38
102
{ACAD_REACTORS
330
436
102
}
330
A
100
AcDbSymbolTableRecord
100
AcDbDimStyleTableRecord
  2
DIMSTYLE13
 70
     0
 41
1.0
 42
2.54
 44
2.54
 73
     0
 74
     0
 75
     1
 76
     1
 77
     1
140
3.0
145
1.0
147
1.5
172
     1
173
     1
279
     2
340
11
  0
ENDTAB
  0
TABLE
  2
BLOCK_RECORD
  5
1
330
0
100
AcDbSymbolTable
 70
    17
  0
BLOCK_RECORD
  5
22
330
1
100
AcDbSymbolTableRecord
100
AcDbBlockTableRecord
  2
*Model_Space
340
25
  0
BLOCK_RECORD
  5
1E
330
1
100
AcDbSymbolTableRecord
100
AcDbBlockTableRecord
  2
*Paper_Space
340
21
  0
BLOCK_RECORD
  5
3C
330
1
100
AcDbSymbolTableRecord
100
AcDbBlockTableRecord
  2
_OPEN30
340
0
102
{BLKREFS
331
45
331
46
331
51
331
52
331
5D
331
5E
331
68
331
69
331
73
331
74
331
80
331
82
331
8D
331
8E
331
98
331
99
331
A3
331
A4
331
AD
331
AE
331
B9
331
BA
331
C3
331
C4
331
CD
331
CE
102
}
  0
BLOCK_RECORD
  5
42
330
1
100
AcDbSymbolTableRecord
100
AcDbBlockTableRecord
  2
*D1
340
0
  0
BLOCK_RECORD
  5
4E
330
1
100
AcDbSymbolTableRecord
100
AcDbBlockTableRecord
  2
*D2
340
0
  0
BLOCK_RECORD
  5
5A
330
1
100
AcDbSymbolTableRecord
100
AcDbBlockTableRecord
  2
*D3
340
0
  0
BLOCK_RECORD
  5
65
330
1
100
AcDbSymbolTableRecord
100
AcDbBlockTableRecord
  2
*D4
340
0
  0
BLOCK_RECORD
  5
70
330
1
100
AcDbSymbolTableRecord
100
AcDbBlockTableRecord
  2
*D5
340
0
  0
BLOCK_RECORD
  5
7C
330
1
100
AcDbSymbolTableRecord
100
AcDbBlockTableRecord
  2
*D6
340
0
  0
BLOCK_RECORD
  5
8A
330
1
100
AcDbSymbolTableRecord
100
AcDbBlockTableRecord
  2
*D7
340
0
  0
BLOCK_RECORD
  5
95
330
1
100
AcDbSymbolTableRecord
100
AcDbBlockTableRecord
  2
*D8
340
0
  0
BLOCK_RECORD
  5
A0
330
1
100
AcDbSymbolTableRecord
100
AcDbBlockTableRecord
  2
*D9
340
0
  0
BLOCK_RECORD
  5
AA
330
1
100
AcDbSymbolTableRecord
100
AcDbBlockTableRecord
  2
*D10
340
0
  0
BLOCK_RECORD
  5
B5
330
1
100
AcDbSymbolTableRecord
100
AcDbBlockTableRecord
  2
*D11
340
0
  0
BLOCK_RECORD
  5
BF
330
1
100
AcDbSymbolTableRecord
100
AcDbBlockTableRecord
  2
*D12
340
0
  0
BLOCK_RECORD
  5
C9
330
1
100
AcDbSymbolTableRecord
100
AcDbBlockTableRecord
  2
*D13
340
0
  0
BLOCK_RECORD
  5
D3
330
1
100
AcDbSymbolTableRecord
100
AcDbBlockTableRecord
  2
KOZU0001
340
0
102
{BLKREFS
331
42C
102
}
  0
BLOCK_RECORD
  5
DC
330
1
100
AcDbSymbolTableRecord
100
AcDbBlockTableRecord
  2
KOZU0002
340
0
102
{BLKREFS
331
42D
102
}
  0
ENDTAB
  0
ENDSEC
  0
SECTION
  2
BLOCKS
  0
BLOCK
  5
23
330
22
100
AcDbEntity
  8
0
100
AcDbBlockBegin
  2
*Model_Space
 70
     0
 10
0.0
 20
0.0
 30
0.0
  3
*Model_Space
  1

  0
ENDBLK
  5
24
330
22
100
AcDbEntity
  8
0
100
AcDbBlockEnd
  0
BLOCK
  5
1F
330
1E
100
AcDbEntity
 67
     1
  8
0
100
AcDbBlockBegin
  2
*Paper_Space
 70
     0
 10
0.0
 20
0.0
 30
0.0
  3
*Paper_Space
  1

  0
ENDBLK
  5
20
330
1E
100
AcDbEntity
 67
     1
  8
0
100
AcDbBlockEnd
  0
BLOCK
  5
3D
330
3C
100
AcDbEntity
  8
0
100
AcDbBlockBegin
  2
_OPEN30
 70
     0
 10
0.0
 20
0.0
 30
0.0
  3
_OPEN30
  1

  0
LINE
  5
3E
330
3C
100
AcDbEntity
  8
0
  6
ByBlock
 62
     0
100
AcDbLine
 10
0.0
 20
0.0
 30
0.0
 11
-2.999999999999993
 21
-1.000000000000017
 31
0.0
  0
LINE
  5
3F
330
3C
100
AcDbEntity
  8
0
  6
ByBlock
 62
     0
100
AcDbLine
 10
0.0
 20
0.0
 30
0.0
 11
-3.000000000000006
 21
0.9999999999999815
 31
0.0
  0
LINE
  5
40
330
3C
100
AcDbEntity
  8
0
  6
ByBlock
 62
     0
100
AcDbLine
 10
0.0
 20
0.0
 30
0.0
 11
-3.0
 21
0.0
 31
0.0
  0
ENDBLK
  5
41
330
3C
100
AcDbEntity
  8
0
100
AcDbBlockEnd
  0
BLOCK
  5
43
330
42
100
AcDbEntity
  8
0
100
AcDbBlockBegin
  2
*D1
 70
     1
 10
0.0
 20
0.0
 30
0.0
  3
*D1
  1

  0
LINE
  5
44
330
42
100
AcDbEntity
  8
0
  6
Continuous
 62
     7
100
AcDbLine
 10
-500.3881225585938
 20
35.54355621337891
 30
0.0
 11
-381.3881225585938
 21
35.54355621337889
 31
0.0
  0
INSERT
  5
45
330
42
100
AcDbEntity
  8
0
  6
Continuous
 62
     7
100
AcDbBlockReference
  2
_OPEN30
 10
-503.3881225585938
 20
35.54355621337891
 30
0.0
 50
180.0000000000004
  0
INSERT
  5
46
330
42
100
AcDbEntity
  8
0
  6
Continuous
 62
     7
100
AcDbBlockReference
  2
_OPEN30
 10
-378.3881225585938
 20
35.54355621337891
 30
0.0
  0
LINE
  5
47
330
42
100
AcDbEntity
  8
0
  6
Continuous
 62
     7
100
AcDbLine
 10
-503.3881225585938
 20
60.0448388671875
 30
0.0
 11
-503.3881225585938
 21
33.25755310058595
 31
0.0
  0
LINE
  5
48
330
42
100
AcDbEntity
  8
0
  6
Continuous
 62
     7
100
AcDbLine
 10
-378.3881225585938
 20
60.0448388671875
 30
0.0
 11
-378.3881225585938
 21
33.25755310058595
 31
0.0
  0
TEXT
  5
49
330
42
100
AcDbEntity
  8
0
  6
Continuous
 62
     7
100
AcDbText
 10
-446.4581227898598
 20
36.29355621337891
 30
0.0
 40
3.0
  1
%%C125
 41
1.053926216168795
100
AcDbText
  0
POINT
  5
4A
330
42
100
AcDbEntity
  8
DEFPOINTS
  6
Continuous
 62
     7
100
AcDbPoint
 10
-503.3881225585938
 20
62.5848388671875
 30
0.0
  0
POINT
  5
4B
330
42
100
AcDbEntity
  8
DEFPOINTS
  6
Continuous
 62
     7
100
AcDbPoint
 10
-378.3881225585938
 20
62.5848388671875
 30
0.0
  0
POINT
  5
4C
330
42
100
AcDbEntity
  8
DEFPOINTS
  6
Continuous
 62
     7
100
AcDbPoint
 10
-378.3881225585938
 20
35.54355621337891
 30
0.0
  0
ENDBLK
  5
4D
330
42
100
AcDbEntity
  8
0
100
AcDbBlockEnd
  0
BLOCK
  5
4F
330
4E
100
AcDbEntity
  8
0
100
AcDbBlockBegin
  2
*D2
 70
     1
 10
0.0
 20
0.0
 30
0.0
  3
*D2
  1

  0
LINE
  5
50
330
4E
100
AcDbEntity
  8
0
  6
Continuous
 62
     7
100
AcDbLine
 10
-570.8431396484375
 20
64.5848388671875
 30
0.0
 11
-570.8431396484375
 21
143.5848388671875
 31
0.0
  0
INSERT
  5
51
330
4E
100
AcDbEntity
  8
0
  6
Continuous
 62
     7
100
AcDbBlockReference
  2
_OPEN30
 10
-570.8431396484375
 20
61.5848388671875
 30
0.0
 50
270.0000000000005
  0
INSERT
  5
52
330
4E
100
AcDbEntity
  8
0
  6
Continuous
 62
     7
100
AcDbBlockReference
  2
_OPEN30
 10
-570.8431396484375
 20
146.5848388671875
 30
0.0
 50
90.00000000000019
  0
LINE
  5
53
330
4E
100
AcDbEntity
  8
0
  6
Continuous
 62
     7
100
AcDbLine
 10
-504.9281225585938
 20
61.58483886718749
 30
0.0
 11
-573.1290893554687
 21
61.5848388671875
 31
0.0
  0
LINE
  5
54
330
4E
100
AcDbEntity
  8
0
  6
Continuous
 62
     7
100
AcDbLine
 10
-503.4281225585938
 20
146.5848388671875
 30
0.0
 11
-573.1290893554687
 21
146.5848388671875
 31
0.0
  0
TEXT
  5
55
330
4E
100
AcDbEntity
  8
0
  6
Continuous
 62
     7
100
AcDbText
 10
-571.5931395360992
 20
101.5148387223472
 30
0.0
 40
3.0
  1
85
 50
90.00000250447815
 41
1.028000020980834
100
AcDbText
  0
POINT
  5
56
330
4E
100
AcDbEntity
  8
DEFPOINTS
  6
Continuous
 62
     7
100
AcDbPoint
 10
-502.3881225585937
 20
61.5848388671875
 30
0.0
  0
POINT
  5
57
330
4E
100
AcDbEntity
  8
DEFPOINTS
  6
Continuous
 62
     7
100
AcDbPoint
 10
-500.8881225585938
 20
146.5848388671875
 30
0.0
  0
POINT
  5
58
330
4E
100
AcDbEntity
  8
DEFPOINTS
  6
Continuous
 62
     7
100
AcDbPoint
 10
-570.8431396484375
 20
146.5848388671875
 30
0.0
  0
ENDBLK
  5
59
330
4E
100
AcDbEntity
  8
0
100
AcDbBlockEnd
  0
BLOCK
  5
5B
330
5A
100
AcDbEntity
  8
0
100
AcDbBlockBegin
  2
*D3
 70
     1
 10
0.0
 20
0.0
 30
0.0
  3
*D3
  1

  0
LINE
  5
5C
330
5A
100
AcDbEntity
  8
0
  6
Continuous
 62
     7
100
AcDbLine
 10
-529.2880859374999
 20
100.0848388671875
 30
0.0
 11
-529.2880859374999
 21
84.0848388671875
 31
0.0
  0
INSERT
  5
5D
330
5A
100
AcDbEntity
  8
0
  6
Continuous
 62
     7
100
AcDbBlockReference
  2
_OPEN30
 10
-529.2880859374999
 20
103.0848388671875
 30
0.0
 50
90.00000000000019
  0
INSERT
  5
5E
330
5A
100
AcDbEntity
  8
0
  6
Continuous
 62
     7
100
AcDbBlockReference
  2
_OPEN30
 10
-529.2880859374999
 20
81.08483886718749
 30
0.0
 50
270.0000000000005
  0
LINE
  5
5F
330
5A
100
AcDbEntity
  8
0
  6
Continuous
 62
     7
100
AcDbLine
 10
-507.9280615234375
 20
81.08483886718749
 30
0.0
 11
-531.5740356445314
 21
81.08483886718749
 31
0.0
  0
TEXT
  5
60
330
5A
100
AcDbEntity
  8
0
  6
Continuous
 62
     7
100
AcDbText
 10
-530.0380858251616
 20
89.51483872234723
 30
0.0
 40
3.0
  1
22
 50
90.00000250447815
 41
1.028000020980834
100
AcDbText
  0
POINT
  5
61
330
5A
100
AcDbEntity
  8
DEFPOINTS
  6
Continuous
 62
     7
100
AcDbPoint
 10
-551.3881225585938
 20
103.0848388671875
 30
0.0
  0
POINT
  5
62
330
5A
100
AcDbEntity
  8
DEFPOINTS
  6
Continuous
 62
     7
100
AcDbPoint
 10
-505.3880615234374
 20
81.08483886718749
 30
0.0
  0
POINT
  5
63
330
5A
100
AcDbEntity
  8
DEFPOINTS
  6
Continuous
 62
     7
100
AcDbPoint
 10
-529.2880859374999
 20
81.08483886718749
 30
0.0
  0
ENDBLK
  5
64
330
5A
100
AcDbEntity
  8
0
100
AcDbBlockEnd
  0
BLOCK
  5
66
330
65
100
AcDbEntity
  8
0
100
AcDbBlockBegin
  2
*D4
 70
     1
 10
0.0
 20
0.0
 30
0.0
  3
*D4
  1

  0
LINE
  5
67
330
65
100
AcDbEntity
  8
0
  6
Continuous
 62
     7
100
AcDbLine
 10
-506.3881225585937
 20
71.90570068359374
 30
0.0
 11
-518.3881225585938
 21
71.90570068359375
 31
0.0
  0
INSERT
  5
68
330
65
100
AcDbEntity
  8
0
  6
Continuous
 62
     7
100
AcDbBlockReference
  2
_OPEN30
 10
-503.3881225585938
 20
71.90570068359375
 30
0.0
  0
INSERT
  5
69
330
65
100
AcDbEntity
  8
0
  6
Continuous
 62
     7
100
AcDbBlockReference
  2
_OPEN30
 10
-521.3881225585939
 20
71.90570068359375
 30
0.0
 50
180.0000000000004
  0
LINE
  5
6A
330
65
100
AcDbEntity
  8
0
  6
Continuous
 62
     7
100
AcDbLine
 10
-521.3881225585939
 20
99.08997436523435
 30
0.0
 11
-521.3881225585939
 21
69.61969757080078
 31
0.0
  0
TEXT
  5
6B
330
65
100
AcDbEntity
  8
0
  6
Continuous
 62
     7
100
AcDbText
 10
-514.9581226706504
 20
72.65570068359375
 30
0.0
 40
3.0
  1
18
 41
1.285000026226043
100
AcDbText
  0
POINT
  5
6C
330
65
100
AcDbEntity
  8
DEFPOINTS
  6
Continuous
 62
     7
100
AcDbPoint
 10
-503.3881225585938
 20
62.5848388671875
 30
0.0
  0
POINT
  5
6D
330
65
100
AcDbEntity
  8
DEFPOINTS
  6
Continuous
 62
     7
100
AcDbPoint
 10
-521.3881225585939
 20
101.6299743652344
 30
0.0
  0
POINT
  5
6E
330
65
100
AcDbEntity
  8
DEFPOINTS
  6
Continuous
 62
     7
100
AcDbPoint
 10
-521.3881225585939
 20
71.90570068359375
 30
0.0
  0
ENDBLK
  5
6F
330
65
100
AcDbEntity
  8
0
100
AcDbBlockEnd
  0
BLOCK
  5
71
330
70
100
AcDbEntity
  8
0
100
AcDbBlockBegin
  2
*D5
 70
     1
 10
0.0
 20
0.0
 30
0.0
  3
*D5
  1

  0
LINE
  5
72
330
70
100
AcDbEntity
  8
0
  6
Continuous
 62
     7
100
AcDbLine
 10
-291.129150390625
 20
109.5848388671875
 30
0.0
 11
-291.129150390625
 21
276.5848388671875
 31
0.0
  0
INSERT
  5
73
330
70
100
AcDbEntity
  8
0
  6
Continuous
 62
     7
100
AcDbBlockReference
  2
_OPEN30
 10
-291.129150390625
 20
106.5848388671875
 30
0.0
 50
270.0000000000005
  0
INSERT
  5
74
330
70
100
AcDbEntity
  8
0
  6
Continuous
 62
     7
100
AcDbBlockReference
  2
_OPEN30
 10
-291.129150390625
 20
279.5848388671875
 30
0.0
 50
90.00000000000019
  0
LINE
  5
75
330
70
100
AcDbEntity
  8
0
  6
Continuous
 62
     7
100
AcDbLine
 10
-329.3481225585937
 20
106.5848388671875
 30
0.0
 11
-288.8431396484375
 21
106.5848388671875
 31
0.0
  0
LINE
  5
76
330
70
100
AcDbEntity
  8
0
  6
Continuous
 62
     7
100
AcDbLine
 10
-324.3481225585937
 20
279.5848388671875
 30
0.0
 11
-288.8431396484375
 21
279.5848388671875
 31
0.0
  0
TEXT
  5
77
330
70
100
AcDbEntity
  8
0
  6
Continuous
 62
     7
100
AcDbText
 10
-291.8791495570488
 20
174.0148380666962
 30
0.0
 40
3.0
  1
１７３　（１５３～１８０）
 50
90.00000250447815
 41
0.8434321120058422
100
AcDbText
  0
POINT
  5
78
330
70
100
AcDbEntity
  8
DEFPOINTS
  6
Continuous
 62
     7
100
AcDbPoint
 10
-331.8881225585938
 20
106.5848388671875
 30
0.0
  0
POINT
  5
79
330
70
100
AcDbEntity
  8
DEFPOINTS
  6
Continuous
 62
     7
100
AcDbPoint
 10
-326.8881225585938
 20
279.5848388671875
 30
0.0
  0
POINT
  5
7A
330
70
100
AcDbEntity
  8
DEFPOINTS
  6
Continuous
 62
     7
100
AcDbPoint
 10
-291.129150390625
 20
279.5848388671875
 30
0.0
  0
ENDBLK
  5
7B
330
70
100
AcDbEntity
  8
0
100
AcDbBlockEnd
  0
BLOCK
  5
7D
330
7C
100
AcDbEntity
  8
0
100
AcDbBlockBegin
  2
*D6
 70
     1
 10
0.0
 20
0.0
 30
0.0
  3
*D6
  1

  0
LINE
  5
7E
330
7C
100
AcDbEntity
  8
0
  6
Continuous
 62
     7
100
AcDbLine
 10
-291.129150390625
 20
103.0848388671875
 30
0.0
 11
-291.129150390625
 21
86.73574066162109
 31
0.0
  0
LINE
  5
7F
330
7C
100
AcDbEntity
  8
0
  6
Continuous
 62
     7
100
AcDbLine
 10
-291.129150390625
 20
106.5848388671875
 30
0.0
 11
-291.129150390625
 21
103.0848388671875
 31
0.0
  0
INSERT
  5
80
330
7C
100
AcDbEntity
  8
0
  6
Continuous
 62
     7
100
AcDbBlockReference
  2
_OPEN30
 10
-291.129150390625
 20
106.5848388671875
 30
0.0
 50
270.0000000000002
  0
LINE
  5
81
330
7C
100
AcDbEntity
  8
0
  6
Continuous
 62
     7
100
AcDbLine
 10
-291.129150390625
 20
109.5848388671875
 30
0.0
 11
-291.129150390625
 21
112.9348388671875
 31
0.0
  0
INSERT
  5
82
330
7C
100
AcDbEntity
  8
0
  6
Continuous
 62
     7
100
AcDbBlockReference
  2
_OPEN30
 10
-291.129150390625
 20
103.0848388671875
 30
0.0
 50
90.00000000000049
  0
LINE
  5
83
330
7C
100
AcDbEntity
  8
0
  6
Continuous
 62
     7
100
AcDbLine
 10
-291.129150390625
 20
100.0848388671875
 30
0.0
 11
-291.1291503906249
 21
96.73483886718752
 31
0.0
  0
LINE
  5
84
330
7C
100
AcDbEntity
  8
0
  6
Continuous
 62
     7
100
AcDbLine
 10
-327.8481225585937
 20
103.0848388671875
 30
0.0
 11
-288.8431396484375
 21
103.0848388671875
 31
0.0
  0
TEXT
  5
85
330
7C
100
AcDbEntity
  8
0
  6
Continuous
 62
     7
100
AcDbText
 10
-291.8791502127197
 20
86.73574015200038
 30
0.0
 40
3.0
  1
3.5
 50
90.00000250447815
 41
1.356666684150696
100
AcDbText
  0
POINT
  5
86
330
7C
100
AcDbEntity
  8
DEFPOINTS
  6
Continuous
 62
     7
100
AcDbPoint
 10
-288.8431396484375
 20
106.5848388671875
 30
0.0
  0
POINT
  5
87
330
7C
100
AcDbEntity
  8
DEFPOINTS
  6
Continuous
 62
     7
100
AcDbPoint
 10
-330.3881225585938
 20
103.0848388671875
 30
0.0
  0
POINT
  5
88
330
7C
100
AcDbEntity
  8
DEFPOINTS
  6
Continuous
 62
     7
100
AcDbPoint
 10
-291.129150390625
 20
103.0848388671875
 30
0.0
  0
ENDBLK
  5
89
330
7C
100
AcDbEntity
  8
0
100
AcDbBlockEnd
  0
BLOCK
  5
8B
330
8A
100
AcDbEntity
  8
0
100
AcDbBlockBegin
  2
*D7
 70
     1
 10
0.0
 20
0.0
 30
0.0
  3
*D7
  1

  0
LINE
  5
8C
330
8A
100
AcDbEntity
  8
0
  6
Continuous
 62
     7
100
AcDbLine
 10
-305.8721313476563
 20
276.5848388671875
 30
0.0
 11
-305.8721313476563
 21
207.5848388671875
 31
0.0
  0
INSERT
  5
8D
330
8A
100
AcDbEntity
  8
0
  6
Continuous
 62
     7
100
AcDbBlockReference
  2
_OPEN30
 10
-305.8721313476563
 20
279.5848388671875
 30
0.0
 50
90.00000000000019
  0
INSERT
  5
8E
330
8A
100
AcDbEntity
  8
0
  6
Continuous
 62
     7
100
AcDbBlockReference
  2
_OPEN30
 10
-305.8721313476563
 20
204.5848388671875
 30
0.0
 50
270.0000000000005
  0
LINE
  5
8F
330
8A
100
AcDbEntity
  8
0
  6
Continuous
 62
     7
100
AcDbLine
 10
-377.8481225585937
 20
204.5848388671875
 30
0.0
 11
-303.5861206054688
 21
204.5848388671875
 31
0.0
  0
TEXT
  5
90
330
8A
100
AcDbEntity
  8
0
  6
Continuous
 62
     7
100
AcDbText
 10
-306.622131235318
 20
239.5148387223472
 30
0.0
 40
3.0
  1
75
 50
90.00000250447815
 41
1.028000020980834
100
AcDbText
  0
POINT
  5
91
330
8A
100
AcDbEntity
  8
DEFPOINTS
  6
Continuous
 62
     7
100
AcDbPoint
 10
-288.8431396484375
 20
279.5848388671875
 30
0.0
  0
POINT
  5
92
330
8A
100
AcDbEntity
  8
DEFPOINTS
  6
Continuous
 62
     7
100
AcDbPoint
 10
-380.3881225585938
 20
204.5848388671875
 30
0.0
  0
POINT
  5
93
330
8A
100
AcDbEntity
  8
DEFPOINTS
  6
Continuous
 62
     7
100
AcDbPoint
 10
-305.8721313476563
 20
204.5848388671875
 30
0.0
  0
ENDBLK
  5
94
330
8A
100
AcDbEntity
  8
0
100
AcDbBlockEnd
  0
BLOCK
  5
96
330
95
100
AcDbEntity
  8
0
100
AcDbBlockBegin
  2
*D8
 70
     1
 10
0.0
 20
0.0
 30
0.0
  3
*D8
  1

  0
LINE
  5
97
330
95
100
AcDbEntity
  8
0
  6
Continuous
 62
     7
100
AcDbLine
 10
-305.8721313476563
 20
109.5848388671875
 30
0.0
 11
-305.8721313476563
 21
143.5848388671875
 31
0.0
  0
INSERT
  5
98
330
95
100
AcDbEntity
  8
0
  6
Continuous
 62
     7
100
AcDbBlockReference
  2
_OPEN30
 10
-305.8721313476563
 20
106.5848388671875
 30
0.0
 50
270.0000000000005
  0
INSERT
  5
99
330
95
100
AcDbEntity
  8
0
  6
Continuous
 62
     7
100
AcDbBlockReference
  2
_OPEN30
 10
-305.8721313476563
 20
146.5848388671875
 30
0.0
 50
90.00000000000019
  0
LINE
  5
9A
330
95
100
AcDbEntity
  8
0
  6
Continuous
 62
     7
100
AcDbLine
 10
-378.3481225585937
 20
146.5848388671875
 30
0.0
 11
-303.5861206054688
 21
146.5848388671875
 31
0.0
  0
TEXT
  5
9B
330
95
100
AcDbEntity
  8
0
  6
Continuous
 62
     7
100
AcDbText
 10
-306.622131235318
 20
124.0148387223472
 30
0.0
 40
3.0
  1
40
 50
90.00000250447815
 41
1.101428593908038
100
AcDbText
  0
POINT
  5
9C
330
95
100
AcDbEntity
  8
DEFPOINTS
  6
Continuous
 62
     7
100
AcDbPoint
 10
-288.8431396484375
 20
106.5848388671875
 30
0.0
  0
POINT
  5
9D
330
95
100
AcDbEntity
  8
DEFPOINTS
  6
Continuous
 62
     7
100
AcDbPoint
 10
-380.8881225585938
 20
146.5848388671875
 30
0.0
  0
POINT
  5
9E
330
95
100
AcDbEntity
  8
DEFPOINTS
  6
Continuous
 62
     7
100
AcDbPoint
 10
-305.8721313476563
 20
146.5848388671875
 30
0.0
  0
ENDBLK
  5
9F
330
95
100
AcDbEntity
  8
0
100
AcDbBlockEnd
  0
BLOCK
  5
A1
330
A0
100
AcDbEntity
  8
0
100
AcDbBlockBegin
  2
*D9
 70
     1
 10
0.0
 20
0.0
 30
0.0
  3
*D9
  1

  0
LINE
  5
A2
330
A0
100
AcDbEntity
  8
0
  6
Continuous
 62
     7
100
AcDbLine
 10
-418.5801391601563
 20
129.5848388671875
 30
0.0
 11
-418.5801391601563
 21
223.5848388671875
 31
0.0
  0
INSERT
  5
A3
330
A0
100
AcDbEntity
  8
0
  6
Continuous
 62
     7
100
AcDbBlockReference
  2
_OPEN30
 10
-418.5801391601563
 20
126.5848388671875
 30
0.0
 50
270.0000000000005
  0
INSERT
  5
A4
330
A0
100
AcDbEntity
  8
0
  6
Continuous
 62
     7
100
AcDbBlockReference
  2
_OPEN30
 10
-418.5801391601563
 20
226.5848388671875
 30
0.0
 50
90.00000000000019
  0
TEXT
  5
A5
330
A0
100
AcDbEntity
  8
0
  6
Continuous
 62
     7
100
AcDbText
 10
-419.3301389822509
 20
172.5148386627426
 30
0.0
 40
3.0
  1
100
 50
90.00000250447815
 41
1.320000017011488
100
AcDbText
  0
POINT
  5
A6
330
A0
100
AcDbEntity
  8
DEFPOINTS
  6
Continuous
 62
     7
100
AcDbPoint
 10
-440.8881225585938
 20
126.5848388671875
 30
0.0
  0
POINT
  5
A7
330
A0
100
AcDbEntity
  8
DEFPOINTS
  6
Continuous
 62
     7
100
AcDbPoint
 10
-416.8703918457031
 20
226.5848388671875
 30
0.0
  0
POINT
  5
A8
330
A0
100
AcDbEntity
  8
DEFPOINTS
  6
Continuous
 62
     7
100
AcDbPoint
 10
-418.5801391601563
 20
226.5848388671875
 30
0.0
  0
ENDBLK
  5
A9
330
A0
100
AcDbEntity
  8
0
100
AcDbBlockEnd
  0
BLOCK
  5
AB
330
AA
100
AcDbEntity
  8
0
100
AcDbBlockBegin
  2
*D10
 70
     1
 10
0.0
 20
0.0
 30
0.0
  3
*D10
  1

  0
LINE
  5
AC
330
AA
100
AcDbEntity
  8
0
  6
Continuous
 62
     7
100
AcDbLine
 10
-408.8342285156249
 20
129.5848388671875
 30
0.0
 11
-408.8342285156249
 21
173.5848388671875
 31
0.0
  0
INSERT
  5
AD
330
AA
100
AcDbEntity
  8
0
  6
Continuous
 62
     7
100
AcDbBlockReference
  2
_OPEN30
 10
-408.8342285156249
 20
126.5848388671875
 30
0.0
 50
270.0000000000005
  0
INSERT
  5
AE
330
AA
100
AcDbEntity
  8
0
  6
Continuous
 62
     7
100
AcDbBlockReference
  2
_OPEN30
 10
-408.8342285156249
 20
176.5848388671875
 30
0.0
 50
90.00000000000019
  0
LINE
  5
AF
330
AA
100
AcDbEntity
  8
0
  6
Continuous
 62
     7
100
AcDbLine
 10
-388.4281225585938
 20
176.5848388671875
 30
0.0
 11
-411.1202087402343
 21
176.5848388671875
 31
0.0
  0
TEXT
  5
B0
330
AA
100
AcDbEntity
  8
0
  6
Continuous
 62
     7
100
AcDbText
 10
-409.5842284032866
 20
149.0148387223471
 30
0.0
 40
3.0
  1
50
 50
90.00000250447815
 41
1.101428593908038
100
AcDbText
  0
POINT
  5
B1
330
AA
100
AcDbEntity
  8
DEFPOINTS
  6
Continuous
 62
     7
100
AcDbPoint
 10
-385.8881225585938
 20
126.5848388671875
 30
0.0
  0
POINT
  5
B2
330
AA
100
AcDbEntity
  8
DEFPOINTS
  6
Continuous
 62
     7
100
AcDbPoint
 10
-385.8881225585938
 20
176.5848388671875
 30
0.0
  0
POINT
  5
B3
330
AA
100
AcDbEntity
  8
DEFPOINTS
  6
Continuous
 62
     7
100
AcDbPoint
 10
-408.8342285156249
 20
176.5848388671875
 30
0.0
  0
ENDBLK
  5
B4
330
AA
100
AcDbEntity
  8
0
100
AcDbBlockEnd
  0
BLOCK
  5
B6
330
B5
100
AcDbEntity
  8
0
100
AcDbBlockBegin
  2
*D11
 70
     1
 10
0.0
 20
0.0
 30
0.0
  3
*D11
  1

  0
LINE
  5
B7
330
B5
100
AcDbEntity
  8
0
  6
Continuous
 62
     7
100
AcDbLine
 10
-349.7556762695313
 20
513.789306640625
 30
0.0
 11
-315.8721008300781
 21
540.1488037109374
 31
0.0
  0
LINE
  5
B8
330
B5
100
AcDbEntity
  8
0
  6
Continuous
 62
     7
100
AcDbLine
 10
-528.9242478214009
 20
374.4062753619293
 30
0.0
 11
-352.1235427059427
 21
511.9472402630706
 31
0.0
  0
INSERT
  5
B9
330
B5
100
AcDbEntity
  8
0
  6
Continuous
 62
     7
100
AcDbBlockReference
  2
_OPEN30
 10
-531.2921142578125
 20
372.564208984375
 30
0.0
 50
217.8809005286763
  0
INSERT
  5
BA
330
B5
100
AcDbEntity
  8
0
  6
Continuous
 62
     7
100
AcDbBlockReference
  2
_OPEN30
 10
-349.7556762695313
 20
513.789306640625
 30
0.0
 50
37.88090052867565
  0
TEXT
  5
BB
330
B5
100
AcDbEntity
  8
0
  6
Continuous
 62
     7
100
AcDbText
 10
-344.0648206677913
 20
519.1592344807206
 30
0.0
 40
3.0
  1
%%C２３０　（目皿受外径）
 50
37.89999911944332
 41
0.8436974815103043
100
AcDbText
  0
POINT
  5
BC
330
B5
100
AcDbEntity
  8
DEFPOINTS
  6
Continuous
 62
     7
100
AcDbPoint
 10
-531.2921142578125
 20
372.564208984375
 30
0.0
  0
POINT
  5
BD
330
B5
100
AcDbEntity
  8
DEFPOINTS
  6
Continuous
 62
     7
100
AcDbPoint
 10
-349.7556762695313
 20
513.789306640625
 30
0.0
  0
ENDBLK
  5
BE
330
B5
100
AcDbEntity
  8
0
100
AcDbBlockEnd
  0
BLOCK
  5
C0
330
BF
100
AcDbEntity
  8
0
100
AcDbBlockBegin
  2
*D12
 70
     1
 10
0.0
 20
0.0
 30
0.0
  3
*D12
  1

  0
LINE
  5
C1
330
BF
100
AcDbEntity
  8
0
  6
Continuous
 62
     7
100
AcDbLine
 10
-343.0854797363281
 20
480.9392700195313
 30
0.0
 11
-295.6722106933593
 21
499.3144226074218
 31
0.0
  0
LINE
  5
C2
330
BF
100
AcDbEntity
  8
0
  6
Continuous
 62
     7
100
AcDbLine
 10
-535.165005666525
 20
406.4983067692178
 30
0.0
 11
-345.8827543432406
 21
479.8551783382039
 31
0.0
  0
INSERT
  5
C3
330
BF
100
AcDbEntity
  8
0
  6
Continuous
 62
     7
100
AcDbBlockReference
  2
_OPEN30
 10
-537.9622802734375
 20
405.4142150878906
 30
0.0
 50
201.1839810561994
  0
INSERT
  5
C4
330
BF
100
AcDbEntity
  8
0
  6
Continuous
 62
     7
100
AcDbBlockReference
  2
_OPEN30
 10
-343.0854797363281
 20
480.9392700195313
 30
0.0
 50
21.18398105619865
  0
TEXT
  5
C5
330
BF
100
AcDbEntity
  8
0
  6
Continuous
 62
     7
100
AcDbText
 10
-325.9099429928042
 20
488.3952293495988
 30
0.0
 40
3.0
  1
%%C２０９　（目皿外径）
 50
21.20000047610726
 41
0.8440126077968535
100
AcDbText
  0
POINT
  5
C6
330
BF
100
AcDbEntity
  8
DEFPOINTS
  6
Continuous
 62
     7
100
AcDbPoint
 10
-537.9622802734375
 20
405.4142150878906
 30
0.0
  0
POINT
  5
C7
330
BF
100
AcDbEntity
  8
DEFPOINTS
  6
Continuous
 62
     7
100
AcDbPoint
 10
-343.0854797363281
 20
480.9392700195313
 30
0.0
  0
ENDBLK
  5
C8
330
BF
100
AcDbEntity
  8
0
100
AcDbBlockEnd
  0
BLOCK
  5
CA
330
C9
100
AcDbEntity
  8
0
100
AcDbBlockBegin
  2
*D13
 70
     1
 10
0.0
 20
0.0
 30
0.0
  3
*D13
  1

  0
LINE
  5
CB
330
C9
100
AcDbEntity
  8
0
  6
Continuous
 62
     7
100
AcDbLine
 10
-343.4450073242188
 20
496.3353881835938
 30
0.0
 11
-302.32666015625
 21
518.7669067382813
 31
0.0
  0
LINE
  5
CC
330
C9
100
AcDbEntity
  8
0
  6
Continuous
 62
     7
100
AcDbLine
 10
-535.6976403310018
 20
391.4548169412016
 30
0.0
 11
-346.0786047861856
 21
494.8986681662203
 31
0.0
  0
INSERT
  5
CD
330
C9
100
AcDbEntity
  8
0
  6
Continuous
 62
     7
100
AcDbBlockReference
  2
_OPEN30
 10
-538.3312377929688
 20
390.0180969238281
 30
0.0
 50
208.6140193907144
  0
INSERT
  5
CE
330
C9
100
AcDbEntity
  8
0
  6
Continuous
 62
     7
100
AcDbBlockReference
  2
_OPEN30
 10
-343.4450073242188
 20
496.3353881835938
 30
0.0
 50
28.61401939071365
  0
TEXT
  5
CF
330
C9
100
AcDbEntity
  8
0
  6
Continuous
 62
     7
100
AcDbText
 10
-333.5359433484165
 20
502.6003795251477
 30
0.0
 40
3.0
  1
%%C２２２　（防水皿外径）
 50
28.59999988517562
 41
0.8436974815103043
100
AcDbText
  0
POINT
  5
D0
330
C9
100
AcDbEntity
  8
DEFPOINTS
  6
Continuous
 62
     7
100
AcDbPoint
 10
-538.3312377929688
 20
390.0180969238281
 30
0.0
  0
POINT
  5
D1
330
C9
100
AcDbEntity
  8
DEFPOINTS
  6
Continuous
 62
     7
100
AcDbPoint
 10
-343.4450073242188
 20
496.3353881835938
 30
0.0
  0
ENDBLK
  5
D2
330
C9
100
AcDbEntity
  8
0
100
AcDbBlockEnd
  0
BLOCK
  5
D4
330
D3
100
AcDbEntity
  8
0
100
AcDbBlockBegin
  2
KOZU0001
 70
     0
 10
0.0
 20
0.0
 30
0.0
  3
KOZU0001
  1

  0
LINE
  5
D5
330
D3
100
AcDbEntity
  8
0
  6
Continuous
 62
     7
100
AcDbLine
 10
0.0
 20
0.0
 30
0.0
 11
-26.77926635742188
 21
-55.700927734375
 31
0.0
  0
LINE
  5
D6
330
D3
100
AcDbEntity
  8
0
  6
Continuous
 62
     7
100
AcDbLine
 10
-26.77926635742188
 20
-55.700927734375
 30
0.0
 11
-53.97213745117188
 21
-55.700927734375
 31
0.0
  0
LINE
  5
D7
330
D3
100
AcDbEntity
  8
0
  6
Continuous
 62
     7
100
AcDbLine
 10
0.0
 20
0.0
 30
0.0
 11
-0.3986296988017369
 21
-3.137051858550196
 31
0.0
  0
LINE
  5
D8
330
D3
100
AcDbEntity
  8
0
  6
Continuous
 62
     7
100
AcDbLine
 10
0.0
 20
0.0
 30
0.0
 11
-2.201134874171506
 21
-2.270463667559115
 31
0.0
  0
TEXT
  5
D9
330
D3
100
AcDbEntity
  8
0
  6
Continuous
 62
     7
100
AcDbText
 10
-52.2521675825119
 20
-54.950927734375
 30
0.0
 40
3.0
  1
共廻り防止用羽根
 41
0.8454512278006642
100
AcDbText
  0
TEXT
  5
DA
330
D3
100
AcDbEntity
  8
0
  6
Continuous
 62
     7
100
AcDbText
 10
-52.2521675825119
 20
-60.215927734375
 30
0.0
 40
3.0
  1
３ヶ所
 41
0.8550420278260688
100
AcDbText
  0
ENDBLK
  5
DB
330
D3
100
AcDbEntity
  8
0
100
AcDbBlockEnd
  0
BLOCK
  5
DD
330
DC
100
AcDbEntity
  8
0
100
AcDbBlockBegin
  2
KOZU0002
 70
     0
 10
0.0
 20
0.0
 30
0.0
  3
KOZU0002
  1

  0
LINE
  5
DE
330
DC
100
AcDbEntity
  8
0
  6
Continuous
 62
     7
100
AcDbLine
 10
0.0
 20
0.0
 30
0.0
 11
31.31875610351563
 21
-37.83402633666992
 31
0.0
  0
LINE
  5
DF
330
DC
100
AcDbEntity
  8
0
  6
Continuous
 62
     7
100
AcDbLine
 10
31.31875610351563
 20
-37.83402633666992
 30
0.0
 11
62.1597900390625
 21
-37.83402633666992
 31
0.0
  0
LINE
  5
E0
330
DC
100
AcDbEntity
  8
0
  6
Continuous
 62
     7
100
AcDbLine
 10
0.0
 20
0.0
 30
0.0
 11
2.683303196223517
 21
-1.673285378271337
 31
0.0
  0
LINE
  5
E1
330
DC
100
AcDbEntity
  8
0
  6
Continuous
 62
     7
100
AcDbLine
 10
0.0
 20
0.0
 30
0.0
 11
1.142671330016011
 21
-2.94861022035118
 31
0.0
  0
TEXT
  5
E2
330
DC
100
AcDbEntity
  8
0
  6
Continuous
 62
     7
100
AcDbText
 10
34.2997887134552
 20
-37.08402633666992
 30
0.0
 40
3.0
  1
配管接続口
 41
0.8487395020950888
100
AcDbText
  0
TEXT
  5
E3
330
DC
100
AcDbEntity
  8
0
  6
Continuous
 62
     7
100
AcDbText
 10
34.2997887134552
 20
-42.34902633666992
 30
0.0
 40
3.0
  1
Ｒｃ４（１００Ａ）
 41
0.8448610247221777
100
AcDbText
  0
ENDBLK
  5
E4
330
DC
100
AcDbEntity
  8
0
100
AcDbBlockEnd
  0
ENDSEC
  0
SECTION
  2
ENTITIES
  0
POINT
  5
E5
330
22
100
AcDbEntity
  8
0
  6
Continuous
 62
     7
100
AcDbPoint
 10
-440.8881225585938
 20
103.0848388671875
 30
0.0
  0
POINT
  5
E6
330
22
100
AcDbEntity
  8
0
  6
Continuous
 62
     7
100
AcDbPoint
 10
-440.8881225585938
 20
443.1767272949218
 30
0.0
  0
POINT
  5
E7
330
22
100
AcDbEntity
  8
0
  6
Continuous
 62
     7
100
AcDbPoint
 10
-440.8881225585938
 20
103.0848388671875
 30
0.0
  0
POINT
  5
E8
330
22
100
AcDbEntity
  8
0
  6
Continuous
 62
     7
100
AcDbPoint
 10
-440.8881225585938
 20
443.1767272949218
 30
0.0
  0
POINT
  5
E9
330
22
100
AcDbEntity
  8
0
  6
Continuous
 62
     7
100
AcDbPoint
 10
-440.8881225585938
 20
103.0848388671875
 30
0.0
  0
POINT
  5
EA
330
22
100
AcDbEntity
  8
0
  6
Continuous
 62
     7
100
AcDbPoint
 10
-440.8881225585938
 20
443.1767272949218
 30
0.0
  0
POINT
  5
EB
330
22
100
AcDbEntity
  8
0
  6
Continuous
 62
     7
100
AcDbPoint
 10
-384.3881225585938
 20
61.5848388671875
 30
0.0
  0
POINT
  5
EC
330
22
100
AcDbEntity
  8
0
  6
Continuous
 62
     7
100
AcDbPoint
 10
-385.6211547851563
 20
101.0400924682617
 30
0.0
  0
POINT
  5
ED
330
22
100
AcDbEntity
  8
0
  6
Continuous
 62
     7
100
AcDbPoint
 10
-385.004638671875
 20
81.31246948242187
 30
0.0
  0
POINT
  5
EE
330
22
100
AcDbEntity
  8
0
  6
Continuous
 62
     7
100
AcDbPoint
 10
-385.8881225585938
 20
176.5848388671875
 30
0.0
  0
LINE
  5
EF
330
22
100
AcDbEntity
  8
0
  6
Continuous
 62
     7
100
AcDbLine
 10
-336.3881225585938
 20
275.0848388671875
 30
0.0
 11
-336.8881225585938
 21
274.5848388671875
 31
0.0
  0
LINE
  5
F0
330
22
100
AcDbEntity
  8
0
  6
Continuous
 62
     7
100
AcDbLine
 10
-338.8881225585938
 20
274.5848388671875
 30
0.0
 11
-336.8881225585938
 21
274.5848388671875
 31
0.0
  0
LINE
  5
F1
330
22
100
AcDbEntity
  8
0
  6
Continuous
 62
     7
100
AcDbLine
 10
-336.3881225585938
 20
279.0848388671875
 30
0.0
 11
-336.8881225585938
 21
279.5848388671875
 31
0.0
  0
LINE
  5
F2
330
22
100
AcDbEntity
  8
0
  6
Continuous
 62
     7
100
AcDbLine
 10
-326.8881225585938
 20
275.5848388671875
 30
0.0
 11
-331.8881225585938
 21
275.5848388671875
 31
0.0
  0
LINE
  5
F3
330
22
100
AcDbEntity
  8
0
  6
Continuous
 62
     7
100
AcDbLine
 10
-335.8881225585938
 20
274.5848388671875
 30
0.0
 11
-346.8881225585938
 21
274.5848388671875
 31
0.0
  0
LINE
  5
F4
330
22
100
AcDbEntity
  8
0
  6
Continuous
 62
     7
100
AcDbLine
 10
-335.8881225585938
 20
279.5848388671875
 30
0.0
 11
-335.8881225585938
 21
274.5848388671875
 31
0.0
  0
LINE
  5
F5
330
22
100
AcDbEntity
  8
0
  6
Continuous
 62
     7
100
AcDbLine
 10
-325.8881225585938
 20
278.5848388671875
 30
0.0
 11
-325.8881225585938
 21
276.5848388671875
 31
0.0
  0
LINE
  5
F6
330
22
100
AcDbEntity
  8
0
  6
Continuous
 62
     7
100
AcDbLine
 10
-336.3881225585938
 20
279.0848388671875
 30
0.0
 11
-336.3881225585938
 21
275.0848388671875
 31
0.0
  0
LINE
  5
F7
330
22
100
AcDbEntity
  8
0
  6
Continuous
 62
     7
100
AcDbLine
 10
-339.3881225585938
 20
276.0848388671875
 30
0.0
 11
-339.3881225585938
 21
275.0848388671875
 31
0.0
  0
LINE
  5
F8
330
22
100
AcDbEntity
  8
0
  6
Continuous
 62
     7
100
AcDbLine
 10
-339.3881225585938
 20
275.0848388671875
 30
0.0
 11
-338.8881225585938
 21
274.5848388671875
 31
0.0
  0
LINE
  5
F9
330
22
100
AcDbEntity
  8
0
  6
Continuous
 62
     7
100
AcDbLine
 10
-554.8881225585938
 20
275.5848388671875
 30
0.0
 11
-548.8881225585938
 21
275.5848388671875
 31
0.0
  0
LINE
  5
FA
330
22
100
AcDbEntity
  8
0
  6
Continuous
 62
     7
100
AcDbLine
 10
-385.9037475585938
 20
206.2140045166016
 30
0.0
 11
-386.4342956542969
 21
223.1901092529297
 31
0.0
  0
LINE
  5
FB
330
22
100
AcDbEntity
  8
0
  6
Continuous
 62
     7
100
AcDbLine
 10
-387.3881225585938
 20
236.5848388671875
 30
0.0
 11
-386.3881225585938
 21
236.5848388671875
 31
0.0
  0
LINE
  5
FC
330
22
100
AcDbEntity
  8
0
  6
Continuous
 62
     7
100
AcDbLine
 10
-388.3881225585938
 20
238.4286499023438
 30
0.0
 11
-388.3881225585938
 21
237.5848388671875
 31
0.0
  0
LINE
  5
FD
330
22
100
AcDbEntity
  8
0
  6
Continuous
 62
     7
100
AcDbLine
 10
-384.494384765625
 20
204.5848388671875
 30
0.0
 11
-380.3881225585938
 21
204.5848388671875
 31
0.0
  0
LINE
  5
FE
330
22
100
AcDbEntity
  8
0
  6
Continuous
 62
     7
100
AcDbLine
 10
-380.3881225585938
 20
204.5848388671875
 30
0.0
 11
-379.3881225585938
 21
205.5848388671875
 31
0.0
  0
LINE
  5
FF
330
22
100
AcDbEntity
  8
0
  6
Continuous
 62
     7
100
AcDbLine
 10
-386.4342956542969
 20
223.1901092529297
 30
0.0
 11
-385.03955078125
 21
224.5848388671875
 31
0.0
  0
LINE
  5
100
330
22
100
AcDbEntity
  8
0
  6
Continuous
 62
     7
100
AcDbLine
 10
-384.3731079101563
 20
204.5848388671875
 30
0.0
 11
-384.9981384277344
 21
224.5848388671875
 31
0.0
  0
LINE
  5
101
330
22
100
AcDbEntity
  8
0
  6
Continuous
 62
     7
100
AcDbLine
 10
-383.7381286621094
 20
188.32861328125
 30
0.0
 11
-383.7381286621094
 21
178.7348327636719
 31
0.0
  0
LINE
  5
102
330
22
100
AcDbEntity
  8
0
  6
Continuous
 62
     7
100
AcDbLine
 10
-383.7381286621094
 20
188.32861328125
 30
0.0
 11
-385.5434875488281
 21
190.1339874267578
 31
0.0
  0
LINE
  5
103
330
22
100
AcDbEntity
  8
0
  6
Continuous
 62
     7
100
AcDbLine
 10
-385.8881225585938
 20
176.5848388671875
 30
0.0
 11
-383.7381286621094
 21
178.7348327636719
 31
0.0
  0
LINE
  5
104
330
22
100
AcDbEntity
  8
0
  6
Continuous
 62
     7
100
AcDbLine
 10
-386.6826477050781
 20
226.5848388671875
 30
0.0
 11
-385.5434875488281
 21
190.1339874267578
 31
0.0
  0
LINE
  5
105
330
22
100
AcDbEntity
  8
0
  6
Continuous
 62
     7
100
AcDbLine
 10
-385.1334838867188
 20
225.0356903076172
 30
0.0
 11
-383.9943542480469
 21
188.5848388671875
 31
0.0
  0
LINE
  5
106
330
22
100
AcDbEntity
  8
0
  6
Continuous
 62
     7
100
AcDbLine
 10
-386.6826477050781
 20
226.5848388671875
 30
0.0
 11
-385.1334838867188
 21
225.0356903076172
 31
0.0
  0
LINE
  5
107
330
22
100
AcDbEntity
  8
0
  6
Continuous
 62
     7
100
AcDbLine
 10
-384.3881225585938
 20
225.0848388671875
 30
0.0
 11
-384.3881225585938
 21
234.5848388671875
 31
0.0
  0
LINE
  5
108
330
22
100
AcDbEntity
  8
0
  6
Continuous
 62
     7
100
AcDbLine
 10
-379.3881225585938
 20
205.5848388671875
 30
0.0
 11
-379.3881225585938
 21
237.8513031005859
 31
0.0
  0
LINE
  5
109
330
22
100
AcDbEntity
  8
0
  6
Continuous
 62
     7
100
AcDbLine
 10
-387.3881225585938
 20
236.5848388671875
 30
0.0
 11
-440.8881225585938
 21
236.5848388671875
 31
0.0
  0
LINE
  5
10A
330
22
100
AcDbEntity
  8
0
  6
Continuous
 62
     7
100
AcDbLine
 10
-388.254150390625
 20
239.294677734375
 30
0.0
 11
-440.8881225585938
 21
239.294677734375
 31
0.0
  0
LINE
  5
10B
330
22
100
AcDbEntity
  8
0
  6
Continuous
 62
     7
100
AcDbLine
 10
-440.8881225585938
 20
226.5848388671875
 30
0.0
 11
-386.6826477050781
 21
226.5848388671875
 31
0.0
  0
LINE
  5
10C
330
22
100
AcDbEntity
  8
0
  6
Continuous
 62
     7
100
AcDbLine
 10
-555.8881225585938
 20
278.5848388671875
 30
0.0
 11
-555.8881225585938
 21
276.5848388671875
 31
0.0
  0
LINE
  5
10D
330
22
100
AcDbEntity
  8
0
  6
Continuous
 62
     7
100
AcDbLine
 10
-384.3881225585938
 20
61.5848388671875
 30
0.0
 11
-385.937255859375
 21
63.13398361206054
 31
0.0
  0
LINE
  5
10E
330
22
100
AcDbEntity
  8
0
  6
Continuous
 62
     7
100
AcDbLine
 10
-385.8881225585938
 20
108.0848388671875
 30
0.0
 11
-384.3881225585938
 21
106.5848388671875
 31
0.0
  0
LINE
  5
10F
330
22
100
AcDbEntity
  8
0
  6
Continuous
 62
     7
100
AcDbLine
 10
-384.3881225585938
 20
61.5848388671875
 30
0.0
 11
-385.6211547851563
 21
101.0400924682617
 31
0.0
  0
LINE
  5
110
330
22
100
AcDbEntity
  8
0
  6
Continuous
 62
     7
100
AcDbLine
 10
-378.3881225585938
 20
62.5848388671875
 30
0.0
 11
-378.3881225585938
 21
102.0848388671875
 31
0.0
  0
LINE
  5
111
330
22
100
AcDbEntity
  8
0
  6
Continuous
 62
     7
100
AcDbLine
 10
-385.6211547851563
 20
101.0400924682617
 30
0.0
 11
-440.8881225585938
 21
101.0400924682617
 31
0.0
  0
LINE
  5
112
330
22
100
AcDbEntity
  8
0
  6
Continuous
 62
     7
100
AcDbLine
 10
-384.3881225585938
 20
106.5848388671875
 30
0.0
 11
-440.8881225585938
 21
106.5848388671875
 31
0.0
  0
LINE
  5
113
330
22
100
AcDbEntity
  8
0
  6
Continuous
 62
     7
100
AcDbLine
 10
-440.8881225585938
 20
99.58483886718751
 30
0.0
 11
-387.076416015625
 21
99.58483886718751
 31
0.0
  0
LINE
  5
114
330
22
100
AcDbEntity
  8
0
  6
Continuous
 62
     7
100
AcDbLine
 10
-385.937255859375
 20
63.13398361206054
 30
0.0
 11
-440.8881225585938
 21
63.13398361206054
 31
0.0
  0
LINE
  5
115
330
22
100
AcDbEntity
  8
0
  6
Continuous
 62
     7
100
AcDbLine
 10
-385.8881225585938
 20
108.0848388671875
 30
0.0
 11
-440.8881225585938
 21
108.0848388671875
 31
0.0
  0
LINE
  5
116
330
22
100
AcDbEntity
  8
0
  6
Continuous
 62
     7
100
AcDbLine
 10
-346.6357116699219
 20
105.5848388671875
 30
0.0
 11
-347.6357116699219
 21
106.5848388671875
 31
0.0
  0
LINE
  5
117
330
22
100
AcDbEntity
  8
0
  6
Continuous
 62
     7
100
AcDbLine
 10
-329.8881225585938
 20
103.5848388671875
 30
0.0
 11
-329.8881225585938
 21
104.5848388671875
 31
0.0
  0
LINE
  5
118
330
22
100
AcDbEntity
  8
0
  6
Continuous
 62
     7
100
AcDbLine
 10
-346.6357116699219
 20
105.5848388671875
 30
0.0
 11
-345.6357116699219
 21
106.5848388671875
 31
0.0
  0
LINE
  5
119
330
22
100
AcDbEntity
  8
0
  6
Continuous
 62
     7
100
AcDbLine
 10
-416.8703918457031
 20
126.5848388671875
 30
0.0
 11
-404.808868408203
 21
126.5848388671875
 31
0.0
  0
LINE
  5
11A
330
22
100
AcDbEntity
  8
0
  6
Continuous
 62
     7
100
AcDbLine
 10
-416.8703918457031
 20
226.5848388671875
 30
0.0
 11
-404.808868408203
 21
226.5848388671875
 31
0.0
  0
LINE
  5
11B
330
22
100
AcDbEntity
  8
0
  6
Continuous
 62
     7
100
AcDbLine
 10
-384.3881225585938
 20
146.5848388671875
 30
0.0
 11
-380.8881225585938
 21
146.5848388671875
 31
0.0
  0
LINE
  5
11C
330
22
100
AcDbEntity
  8
0
  6
Continuous
 62
     7
100
AcDbLine
 10
-384.3881225585938
 20
146.5848388671875
 30
0.0
 11
-385.8881225585938
 21
145.0848388671875
 31
0.0
  0
LINE
  5
11D
330
22
100
AcDbEntity
  8
0
  6
Continuous
 62
     7
100
AcDbLine
 10
-384.3881225585938
 20
128.0848388671875
 30
0.0
 11
-384.3881225585938
 21
178.0848388671875
 31
0.0
  0
LINE
  5
11E
330
22
100
AcDbEntity
  8
0
  6
Continuous
 62
     7
100
AcDbLine
 10
-501.6118774414063
 20
205.5848388671875
 30
0.0
 11
-475.1334533691406
 21
205.5848388671875
 31
0.0
  0
LINE
  5
11F
330
22
100
AcDbEntity
  8
0
  6
Continuous
 62
     7
100
AcDbLine
 10
-504.3881225585938
 20
204.5848388671875
 30
0.0
 11
-505.3881225585937
 21
205.5848388671875
 31
0.0
  0
LINE
  5
120
330
22
100
AcDbEntity
  8
0
  6
Continuous
 62
     7
100
AcDbLine
 10
-503.3881225585938
 20
204.5848388671875
 30
0.0
 11
-504.3881225585938
 21
204.5848388671875
 31
0.0
  0
LINE
  5
121
330
22
100
AcDbEntity
  8
0
  6
Continuous
 62
     7
100
AcDbLine
 10
-476.6658935546875
 20
239.7786407470703
 30
0.0
 11
-502.5567321777343
 21
239.7786407470703
 31
0.0
  0
LINE
  5
122
330
22
100
AcDbEntity
  8
0
  6
Continuous
 62
     7
100
AcDbLine
 10
-503.3881225585938
 20
204.5848388671875
 30
0.0
 11
-503.3881225585938
 21
239.2117919921875
 31
0.0
  0
LINE
  5
123
330
22
100
AcDbEntity
  8
0
  6
Continuous
 62
     7
100
AcDbLine
 10
-505.3881225585937
 20
205.5848388671875
 30
0.0
 11
-505.3881225585937
 21
242.3380126953125
 31
0.0
  0
LINE
  5
124
330
22
100
AcDbEntity
  8
0
  6
Continuous
 62
     7
100
AcDbLine
 10
-498.0381164550781
 20
188.32861328125
 30
0.0
 11
-496.2327270507812
 21
190.1339874267578
 31
0.0
  0
LINE
  5
125
330
22
100
AcDbEntity
  8
0
  6
Continuous
 62
     7
100
AcDbLine
 10
-498.0381164550781
 20
188.32861328125
 30
0.0
 11
-498.0381164550781
 21
178.7348327636719
 31
0.0
  0
LINE
  5
126
330
22
100
AcDbEntity
  8
0
  6
Continuous
 62
     7
100
AcDbLine
 10
-495.8881225585938
 20
176.5848388671875
 30
0.0
 11
-498.0381164550781
 21
178.7348327636719
 31
0.0
  0
LINE
  5
127
330
22
100
AcDbEntity
  8
0
  6
Continuous
 62
     7
100
AcDbLine
 10
-495.7811279296874
 20
204.5848388671875
 30
0.0
 11
-496.2327270507812
 21
190.1339874267578
 31
0.0
  0
LINE
  5
128
330
22
100
AcDbEntity
  8
0
  6
Continuous
 62
     7
100
AcDbLine
 10
-497.2818603515625
 20
204.5848388671875
 30
0.0
 11
-497.7818908691406
 21
188.5848388671875
 31
0.0
  0
LINE
  5
129
330
22
100
AcDbEntity
  8
0
  6
Continuous
 62
     7
100
AcDbLine
 10
-468.9251098632813
 20
204.5848388671875
 30
0.0
 11
-468.9251098632813
 21
239.7786407470703
 31
0.0
  0
LINE
  5
12A
330
22
100
AcDbEntity
  8
0
  6
Continuous
 62
     7
100
AcDbLine
 10
-474.6379699707031
 20
204.5848388671875
 30
0.0
 11
-474.6379699707031
 21
241.1648101806641
 31
0.0
  0
LINE
  5
12B
330
22
100
AcDbEntity
  8
0
  6
Continuous
 62
     7
100
AcDbLine
 10
-385.6211547851563
 20
101.0400924682617
 30
0.0
 11
-385.6211547851563
 21
106.5848388671875
 31
0.0
  0
LINE
  5
12C
330
22
100
AcDbEntity
  8
0
  6
Continuous
 62
     7
100
AcDbLine
 10
-385.935791015625
 20
63.08713150024414
 30
0.0
 11
-387.076416015625
 21
99.58483886718751
 31
0.0
  0
LINE
  5
12D
330
22
100
AcDbEntity
  8
0
  6
Continuous
 62
     7
100
AcDbLine
 10
-387.076416015625
 20
99.58483886718751
 30
0.0
 11
-385.6211547851563
 21
101.0400924682617
 31
0.0
  0
LINE
  5
12E
330
22
100
AcDbEntity
  8
0
  6
Continuous
 62
     7
100
AcDbLine
 10
-551.8881225585938
 20
103.5848388671875
 30
0.0
 11
-551.8881225585938
 21
104.5848388671875
 31
0.0
  0
LINE
  5
12F
330
22
100
AcDbEntity
  8
0
  6
Continuous
 62
     7
100
AcDbLine
 10
-503.3881225585938
 20
81.08483886718749
 30
0.0
 11
-503.3881225585938
 21
65.2037353515625
 31
0.0
  0
LINE
  5
130
330
22
100
AcDbEntity
  8
0
  6
Continuous
 62
     7
100
AcDbLine
 10
-505.3880615234374
 20
81.08483886718749
 30
0.0
 11
-503.3881225585938
 21
81.08483886718749
 31
0.0
  0
LINE
  5
131
330
22
100
AcDbEntity
  8
0
  6
Continuous
 62
     7
100
AcDbLine
 10
-507.3880615234375
 20
85.0848388671875
 30
0.0
 11
-507.3880615234375
 21
83.01985168457031
 31
0.0
  0
LINE
  5
132
330
22
100
AcDbEntity
  8
0
  6
Continuous
 62
     7
100
AcDbLine
 10
-503.3881225585938
 20
62.5848388671875
 30
0.0
 11
-503.3881225585938
 21
102.0848388671875
 31
0.0
  0
LINE
  5
133
330
22
100
AcDbEntity
  8
0
  6
Continuous
 62
     7
100
AcDbLine
 10
-521.3881225585939
 20
103.0848388671875
 30
0.0
 11
-521.3881225585939
 21
101.6299743652344
 31
0.0
  0
LINE
  5
134
330
22
100
AcDbEntity
  8
0
  6
Continuous
 62
     7
100
AcDbLine
 10
-495.8881225585938
 20
146.5848388671875
 30
0.0
 11
-495.8881225585938
 21
176.5848388671875
 31
0.0
  0
LINE
  5
135
330
22
100
AcDbEntity
  8
0
  6
Continuous
 62
     7
100
AcDbLine
 10
-497.3881225585937
 20
146.5848388671875
 30
0.0
 11
-497.3881225585937
 21
178.0848388671875
 31
0.0
  0
LINE
  5
136
330
22
100
AcDbEntity
  8
0
  6
Continuous
 62
     7
100
AcDbLine
 10
-440.8881225585938
 20
279.4765930175781
 30
0.0
 11
-440.7798461914063
 21
279.5848388671875
 31
0.0
  0
LINE
  5
137
330
22
100
AcDbEntity
  8
0
  6
Continuous
 62
     7
100
AcDbLine
 10
-440.8881225585938
 20
278.0623779296875
 30
0.0
 11
-439.3656616210938
 21
279.5848388671875
 31
0.0
  0
LINE
  5
138
330
22
100
AcDbEntity
  8
0
  6
Continuous
 62
     7
100
AcDbLine
 10
-440.8881225585938
 20
276.6481628417969
 30
0.0
 11
-437.9514465332031
 21
279.5848388671875
 31
0.0
  0
LINE
  5
139
330
22
100
AcDbEntity
  8
0
  6
Continuous
 62
     7
100
AcDbLine
 10
-439.5372314453124
 20
276.5848388671875
 30
0.0
 11
-436.5372314453124
 21
279.5848388671875
 31
0.0
  0
LINE
  5
13A
330
22
100
AcDbEntity
  8
0
  6
Continuous
 62
     7
100
AcDbLine
 10
-438.1230163574218
 20
276.5848388671875
 30
0.0
 11
-435.1230163574219
 21
279.5848388671875
 31
0.0
  0
LINE
  5
13B
330
22
100
AcDbEntity
  8
0
  6
Continuous
 62
     7
100
AcDbLine
 10
-436.7088012695313
 20
276.5848388671875
 30
0.0
 11
-433.7088012695312
 21
279.5848388671875
 31
0.0
  0
LINE
  5
13C
330
22
100
AcDbEntity
  8
0
  6
Continuous
 62
     7
100
AcDbLine
 10
-435.2945861816406
 20
276.5848388671875
 30
0.0
 11
-432.2945861816406
 21
279.5848388671875
 31
0.0
  0
LINE
  5
13D
330
22
100
AcDbEntity
  8
0
  6
Continuous
 62
     7
100
AcDbLine
 10
-433.88037109375
 20
276.5848388671875
 30
0.0
 11
-430.88037109375
 21
279.5848388671875
 31
0.0
  0
LINE
  5
13E
330
22
100
AcDbEntity
  8
0
  6
Continuous
 62
     7
100
AcDbLine
 10
-432.4661560058594
 20
276.5848388671875
 30
0.0
 11
-429.4661560058593
 21
279.5848388671875
 31
0.0
  0
LINE
  5
13F
330
22
100
AcDbEntity
  8
0
  6
Continuous
 62
     7
100
AcDbLine
 10
-431.0519409179688
 20
276.5848388671875
 30
0.0
 11
-428.0519409179688
 21
279.5848388671875
 31
0.0
  0
LINE
  5
140
330
22
100
AcDbEntity
  8
0
  6
Continuous
 62
     7
100
AcDbLine
 10
-429.6377258300781
 20
276.5848388671875
 30
0.0
 11
-426.6377258300781
 21
279.5848388671875
 31
0.0
  0
LINE
  5
141
330
22
100
AcDbEntity
  8
0
  6
Continuous
 62
     7
100
AcDbLine
 10
-428.2235107421874
 20
276.5848388671875
 30
0.0
 11
-425.2235107421874
 21
279.5848388671875
 31
0.0
  0
LINE
  5
142
330
22
100
AcDbEntity
  8
0
  6
Continuous
 62
     7
100
AcDbLine
 10
-426.8092956542968
 20
276.5848388671875
 30
0.0
 11
-423.8092956542969
 21
279.5848388671875
 31
0.0
  0
LINE
  5
143
330
22
100
AcDbEntity
  8
0
  6
Continuous
 62
     7
100
AcDbLine
 10
-425.3950805664063
 20
276.5848388671875
 30
0.0
 11
-422.3950805664062
 21
279.5848388671875
 31
0.0
  0
LINE
  5
144
330
22
100
AcDbEntity
  8
0
  6
Continuous
 62
     7
100
AcDbLine
 10
-423.9808654785155
 20
276.5848388671875
 30
0.0
 11
-420.9808654785156
 21
279.5848388671875
 31
0.0
  0
LINE
  5
145
330
22
100
AcDbEntity
  8
0
  6
Continuous
 62
     7
100
AcDbLine
 10
-422.566650390625
 20
276.5848388671875
 30
0.0
 11
-419.566650390625
 21
279.5848388671875
 31
0.0
  0
LINE
  5
146
330
22
100
AcDbEntity
  8
0
  6
Continuous
 62
     7
100
AcDbLine
 10
-421.1524353027344
 20
276.5848388671875
 30
0.0
 11
-418.1524353027343
 21
279.5848388671875
 31
0.0
  0
LINE
  5
147
330
22
100
AcDbEntity
  8
0
  6
Continuous
 62
     7
100
AcDbLine
 10
-419.7382202148437
 20
276.5848388671875
 30
0.0
 11
-416.7382202148438
 21
279.5848388671875
 31
0.0
  0
LINE
  5
148
330
22
100
AcDbEntity
  8
0
  6
Continuous
 62
     7
100
AcDbLine
 10
-418.3240051269531
 20
276.5848388671875
 30
0.0
 11
-415.3240051269531
 21
279.5848388671875
 31
0.0
  0
LINE
  5
149
330
22
100
AcDbEntity
  8
0
  6
Continuous
 62
     7
100
AcDbLine
 10
-416.9097900390625
 20
276.5848388671875
 30
0.0
 11
-413.9097900390624
 21
279.5848388671875
 31
0.0
  0
LINE
  5
14A
330
22
100
AcDbEntity
  8
0
  6
Continuous
 62
     7
100
AcDbLine
 10
-415.4955749511718
 20
276.5848388671875
 30
0.0
 11
-412.4955749511718
 21
279.5848388671875
 31
0.0
  0
LINE
  5
14B
330
22
100
AcDbEntity
  8
0
  6
Continuous
 62
     7
100
AcDbLine
 10
-414.0813598632813
 20
276.5848388671875
 30
0.0
 11
-411.0813598632812
 21
279.5848388671875
 31
0.0
  0
LINE
  5
14C
330
22
100
AcDbEntity
  8
0
  6
Continuous
 62
     7
100
AcDbLine
 10
-412.6671752929688
 20
276.5848388671875
 30
0.0
 11
-409.6671752929688
 21
279.5848388671875
 31
0.0
  0
LINE
  5
14D
330
22
100
AcDbEntity
  8
0
  6
Continuous
 62
     7
100
AcDbLine
 10
-411.2529602050781
 20
276.5848388671875
 30
0.0
 11
-408.2529602050781
 21
279.5848388671875
 31
0.0
  0
LINE
  5
14E
330
22
100
AcDbEntity
  8
0
  6
Continuous
 62
     7
100
AcDbLine
 10
-409.8387451171874
 20
276.5848388671875
 30
0.0
 11
-406.8387451171875
 21
279.5848388671875
 31
0.0
  0
LINE
  5
14F
330
22
100
AcDbEntity
  8
0
  6
Continuous
 62
     7
100
AcDbLine
 10
-408.4245300292968
 20
276.5848388671875
 30
0.0
 11
-405.4245300292969
 21
279.5848388671875
 31
0.0
  0
LINE
  5
150
330
22
100
AcDbEntity
  8
0
  6
Continuous
 62
     7
100
AcDbLine
 10
-407.0103149414062
 20
276.5848388671875
 30
0.0
 11
-404.0103149414063
 21
279.5848388671875
 31
0.0
  0
LINE
  5
151
330
22
100
AcDbEntity
  8
0
  6
Continuous
 62
     7
100
AcDbLine
 10
-405.5960998535156
 20
276.5848388671875
 30
0.0
 11
-402.5960998535156
 21
279.5848388671875
 31
0.0
  0
LINE
  5
152
330
22
100
AcDbEntity
  8
0
  6
Continuous
 62
     7
100
AcDbLine
 10
-404.181884765625
 20
276.5848388671875
 30
0.0
 11
-401.1818847656249
 21
279.5848388671875
 31
0.0
  0
LINE
  5
153
330
22
100
AcDbEntity
  8
0
  6
Continuous
 62
     7
100
AcDbLine
 10
-402.7676696777343
 20
276.5848388671875
 30
0.0
 11
-399.7676696777344
 21
279.5848388671875
 31
0.0
  0
LINE
  5
154
330
22
100
AcDbEntity
  8
0
  6
Continuous
 62
     7
100
AcDbLine
 10
-401.3534545898438
 20
276.5848388671875
 30
0.0
 11
-398.3534545898438
 21
279.5848388671875
 31
0.0
  0
LINE
  5
155
330
22
100
AcDbEntity
  8
0
  6
Continuous
 62
     7
100
AcDbLine
 10
-399.9392395019531
 20
276.5848388671875
 30
0.0
 11
-396.9392395019531
 21
279.5848388671875
 31
0.0
  0
LINE
  5
156
330
22
100
AcDbEntity
  8
0
  6
Continuous
 62
     7
100
AcDbLine
 10
-398.5250244140625
 20
276.5848388671875
 30
0.0
 11
-395.5250244140625
 21
279.5848388671875
 31
0.0
  0
LINE
  5
157
330
22
100
AcDbEntity
  8
0
  6
Continuous
 62
     7
100
AcDbLine
 10
-397.1108093261719
 20
276.5848388671875
 30
0.0
 11
-394.1108093261719
 21
279.5848388671875
 31
0.0
  0
LINE
  5
158
330
22
100
AcDbEntity
  8
0
  6
Continuous
 62
     7
100
AcDbLine
 10
-395.6965942382813
 20
276.5848388671875
 30
0.0
 11
-392.6965942382813
 21
279.5848388671875
 31
0.0
  0
LINE
  5
159
330
22
100
AcDbEntity
  8
0
  6
Continuous
 62
     7
100
AcDbLine
 10
-394.2823791503906
 20
276.5848388671875
 30
0.0
 11
-391.2823791503906
 21
279.5848388671875
 31
0.0
  0
LINE
  5
15A
330
22
100
AcDbEntity
  8
0
  6
Continuous
 62
     7
100
AcDbLine
 10
-392.8681640625
 20
276.5848388671875
 30
0.0
 11
-389.8681640625
 21
279.5848388671875
 31
0.0
  0
LINE
  5
15B
330
22
100
AcDbEntity
  8
0
  6
Continuous
 62
     7
100
AcDbLine
 10
-391.4539489746094
 20
276.5848388671875
 30
0.0
 11
-388.4539489746094
 21
279.5848388671875
 31
0.0
  0
LINE
  5
15C
330
22
100
AcDbEntity
  8
0
  6
Continuous
 62
     7
100
AcDbLine
 10
-390.0397338867188
 20
276.5848388671875
 30
0.0
 11
-387.0397338867188
 21
279.5848388671875
 31
0.0
  0
LINE
  5
15D
330
22
100
AcDbEntity
  8
0
  6
Continuous
 62
     7
100
AcDbLine
 10
-388.6255187988281
 20
276.5848388671875
 30
0.0
 11
-385.6255187988281
 21
279.5848388671875
 31
0.0
  0
LINE
  5
15E
330
22
100
AcDbEntity
  8
0
  6
Continuous
 62
     7
100
AcDbLine
 10
-387.2113037109375
 20
276.5848388671875
 30
0.0
 11
-384.2113037109375
 21
279.5848388671875
 31
0.0
  0
LINE
  5
15F
330
22
100
AcDbEntity
  8
0
  6
Continuous
 62
     7
100
AcDbLine
 10
-385.7970886230469
 20
276.5848388671875
 30
0.0
 11
-382.7970886230469
 21
279.5848388671875
 31
0.0
  0
LINE
  5
160
330
22
100
AcDbEntity
  8
0
  6
Continuous
 62
     7
100
AcDbLine
 10
-384.3829040527344
 20
276.5848388671875
 30
0.0
 11
-381.3829040527344
 21
279.5848388671875
 31
0.0
  0
LINE
  5
161
330
22
100
AcDbEntity
  8
0
  6
Continuous
 62
     7
100
AcDbLine
 10
-382.9686889648438
 20
276.5848388671875
 30
0.0
 11
-379.9686889648438
 21
279.5848388671875
 31
0.0
  0
LINE
  5
162
330
22
100
AcDbEntity
  8
0
  6
Continuous
 62
     7
100
AcDbLine
 10
-381.5544738769531
 20
276.5848388671875
 30
0.0
 11
-378.5544738769531
 21
279.5848388671875
 31
0.0
  0
LINE
  5
163
330
22
100
AcDbEntity
  8
0
  6
Continuous
 62
     7
100
AcDbLine
 10
-380.1402587890625
 20
276.5848388671875
 30
0.0
 11
-377.1402587890625
 21
279.5848388671875
 31
0.0
  0
LINE
  5
164
330
22
100
AcDbEntity
  8
0
  6
Continuous
 62
     7
100
AcDbLine
 10
-378.7260437011719
 20
276.5848388671875
 30
0.0
 11
-375.7260437011719
 21
279.5848388671875
 31
0.0
  0
LINE
  5
165
330
22
100
AcDbEntity
  8
0
  6
Continuous
 62
     7
100
AcDbLine
 10
-377.3118286132813
 20
276.5848388671875
 30
0.0
 11
-374.3118286132813
 21
279.5848388671875
 31
0.0
  0
LINE
  5
166
330
22
100
AcDbEntity
  8
0
  6
Continuous
 62
     7
100
AcDbLine
 10
-375.8976135253906
 20
276.5848388671875
 30
0.0
 11
-372.8976135253906
 21
279.5848388671875
 31
0.0
  0
LINE
  5
167
330
22
100
AcDbEntity
  8
0
  6
Continuous
 62
     7
100
AcDbLine
 10
-374.4833984375
 20
276.5848388671875
 30
0.0
 11
-371.4833984375
 21
279.5848388671875
 31
0.0
  0
LINE
  5
168
330
22
100
AcDbEntity
  8
0
  6
Continuous
 62
     7
100
AcDbLine
 10
-373.0691833496094
 20
276.5848388671875
 30
0.0
 11
-370.0691833496094
 21
279.5848388671875
 31
0.0
  0
LINE
  5
169
330
22
100
AcDbEntity
  8
0
  6
Continuous
 62
     7
100
AcDbLine
 10
-371.6549682617188
 20
276.5848388671875
 30
0.0
 11
-368.6549682617188
 21
279.5848388671875
 31
0.0
  0
LINE
  5
16A
330
22
100
AcDbEntity
  8
0
  6
Continuous
 62
     7
100
AcDbLine
 10
-370.2407531738281
 20
276.5848388671875
 30
0.0
 11
-367.2407531738281
 21
279.5848388671875
 31
0.0
  0
LINE
  5
16B
330
22
100
AcDbEntity
  8
0
  6
Continuous
 62
     7
100
AcDbLine
 10
-368.8265380859375
 20
276.5848388671875
 30
0.0
 11
-365.8265380859375
 21
279.5848388671875
 31
0.0
  0
LINE
  5
16C
330
22
100
AcDbEntity
  8
0
  6
Continuous
 62
     7
100
AcDbLine
 10
-367.4123229980469
 20
276.5848388671875
 30
0.0
 11
-364.4123229980469
 21
279.5848388671875
 31
0.0
  0
LINE
  5
16D
330
22
100
AcDbEntity
  8
0
  6
Continuous
 62
     7
100
AcDbLine
 10
-365.9981079101563
 20
276.5848388671875
 30
0.0
 11
-362.9981079101563
 21
279.5848388671875
 31
0.0
  0
LINE
  5
16E
330
22
100
AcDbEntity
  8
0
  6
Continuous
 62
     7
100
AcDbLine
 10
-364.5838928222656
 20
276.5848388671875
 30
0.0
 11
-361.5838928222656
 21
279.5848388671875
 31
0.0
  0
LINE
  5
16F
330
22
100
AcDbEntity
  8
0
  6
Continuous
 62
     7
100
AcDbLine
 10
-363.169677734375
 20
276.5848388671875
 30
0.0
 11
-360.169677734375
 21
279.5848388671875
 31
0.0
  0
LINE
  5
170
330
22
100
AcDbEntity
  8
0
  6
Continuous
 62
     7
100
AcDbLine
 10
-361.7554626464844
 20
276.5848388671875
 30
0.0
 11
-358.7554626464844
 21
279.5848388671875
 31
0.0
  0
LINE
  5
171
330
22
100
AcDbEntity
  8
0
  6
Continuous
 62
     7
100
AcDbLine
 10
-360.3412475585938
 20
276.5848388671875
 30
0.0
 11
-357.3412475585938
 21
279.5848388671875
 31
0.0
  0
LINE
  5
172
330
22
100
AcDbEntity
  8
0
  6
Continuous
 62
     7
100
AcDbLine
 10
-358.9270324707031
 20
276.5848388671875
 30
0.0
 11
-355.9270324707031
 21
279.5848388671875
 31
0.0
  0
LINE
  5
173
330
22
100
AcDbEntity
  8
0
  6
Continuous
 62
     7
100
AcDbLine
 10
-357.5128173828125
 20
276.5848388671875
 30
0.0
 11
-354.5128173828125
 21
279.5848388671875
 31
0.0
  0
LINE
  5
174
330
22
100
AcDbEntity
  8
0
  6
Continuous
 62
     7
100
AcDbLine
 10
-356.0986328125
 20
276.5848388671875
 30
0.0
 11
-353.0986328125
 21
279.5848388671875
 31
0.0
  0
LINE
  5
175
330
22
100
AcDbEntity
  8
0
  6
Continuous
 62
     7
100
AcDbLine
 10
-354.6844177246094
 20
276.5848388671875
 30
0.0
 11
-351.6844177246094
 21
279.5848388671875
 31
0.0
  0
LINE
  5
176
330
22
100
AcDbEntity
  8
0
  6
Continuous
 62
     7
100
AcDbLine
 10
-353.2702026367188
 20
276.5848388671875
 30
0.0
 11
-350.2702026367188
 21
279.5848388671875
 31
0.0
  0
LINE
  5
177
330
22
100
AcDbEntity
  8
0
  6
Continuous
 62
     7
100
AcDbLine
 10
-351.8559875488281
 20
276.5848388671875
 30
0.0
 11
-348.8559875488281
 21
279.5848388671875
 31
0.0
  0
LINE
  5
178
330
22
100
AcDbEntity
  8
0
  6
Continuous
 62
     7
100
AcDbLine
 10
-350.4417724609375
 20
276.5848388671875
 30
0.0
 11
-347.4417724609375
 21
279.5848388671875
 31
0.0
  0
LINE
  5
179
330
22
100
AcDbEntity
  8
0
  6
Continuous
 62
     7
100
AcDbLine
 10
-349.0275573730469
 20
276.5848388671875
 30
0.0
 11
-346.0275573730469
 21
279.5848388671875
 31
0.0
  0
LINE
  5
17A
330
22
100
AcDbEntity
  8
0
  6
Continuous
 62
     7
100
AcDbLine
 10
-347.6133422851563
 20
276.5848388671875
 30
0.0
 11
-344.6133422851563
 21
279.5848388671875
 31
0.0
  0
LINE
  5
17B
330
22
100
AcDbEntity
  8
0
  6
Continuous
 62
     7
100
AcDbLine
 10
-346.1991271972656
 20
276.5848388671875
 30
0.0
 11
-343.1991271972656
 21
279.5848388671875
 31
0.0
  0
LINE
  5
17C
330
22
100
AcDbEntity
  8
0
  6
Continuous
 62
     7
100
AcDbLine
 10
-344.784912109375
 20
276.5848388671875
 30
0.0
 11
-341.784912109375
 21
279.5848388671875
 31
0.0
  0
LINE
  5
17D
330
22
100
AcDbEntity
  8
0
  6
Continuous
 62
     7
100
AcDbLine
 10
-343.3706970214844
 20
276.5848388671875
 30
0.0
 11
-340.3706970214844
 21
279.5848388671875
 31
0.0
  0
LINE
  5
17E
330
22
100
AcDbEntity
  8
0
  6
Continuous
 62
     7
100
AcDbLine
 10
-341.9564819335938
 20
276.5848388671875
 30
0.0
 11
-338.9564819335938
 21
279.5848388671875
 31
0.0
  0
LINE
  5
17F
330
22
100
AcDbEntity
  8
0
  6
Continuous
 62
     7
100
AcDbLine
 10
-340.5422668457031
 20
276.5848388671875
 30
0.0
 11
-337.5422668457031
 21
279.5848388671875
 31
0.0
  0
LINE
  5
180
330
22
100
AcDbEntity
  8
0
  6
Continuous
 62
     7
100
AcDbLine
 10
-339.4584045410156
 20
276.2545166015625
 30
0.0
 11
-336.5080871582031
 21
279.2048034667969
 31
0.0
  0
LINE
  5
181
330
22
100
AcDbEntity
  8
0
  6
Continuous
 62
     7
100
AcDbLine
 10
-339.3009643554688
 20
274.9977111816406
 30
0.0
 11
-336.3881225585938
 21
277.9105529785156
 31
0.0
  0
LINE
  5
182
330
22
100
AcDbEntity
  8
0
  6
Continuous
 62
     7
100
AcDbLine
 10
-338.2996215820313
 20
274.5848388671875
 30
0.0
 11
-336.3881225585938
 21
276.4963684082031
 31
0.0
  0
LINE
  5
183
330
22
100
AcDbEntity
  8
0
  6
Continuous
 62
     7
100
AcDbLine
 10
-346.8881225585938
 20
274.5848388671875
 30
0.0
 11
-440.8881225585938
 21
274.5848388671875
 31
0.0
  0
LINE
  5
184
330
22
100
AcDbEntity
  8
0
  6
Continuous
 62
     7
100
AcDbLine
 10
-339.8881225585938
 20
276.5848388671875
 30
0.0
 11
-440.8881225585938
 21
276.5848388671875
 31
0.0
  0
LINE
  5
185
330
22
100
AcDbEntity
  8
0
  6
Continuous
 62
     7
100
AcDbLine
 10
-549.8881225585939
 20
106.5848388671875
 30
0.0
 11
-506.8881225585938
 21
106.5848388671875
 31
0.0
  0
LINE
  5
186
330
22
100
AcDbEntity
  8
0
  6
Continuous
 62
     7
100
AcDbLine
 10
-546.3881225585939
 20
266.1414489746094
 30
0.0
 11
-505.3881225585937
 21
242.4701080322266
 31
0.0
  0
LINE
  5
187
330
22
100
AcDbEntity
  8
0
  6
Continuous
 62
     7
100
AcDbLine
 10
-377.3881225585938
 20
103.0848388671875
 30
0.0
 11
-330.3881225585938
 21
103.0848388671875
 31
0.0
  0
LINE
  5
188
330
22
100
AcDbEntity
  8
0
  6
Continuous
 62
     7
100
AcDbLine
 10
-374.8881225585938
 20
106.5848388671875
 30
0.0
 11
-331.8881225585938
 21
106.5848388671875
 31
0.0
  0
LINE
  5
189
330
22
100
AcDbEntity
  8
0
  6
Continuous
 62
     7
100
AcDbLine
 10
-362.6381225585938
 20
105.5848388671875
 30
0.0
 11
-363.6381225585938
 21
106.5848388671875
 31
0.0
  0
LINE
  5
18A
330
22
100
AcDbEntity
  8
0
  6
Continuous
 62
     7
100
AcDbLine
 10
-362.6381225585938
 20
105.5848388671875
 30
0.0
 11
-361.6381225585938
 21
106.5848388671875
 31
0.0
  0
LINE
  5
18B
330
22
100
AcDbEntity
  8
0
  6
Continuous
 62
     7
100
AcDbLine
 10
-335.3881225585938
 20
266.1414489746094
 30
0.0
 11
-376.8881225585938
 21
242.1814270019531
 31
0.0
  0
LINE
  5
18C
330
22
100
AcDbEntity
  8
0
  6
Continuous
 62
     7
100
AcDbLine
 10
-341.8881225585938
 20
265.852783203125
 30
0.0
 11
-387.8881225585938
 21
239.294677734375
 31
0.0
  0
LINE
  5
18D
330
22
100
AcDbEntity
  8
0
  6
Continuous
 62
     7
100
AcDbLine
 10
-501.8881225585937
 20
111.5848388671875
 30
0.0
 11
-501.8881225585937
 21
145.5848388671875
 31
0.0
  0
LINE
  5
18E
330
22
100
AcDbEntity
  8
0
  6
Continuous
 62
     7
100
AcDbLine
 10
-387.8881225585938
 20
223.5720367431641
 30
0.0
 11
-386.6278686523438
 21
224.8322906494141
 31
0.0
  0
LINE
  5
18F
330
22
100
AcDbEntity
  8
0
  6
Continuous
 62
     7
100
AcDbLine
 10
-387.8881225585938
 20
216.5009613037109
 30
0.0
 11
-386.41357421875
 21
217.9754943847656
 31
0.0
  0
LINE
  5
190
330
22
100
AcDbEntity
  8
0
  6
Continuous
 62
     7
100
AcDbLine
 10
-387.8881225585938
 20
209.4299011230469
 30
0.0
 11
-386.1993103027344
 21
211.1187133789063
 31
0.0
  0
LINE
  5
191
330
22
100
AcDbEntity
  8
0
  6
Continuous
 62
     7
100
AcDbLine
 10
-387.8881225585938
 20
202.3588256835938
 30
0.0
 11
-385.9850158691406
 21
204.2619323730469
 31
0.0
  0
LINE
  5
192
330
22
100
AcDbEntity
  8
0
  6
Continuous
 62
     7
100
AcDbLine
 10
-387.8881225585938
 20
195.2877655029297
 30
0.0
 11
-385.7707214355469
 21
197.4051513671875
 31
0.0
  0
LINE
  5
193
330
22
100
AcDbEntity
  8
0
  6
Continuous
 62
     7
100
AcDbLine
 10
-387.8881225585938
 20
188.2166900634766
 30
0.0
 11
-385.5564270019531
 21
190.5483703613281
 31
0.0
  0
LINE
  5
194
330
22
100
AcDbEntity
  8
0
  6
Continuous
 62
     7
100
AcDbLine
 10
-387.8881225585938
 20
181.1456298828125
 30
0.0
 11
-383.7381286621094
 21
185.2956237792969
 31
0.0
  0
LINE
  5
195
330
22
100
AcDbEntity
  8
0
  6
Continuous
 62
     7
100
AcDbLine
 10
-387.8881225585938
 20
174.0745544433594
 30
0.0
 11
-385.8881225585938
 21
176.0745544433594
 31
0.0
  0
LINE
  5
196
330
22
100
AcDbEntity
  8
0
  6
Continuous
 62
     7
100
AcDbLine
 10
-387.8881225585938
 20
167.0034942626953
 30
0.0
 11
-385.8881225585938
 21
169.0034942626953
 31
0.0
  0
LINE
  5
197
330
22
100
AcDbEntity
  8
0
  6
Continuous
 62
     7
100
AcDbLine
 10
-387.8881225585938
 20
159.9324188232422
 30
0.0
 11
-385.8881225585938
 21
161.9324188232422
 31
0.0
  0
LINE
  5
198
330
22
100
AcDbEntity
  8
0
  6
Continuous
 62
     7
100
AcDbLine
 10
-387.8881225585938
 20
152.8613586425781
 30
0.0
 11
-385.8881225585938
 21
154.8613586425781
 31
0.0
  0
LINE
  5
199
330
22
100
AcDbEntity
  8
0
  6
Continuous
 62
     7
100
AcDbLine
 10
-387.8881225585938
 20
145.790283203125
 30
0.0
 11
-385.8881225585938
 21
147.790283203125
 31
0.0
  0
LINE
  5
19A
330
22
100
AcDbEntity
  8
0
  6
Continuous
 62
     7
100
AcDbLine
 10
-387.8881225585938
 20
138.7192230224609
 30
0.0
 11
-385.8881225585938
 21
140.7192230224609
 31
0.0
  0
LINE
  5
19B
330
22
100
AcDbEntity
  8
0
  6
Continuous
 62
     7
100
AcDbLine
 10
-387.8881225585938
 20
131.6481475830078
 30
0.0
 11
-385.8881225585938
 21
133.6481475830078
 31
0.0
  0
LINE
  5
19C
330
22
100
AcDbEntity
  8
0
  6
Continuous
 62
     7
100
AcDbLine
 10
-384.3881225585938
 20
146.4537048339844
 30
0.0
 11
-384.2569885253906
 21
146.5848388671875
 31
0.0
  0
LINE
  5
19D
330
22
100
AcDbEntity
  8
0
  6
Continuous
 62
     7
100
AcDbLine
 10
-384.3881225585938
 20
142.2110748291016
 30
0.0
 11
-380.2566833496094
 21
146.3425140380859
 31
0.0
  0
LINE
  5
19E
330
22
100
AcDbEntity
  8
0
  6
Continuous
 62
     7
100
AcDbLine
 10
-384.3881225585938
 20
137.9684295654297
 30
0.0
 11
-379.8881225585938
 21
142.4684295654297
 31
0.0
  0
LINE
  5
19F
330
22
100
AcDbEntity
  8
0
  6
Continuous
 62
     7
100
AcDbLine
 10
-384.3881225585938
 20
133.7257843017578
 30
0.0
 11
-379.8881225585938
 21
138.2257843017578
 31
0.0
  0
LINE
  5
1A0
330
22
100
AcDbEntity
  8
0
  6
Continuous
 62
     7
100
AcDbLine
 10
-384.3881225585938
 20
129.4831390380859
 30
0.0
 11
-379.8881225585938
 21
133.9831390380859
 31
0.0
  0
LINE
  5
1A1
330
22
100
AcDbEntity
  8
0
  6
Continuous
 62
     7
100
AcDbLine
 10
-384.3881225585938
 20
125.2405090332031
 30
0.0
 11
-379.8881225585938
 21
129.7405090332031
 31
0.0
  0
LINE
  5
1A2
330
22
100
AcDbEntity
  8
0
  6
Continuous
 62
     7
100
AcDbLine
 10
-384.3881225585938
 20
120.9978637695313
 30
0.0
 11
-379.8881225585938
 21
125.4978637695313
 31
0.0
  0
LINE
  5
1A3
330
22
100
AcDbEntity
  8
0
  6
Continuous
 62
     7
100
AcDbLine
 10
-384.3881225585938
 20
116.7552261352539
 30
0.0
 11
-379.8881225585938
 21
121.2552261352539
 31
0.0
  0
LINE
  5
1A4
330
22
100
AcDbEntity
  8
0
  6
Continuous
 62
     7
100
AcDbLine
 10
-384.3881225585938
 20
112.512580871582
 30
0.0
 11
-379.8881225585938
 21
117.012580871582
 31
0.0
  0
LINE
  5
1A5
330
22
100
AcDbEntity
  8
0
  6
Continuous
 62
     7
100
AcDbLine
 10
-384.3881225585938
 20
108.2699432373047
 30
0.0
 11
-379.8881225585938
 21
112.7699432373047
 31
0.0
  0
LINE
  5
1A6
330
22
100
AcDbEntity
  8
0
  6
Continuous
 62
     7
100
AcDbLine
 10
-385.1195068359375
 20
103.2959136962891
 30
0.0
 11
-379.2415466308594
 21
109.1738586425781
 31
0.0
  0
LINE
  5
1A7
330
22
100
AcDbEntity
  8
0
  6
Continuous
 62
     7
100
AcDbLine
 10
-385.5457458496094
 20
98.62703704833984
 30
0.0
 11
-377.0659790039063
 21
107.1067962646484
 31
0.0
  0
LINE
  5
1A8
330
22
100
AcDbEntity
  8
0
  6
Continuous
 62
     7
100
AcDbLine
 10
-376.8453063964844
 20
103.0848388671875
 30
0.0
 11
-373.3453063964844
 21
106.5848388671875
 31
0.0
  0
LINE
  5
1A9
330
22
100
AcDbEntity
  8
0
  6
Continuous
 62
     7
100
AcDbLine
 10
-385.4171752929688
 20
94.51296234130859
 30
0.0
 11
-378.3881225585938
 21
101.5420227050781
 31
0.0
  0
LINE
  5
1AA
330
22
100
AcDbEntity
  8
0
  6
Continuous
 62
     7
100
AcDbLine
 10
-372.6026611328125
 20
103.0848388671875
 30
0.0
 11
-369.1026611328125
 21
106.5848388671875
 31
0.0
  0
LINE
  5
1AB
330
22
100
AcDbEntity
  8
0
  6
Continuous
 62
     7
100
AcDbLine
 10
-385.2886047363281
 20
90.39889526367188
 30
0.0
 11
-378.3881225585938
 21
97.29937744140624
 31
0.0
  0
LINE
  5
1AC
330
22
100
AcDbEntity
  8
0
  6
Continuous
 62
     7
100
AcDbLine
 10
-368.3600158691406
 20
103.0848388671875
 30
0.0
 11
-364.8600158691406
 21
106.5848388671875
 31
0.0
  0
LINE
  5
1AD
330
22
100
AcDbEntity
  8
0
  6
Continuous
 62
     7
100
AcDbLine
 10
-385.1600341796875
 20
86.28482818603515
 30
0.0
 11
-378.3881225585938
 21
93.05673980712892
 31
0.0
  0
LINE
  5
1AE
330
22
100
AcDbEntity
  8
0
  6
Continuous
 62
     7
100
AcDbLine
 10
-364.1173706054688
 20
103.0848388671875
 30
0.0
 11
-360.6173706054688
 21
106.5848388671875
 31
0.0
  0
LINE
  5
1AF
330
22
100
AcDbEntity
  8
0
  6
Continuous
 62
     7
100
AcDbLine
 10
-385.0314636230469
 20
82.1707534790039
 30
0.0
 11
-378.3881225585938
 21
88.81410217285155
 31
0.0
  0
LINE
  5
1B0
330
22
100
AcDbEntity
  8
0
  6
Continuous
 62
     7
100
AcDbLine
 10
-359.8747253417969
 20
103.0848388671875
 30
0.0
 11
-356.3747253417969
 21
106.5848388671875
 31
0.0
  0
LINE
  5
1B1
330
22
100
AcDbEntity
  8
0
  6
Continuous
 62
     7
100
AcDbLine
 10
-384.9028930664063
 20
78.05668640136719
 30
0.0
 11
-378.3881225585938
 21
84.57145690917968
 31
0.0
  0
LINE
  5
1B2
330
22
100
AcDbEntity
  8
0
  6
Continuous
 62
     7
100
AcDbLine
 10
-355.632080078125
 20
103.0848388671875
 30
0.0
 11
-352.132080078125
 21
106.5848388671875
 31
0.0
  0
LINE
  5
1B3
330
22
100
AcDbEntity
  8
0
  6
Continuous
 62
     7
100
AcDbLine
 10
-384.7743225097656
 20
73.94261932373047
 30
0.0
 11
-378.3881225585938
 21
80.32881927490235
 31
0.0
  0
LINE
  5
1B4
330
22
100
AcDbEntity
  8
0
  6
Continuous
 62
     7
100
AcDbLine
 10
-351.3894653320313
 20
103.0848388671875
 30
0.0
 11
-347.8894653320313
 21
106.5848388671875
 31
0.0
  0
LINE
  5
1B5
330
22
100
AcDbEntity
  8
0
  6
Continuous
 62
     7
100
AcDbLine
 10
-384.645751953125
 20
69.82854461669922
 30
0.0
 11
-378.3881225585938
 21
76.08617401123047
 31
0.0
  0
LINE
  5
1B6
330
22
100
AcDbEntity
  8
0
  6
Continuous
 62
     7
100
AcDbLine
 10
-347.1468200683594
 20
103.0848388671875
 30
0.0
 11
-343.6468200683594
 21
106.5848388671875
 31
0.0
  0
LINE
  5
1B7
330
22
100
AcDbEntity
  8
0
  6
Continuous
 62
     7
100
AcDbLine
 10
-384.5171813964844
 20
65.7144775390625
 30
0.0
 11
-378.3881225585938
 21
71.84353637695313
 31
0.0
  0
LINE
  5
1B8
330
22
100
AcDbEntity
  8
0
  6
Continuous
 62
     7
100
AcDbLine
 10
-342.9041748046875
 20
103.0848388671875
 30
0.0
 11
-339.4041748046875
 21
106.5848388671875
 31
0.0
  0
LINE
  5
1B9
330
22
100
AcDbEntity
  8
0
  6
Continuous
 62
     7
100
AcDbLine
 10
-384.3886108398438
 20
61.60041046142578
 30
0.0
 11
-378.3881225585938
 21
67.60089874267578
 31
0.0
  0
LINE
  5
1BA
330
22
100
AcDbEntity
  8
0
  6
Continuous
 62
     7
100
AcDbLine
 10
-338.6615295410156
 20
103.0848388671875
 30
0.0
 11
-335.1615295410156
 21
106.5848388671875
 31
0.0
  0
LINE
  5
1BB
330
22
100
AcDbEntity
  8
0
  6
Continuous
 62
     7
100
AcDbLine
 10
-380.1615295410156
 20
61.5848388671875
 30
0.0
 11
-378.3881225585938
 21
63.3582534790039
 31
0.0
  0
LINE
  5
1BC
330
22
100
AcDbEntity
  8
0
  6
Continuous
 62
     7
100
AcDbLine
 10
-334.4188842773438
 20
103.0848388671875
 30
0.0
 11
-331.091796875
 21
106.4119262695313
 31
0.0
  0
LINE
  5
1BD
330
22
100
AcDbEntity
  8
0
  6
Continuous
 62
     7
100
AcDbLine
 10
-384.3881225585938
 20
146.5848388671875
 30
0.0
 11
-384.3881225585938
 21
106.5848388671875
 31
0.0
  0
LINE
  5
1BE
330
22
100
AcDbEntity
  8
0
  6
Continuous
 62
     7
100
AcDbLine
 10
-385.8881225585938
 20
126.5848388671875
 30
0.0
 11
-385.8881225585938
 21
176.5848388671875
 31
0.0
  0
LINE
  5
1BF
330
22
100
AcDbEntity
  8
0
  6
Continuous
 62
     7
100
AcDbLine
 10
-387.8881225585938
 20
226.5848388671875
 30
0.0
 11
-387.8881225585938
 21
126.5848388671875
 31
0.0
  0
LINE
  5
1C0
330
22
100
AcDbEntity
  8
0
  6
Continuous
 62
     7
100
AcDbLine
 10
-353.3881225585938
 20
106.5848388671875
 30
0.0
 11
-342.6973876953125
 21
106.5848388671875
 31
0.0
  0
LINE
  5
1C1
330
22
100
AcDbEntity
  8
0
  6
Continuous
 62
     7
100
AcDbLine
 10
-379.8881225585938
 20
111.5848388671875
 30
0.0
 11
-379.8881225585938
 21
145.5848388671875
 31
0.0
  0
LINE
  5
1C2
330
22
100
AcDbEntity
  8
0
  6
Continuous
 62
     7
100
AcDbLine
 10
-385.8881225585938
 20
145.0848388671875
 30
0.0
 11
-385.8881225585938
 21
108.0848388671875
 31
0.0
  0
LINE
  5
1C3
330
22
100
AcDbEntity
  8
0
  6
Continuous
 62
     7
100
AcDbLine
 10
-385.8881225585938
 20
126.5848388671875
 30
0.0
 11
-384.3881225585938
 21
128.0848388671875
 31
0.0
  0
LINE
  5
1C4
330
22
100
AcDbEntity
  8
0
  6
Continuous
 62
     7
100
AcDbLine
 10
-440.8881225585938
 20
126.5848388671875
 30
0.0
 11
-385.8881225585938
 21
126.5848388671875
 31
0.0
  0
LINE
  5
1C5
330
22
100
AcDbEntity
  8
0
  6
Continuous
 62
     7
100
AcDbLine
 10
-548.8881225585938
 20
275.5848388671875
 30
0.0
 11
-440.8881225585938
 21
275.5848388671875
 31
0.0
  0
LINE
  5
1C6
330
22
100
AcDbEntity
  8
0
  6
Continuous
 62
     7
100
AcDbLine
 10
-554.8881225585938
 20
279.5848388671875
 30
0.0
 11
-326.8881225585938
 21
279.5848388671875
 31
0.0
  0
LINE
  5
1C7
330
22
100
AcDbEntity
  8
0
  6
Continuous
 62
     7
100
AcDbLine
 10
-327.3289794921875
 20
279.5848388671875
 30
0.0
 11
-325.8881225585938
 21
278.1439819335938
 31
0.0
  0
LINE
  5
1C8
330
22
100
AcDbEntity
  8
0
  6
Continuous
 62
     7
100
AcDbLine
 10
-327.8593139648438
 20
279.5848388671875
 30
0.0
 11
-325.8881225585938
 21
277.6136474609375
 31
0.0
  0
LINE
  5
1C9
330
22
100
AcDbEntity
  8
0
  6
Continuous
 62
     7
100
AcDbLine
 10
-329.4502868652344
 20
279.5848388671875
 30
0.0
 11
-326.0056457519531
 21
276.1401977539063
 31
0.0
  0
LINE
  5
1CA
330
22
100
AcDbEntity
  8
0
  6
Continuous
 62
     7
100
AcDbLine
 10
-329.9806213378906
 20
279.5848388671875
 30
0.0
 11
-326.2364501953125
 21
275.8406677246094
 31
0.0
  0
LINE
  5
1CB
330
22
100
AcDbEntity
  8
0
  6
Continuous
 62
     7
100
AcDbLine
 10
-331.5716247558594
 20
279.5848388671875
 30
0.0
 11
-327.5716247558594
 21
275.5848388671875
 31
0.0
  0
LINE
  5
1CC
330
22
100
AcDbEntity
  8
0
  6
Continuous
 62
     7
100
AcDbLine
 10
-332.1019287109375
 20
279.5848388671875
 30
0.0
 11
-328.1019287109375
 21
275.5848388671875
 31
0.0
  0
LINE
  5
1CD
330
22
100
AcDbEntity
  8
0
  6
Continuous
 62
     7
100
AcDbLine
 10
-333.6929321289063
 20
279.5848388671875
 30
0.0
 11
-329.6929321289063
 21
275.5848388671875
 31
0.0
  0
LINE
  5
1CE
330
22
100
AcDbEntity
  8
0
  6
Continuous
 62
     7
100
AcDbLine
 10
-334.2232666015625
 20
279.5848388671875
 30
0.0
 11
-330.2232666015625
 21
275.5848388671875
 31
0.0
  0
LINE
  5
1CF
330
22
100
AcDbEntity
  8
0
  6
Continuous
 62
     7
100
AcDbLine
 10
-335.8142395019531
 20
279.5848388671875
 30
0.0
 11
-331.8142395019531
 21
275.5848388671875
 31
0.0
  0
LINE
  5
1D0
330
22
100
AcDbEntity
  8
0
  6
Continuous
 62
     7
100
AcDbLine
 10
-335.8881225585938
 20
279.1283874511719
 30
0.0
 11
-332.2688598632813
 21
275.5090942382813
 31
0.0
  0
LINE
  5
1D1
330
22
100
AcDbEntity
  8
0
  6
Continuous
 62
     7
100
AcDbLine
 10
-335.8881225585938
 20
277.5373840332031
 30
0.0
 11
-332.8881225585938
 21
274.5373840332031
 31
0.0
  0
LINE
  5
1D2
330
22
100
AcDbEntity
  8
0
  6
Continuous
 62
     7
100
AcDbLine
 10
-335.8881225585938
 20
277.007049560547
 30
0.0
 11
-332.8881225585938
 21
274.0070495605469
 31
0.0
  0
LINE
  5
1D3
330
22
100
AcDbEntity
  8
0
  6
Continuous
 62
     7
100
AcDbLine
 10
-335.8881225585938
 20
275.4160766601563
 30
0.0
 11
-332.8881225585938
 21
272.4160766601563
 31
0.0
  0
LINE
  5
1D4
330
22
100
AcDbEntity
  8
0
  6
Continuous
 62
     7
100
AcDbLine
 10
-335.8881225585938
 20
274.8857421875
 30
0.0
 11
-332.8881225585938
 21
271.8857421875
 31
0.0
  0
LINE
  5
1D5
330
22
100
AcDbEntity
  8
0
  6
Continuous
 62
     7
100
AcDbLine
 10
-337.17822265625
 20
274.5848388671875
 30
0.0
 11
-332.8935546875
 21
270.3001708984375
 31
0.0
  0
LINE
  5
1D6
330
22
100
AcDbEntity
  8
0
  6
Continuous
 62
     7
100
AcDbLine
 10
-337.7085571289063
 20
274.5848388671875
 30
0.0
 11
-332.9514465332031
 21
269.8277587890625
 31
0.0
  0
LINE
  5
1D7
330
22
100
AcDbEntity
  8
0
  6
Continuous
 62
     7
100
AcDbLine
 10
-339.2995300292969
 20
274.5848388671875
 30
0.0
 11
-333.2862243652344
 21
268.571533203125
 31
0.0
  0
LINE
  5
1D8
330
22
100
AcDbEntity
  8
0
  6
Continuous
 62
     7
100
AcDbLine
 10
-339.3881225585938
 20
274.1430969238281
 30
0.0
 11
-333.4432067871094
 21
268.1981811523438
 31
0.0
  0
LINE
  5
1D9
330
22
100
AcDbEntity
  8
0
  6
Continuous
 62
     7
100
AcDbLine
 10
-339.3881225585938
 20
272.5520935058594
 30
0.0
 11
-334.0873107910156
 21
267.2512817382813
 31
0.0
  0
LINE
  5
1DA
330
22
100
AcDbEntity
  8
0
  6
Continuous
 62
     7
100
AcDbLine
 10
-339.3881225585938
 20
272.0217590332031
 30
0.0
 11
-334.34326171875
 21
266.9769287109375
 31
0.0
  0
LINE
  5
1DB
330
22
100
AcDbEntity
  8
0
  6
Continuous
 62
     7
100
AcDbLine
 10
-339.3881225585938
 20
270.4307861328125
 30
0.0
 11
-335.2191772460938
 21
266.2618408203125
 31
0.0
  0
LINE
  5
1DC
330
22
100
AcDbEntity
  8
0
  6
Continuous
 62
     7
100
AcDbLine
 10
-339.4134521484375
 20
269.92578125
 30
0.0
 11
-335.5409240722656
 21
266.0532531738281
 31
0.0
  0
LINE
  5
1DD
330
22
100
AcDbEntity
  8
0
  6
Continuous
 62
     7
100
AcDbLine
 10
-339.6708374023438
 20
268.5921936035156
 30
0.0
 11
-336.549560546875
 21
265.4709167480469
 31
0.0
  0
LINE
  5
1DE
330
22
100
AcDbEntity
  8
0
  6
Continuous
 62
     7
100
AcDbLine
 10
-339.8069458007813
 20
268.1979675292969
 30
0.0
 11
-336.8857727050781
 21
265.2767944335938
 31
0.0
  0
LINE
  5
1DF
330
22
100
AcDbEntity
  8
0
  6
Continuous
 62
     7
100
AcDbLine
 10
-340.3994750976563
 20
267.1994934082031
 30
0.0
 11
-337.8944091796875
 21
264.6944580078125
 31
0.0
  0
LINE
  5
1E0
330
22
100
AcDbEntity
  8
0
  6
Continuous
 62
     7
100
AcDbLine
 10
-340.6385192871094
 20
266.908203125
 30
0.0
 11
-338.2306518554688
 21
264.5003356933594
 31
0.0
  0
LINE
  5
1E1
330
22
100
AcDbEntity
  8
0
  6
Continuous
 62
     7
100
AcDbLine
 10
-341.4656066894531
 20
266.144287109375
 30
0.0
 11
-339.2392883300781
 21
263.9179992675781
 31
0.0
  0
LINE
  5
1E2
330
22
100
AcDbEntity
  8
0
  6
Continuous
 62
     7
100
AcDbLine
 10
-341.7748413085938
 20
265.9232177734375
 30
0.0
 11
-339.5755004882813
 21
263.723876953125
 31
0.0
  0
LINE
  5
1E3
330
22
100
AcDbEntity
  8
0
  6
Continuous
 62
     7
100
AcDbLine
 10
-342.7803039550781
 20
265.337677001953
 30
0.0
 11
-340.5841369628906
 21
263.1415405273438
 31
0.0
  0
LINE
  5
1E4
330
22
100
AcDbEntity
  8
0
  6
Continuous
 62
     7
100
AcDbLine
 10
-343.1165161132813
 20
265.1435852050781
 30
0.0
 11
-340.9203796386719
 21
262.9474182128906
 31
0.0
  0
LINE
  5
1E5
330
22
100
AcDbEntity
  8
0
  6
Continuous
 62
     7
100
AcDbLine
 10
-344.1251525878906
 20
264.5612182617188
 30
0.0
 11
-341.9290161132813
 21
262.3650817871094
 31
0.0
  0
LINE
  5
1E6
330
22
100
AcDbEntity
  8
0
  6
Continuous
 62
     7
100
AcDbLine
 10
-344.4613952636719
 20
264.3671264648438
 30
0.0
 11
-342.2652282714844
 21
262.1709594726563
 31
0.0
  0
LINE
  5
1E7
330
22
100
AcDbEntity
  8
0
  6
Continuous
 62
     7
100
AcDbLine
 10
-345.4700317382813
 20
263.7847595214844
 30
0.0
 11
-343.2738647460938
 21
261.588623046875
 31
0.0
  0
LINE
  5
1E8
330
22
100
AcDbEntity
  8
0
  6
Continuous
 62
     7
100
AcDbLine
 10
-345.8062438964844
 20
263.5906677246094
 30
0.0
 11
-343.6100769042969
 21
261.3945007324219
 31
0.0
  0
LINE
  5
1E9
330
22
100
AcDbEntity
  8
0
  6
Continuous
 62
     7
100
AcDbLine
 10
-346.8148803710938
 20
263.00830078125
 30
0.0
 11
-344.6187438964844
 21
260.8121643066406
 31
0.0
  0
LINE
  5
1EA
330
22
100
AcDbEntity
  8
0
  6
Continuous
 62
     7
100
AcDbLine
 10
-347.1510925292969
 20
262.814208984375
 30
0.0
 11
-344.9549560546875
 21
260.6180419921875
 31
0.0
  0
LINE
  5
1EB
330
22
100
AcDbEntity
  8
0
  6
Continuous
 62
     7
100
AcDbLine
 10
-348.1597595214844
 20
262.2318420410156
 30
0.0
 11
-345.9635925292969
 21
260.0357055664063
 31
0.0
  0
LINE
  5
1EC
330
22
100
AcDbEntity
  8
0
  6
Continuous
 62
     7
100
AcDbLine
 10
-348.4959716796875
 20
262.0377502441406
 30
0.0
 11
-346.2998046875
 21
259.8415832519531
 31
0.0
  0
LINE
  5
1ED
330
22
100
AcDbEntity
  8
0
  6
Continuous
 62
     7
100
AcDbLine
 10
-349.5046081542969
 20
261.4554138183594
 30
0.0
 11
-347.3084716796875
 21
259.2592468261719
 31
0.0
  0
LINE
  5
1EE
330
22
100
AcDbEntity
  8
0
  6
Continuous
 62
     7
100
AcDbLine
 10
-349.8408203125
 20
261.2612915039063
 30
0.0
 11
-347.6446838378906
 21
259.0651245117188
 31
0.0
  0
LINE
  5
1EF
330
22
100
AcDbEntity
  8
0
  6
Continuous
 62
     7
100
AcDbLine
 10
-350.8494873046875
 20
260.678955078125
 30
0.0
 11
-348.6533203125
 21
258.4827880859375
 31
0.0
  0
LINE
  5
1F0
330
22
100
AcDbEntity
  8
0
  6
Continuous
 62
     7
100
AcDbLine
 10
-351.1856994628906
 20
260.484832763672
 30
0.0
 11
-348.9895324707031
 21
258.2886657714844
 31
0.0
  0
LINE
  5
1F1
330
22
100
AcDbEntity
  8
0
  6
Continuous
 62
     7
100
AcDbLine
 10
-352.1943359375
 20
259.9024963378905
 30
0.0
 11
-349.9981994628906
 21
257.7063293457031
 31
0.0
  0
LINE
  5
1F2
330
22
100
AcDbEntity
  8
0
  6
Continuous
 62
     7
100
AcDbLine
 10
-352.5305480957031
 20
259.7083740234375
 30
0.0
 11
-350.3344116210938
 21
257.51220703125
 31
0.0
  0
LINE
  5
1F3
330
22
100
AcDbEntity
  8
0
  6
Continuous
 62
     7
100
AcDbLine
 10
-353.5392150878906
 20
259.1260375976563
 30
0.0
 11
-351.3430480957031
 21
256.9298706054688
 31
0.0
  0
LINE
  5
1F4
330
22
100
AcDbEntity
  8
0
  6
Continuous
 62
     7
100
AcDbLine
 10
-353.8754272460938
 20
258.9319152832031
 30
0.0
 11
-351.6792602539063
 21
256.7357482910156
 31
0.0
  0
LINE
  5
1F5
330
22
100
AcDbEntity
  8
0
  6
Continuous
 62
     7
100
AcDbLine
 10
-354.8840637207031
 20
258.3495788574219
 30
0.0
 11
-352.6879272460938
 21
256.1534118652344
 31
0.0
  0
LINE
  5
1F6
330
22
100
AcDbEntity
  8
0
  6
Continuous
 62
     7
100
AcDbLine
 10
-355.2202758789063
 20
258.1554565429688
 30
0.0
 11
-353.0241394042969
 21
255.9593048095703
 31
0.0
  0
LINE
  5
1F7
330
22
100
AcDbEntity
  8
0
  6
Continuous
 62
     7
100
AcDbLine
 10
-356.2289428710938
 20
257.5731201171875
 30
0.0
 11
-354.0327758789063
 21
255.3769683837891
 31
0.0
  0
LINE
  5
1F8
330
22
100
AcDbEntity
  8
0
  6
Continuous
 62
     7
100
AcDbLine
 10
-356.5651550292969
 20
257.3789978027344
 30
0.0
 11
-354.3689880371094
 21
255.1828460693359
 31
0.0
  0
LINE
  5
1F9
330
22
100
AcDbEntity
  8
0
  6
Continuous
 62
     7
100
AcDbLine
 10
-357.5737915039063
 20
256.7966613769531
 30
0.0
 11
-355.3776550292969
 21
254.6005096435547
 31
0.0
  0
LINE
  5
1FA
330
22
100
AcDbEntity
  8
0
  6
Continuous
 62
     7
100
AcDbLine
 10
-357.9100036621094
 20
256.6025390625
 30
0.0
 11
-355.7138671875
 21
254.4063873291016
 31
0.0
  0
LINE
  5
1FB
330
22
100
AcDbEntity
  8
0
  6
Continuous
 62
     7
100
AcDbLine
 10
-358.9186706542969
 20
256.0202026367188
 30
0.0
 11
-356.7225036621094
 21
253.8240509033203
 31
0.0
  0
LINE
  5
1FC
330
22
100
AcDbEntity
  8
0
  6
Continuous
 62
     7
100
AcDbLine
 10
-359.2548828125
 20
255.8260803222656
 30
0.0
 11
-357.0587158203125
 21
253.6299285888672
 31
0.0
  0
LINE
  5
1FD
330
22
100
AcDbEntity
  8
0
  6
Continuous
 62
     7
100
AcDbLine
 10
-360.2635192871094
 20
255.2437438964844
 30
0.0
 11
-358.0673828125
 21
253.0475921630859
 31
0.0
  0
LINE
  5
1FE
330
22
100
AcDbEntity
  8
0
  6
Continuous
 62
     7
100
AcDbLine
 10
-360.5997314453125
 20
255.0496215820313
 30
0.0
 11
-358.4035949707031
 21
252.8534698486328
 31
0.0
  0
LINE
  5
1FF
330
22
100
AcDbEntity
  8
0
  6
Continuous
 62
     7
100
AcDbLine
 10
-361.6083984375
 20
254.46728515625
 30
0.0
 11
-359.4122314453125
 21
252.2711334228516
 31
0.0
  0
LINE
  5
200
330
22
100
AcDbEntity
  8
0
  6
Continuous
 62
     7
100
AcDbLine
 10
-361.9446105957031
 20
254.2731781005859
 30
0.0
 11
-359.7484436035156
 21
252.0770111083984
 31
0.0
  0
LINE
  5
201
330
22
100
AcDbEntity
  8
0
  6
Continuous
 62
     7
100
AcDbLine
 10
-362.9532470703125
 20
253.6908264160156
 30
0.0
 11
-360.7571105957031
 21
251.4946746826172
 31
0.0
  0
LINE
  5
202
330
22
100
AcDbEntity
  8
0
  6
Continuous
 62
     7
100
AcDbLine
 10
-363.2894592285156
 20
253.4967193603516
 30
0.0
 11
-361.0933227539063
 21
251.3005676269531
 31
0.0
  0
LINE
  5
203
330
22
100
AcDbEntity
  8
0
  6
Continuous
 62
     7
100
AcDbLine
 10
-364.2981262207031
 20
252.9143676757813
 30
0.0
 11
-362.1019592285156
 21
250.7182159423828
 31
0.0
  0
LINE
  5
204
330
22
100
AcDbEntity
  8
0
  6
Continuous
 62
     7
100
AcDbLine
 10
-364.6343383789063
 20
252.7202606201172
 30
0.0
 11
-362.4381713867188
 21
250.5241088867188
 31
0.0
  0
LINE
  5
205
330
22
100
AcDbEntity
  8
0
  6
Continuous
 62
     7
100
AcDbLine
 10
-365.6429748535156
 20
252.1379089355469
 30
0.0
 11
-363.4468383789063
 21
249.9417572021484
 31
0.0
  0
LINE
  5
206
330
22
100
AcDbEntity
  8
0
  6
Continuous
 62
     7
100
AcDbLine
 10
-365.9791870117188
 20
251.9438018798828
 30
0.0
 11
-363.7830505371094
 21
249.7476501464844
 31
0.0
  0
LINE
  5
207
330
22
100
AcDbEntity
  8
0
  6
Continuous
 62
     7
100
AcDbLine
 10
-366.9878540039063
 20
251.3614501953125
 30
0.0
 11
-364.7916870117188
 21
249.1652984619141
 31
0.0
  0
LINE
  5
208
330
22
100
AcDbEntity
  8
0
  6
Continuous
 62
     7
100
AcDbLine
 10
-367.3240661621094
 20
251.1673431396484
 30
0.0
 11
-365.1278991699219
 21
248.97119140625
 31
0.0
  0
LINE
  5
209
330
22
100
AcDbEntity
  8
0
  6
Continuous
 62
     7
100
AcDbLine
 10
-368.3327026367188
 20
250.5850067138672
 30
0.0
 11
-366.1365356445313
 21
248.3888397216797
 31
0.0
  0
LINE
  5
20A
330
22
100
AcDbEntity
  8
0
  6
Continuous
 62
     7
100
AcDbLine
 10
-368.6689147949219
 20
250.3908843994141
 30
0.0
 11
-366.4727783203125
 21
248.1947326660156
 31
0.0
  0
LINE
  5
20B
330
22
100
AcDbEntity
  8
0
  6
Continuous
 62
     7
100
AcDbLine
 10
-369.6775512695313
 20
249.8085479736328
 30
0.0
 11
-367.4814147949219
 21
247.6123962402344
 31
0.0
  0
LINE
  5
20C
330
22
100
AcDbEntity
  8
0
  6
Continuous
 62
     7
100
AcDbLine
 10
-370.0137939453125
 20
249.6144256591797
 30
0.0
 11
-367.817626953125
 21
247.4182739257813
 31
0.0
  0
LINE
  5
20D
330
22
100
AcDbEntity
  8
0
  6
Continuous
 62
     7
100
AcDbLine
 10
-371.0224304199219
 20
249.0320892333984
 30
0.0
 11
-368.8262634277344
 21
246.8359375
 31
0.0
  0
LINE
  5
20E
330
22
100
AcDbEntity
  8
0
  6
Continuous
 62
     7
100
AcDbLine
 10
-371.358642578125
 20
248.8379669189453
 30
0.0
 11
-369.1625061035156
 21
246.6418151855469
 31
0.0
  0
LINE
  5
20F
330
22
100
AcDbEntity
  8
0
  6
Continuous
 62
     7
100
AcDbLine
 10
-372.3672790527344
 20
248.2556304931641
 30
0.0
 11
-370.171142578125
 21
246.0594787597656
 31
0.0
  0
LINE
  5
210
330
22
100
AcDbEntity
  8
0
  6
Continuous
 62
     7
100
AcDbLine
 10
-372.7035217285156
 20
248.0615081787109
 30
0.0
 11
-370.5073547363281
 21
245.8653564453125
 31
0.0
  0
LINE
  5
211
330
22
100
AcDbEntity
  8
0
  6
Continuous
 62
     7
100
AcDbLine
 10
-373.712158203125
 20
247.4791717529297
 30
0.0
 11
-371.5159912109375
 21
245.2830200195313
 31
0.0
  0
LINE
  5
212
330
22
100
AcDbEntity
  8
0
  6
Continuous
 62
     7
100
AcDbLine
 10
-374.0483703613281
 20
247.2850494384766
 30
0.0
 11
-371.8522338867188
 21
245.0888977050781
 31
0.0
  0
LINE
  5
213
330
22
100
AcDbEntity
  8
0
  6
Continuous
 62
     7
100
AcDbLine
 10
-375.0570068359375
 20
246.7027130126953
 30
0.0
 11
-372.8608703613281
 21
244.5065612792969
 31
0.0
  0
LINE
  5
214
330
22
100
AcDbEntity
  8
0
  6
Continuous
 62
     7
100
AcDbLine
 10
-375.3932495117188
 20
246.5086059570313
 30
0.0
 11
-373.1970825195313
 21
244.3124542236328
 31
0.0
  0
LINE
  5
215
330
22
100
AcDbEntity
  8
0
  6
Continuous
 62
     7
100
AcDbLine
 10
-376.4018859863281
 20
245.9262542724609
 30
0.0
 11
-374.2057189941406
 21
243.7301025390625
 31
0.0
  0
LINE
  5
216
330
22
100
AcDbEntity
  8
0
  6
Continuous
 62
     7
100
AcDbLine
 10
-376.7380981445313
 20
245.7321472167969
 30
0.0
 11
-374.5419311523438
 21
243.5359954833984
 31
0.0
  0
LINE
  5
217
330
22
100
AcDbEntity
  8
0
  6
Continuous
 62
     7
100
AcDbLine
 10
-377.7467346191406
 20
245.1497955322266
 30
0.0
 11
-375.5505981445313
 21
242.9536437988281
 31
0.0
  0
LINE
  5
218
330
22
100
AcDbEntity
  8
0
  6
Continuous
 62
     7
100
AcDbLine
 10
-378.0829467773438
 20
244.9556884765625
 30
0.0
 11
-375.8868103027344
 21
242.7595367431641
 31
0.0
  0
LINE
  5
219
330
22
100
AcDbEntity
  8
0
  6
Continuous
 62
     7
100
AcDbLine
 10
-379.0916137695313
 20
244.3733367919922
 30
0.0
 11
-376.8952941894531
 21
242.1770172119141
 31
0.0
  0
LINE
  5
21A
330
22
100
AcDbEntity
  8
0
  6
Continuous
 62
     7
100
AcDbLine
 10
-379.4278259277344
 20
244.1792297363281
 30
0.0
 11
-377.2136840820313
 21
241.965087890625
 31
0.0
  0
LINE
  5
21B
330
22
100
AcDbEntity
  8
0
  6
Continuous
 62
     7
100
AcDbLine
 10
-380.4364624023438
 20
243.5968780517578
 30
0.0
 11
-378.0586242675781
 21
241.2190246582031
 31
0.0
  0
LINE
  5
21C
330
22
100
AcDbEntity
  8
0
  6
Continuous
 62
     7
100
AcDbLine
 10
-380.7726745605469
 20
243.4027709960938
 30
0.0
 11
-378.2998962402344
 21
240.9299926757813
 31
0.0
  0
LINE
  5
21D
330
22
100
AcDbEntity
  8
0
  6
Continuous
 62
     7
100
AcDbLine
 10
-381.7813415527344
 20
242.8204345703125
 30
0.0
 11
-378.9111938476563
 21
239.9502868652344
 31
0.0
  0
LINE
  5
21E
330
22
100
AcDbEntity
  8
0
  6
Continuous
 62
     7
100
AcDbLine
 10
-382.1175537109375
 20
242.6263122558594
 30
0.0
 11
-379.0635375976563
 21
239.5722961425781
 31
0.0
  0
LINE
  5
21F
330
22
100
AcDbEntity
  8
0
  6
Continuous
 62
     7
100
AcDbLine
 10
-383.1261901855469
 20
242.0439758300781
 30
0.0
 11
-379.3480834960938
 21
238.2658538818359
 31
0.0
  0
LINE
  5
220
330
22
100
AcDbEntity
  8
0
  6
Continuous
 62
     7
100
AcDbLine
 10
-383.46240234375
 20
241.849853515625
 30
0.0
 11
-379.3881225585938
 21
237.7755584716797
 31
0.0
  0
LINE
  5
221
330
22
100
AcDbEntity
  8
0
  6
Continuous
 62
     7
100
AcDbLine
 10
-384.4710693359375
 20
241.2675170898438
 30
0.0
 11
-379.3881225585938
 21
236.1845703125
 31
0.0
  0
LINE
  5
222
330
22
100
AcDbEntity
  8
0
  6
Continuous
 62
     7
100
AcDbLine
 10
-384.8072814941406
 20
241.0733947753906
 30
0.0
 11
-379.3881225585938
 21
235.6542358398439
 31
0.0
  0
LINE
  5
223
330
22
100
AcDbEntity
  8
0
  6
Continuous
 62
     7
100
AcDbLine
 10
-385.81591796875
 20
240.4910583496094
 30
0.0
 11
-379.3881225585938
 21
234.0632476806641
 31
0.0
  0
LINE
  5
224
330
22
100
AcDbEntity
  8
0
  6
Continuous
 62
     7
100
AcDbLine
 10
-386.1521301269531
 20
240.2969360351563
 30
0.0
 11
-379.3881225585938
 21
233.5329132080078
 31
0.0
  0
LINE
  5
225
330
22
100
AcDbEntity
  8
0
  6
Continuous
 62
     7
100
AcDbLine
 10
-387.1607971191406
 20
239.714599609375
 30
0.0
 11
-379.3881225585938
 21
231.9419250488281
 31
0.0
  0
LINE
  5
226
330
22
100
AcDbEntity
  8
0
  6
Continuous
 62
     7
100
AcDbLine
 10
-387.4970092773438
 20
239.5204925537109
 30
0.0
 11
-379.3881225585938
 21
231.4115905761719
 31
0.0
  0
LINE
  5
227
330
22
100
AcDbEntity
  8
0
  6
Continuous
 62
     7
100
AcDbLine
 10
-384.44189453125
 20
234.8743896484375
 30
0.0
 11
-379.3881225585938
 21
229.8206024169922
 31
0.0
  0
LINE
  5
228
330
22
100
AcDbEntity
  8
0
  6
Continuous
 62
     7
100
AcDbLine
 10
-388.3202209472656
 20
238.7527160644531
 30
0.0
 11
-386.0976867675781
 21
236.5301666259766
 31
0.0
  0
LINE
  5
229
330
22
100
AcDbEntity
  8
0
  6
Continuous
 62
     7
100
AcDbLine
 10
-384.3881225585938
 20
234.290283203125
 30
0.0
 11
-379.3881225585938
 21
229.290283203125
 31
0.0
  0
LINE
  5
22A
330
22
100
AcDbEntity
  8
0
  6
Continuous
 62
     7
100
AcDbLine
 10
-388.3881225585938
 20
238.290283203125
 30
0.0
 11
-386.6826782226563
 21
236.5848388671875
 31
0.0
  0
LINE
  5
22B
330
22
100
AcDbEntity
  8
0
  6
Continuous
 62
     7
100
AcDbLine
 10
-384.3881225585938
 20
232.6992797851563
 30
0.0
 11
-379.3881225585938
 21
227.6992797851563
 31
0.0
  0
LINE
  5
22C
330
22
100
AcDbEntity
  8
0
  6
Continuous
 62
     7
100
AcDbLine
 10
-384.3881225585938
 20
232.1689605712891
 30
0.0
 11
-379.3881225585938
 21
227.1689605712891
 31
0.0
  0
LINE
  5
22D
330
22
100
AcDbEntity
  8
0
  6
Continuous
 62
     7
100
AcDbLine
 10
-384.3881225585938
 20
230.5779724121094
 30
0.0
 11
-379.3881225585938
 21
225.5779724121094
 31
0.0
  0
LINE
  5
22E
330
22
100
AcDbEntity
  8
0
  6
Continuous
 62
     7
100
AcDbLine
 10
-384.3881225585938
 20
230.0476379394531
 30
0.0
 11
-379.3881225585938
 21
225.0476379394531
 31
0.0
  0
LINE
  5
22F
330
22
100
AcDbEntity
  8
0
  6
Continuous
 62
     7
100
AcDbLine
 10
-384.3881225585938
 20
228.4566497802734
 30
0.0
 11
-379.3881225585938
 21
223.4566497802734
 31
0.0
  0
LINE
  5
230
330
22
100
AcDbEntity
  8
0
  6
Continuous
 62
     7
100
AcDbLine
 10
-384.3881225585938
 20
227.9263153076172
 30
0.0
 11
-379.3881225585938
 21
222.9263153076172
 31
0.0
  0
LINE
  5
231
330
22
100
AcDbEntity
  8
0
  6
Continuous
 62
     7
100
AcDbLine
 10
-384.3881225585938
 20
226.3353271484375
 30
0.0
 11
-379.3881225585938
 21
221.3353271484375
 31
0.0
  0
LINE
  5
232
330
22
100
AcDbEntity
  8
0
  6
Continuous
 62
     7
100
AcDbLine
 10
-384.3881225585938
 20
225.8049926757813
 30
0.0
 11
-379.3881225585938
 21
220.8049926757813
 31
0.0
  0
LINE
  5
233
330
22
100
AcDbEntity
  8
0
  6
Continuous
 62
     7
100
AcDbLine
 10
-384.7826232910156
 20
224.6085205078125
 30
0.0
 11
-379.3881225585938
 21
219.2140045166016
 31
0.0
  0
LINE
  5
234
330
22
100
AcDbEntity
  8
0
  6
Continuous
 62
     7
100
AcDbLine
 10
-384.98876953125
 20
224.2843170166016
 30
0.0
 11
-379.3881225585938
 21
218.6836700439453
 31
0.0
  0
LINE
  5
235
330
22
100
AcDbEntity
  8
0
  6
Continuous
 62
     7
100
AcDbLine
 10
-384.9374389648438
 20
222.6419982910156
 30
0.0
 11
-379.3881225585938
 21
217.0926818847656
 31
0.0
  0
LINE
  5
236
330
22
100
AcDbEntity
  8
0
  6
Continuous
 62
     7
100
AcDbLine
 10
-384.9203186035156
 20
222.0945587158203
 30
0.0
 11
-379.3881225585938
 21
216.5623626708984
 31
0.0
  0
LINE
  5
237
330
22
100
AcDbEntity
  8
0
  6
Continuous
 62
     7
100
AcDbLine
 10
-384.8689880371094
 20
220.4522399902344
 30
0.0
 11
-379.3881225585938
 21
214.9713592529297
 31
0.0
  0
LINE
  5
238
330
22
100
AcDbEntity
  8
0
  6
Continuous
 62
     7
100
AcDbLine
 10
-384.8518981933594
 20
219.9048156738281
 30
0.0
 11
-379.3881225585938
 21
214.4410400390625
 31
0.0
  0
LINE
  5
239
330
22
100
AcDbEntity
  8
0
  6
Continuous
 62
     7
100
AcDbLine
 10
-384.8005676269531
 20
218.2624969482422
 30
0.0
 11
-379.3881225585938
 21
212.8500518798828
 31
0.0
  0
LINE
  5
23A
330
22
100
AcDbEntity
  8
0
  6
Continuous
 62
     7
100
AcDbLine
 10
-384.783447265625
 20
217.7150573730469
 30
0.0
 11
-379.3881225585938
 21
212.3197174072266
 31
0.0
  0
LINE
  5
23B
330
22
100
AcDbEntity
  8
0
  6
Continuous
 62
     7
100
AcDbLine
 10
-384.7321166992188
 20
216.0727386474609
 30
0.0
 11
-379.3881225585938
 21
210.7287292480469
 31
0.0
  0
LINE
  5
23C
330
22
100
AcDbEntity
  8
0
  6
Continuous
 62
     7
100
AcDbLine
 10
-384.7150268554688
 20
215.5252990722656
 30
0.0
 11
-379.3881225585938
 21
210.1983947753906
 31
0.0
  0
LINE
  5
23D
330
22
100
AcDbEntity
  8
0
  6
Continuous
 62
     7
100
AcDbLine
 10
-384.6636962890625
 20
213.8829803466797
 30
0.0
 11
-379.3881225585938
 21
208.6074066162109
 31
0.0
  0
LINE
  5
23E
330
22
100
AcDbEntity
  8
0
  6
Continuous
 62
     7
100
AcDbLine
 10
-384.6465759277344
 20
213.3355407714844
 30
0.0
 11
-379.3881225585938
 21
208.0770721435547
 31
0.0
  0
LINE
  5
23F
330
22
100
AcDbEntity
  8
0
  6
Continuous
 62
     7
100
AcDbLine
 10
-384.5952758789063
 20
211.6932373046875
 30
0.0
 11
-379.3881225585938
 21
206.486083984375
 31
0.0
  0
LINE
  5
240
330
22
100
AcDbEntity
  8
0
  6
Continuous
 62
     7
100
AcDbLine
 10
-384.5781555175781
 20
211.1457977294922
 30
0.0
 11
-379.3881225585938
 21
205.9557495117188
 31
0.0
  0
LINE
  5
241
330
22
100
AcDbEntity
  8
0
  6
Continuous
 62
     7
100
AcDbLine
 10
-384.5268249511719
 20
209.5034790039064
 30
0.0
 11
-379.9981689453125
 21
204.9748077392578
 31
0.0
  0
LINE
  5
242
330
22
100
AcDbEntity
  8
0
  6
Continuous
 62
     7
100
AcDbLine
 10
-384.5097351074219
 20
208.9560394287109
 30
0.0
 11
-380.2633056640625
 21
204.7096405029297
 31
0.0
  0
LINE
  5
243
330
22
100
AcDbEntity
  8
0
  6
Continuous
 62
     7
100
AcDbLine
 10
-384.4584045410156
 20
207.313720703125
 30
0.0
 11
-381.7295227050781
 21
204.5848388671875
 31
0.0
  0
LINE
  5
244
330
22
100
AcDbEntity
  8
0
  6
Continuous
 62
     7
100
AcDbLine
 10
-384.4412841796875
 20
206.7662811279297
 30
0.0
 11
-382.2598571777344
 21
204.5848388671875
 31
0.0
  0
LINE
  5
245
330
22
100
AcDbEntity
  8
0
  6
Continuous
 62
     7
100
AcDbLine
 10
-384.3899536132813
 20
205.1239776611328
 30
0.0
 11
-383.850830078125
 21
204.5848388671875
 31
0.0
  0
LINE
  5
246
330
22
100
AcDbEntity
  8
0
  6
Continuous
 62
     7
100
AcDbLine
 10
-363.9547729492188
 20
263.5744323730469
 30
0.0
 11
-363.9547729492188
 21
274.5848388671875
 31
0.0
  0
LINE
  5
247
330
22
100
AcDbEntity
  8
0
  6
Continuous
 62
     7
100
AcDbLine
 10
-376.9547729492188
 20
263.3516235351563
 30
0.0
 11
-376.9547729492188
 21
274.5848388671875
 31
0.0
  0
LINE
  5
248
330
22
100
AcDbEntity
  8
0
  6
Continuous
 62
     7
100
AcDbLine
 10
-332.8881225585938
 20
274.5848388671875
 30
0.0
 11
-332.8881225585938
 21
270.4715881347656
 31
0.0
  0
LINE
  5
249
330
22
100
AcDbEntity
  8
0
  6
Continuous
 62
     7
100
AcDbLine
 10
-339.3881225585938
 20
274.5848388671875
 30
0.0
 11
-339.3881225585938
 21
270.1829223632813
 31
0.0
  0
LINE
  5
24A
330
22
100
AcDbEntity
  8
0
  6
Continuous
 62
     7
100
AcDbLine
 10
-543.8881225585938
 20
267.5848388671875
 30
0.0
 11
-440.8881225585938
 21
267.5848388671875
 31
0.0
  0
LINE
  5
24B
330
22
100
AcDbEntity
  8
0
  6
Continuous
 62
     7
100
AcDbLine
 10
-548.8881225585938
 20
275.5848388671875
 30
0.0
 11
-548.8881225585938
 21
270.4715881347656
 31
0.0
  0
LINE
  5
24C
330
22
100
AcDbEntity
  8
0
  6
CENTER
 62
     7
100
AcDbLine
 10
-440.8881225585938
 20
53.84428024291992
 30
0.0
 11
-440.8881225585938
 21
290.2389526367188
 31
0.0
  0
LINE
  5
24D
330
22
100
AcDbEntity
  8
0
  6
Continuous
 62
     7
100
AcDbLine
 10
-500.8881225585938
 20
146.5848388671875
 30
0.0
 11
-440.8881225585938
 21
146.5848388671875
 31
0.0
  0
LINE
  5
24E
330
22
100
AcDbEntity
  8
0
  6
Continuous
 62
     7
100
AcDbLine
 10
-506.8881225585938
 20
106.5848388671875
 30
0.0
 11
-440.8881225585938
 21
106.5848388671875
 31
0.0
  0
LINE
  5
24F
330
22
100
AcDbEntity
  8
0
  6
Continuous
 62
     7
100
AcDbLine
 10
-551.3881225585938
 20
103.0848388671875
 30
0.0
 11
-440.8881225585938
 21
103.0848388671875
 31
0.0
  0
LINE
  5
250
330
22
100
AcDbEntity
  8
0
  6
Continuous
 62
     7
100
AcDbLine
 10
-505.3881225585937
 20
242.4701080322266
 30
0.0
 11
-440.8881225585938
 21
242.4701080322266
 31
0.0
  0
LINE
  5
251
330
22
100
AcDbEntity
  8
0
  6
Continuous
 62
     7
100
AcDbLine
 10
-503.3881225585938
 20
204.5848388671875
 30
0.0
 11
-440.8881225585938
 21
204.5848388671875
 31
0.0
  0
LINE
  5
252
330
22
100
AcDbEntity
  8
0
  6
Continuous
 62
     7
100
AcDbLine
 10
-467.2789306640624
 20
239.7786407470703
 30
0.0
 11
-440.8881225585938
 21
239.7786407470703
 31
0.0
  0
LINE
  5
253
330
22
100
AcDbEntity
  8
0
  6
Continuous
 62
     7
100
AcDbLine
 10
-495.8881225585938
 20
176.5848388671875
 30
0.0
 11
-440.8881225585938
 21
176.5848388671875
 31
0.0
  0
LINE
  5
254
330
22
100
AcDbEntity
  8
0
  6
Continuous
 62
     7
100
AcDbLine
 10
-496.2327270507812
 20
190.1339874267578
 30
0.0
 11
-440.8881225585938
 21
190.1339874267578
 31
0.0
  0
LINE
  5
255
330
22
100
AcDbEntity
  8
0
  6
Continuous
 62
     7
100
AcDbLine
 10
-468.5286560058593
 20
205.5848388671875
 30
0.0
 11
-440.8881225585938
 21
205.5848388671875
 31
0.0
  0
LINE
  5
256
330
22
100
AcDbEntity
  8
0
  6
Continuous
 62
     7
100
AcDbLine
 10
-502.3881225585937
 20
61.5848388671875
 30
0.0
 11
-379.3881225585938
 21
61.5848388671875
 31
0.0
  0
LINE
  5
257
330
22
100
AcDbEntity
  8
0
  6
Continuous
 62
     7
100
AcDbLine
 10
-356.7738952636719
 20
492.6867980957031
 30
0.0
 11
-356.7738952636719
 21
468.993408203125
 31
0.0
  0
LINE
  5
258
330
22
100
AcDbEntity
  8
0
  6
Continuous
 62
     7
100
AcDbLine
 10
-345.2738952636719
 20
464.0018920898437
 30
0.0
 11
-345.2738952636719
 21
448.993408203125
 31
0.0
  0
LINE
  5
259
330
22
100
AcDbEntity
  8
0
  6
Continuous
 62
     7
100
AcDbLine
 10
-437.2738952636718
 20
504.5267333984375
 30
0.0
 11
-437.2738952636718
 21
484.626739501953
 31
0.0
  0
LINE
  5
25A
330
22
100
AcDbEntity
  8
0
  6
Continuous
 62
     7
100
AcDbLine
 10
-432.2738952636719
 20
508.2431030273438
 30
0.0
 11
-432.2738952636719
 21
477.8764343261719
 31
0.0
  0
LINE
  5
25B
330
22
100
AcDbEntity
  8
0
  6
Continuous
 62
     7
100
AcDbLine
 10
-432.2738952636719
 20
537.1795043945313
 30
0.0
 11
-432.2738952636719
 21
518.87646484375
 31
0.0
  0
LINE
  5
25C
330
22
100
AcDbEntity
  8
0
  6
Continuous
 62
     7
100
AcDbLine
 10
-443.7738952636719
 20
472.0767517089844
 30
0.0
 11
-443.7738952636719
 21
449.9267272949218
 31
0.0
  0
LINE
  5
25D
330
22
100
AcDbEntity
  8
0
  6
Continuous
 62
     7
100
AcDbLine
 10
-443.7738952636719
 20
537.8600463867188
 30
0.0
 11
-443.7738952636719
 21
516.0933837890625
 31
0.0
  0
LINE
  5
25E
330
22
100
AcDbEntity
  8
0
  6
Continuous
 62
     7
100
AcDbLine
 10
-425.7738952636718
 20
467.2100830078124
 30
0.0
 11
-425.7738952636718
 21
448.993408203125
 31
0.0
  0
LINE
  5
25F
330
22
100
AcDbEntity
  8
0
  6
Continuous
 62
     7
100
AcDbLine
 10
-425.7738952636718
 20
508.2431030273438
 30
0.0
 11
-425.7738952636718
 21
477.8764343261719
 31
0.0
  0
LINE
  5
260
330
22
100
AcDbEntity
  8
0
  6
Continuous
 62
     7
100
AcDbLine
 10
-425.7738952636718
 20
537.1795043945313
 30
0.0
 11
-425.7738952636718
 21
518.87646484375
 31
0.0
  0
LINE
  5
261
330
22
100
AcDbEntity
  8
0
  6
Continuous
 62
     7
100
AcDbLine
 10
-356.7738952636719
 20
427.993408203125
 30
0.0
 11
-356.7738952636719
 21
437.3600769042968
 31
0.0
  0
LINE
  5
262
330
22
100
AcDbEntity
  8
0
  6
Continuous
 62
     7
100
AcDbLine
 10
-351.7738952636719
 20
472.9204406738281
 30
0.0
 11
-351.7738952636719
 21
448.993408203125
 31
0.0
  0
LINE
  5
263
330
22
100
AcDbEntity
  8
0
  6
Continuous
 62
     7
100
AcDbLine
 10
-356.7738952636719
 20
458.3600769042968
 30
0.0
 11
-356.7738952636719
 21
448.993408203125
 31
0.0
  0
LINE
  5
264
330
22
100
AcDbEntity
  8
0
  6
Continuous
 62
     7
100
AcDbLine
 10
-397.7738952636719
 20
525.8934326171875
 30
0.0
 11
-397.7738952636719
 21
502.7964477539063
 31
0.0
  0
LINE
  5
265
330
22
100
AcDbEntity
  8
0
  6
Continuous
 62
     7
100
AcDbLine
 10
-402.7738952636719
 20
531.3162841796875
 30
0.0
 11
-402.7738952636719
 21
516.9495849609375
 31
0.0
  0
LINE
  5
266
330
22
100
AcDbEntity
  8
0
  6
Continuous
 62
     7
100
AcDbLine
 10
-409.2738952636718
 20
531.3162841796875
 30
0.0
 11
-409.2738952636718
 21
516.9495849609375
 31
0.0
  0
LINE
  5
267
330
22
100
AcDbEntity
  8
0
  6
Continuous
 62
     7
100
AcDbLine
 10
-386.2738952636719
 20
518.2802734375
 30
0.0
 11
-386.2738952636719
 21
488.993408203125
 31
0.0
  0
LINE
  5
268
330
22
100
AcDbEntity
  8
0
  6
Continuous
 62
     7
100
AcDbLine
 10
-374.7738952636719
 20
502.8600769042968
 30
0.0
 11
-374.7738952636719
 21
483.9934082031249
 31
0.0
  0
LINE
  5
269
330
22
100
AcDbEntity
  8
0
  6
Continuous
 62
     7
100
AcDbLine
 10
-402.7738952636719
 20
463.3600769042969
 30
0.0
 11
-402.7738952636719
 21
448.993408203125
 31
0.0
  0
LINE
  5
26A
330
22
100
AcDbEntity
  8
0
  6
Continuous
 62
     7
100
AcDbLine
 10
-375.4263305664063
 20
512.55029296875
 30
0.0
 11
-375.4263305664063
 21
513.0133056640625
 31
0.0
  0
LINE
  5
26B
330
22
100
AcDbEntity
  8
0
  6
Continuous
 62
     7
100
AcDbLine
 10
-375.4263305664063
 20
512.55029296875
 30
0.0
 11
-375.4263305664063
 21
512.0872802734375
 31
0.0
  0
LINE
  5
26C
330
22
100
AcDbEntity
  8
0
  6
Continuous
 62
     7
100
AcDbLine
 10
-409.2738952636718
 20
463.3600769042969
 30
0.0
 11
-409.2738952636718
 21
448.993408203125
 31
0.0
  0
LINE
  5
26D
330
22
100
AcDbEntity
  8
0
  6
Continuous
 62
     7
100
AcDbLine
 10
-409.2738952636718
 20
506.313232421875
 30
0.0
 11
-409.2738952636718
 21
473.993408203125
 31
0.0
  0
LINE
  5
26E
330
22
100
AcDbEntity
  8
0
  6
Continuous
 62
     7
100
AcDbLine
 10
-391.2738952636719
 20
472.1600646972656
 30
0.0
 11
-391.2738952636719
 21
448.993408203125
 31
0.0
  0
LINE
  5
26F
330
22
100
AcDbEntity
  8
0
  6
Continuous
 62
     7
100
AcDbLine
 10
-443.7738952636719
 20
504.5267333984375
 30
0.0
 11
-443.7738952636719
 21
484.626739501953
 31
0.0
  0
LINE
  5
270
330
22
100
AcDbEntity
  8
0
  6
Continuous
 62
     7
100
AcDbLine
 10
-437.2738952636718
 20
472.0767517089844
 30
0.0
 11
-437.2738952636718
 21
449.9267272949218
 31
0.0
  0
LINE
  5
271
330
22
100
AcDbEntity
  8
0
  6
Continuous
 62
     7
100
AcDbLine
 10
-432.2738952636719
 20
467.2100830078124
 30
0.0
 11
-432.2738952636719
 21
448.993408203125
 31
0.0
  0
LINE
  5
272
330
22
100
AcDbEntity
  8
0
  6
Continuous
 62
     7
100
AcDbLine
 10
-437.2738952636718
 20
537.8600463867188
 30
0.0
 11
-437.2738952636718
 21
516.0933837890625
 31
0.0
  0
LINE
  5
273
330
22
100
AcDbEntity
  8
0
  6
Continuous
 62
     7
100
AcDbLine
 10
-414.2738952636718
 20
496.6600646972656
 30
0.0
 11
-414.2738952636718
 21
487.2933959960938
 31
0.0
  0
LINE
  5
274
330
22
100
AcDbEntity
  8
0
  6
Continuous
 62
     7
100
AcDbLine
 10
-420.7738952636718
 20
535.0493164062499
 30
0.0
 11
-420.7738952636718
 21
507.2964477539063
 31
0.0
  0
LINE
  5
275
330
22
100
AcDbEntity
  8
0
  6
Continuous
 62
     7
100
AcDbLine
 10
-420.7738952636718
 20
496.6600646972656
 30
0.0
 11
-420.7738952636718
 21
487.2933959960938
 31
0.0
  0
LINE
  5
276
330
22
100
AcDbEntity
  8
0
  6
Continuous
 62
     7
100
AcDbLine
 10
-420.7738952636718
 20
476.6600646972656
 30
0.0
 11
-420.7738952636718
 21
448.993408203125
 31
0.0
  0
LINE
  5
277
330
22
100
AcDbEntity
  8
0
  6
Continuous
 62
     7
100
AcDbLine
 10
-379.7738952636719
 20
518.2802734375
 30
0.0
 11
-379.7738952636719
 21
488.993408203125
 31
0.0
  0
LINE
  5
278
330
22
100
AcDbEntity
  8
0
  6
Continuous
 62
     7
100
AcDbLine
 10
-397.7738952636719
 20
472.1600646972656
 30
0.0
 11
-397.7738952636719
 21
448.993408203125
 31
0.0
  0
LINE
  5
279
330
22
100
AcDbEntity
  8
0
  6
Continuous
 62
     7
100
AcDbLine
 10
-402.7738952636719
 20
506.313232421875
 30
0.0
 11
-402.7738952636719
 21
473.993408203125
 31
0.0
  0
LINE
  5
27A
330
22
100
AcDbEntity
  8
0
  6
Continuous
 62
     7
100
AcDbLine
 10
-391.2738952636719
 20
492.1600646972656
 30
0.0
 11
-391.2738952636719
 21
482.7933959960938
 31
0.0
  0
LINE
  5
27B
330
22
100
AcDbEntity
  8
0
  6
Continuous
 62
     7
100
AcDbLine
 10
-397.7738952636719
 20
492.1600646972656
 30
0.0
 11
-397.7738952636719
 21
482.7933959960938
 31
0.0
  0
LINE
  5
27C
330
22
100
AcDbEntity
  8
0
  6
Continuous
 62
     7
100
AcDbLine
 10
-379.7738952636719
 20
478.3600769042968
 30
0.0
 11
-379.7738952636719
 21
448.993408203125
 31
0.0
  0
LINE
  5
27D
330
22
100
AcDbEntity
  8
0
  6
Continuous
 62
     7
100
AcDbLine
 10
-374.7738952636719
 20
473.3600769042968
 30
0.0
 11
-374.7738952636719
 21
448.993408203125
 31
0.0
  0
LINE
  5
27E
330
22
100
AcDbEntity
  8
0
  6
Continuous
 62
     7
100
AcDbLine
 10
-386.2738952636719
 20
478.3600769042968
 30
0.0
 11
-386.2738952636719
 21
448.993408203125
 31
0.0
  0
LINE
  5
27F
330
22
100
AcDbEntity
  8
0
  6
Continuous
 62
     7
100
AcDbLine
 10
-391.2738952636719
 20
525.8934326171875
 30
0.0
 11
-391.2738952636719
 21
502.7964477539063
 31
0.0
  0
LINE
  5
280
330
22
100
AcDbEntity
  8
0
  6
Continuous
 62
     7
100
AcDbLine
 10
-370.700439453125
 20
516.788330078125
 30
0.0
 11
-370.2427062988281
 21
513.4706420898438
 31
0.0
  0
LINE
  5
281
330
22
100
AcDbEntity
  8
0
  6
Continuous
 62
     7
100
AcDbLine
 10
-370.700439453125
 20
508.3122253417968
 30
0.0
 11
-370.2427062988281
 21
511.6299133300781
 31
0.0
  0
LINE
  5
282
330
22
100
AcDbEntity
  8
0
  6
Continuous
 62
     7
100
AcDbLine
 10
-370.700439453125
 20
508.3122253417968
 30
0.0
 11
-371.1630859375
 21
508.3122253417968
 31
0.0
  0
LINE
  5
283
330
22
100
AcDbEntity
  8
0
  6
Continuous
 62
     7
100
AcDbLine
 10
-371.625732421875
 20
516.788330078125
 30
0.0
 11
-372.0834655761719
 21
513.4706420898438
 31
0.0
  0
LINE
  5
284
330
22
100
AcDbEntity
  8
0
  6
Continuous
 62
     7
100
AcDbLine
 10
-371.625732421875
 20
516.788330078125
 30
0.0
 11
-371.1630859375
 21
516.788330078125
 31
0.0
  0
LINE
  5
285
330
22
100
AcDbEntity
  8
0
  6
Continuous
 62
     7
100
AcDbLine
 10
-375.4263305664063
 20
513.0133056640625
 30
0.0
 11
-372.0834655761719
 21
513.4706420898438
 31
0.0
  0
LINE
  5
286
330
22
100
AcDbEntity
  8
0
  6
Continuous
 62
     7
100
AcDbLine
 10
-375.4263305664063
 20
512.0872802734375
 30
0.0
 11
-372.0834655761719
 21
511.6299133300781
 31
0.0
  0
LINE
  5
287
330
22
100
AcDbEntity
  8
0
  6
Continuous
 62
     7
100
AcDbLine
 10
-371.625732421875
 20
508.3122253417968
 30
0.0
 11
-371.1630859375
 21
508.3122253417968
 31
0.0
  0
LINE
  5
288
330
22
100
AcDbEntity
  8
0
  6
Continuous
 62
     7
100
AcDbLine
 10
-371.625732421875
 20
508.3122253417968
 30
0.0
 11
-372.0834655761719
 21
511.6299133300781
 31
0.0
  0
LINE
  5
289
330
22
100
AcDbEntity
  8
0
  6
Continuous
 62
     7
100
AcDbLine
 10
-370.700439453125
 20
516.788330078125
 30
0.0
 11
-371.1630859375
 21
516.788330078125
 31
0.0
  0
LINE
  5
28A
330
22
100
AcDbEntity
  8
0
  6
Continuous
 62
     7
100
AcDbLine
 10
-414.2738952636718
 20
535.0493164062499
 30
0.0
 11
-414.2738952636718
 21
507.2964477539063
 31
0.0
  0
LINE
  5
28B
330
22
100
AcDbEntity
  8
0
  6
Continuous
 62
     7
100
AcDbLine
 10
-414.2738952636718
 20
476.6600646972656
 30
0.0
 11
-414.2738952636718
 21
448.993408203125
 31
0.0
  0
LINE
  5
28C
330
22
100
AcDbEntity
  8
0
  6
Continuous
 62
     7
100
AcDbLine
 10
-443.7738952636719
 20
381.8267517089844
 30
0.0
 11
-443.7738952636719
 21
401.7267456054687
 31
0.0
  0
LINE
  5
28D
330
22
100
AcDbEntity
  8
0
  6
Continuous
 62
     7
100
AcDbLine
 10
-432.2738952636719
 20
378.1103820800781
 30
0.0
 11
-432.2738952636719
 21
408.47705078125
 31
0.0
  0
LINE
  5
28E
330
22
100
AcDbEntity
  8
0
  6
Continuous
 62
     7
100
AcDbLine
 10
-437.2738952636718
 20
381.8267517089844
 30
0.0
 11
-437.2738952636718
 21
401.7267456054687
 31
0.0
  0
LINE
  5
28F
330
22
100
AcDbEntity
  8
0
  6
Continuous
 62
     7
100
AcDbLine
 10
-432.2738952636719
 20
349.1739807128906
 30
0.0
 11
-432.2738952636719
 21
367.47705078125
 31
0.0
  0
LINE
  5
290
330
22
100
AcDbEntity
  8
0
  6
Continuous
 62
     7
100
AcDbLine
 10
-437.2738952636718
 20
349.4267272949219
 30
0.0
 11
-437.2738952636718
 21
369.3267517089844
 31
0.0
  0
LINE
  5
291
330
22
100
AcDbEntity
  8
0
  6
Continuous
 62
     7
100
AcDbLine
 10
-425.7738952636718
 20
349.1739807128906
 30
0.0
 11
-425.7738952636718
 21
367.47705078125
 31
0.0
  0
LINE
  5
292
330
22
100
AcDbEntity
  8
0
  6
Continuous
 62
     7
100
AcDbLine
 10
-425.7738952636718
 20
378.1103820800781
 30
0.0
 11
-425.7738952636718
 21
408.47705078125
 31
0.0
  0
LINE
  5
293
330
22
100
AcDbEntity
  8
0
  6
Continuous
 62
     7
100
AcDbLine
 10
-356.7738952636719
 20
393.6666870117188
 30
0.0
 11
-356.7738952636719
 21
417.3600769042968
 31
0.0
  0
LINE
  5
294
330
22
100
AcDbEntity
  8
0
  6
Continuous
 62
     7
100
AcDbLine
 10
-402.7738952636719
 20
355.2106628417969
 30
0.0
 11
-402.7738952636719
 21
369.4038696289063
 31
0.0
  0
LINE
  5
295
330
22
100
AcDbEntity
  8
0
  6
Continuous
 62
     7
100
AcDbLine
 10
-397.7738952636719
 20
394.1934204101563
 30
0.0
 11
-397.7738952636719
 21
403.5600585937499
 31
0.0
  0
LINE
  5
296
330
22
100
AcDbEntity
  8
0
  6
Continuous
 62
     7
100
AcDbLine
 10
-391.2738952636719
 20
394.1934204101563
 30
0.0
 11
-391.2738952636719
 21
403.5600585937499
 31
0.0
  0
LINE
  5
297
330
22
100
AcDbEntity
  8
0
  6
Continuous
 62
     7
100
AcDbLine
 10
-409.2738952636718
 20
355.2106628417969
 30
0.0
 11
-409.2738952636718
 21
369.4038696289063
 31
0.0
  0
LINE
  5
298
330
22
100
AcDbEntity
  8
0
  6
Continuous
 62
     7
100
AcDbLine
 10
-379.7738952636719
 20
368.0731811523438
 30
0.0
 11
-379.7738952636719
 21
397.3600769042969
 31
0.0
  0
LINE
  5
299
330
22
100
AcDbEntity
  8
0
  6
Continuous
 62
     7
100
AcDbLine
 10
-386.2738952636719
 20
368.0731811523438
 30
0.0
 11
-386.2738952636719
 21
397.3600769042969
 31
0.0
  0
LINE
  5
29A
330
22
100
AcDbEntity
  8
0
  6
Continuous
 62
     7
100
AcDbLine
 10
-391.2738952636719
 20
360.6335144042969
 30
0.0
 11
-391.2738952636719
 21
383.45703125
 31
0.0
  0
LINE
  5
29B
330
22
100
AcDbEntity
  8
0
  6
Continuous
 62
     7
100
AcDbLine
 10
-397.7738952636719
 20
360.6335144042969
 30
0.0
 11
-397.7738952636719
 21
383.45703125
 31
0.0
  0
LINE
  5
29C
330
22
100
AcDbEntity
  8
0
  6
Continuous
 62
     7
100
AcDbLine
 10
-374.7738952636719
 20
383.493408203125
 30
0.0
 11
-374.7738952636719
 21
402.3600769042968
 31
0.0
  0
LINE
  5
29D
330
22
100
AcDbEntity
  8
0
  6
Continuous
 62
     7
100
AcDbLine
 10
-375.3880615234375
 20
374.2789611816406
 30
0.0
 11
-375.3880615234375
 21
373.8163146972656
 31
0.0
  0
LINE
  5
29E
330
22
100
AcDbEntity
  8
0
  6
Continuous
 62
     7
100
AcDbLine
 10
-420.7738952636718
 20
389.7933959960938
 30
0.0
 11
-420.7738952636718
 21
399.2600708007813
 31
0.0
  0
LINE
  5
29F
330
22
100
AcDbEntity
  8
0
  6
Continuous
 62
     7
100
AcDbLine
 10
-420.7738952636718
 20
351.4776306152344
 30
0.0
 11
-420.7738952636718
 21
379.0570373535156
 31
0.0
  0
LINE
  5
2A0
330
22
100
AcDbEntity
  8
0
  6
Continuous
 62
     7
100
AcDbLine
 10
-375.3880615234375
 20
373.3536376953125
 30
0.0
 11
-375.3880615234375
 21
373.8163146972656
 31
0.0
  0
LINE
  5
2A1
330
22
100
AcDbEntity
  8
0
  6
Continuous
 62
     7
100
AcDbLine
 10
-443.7738952636719
 20
349.4267272949219
 30
0.0
 11
-443.7738952636719
 21
369.3267517089844
 31
0.0
  0
LINE
  5
2A2
330
22
100
AcDbEntity
  8
0
  6
Continuous
 62
     7
100
AcDbLine
 10
-483.2738952636718
 20
472.1600646972656
 30
0.0
 11
-483.2738952636718
 21
448.993408203125
 31
0.0
  0
LINE
  5
2A3
330
22
100
AcDbEntity
  8
0
  6
Continuous
 62
     7
100
AcDbLine
 10
-494.7738952636719
 20
478.3600769042968
 30
0.0
 11
-494.7738952636719
 21
448.993408203125
 31
0.0
  0
LINE
  5
2A4
330
22
100
AcDbEntity
  8
0
  6
Continuous
 62
     7
100
AcDbLine
 10
-375.3880615234375
 20
373.3536376953125
 30
0.0
 11
-372.0703430175781
 21
372.8959350585938
 31
0.0
  0
LINE
  5
2A5
330
22
100
AcDbEntity
  8
0
  6
Continuous
 62
     7
100
AcDbLine
 10
-371.1499633789063
 20
369.5530395507813
 30
0.0
 11
-370.6869812011719
 21
369.5530395507813
 31
0.0
  0
LINE
  5
2A6
330
22
100
AcDbEntity
  8
0
  6
Continuous
 62
     7
100
AcDbLine
 10
-370.6869812011719
 20
369.5530395507813
 30
0.0
 11
-370.2296142578125
 21
372.8959350585938
 31
0.0
  0
LINE
  5
2A7
330
22
100
AcDbEntity
  8
0
  6
Continuous
 62
     7
100
AcDbLine
 10
-371.6129760742188
 20
369.5530395507813
 30
0.0
 11
-372.0703430175781
 21
372.8959350585938
 31
0.0
  0
LINE
  5
2A8
330
22
100
AcDbEntity
  8
0
  6
Continuous
 62
     7
100
AcDbLine
 10
-371.1499633789063
 20
369.5530395507813
 30
0.0
 11
-371.6129760742188
 21
369.5530395507813
 31
0.0
  0
LINE
  5
2A9
330
22
100
AcDbEntity
  8
0
  6
Continuous
 62
     7
100
AcDbLine
 10
-370.6869812011719
 20
378.0795593261719
 30
0.0
 11
-370.2296142578125
 21
374.7366638183594
 31
0.0
  0
LINE
  5
2AA
330
22
100
AcDbEntity
  8
0
  6
Continuous
 62
     7
100
AcDbLine
 10
-371.1499633789063
 20
378.0795593261719
 30
0.0
 11
-370.6869812011719
 21
378.0795593261719
 31
0.0
  0
LINE
  5
2AB
330
22
100
AcDbEntity
  8
0
  6
Continuous
 62
     7
100
AcDbLine
 10
-371.1499633789063
 20
378.0795593261719
 30
0.0
 11
-371.6129760742188
 21
378.0795593261719
 31
0.0
  0
LINE
  5
2AC
330
22
100
AcDbEntity
  8
0
  6
Continuous
 62
     7
100
AcDbLine
 10
-371.6129760742188
 20
378.0795593261719
 30
0.0
 11
-372.0703430175781
 21
374.7366638183594
 31
0.0
  0
LINE
  5
2AD
330
22
100
AcDbEntity
  8
0
  6
Continuous
 62
     7
100
AcDbLine
 10
-375.3880615234375
 20
374.2789611816406
 30
0.0
 11
-372.0703430175781
 21
374.7366638183594
 31
0.0
  0
LINE
  5
2AE
330
22
100
AcDbEntity
  8
0
  6
Continuous
 62
     7
100
AcDbLine
 10
-414.2738952636718
 20
389.7933959960938
 30
0.0
 11
-414.2738952636718
 21
399.2600708007813
 31
0.0
  0
LINE
  5
2AF
330
22
100
AcDbEntity
  8
0
  6
Continuous
 62
     7
100
AcDbLine
 10
-414.2738952636718
 20
351.4776306152344
 30
0.0
 11
-414.2738952636718
 21
379.0570373535156
 31
0.0
  0
LINE
  5
2B0
330
22
100
AcDbEntity
  8
0
  6
Continuous
 62
     7
100
AcDbLine
 10
-402.7738952636719
 20
380.1402282714844
 30
0.0
 11
-402.7738952636719
 21
412.3600769042968
 31
0.0
  0
LINE
  5
2B1
330
22
100
AcDbEntity
  8
0
  6
Continuous
 62
     7
100
AcDbLine
 10
-409.2738952636718
 20
380.1402282714844
 30
0.0
 11
-409.2738952636718
 21
412.3600769042968
 31
0.0
  0
LINE
  5
2B2
330
22
100
AcDbEntity
  8
0
  6
Continuous
 62
     7
100
AcDbLine
 10
-494.7738952636719
 20
518.2802734375
 30
0.0
 11
-494.7738952636719
 21
488.993408203125
 31
0.0
  0
LINE
  5
2B3
330
22
100
AcDbEntity
  8
0
  6
Continuous
 62
     7
100
AcDbLine
 10
-501.2738952636718
 20
518.2802734375
 30
0.0
 11
-501.2738952636718
 21
488.993408203125
 31
0.0
  0
LINE
  5
2B4
330
22
100
AcDbEntity
  8
0
  6
Continuous
 62
     7
100
AcDbLine
 10
-489.7738952636719
 20
525.719970703125
 30
0.0
 11
-489.7738952636719
 21
502.8964233398438
 31
0.0
  0
LINE
  5
2B5
330
22
100
AcDbEntity
  8
0
  6
Continuous
 62
     7
100
AcDbLine
 10
-455.2738952636718
 20
537.1795043945313
 30
0.0
 11
-455.2738952636718
 21
518.87646484375
 31
0.0
  0
LINE
  5
2B6
330
22
100
AcDbEntity
  8
0
  6
Continuous
 62
     7
100
AcDbLine
 10
-460.2738952636719
 20
534.8758544921874
 30
0.0
 11
-460.2738952636719
 21
507.2964477539063
 31
0.0
  0
LINE
  5
2B7
330
22
100
AcDbEntity
  8
0
  6
Continuous
 62
     7
100
AcDbLine
 10
-460.2738952636719
 20
496.56005859375
 30
0.0
 11
-460.2738952636719
 21
487.0934143066405
 31
0.0
  0
LINE
  5
2B8
330
22
100
AcDbEntity
  8
0
  6
Continuous
 62
     7
100
AcDbLine
 10
-466.7738952636718
 20
496.56005859375
 30
0.0
 11
-466.7738952636718
 21
487.0934143066405
 31
0.0
  0
LINE
  5
2B9
330
22
100
AcDbEntity
  8
0
  6
Continuous
 62
     7
100
AcDbLine
 10
-501.2738952636718
 20
478.3600769042968
 30
0.0
 11
-501.2738952636718
 21
448.993408203125
 31
0.0
  0
LINE
  5
2BA
330
22
100
AcDbEntity
  8
0
  6
Continuous
 62
     7
100
AcDbLine
 10
-455.2738952636718
 20
467.2100830078124
 30
0.0
 11
-455.2738952636718
 21
448.993408203125
 31
0.0
  0
LINE
  5
2BB
330
22
100
AcDbEntity
  8
0
  6
Continuous
 62
     7
100
AcDbLine
 10
-455.2738952636718
 20
508.2431030273438
 30
0.0
 11
-455.2738952636718
 21
477.8764343261719
 31
0.0
  0
LINE
  5
2BC
330
22
100
AcDbEntity
  8
0
  6
Continuous
 62
     7
100
AcDbLine
 10
-489.7738952636719
 20
472.1600646972656
 30
0.0
 11
-489.7738952636719
 21
448.993408203125
 31
0.0
  0
LINE
  5
2BD
330
22
100
AcDbEntity
  8
0
  6
Continuous
 62
     7
100
AcDbLine
 10
-460.2738952636719
 20
476.4600830078125
 30
0.0
 11
-460.2738952636719
 21
448.993408203125
 31
0.0
  0
LINE
  5
2BE
330
22
100
AcDbEntity
  8
0
  6
Continuous
 62
     7
100
AcDbLine
 10
-512.7738647460938
 20
502.8600769042968
 30
0.0
 11
-512.7738647460938
 21
483.9934082031249
 31
0.0
  0
LINE
  5
2BF
330
22
100
AcDbEntity
  8
0
  6
Continuous
 62
     7
100
AcDbLine
 10
-512.7738647460938
 20
473.3600769042968
 30
0.0
 11
-512.7738647460938
 21
448.993408203125
 31
0.0
  0
LINE
  5
2C0
330
22
100
AcDbEntity
  8
0
  6
Continuous
 62
     7
100
AcDbLine
 10
-514.1351318359375
 20
512.0745239257813
 30
0.0
 11
-514.1351318359375
 21
512.5371704101564
 31
0.0
  0
LINE
  5
2C1
330
22
100
AcDbEntity
  8
0
  6
Continuous
 62
     7
100
AcDbLine
 10
-517.7738647460938
 20
492.6867980957031
 30
0.0
 11
-517.7738647460938
 21
468.993408203125
 31
0.0
  0
LINE
  5
2C2
330
22
100
AcDbEntity
  8
0
  6
Continuous
 62
     7
100
AcDbLine
 10
-514.1351318359375
 20
512.9998168945313
 30
0.0
 11
-510.8174438476563
 21
513.45751953125
 31
0.0
  0
LINE
  5
2C3
330
22
100
AcDbEntity
  8
0
  6
Continuous
 62
     7
100
AcDbLine
 10
-483.2738952636718
 20
492.1600646972656
 30
0.0
 11
-483.2738952636718
 21
482.7933959960938
 31
0.0
  0
LINE
  5
2C4
330
22
100
AcDbEntity
  8
0
  6
Continuous
 62
     7
100
AcDbLine
 10
-483.2738952636718
 20
525.719970703125
 30
0.0
 11
-483.2738952636718
 21
502.8964233398438
 31
0.0
  0
LINE
  5
2C5
330
22
100
AcDbEntity
  8
0
  6
Continuous
 62
     7
100
AcDbLine
 10
-466.7738952636718
 20
534.8758544921874
 30
0.0
 11
-466.7738952636718
 21
507.2964477539063
 31
0.0
  0
LINE
  5
2C6
330
22
100
AcDbEntity
  8
0
  6
Continuous
 62
     7
100
AcDbLine
 10
-478.2738952636718
 20
506.2132263183594
 30
0.0
 11
-478.2738952636718
 21
473.993408203125
 31
0.0
  0
LINE
  5
2C7
330
22
100
AcDbEntity
  8
0
  6
Continuous
 62
     7
100
AcDbLine
 10
-466.7738952636718
 20
476.4600830078125
 30
0.0
 11
-466.7738952636718
 21
448.993408203125
 31
0.0
  0
LINE
  5
2C8
330
22
100
AcDbEntity
  8
0
  6
Continuous
 62
     7
100
AcDbLine
 10
-478.2738952636718
 20
463.3600769042969
 30
0.0
 11
-478.2738952636718
 21
448.993408203125
 31
0.0
  0
LINE
  5
2C9
330
22
100
AcDbEntity
  8
0
  6
Continuous
 62
     7
100
AcDbLine
 10
-471.7738952636718
 20
463.3600769042969
 30
0.0
 11
-471.7738952636718
 21
448.993408203125
 31
0.0
  0
LINE
  5
2CA
330
22
100
AcDbEntity
  8
0
  6
Continuous
 62
     7
100
AcDbLine
 10
-471.7738952636718
 20
506.2132263183594
 30
0.0
 11
-471.7738952636718
 21
473.993408203125
 31
0.0
  0
LINE
  5
2CB
330
22
100
AcDbEntity
  8
0
  6
Continuous
 62
     7
100
AcDbLine
 10
-471.7738952636718
 20
531.142822265625
 30
0.0
 11
-471.7738952636718
 21
516.9495849609375
 31
0.0
  0
LINE
  5
2CC
330
22
100
AcDbEntity
  8
0
  6
Continuous
 62
     7
100
AcDbLine
 10
-478.2738952636718
 20
531.142822265625
 30
0.0
 11
-478.2738952636718
 21
516.9495849609375
 31
0.0
  0
LINE
  5
2CD
330
22
100
AcDbEntity
  8
0
  6
Continuous
 62
     7
100
AcDbLine
 10
-489.7738952636719
 20
492.1600646972656
 30
0.0
 11
-489.7738952636719
 21
482.7933959960938
 31
0.0
  0
LINE
  5
2CE
330
22
100
AcDbEntity
  8
0
  6
Continuous
 62
     7
100
AcDbLine
 10
-505.6589965820313
 20
512.9998168945313
 30
0.0
 11
-505.6589965820313
 21
512.5371704101564
 31
0.0
  0
LINE
  5
2CF
330
22
100
AcDbEntity
  8
0
  6
Continuous
 62
     7
100
AcDbLine
 10
-505.6589965820313
 20
512.9998168945313
 30
0.0
 11
-508.9766845703125
 21
513.45751953125
 31
0.0
  0
LINE
  5
2D0
330
22
100
AcDbEntity
  8
0
  6
Continuous
 62
     7
100
AcDbLine
 10
-506.2738952636719
 20
473.3600769042968
 30
0.0
 11
-506.2738952636719
 21
448.993408203125
 31
0.0
  0
LINE
  5
2D1
330
22
100
AcDbEntity
  8
0
  6
Continuous
 62
     7
100
AcDbLine
 10
-524.2738647460938
 20
458.3600769042968
 30
0.0
 11
-524.2738647460938
 21
448.993408203125
 31
0.0
  0
LINE
  5
2D2
330
22
100
AcDbEntity
  8
0
  6
Continuous
 62
     7
100
AcDbLine
 10
-524.2738647460938
 20
492.6867980957031
 30
0.0
 11
-524.2738647460938
 21
468.993408203125
 31
0.0
  0
LINE
  5
2D3
330
22
100
AcDbEntity
  8
0
  6
Continuous
 62
     7
100
AcDbLine
 10
-517.7738647460938
 20
458.3600769042968
 30
0.0
 11
-517.7738647460938
 21
448.993408203125
 31
0.0
  0
LINE
  5
2D4
330
22
100
AcDbEntity
  8
0
  6
Continuous
 62
     7
100
AcDbLine
 10
-509.8970642089843
 20
516.8004150390625
 30
0.0
 11
-509.4340515136718
 21
516.8004150390625
 31
0.0
  0
LINE
  5
2D5
330
22
100
AcDbEntity
  8
0
  6
Continuous
 62
     7
100
AcDbLine
 10
-509.8970642089843
 20
508.27392578125
 30
0.0
 11
-509.4340515136718
 21
508.27392578125
 31
0.0
  0
LINE
  5
2D6
330
22
100
AcDbEntity
  8
0
  6
Continuous
 62
     7
100
AcDbLine
 10
-514.1351318359375
 20
512.9998168945313
 30
0.0
 11
-514.1351318359375
 21
512.5371704101564
 31
0.0
  0
LINE
  5
2D7
330
22
100
AcDbEntity
  8
0
  6
Continuous
 62
     7
100
AcDbLine
 10
-509.4340515136718
 20
516.8004150390625
 30
0.0
 11
-508.9766845703125
 21
513.45751953125
 31
0.0
  0
LINE
  5
2D8
330
22
100
AcDbEntity
  8
0
  6
Continuous
 62
     7
100
AcDbLine
 10
-509.4340515136718
 20
508.27392578125
 30
0.0
 11
-508.9766845703125
 21
511.6167907714843
 31
0.0
  0
LINE
  5
2D9
330
22
100
AcDbEntity
  8
0
  6
Continuous
 62
     7
100
AcDbLine
 10
-510.3600769042968
 20
508.27392578125
 30
0.0
 11
-510.8174438476563
 21
511.6167907714843
 31
0.0
  0
LINE
  5
2DA
330
22
100
AcDbEntity
  8
0
  6
Continuous
 62
     7
100
AcDbLine
 10
-509.8970642089843
 20
508.27392578125
 30
0.0
 11
-510.3600769042968
 21
508.27392578125
 31
0.0
  0
LINE
  5
2DB
330
22
100
AcDbEntity
  8
0
  6
Continuous
 62
     7
100
AcDbLine
 10
-509.8970642089843
 20
516.8004150390625
 30
0.0
 11
-510.3600769042968
 21
516.8004150390625
 31
0.0
  0
LINE
  5
2DC
330
22
100
AcDbEntity
  8
0
  6
Continuous
 62
     7
100
AcDbLine
 10
-510.3600769042968
 20
516.8004150390625
 30
0.0
 11
-510.8174438476563
 21
513.45751953125
 31
0.0
  0
LINE
  5
2DD
330
22
100
AcDbEntity
  8
0
  6
Continuous
 62
     7
100
AcDbLine
 10
-514.1351318359375
 20
512.0745239257813
 30
0.0
 11
-510.8174438476563
 21
511.6167907714843
 31
0.0
  0
LINE
  5
2DE
330
22
100
AcDbEntity
  8
0
  6
Continuous
 62
     7
100
AcDbLine
 10
-489.7738952636719
 20
360.6335144042969
 30
0.0
 11
-489.7738952636719
 21
383.45703125
 31
0.0
  0
LINE
  5
2DF
330
22
100
AcDbEntity
  8
0
  6
Continuous
 62
     7
100
AcDbLine
 10
-494.7738952636719
 20
368.0731811523438
 30
0.0
 11
-494.7738952636719
 21
397.3600769042969
 31
0.0
  0
LINE
  5
2E0
330
22
100
AcDbEntity
  8
0
  6
Continuous
 62
     7
100
AcDbLine
 10
-501.2738952636718
 20
368.0731811523438
 30
0.0
 11
-501.2738952636718
 21
397.3600769042969
 31
0.0
  0
LINE
  5
2E1
330
22
100
AcDbEntity
  8
0
  6
Continuous
 62
     7
100
AcDbLine
 10
-466.7738952636718
 20
389.7933959960938
 30
0.0
 11
-466.7738952636718
 21
399.2600708007813
 31
0.0
  0
LINE
  5
2E2
330
22
100
AcDbEntity
  8
0
  6
Continuous
 62
     7
100
AcDbLine
 10
-483.2738952636718
 20
394.1934204101563
 30
0.0
 11
-483.2738952636718
 21
403.5600585937499
 31
0.0
  0
LINE
  5
2E3
330
22
100
AcDbEntity
  8
0
  6
Continuous
 62
     7
100
AcDbLine
 10
-489.7738952636719
 20
394.1934204101563
 30
0.0
 11
-489.7738952636719
 21
403.5600585937499
 31
0.0
  0
LINE
  5
2E4
330
22
100
AcDbEntity
  8
0
  6
Continuous
 62
     7
100
AcDbLine
 10
-535.7738647460938
 20
464.0018920898437
 30
0.0
 11
-535.7738647460938
 21
448.993408203125
 31
0.0
  0
LINE
  5
2E5
330
22
100
AcDbEntity
  8
0
  6
Continuous
 62
     7
100
AcDbLine
 10
-517.7738647460938
 20
427.993408203125
 30
0.0
 11
-517.7738647460938
 21
437.3600769042968
 31
0.0
  0
LINE
  5
2E6
330
22
100
AcDbEntity
  8
0
  6
Continuous
 62
     7
100
AcDbLine
 10
-524.2738647460938
 20
427.993408203125
 30
0.0
 11
-524.2738647460938
 21
437.3600769042968
 31
0.0
  0
LINE
  5
2E7
330
22
100
AcDbEntity
  8
0
  6
Continuous
 62
     7
100
AcDbLine
 10
-505.6589965820313
 20
512.0745239257813
 30
0.0
 11
-508.9766845703125
 21
511.6167907714843
 31
0.0
  0
LINE
  5
2E8
330
22
100
AcDbEntity
  8
0
  6
Continuous
 62
     7
100
AcDbLine
 10
-505.6589965820313
 20
512.0745239257813
 30
0.0
 11
-505.6589965820313
 21
512.5371704101564
 31
0.0
  0
LINE
  5
2E9
330
22
100
AcDbEntity
  8
0
  6
Continuous
 62
     7
100
AcDbLine
 10
-506.2738952636719
 20
502.8600769042968
 30
0.0
 11
-506.2738952636719
 21
483.9934082031249
 31
0.0
  0
LINE
  5
2EA
330
22
100
AcDbEntity
  8
0
  6
Continuous
 62
     7
100
AcDbLine
 10
-514.147216796875
 20
374.2662048339844
 30
0.0
 11
-510.8043212890625
 21
374.7235717773438
 31
0.0
  0
LINE
  5
2EB
330
22
100
AcDbEntity
  8
0
  6
Continuous
 62
     7
100
AcDbLine
 10
-510.3466186523438
 20
378.041259765625
 30
0.0
 11
-509.8839416503905
 21
378.041259765625
 31
0.0
  0
LINE
  5
2EC
330
22
100
AcDbEntity
  8
0
  6
Continuous
 62
     7
100
AcDbLine
 10
-510.3466186523438
 20
378.041259765625
 30
0.0
 11
-510.8043212890625
 21
374.7235717773438
 31
0.0
  0
LINE
  5
2ED
330
22
100
AcDbEntity
  8
0
  6
Continuous
 62
     7
100
AcDbLine
 10
-509.4212951660156
 20
378.041259765625
 30
0.0
 11
-508.9635925292968
 21
374.7235717773438
 31
0.0
  0
LINE
  5
2EE
330
22
100
AcDbEntity
  8
0
  6
Continuous
 62
     7
100
AcDbLine
 10
-460.2738952636719
 20
389.7933959960938
 30
0.0
 11
-460.2738952636719
 21
399.2600708007813
 31
0.0
  0
LINE
  5
2EF
330
22
100
AcDbEntity
  8
0
  6
Continuous
 62
     7
100
AcDbLine
 10
-478.2738952636718
 20
380.1402282714844
 30
0.0
 11
-478.2738952636718
 21
412.3600769042968
 31
0.0
  0
LINE
  5
2F0
330
22
100
AcDbEntity
  8
0
  6
Continuous
 62
     7
100
AcDbLine
 10
-455.2738952636718
 20
378.1103820800781
 30
0.0
 11
-455.2738952636718
 21
408.47705078125
 31
0.0
  0
LINE
  5
2F1
330
22
100
AcDbEntity
  8
0
  6
Continuous
 62
     7
100
AcDbLine
 10
-471.7738952636718
 20
380.1402282714844
 30
0.0
 11
-471.7738952636718
 21
412.3600769042968
 31
0.0
  0
LINE
  5
2F2
330
22
100
AcDbEntity
  8
0
  6
Continuous
 62
     7
100
AcDbLine
 10
-471.7738952636718
 20
355.2106628417969
 30
0.0
 11
-471.7738952636718
 21
369.4038696289063
 31
0.0
  0
LINE
  5
2F3
330
22
100
AcDbEntity
  8
0
  6
Continuous
 62
     7
100
AcDbLine
 10
-455.2738952636718
 20
349.1739807128906
 30
0.0
 11
-455.2738952636718
 21
367.47705078125
 31
0.0
  0
LINE
  5
2F4
330
22
100
AcDbEntity
  8
0
  6
Continuous
 62
     7
100
AcDbLine
 10
-478.2738952636718
 20
355.2106628417969
 30
0.0
 11
-478.2738952636718
 21
369.4038696289063
 31
0.0
  0
LINE
  5
2F5
330
22
100
AcDbEntity
  8
0
  6
Continuous
 62
     7
100
AcDbLine
 10
-466.7738952636718
 20
351.4776306152344
 30
0.0
 11
-466.7738952636718
 21
379.0570373535156
 31
0.0
  0
LINE
  5
2F6
330
22
100
AcDbEntity
  8
0
  6
Continuous
 62
     7
100
AcDbLine
 10
-460.2738952636719
 20
351.4776306152344
 30
0.0
 11
-460.2738952636719
 21
379.0570373535156
 31
0.0
  0
LINE
  5
2F7
330
22
100
AcDbEntity
  8
0
  6
Continuous
 62
     7
100
AcDbLine
 10
-483.2738952636718
 20
360.6335144042969
 30
0.0
 11
-483.2738952636718
 21
383.45703125
 31
0.0
  0
LINE
  5
2F8
330
22
100
AcDbEntity
  8
0
  6
Continuous
 62
     7
100
AcDbLine
 10
-506.2738952636719
 20
383.493408203125
 30
0.0
 11
-506.2738952636719
 21
402.3600769042968
 31
0.0
  0
LINE
  5
2F9
330
22
100
AcDbEntity
  8
0
  6
Continuous
 62
     7
100
AcDbLine
 10
-505.6206970214843
 20
373.3401794433594
 30
0.0
 11
-508.9635925292968
 21
372.8828125
 31
0.0
  0
LINE
  5
2FA
330
22
100
AcDbEntity
  8
0
  6
Continuous
 62
     7
100
AcDbLine
 10
-505.6206970214843
 20
374.2662048339844
 30
0.0
 11
-508.9635925292968
 21
374.7235717773438
 31
0.0
  0
LINE
  5
2FB
330
22
100
AcDbEntity
  8
0
  6
Continuous
 62
     7
100
AcDbLine
 10
-505.6206970214843
 20
373.8031921386719
 30
0.0
 11
-505.6206970214843
 21
374.2662048339844
 31
0.0
  0
LINE
  5
2FC
330
22
100
AcDbEntity
  8
0
  6
Continuous
 62
     7
100
AcDbLine
 10
-505.6206970214843
 20
373.8031921386719
 30
0.0
 11
-505.6206970214843
 21
373.3401794433594
 31
0.0
  0
LINE
  5
2FD
330
22
100
AcDbEntity
  8
0
  6
Continuous
 62
     7
100
AcDbLine
 10
-524.2738647460938
 20
393.6666870117188
 30
0.0
 11
-524.2738647460938
 21
417.3600769042968
 31
0.0
  0
LINE
  5
2FE
330
22
100
AcDbEntity
  8
0
  6
Continuous
 62
     7
100
AcDbLine
 10
-517.7738647460938
 20
393.6666870117188
 30
0.0
 11
-517.7738647460938
 21
417.3600769042968
 31
0.0
  0
LINE
  5
2FF
330
22
100
AcDbEntity
  8
0
  6
Continuous
 62
     7
100
AcDbLine
 10
-514.147216796875
 20
373.3401794433594
 30
0.0
 11
-510.8043212890625
 21
372.8828125
 31
0.0
  0
LINE
  5
300
330
22
100
AcDbEntity
  8
0
  6
Continuous
 62
     7
100
AcDbLine
 10
-510.3466186523438
 20
369.5651245117188
 30
0.0
 11
-510.8043212890625
 21
372.8828125
 31
0.0
  0
LINE
  5
301
330
22
100
AcDbEntity
  8
0
  6
Continuous
 62
     7
100
AcDbLine
 10
-510.3466186523438
 20
369.5651245117188
 30
0.0
 11
-509.8839416503905
 21
369.5651245117188
 31
0.0
  0
LINE
  5
302
330
22
100
AcDbEntity
  8
0
  6
Continuous
 62
     7
100
AcDbLine
 10
-509.4212951660156
 20
369.5651245117188
 30
0.0
 11
-509.8839416503905
 21
369.5651245117188
 31
0.0
  0
LINE
  5
303
330
22
100
AcDbEntity
  8
0
  6
Continuous
 62
     7
100
AcDbLine
 10
-509.4212951660156
 20
369.5651245117188
 30
0.0
 11
-508.9635925292968
 21
372.8828125
 31
0.0
  0
LINE
  5
304
330
22
100
AcDbEntity
  8
0
  6
Continuous
 62
     7
100
AcDbLine
 10
-514.147216796875
 20
373.8031921386719
 30
0.0
 11
-514.147216796875
 21
374.2662048339844
 31
0.0
  0
LINE
  5
305
330
22
100
AcDbEntity
  8
0
  6
Continuous
 62
     7
100
AcDbLine
 10
-514.147216796875
 20
373.8031921386719
 30
0.0
 11
-514.147216796875
 21
373.3401794433594
 31
0.0
  0
LINE
  5
306
330
22
100
AcDbEntity
  8
0
  6
Continuous
 62
     7
100
AcDbLine
 10
-512.7738647460938
 20
383.493408203125
 30
0.0
 11
-512.7738647460938
 21
402.3600769042968
 31
0.0
  0
LINE
  5
307
330
22
100
AcDbEntity
  8
0
  6
Continuous
 62
     7
100
AcDbLine
 10
-509.4212951660156
 20
378.041259765625
 30
0.0
 11
-509.8839416503905
 21
378.041259765625
 31
0.0
  0
LINE
  5
308
330
22
100
AcDbEntity
  8
0
  6
Continuous
 62
     7
100
AcDbLine
 10
-368.2738952636719
 20
473.3600769042968
 30
0.0
 11
-368.2738952636719
 21
448.993408203125
 31
0.0
  0
LINE
  5
309
330
22
100
AcDbEntity
  8
0
  6
Continuous
 62
     7
100
AcDbLine
 10
-363.2738952636719
 20
492.6867980957031
 30
0.0
 11
-363.2738952636719
 21
468.993408203125
 31
0.0
  0
LINE
  5
30A
330
22
100
AcDbEntity
  8
0
  6
Continuous
 62
     7
100
AcDbLine
 10
-366.8998413085938
 20
512.55029296875
 30
0.0
 11
-366.8998413085938
 21
513.0133056640625
 31
0.0
  0
LINE
  5
30B
330
22
100
AcDbEntity
  8
0
  6
Continuous
 62
     7
100
AcDbLine
 10
-366.8998413085938
 20
512.55029296875
 30
0.0
 11
-366.8998413085938
 21
512.0872802734375
 31
0.0
  0
LINE
  5
30C
330
22
100
AcDbEntity
  8
0
  6
Continuous
 62
     7
100
AcDbLine
 10
-368.2738952636719
 20
502.8600769042968
 30
0.0
 11
-368.2738952636719
 21
483.9934082031249
 31
0.0
  0
LINE
  5
30D
330
22
100
AcDbEntity
  8
0
  6
Continuous
 62
     7
100
AcDbLine
 10
-368.2738952636719
 20
383.493408203125
 30
0.0
 11
-368.2738952636719
 21
402.3600769042968
 31
0.0
  0
LINE
  5
30E
330
22
100
AcDbEntity
  8
0
  6
Continuous
 62
     7
100
AcDbLine
 10
-366.9118957519531
 20
374.2789611816406
 30
0.0
 11
-366.9118957519531
 21
373.8163146972656
 31
0.0
  0
LINE
  5
30F
330
22
100
AcDbEntity
  8
0
  6
Continuous
 62
     7
100
AcDbLine
 10
-366.9118957519531
 20
373.3536376953125
 30
0.0
 11
-366.9118957519531
 21
373.8163146972656
 31
0.0
  0
LINE
  5
310
330
22
100
AcDbEntity
  8
0
  6
Continuous
 62
     7
100
AcDbLine
 10
-363.2738952636719
 20
393.6666870117188
 30
0.0
 11
-363.2738952636719
 21
417.3600769042968
 31
0.0
  0
LINE
  5
311
330
22
100
AcDbEntity
  8
0
  6
Continuous
 62
     7
100
AcDbLine
 10
-363.2738952636719
 20
427.993408203125
 30
0.0
 11
-363.2738952636719
 21
437.3600769042968
 31
0.0
  0
LINE
  5
312
330
22
100
AcDbEntity
  8
0
  6
Continuous
 62
     7
100
AcDbLine
 10
-366.8998413085938
 20
512.0872802734375
 30
0.0
 11
-370.2427062988281
 21
511.6299133300781
 31
0.0
  0
LINE
  5
313
330
22
100
AcDbEntity
  8
0
  6
Continuous
 62
     7
100
AcDbLine
 10
-366.8998413085938
 20
513.0133056640625
 30
0.0
 11
-370.2427062988281
 21
513.4706420898438
 31
0.0
  0
LINE
  5
314
330
22
100
AcDbEntity
  8
0
  6
Continuous
 62
     7
100
AcDbLine
 10
-363.2738952636719
 20
458.3600769042968
 30
0.0
 11
-363.2738952636719
 21
448.993408203125
 31
0.0
  0
LINE
  5
315
330
22
100
AcDbEntity
  8
0
  6
CENTER
 62
     7
100
AcDbLine
 10
-440.8881225585938
 20
317.4211730957031
 30
0.0
 11
-440.8881225585938
 21
564.2774047851562
 31
0.0
  0
LINE
  5
316
330
22
100
AcDbEntity
  8
0
  6
Continuous
 62
     7
100
AcDbLine
 10
-425.7738952636718
 20
419.1434020996093
 30
0.0
 11
-425.7738952636718
 21
437.3600769042968
 31
0.0
  0
LINE
  5
317
330
22
100
AcDbEntity
  8
0
  6
Continuous
 62
     7
100
AcDbLine
 10
-529.2738647460939
 20
472.9204406738281
 30
0.0
 11
-529.2738647460939
 21
448.993408203125
 31
0.0
  0
LINE
  5
318
330
22
100
AcDbEntity
  8
0
  6
Continuous
 62
     7
100
AcDbLine
 10
-366.9118957519531
 20
373.3536376953125
 30
0.0
 11
-370.2296142578125
 21
372.8959350585938
 31
0.0
  0
LINE
  5
319
330
22
100
AcDbEntity
  8
0
  6
Continuous
 62
     7
100
AcDbLine
 10
-366.9118957519531
 20
374.2789611816406
 30
0.0
 11
-370.2296142578125
 21
374.7366638183594
 31
0.0
  0
LINE
  5
31A
330
22
100
AcDbEntity
  8
0
  6
Continuous
 62
     7
100
AcDbLine
 10
-483.2738952636718
 20
414.1934204101563
 30
0.0
 11
-483.2738952636718
 21
437.3600769042968
 31
0.0
  0
LINE
  5
31B
330
22
100
AcDbEntity
  8
0
  6
Continuous
 62
     7
100
AcDbLine
 10
-489.7738952636719
 20
414.1934204101563
 30
0.0
 11
-489.7738952636719
 21
437.3600769042968
 31
0.0
  0
LINE
  5
31C
330
22
100
AcDbEntity
  8
0
  6
Continuous
 62
     7
100
AcDbLine
 10
-460.2738952636719
 20
409.8934020996093
 30
0.0
 11
-460.2738952636719
 21
437.3600769042968
 31
0.0
  0
LINE
  5
31D
330
22
100
AcDbEntity
  8
0
  6
Continuous
 62
     7
100
AcDbLine
 10
-494.7738952636719
 20
407.9934082031249
 30
0.0
 11
-494.7738952636719
 21
437.3600769042968
 31
0.0
  0
LINE
  5
31E
330
22
100
AcDbEntity
  8
0
  6
Continuous
 62
     7
100
AcDbLine
 10
-379.7738952636719
 20
407.9934082031249
 30
0.0
 11
-379.7738952636719
 21
437.3600769042968
 31
0.0
  0
LINE
  5
31F
330
22
100
AcDbEntity
  8
0
  6
Continuous
 62
     7
100
AcDbLine
 10
-368.2738952636719
 20
412.9934082031249
 30
0.0
 11
-368.2738952636719
 21
437.3600769042968
 31
0.0
  0
LINE
  5
320
330
22
100
AcDbEntity
  8
0
  6
Continuous
 62
     7
100
AcDbLine
 10
-351.7738952636719
 20
413.4330444335938
 30
0.0
 11
-351.7738952636719
 21
437.3600769042968
 31
0.0
  0
LINE
  5
321
330
22
100
AcDbEntity
  8
0
  6
Continuous
 62
     7
100
AcDbLine
 10
-397.7738952636719
 20
414.1934204101563
 30
0.0
 11
-397.7738952636719
 21
437.3600769042968
 31
0.0
  0
LINE
  5
322
330
22
100
AcDbEntity
  8
0
  6
Continuous
 62
     7
100
AcDbLine
 10
-391.2738952636719
 20
414.1934204101563
 30
0.0
 11
-391.2738952636719
 21
437.3600769042968
 31
0.0
  0
LINE
  5
323
330
22
100
AcDbEntity
  8
0
  6
Continuous
 62
     7
100
AcDbLine
 10
-414.2738952636718
 20
409.8934020996093
 30
0.0
 11
-414.2738952636718
 21
437.3600769042968
 31
0.0
  0
LINE
  5
324
330
22
100
AcDbEntity
  8
0
  6
Continuous
 62
     7
100
AcDbLine
 10
-420.7738952636718
 20
409.8934020996093
 30
0.0
 11
-420.7738952636718
 21
437.3600769042968
 31
0.0
  0
LINE
  5
325
330
22
100
AcDbEntity
  8
0
  6
Continuous
 62
     7
100
AcDbLine
 10
-374.7738952636719
 20
412.9934082031249
 30
0.0
 11
-374.7738952636719
 21
437.3600769042968
 31
0.0
  0
LINE
  5
326
330
22
100
AcDbEntity
  8
0
  6
Continuous
 62
     7
100
AcDbLine
 10
-386.2738952636719
 20
407.9934082031249
 30
0.0
 11
-386.2738952636719
 21
437.3600769042968
 31
0.0
  0
LINE
  5
327
330
22
100
AcDbEntity
  8
0
  6
Continuous
 62
     7
100
AcDbLine
 10
-345.2738952636719
 20
422.3515625
 30
0.0
 11
-345.2738952636719
 21
437.3600769042968
 31
0.0
  0
LINE
  5
328
330
22
100
AcDbEntity
  8
0
  6
Continuous
 62
     7
100
AcDbLine
 10
-402.7738952636719
 20
422.993408203125
 30
0.0
 11
-402.7738952636719
 21
437.3600769042968
 31
0.0
  0
LINE
  5
329
330
22
100
AcDbEntity
  8
0
  6
Continuous
 62
     7
100
AcDbLine
 10
-409.2738952636718
 20
422.993408203125
 30
0.0
 11
-409.2738952636718
 21
437.3600769042968
 31
0.0
  0
LINE
  5
32A
330
22
100
AcDbEntity
  8
0
  6
Continuous
 62
     7
100
AcDbLine
 10
-432.2738952636719
 20
419.1434020996093
 30
0.0
 11
-432.2738952636719
 21
437.3600769042968
 31
0.0
  0
LINE
  5
32B
330
22
100
AcDbEntity
  8
0
  6
Continuous
 62
     7
100
AcDbLine
 10
-437.2738952636718
 20
414.2767333984375
 30
0.0
 11
-437.2738952636718
 21
434.1767272949218
 31
0.0
  0
LINE
  5
32C
330
22
100
AcDbEntity
  8
0
  6
Continuous
 62
     7
100
AcDbLine
 10
-443.7738952636719
 20
414.2767333984375
 30
0.0
 11
-443.7738952636719
 21
434.1767272949218
 31
0.0
  0
LINE
  5
32D
330
22
100
AcDbEntity
  8
0
  6
CENTER
 62
     7
100
AcDbLine
 10
-564.9443969726562
 20
443.1767272949218
 30
0.0
 11
-316.1033630371094
 21
443.1767272949218
 31
0.0
  0
LINE
  5
32E
330
22
100
AcDbEntity
  8
0
  6
Continuous
 62
     7
100
AcDbLine
 10
-471.7738952636718
 20
422.993408203125
 30
0.0
 11
-471.7738952636718
 21
437.3600769042968
 31
0.0
  0
LINE
  5
32F
330
22
100
AcDbEntity
  8
0
  6
Continuous
 62
     7
100
AcDbLine
 10
-478.2738952636718
 20
422.993408203125
 30
0.0
 11
-478.2738952636718
 21
437.3600769042968
 31
0.0
  0
LINE
  5
330
330
22
100
AcDbEntity
  8
0
  6
Continuous
 62
     7
100
AcDbLine
 10
-535.7738647460938
 20
422.3515625
 30
0.0
 11
-535.7738647460938
 21
437.3600769042968
 31
0.0
  0
LINE
  5
331
330
22
100
AcDbEntity
  8
0
  6
Continuous
 62
     7
100
AcDbLine
 10
-455.2738952636718
 20
419.1434020996093
 30
0.0
 11
-455.2738952636718
 21
437.3600769042968
 31
0.0
  0
LINE
  5
332
330
22
100
AcDbEntity
  8
0
  6
Continuous
 62
     7
100
AcDbLine
 10
-501.2738952636718
 20
407.9934082031249
 30
0.0
 11
-501.2738952636718
 21
437.3600769042968
 31
0.0
  0
LINE
  5
333
330
22
100
AcDbEntity
  8
0
  6
Continuous
 62
     7
100
AcDbLine
 10
-466.7738952636718
 20
409.8934020996093
 30
0.0
 11
-466.7738952636718
 21
437.3600769042968
 31
0.0
  0
LINE
  5
334
330
22
100
AcDbEntity
  8
0
  6
Continuous
 62
     7
100
AcDbLine
 10
-512.7738647460938
 20
412.9934082031249
 30
0.0
 11
-512.7738647460938
 21
437.3600769042968
 31
0.0
  0
LINE
  5
335
330
22
100
AcDbEntity
  8
0
  6
Continuous
 62
     7
100
AcDbLine
 10
-529.2738647460939
 20
413.4330444335938
 30
0.0
 11
-529.2738647460939
 21
437.3600769042968
 31
0.0
  0
LINE
  5
336
330
22
100
AcDbEntity
  8
0
  6
Continuous
 62
     7
100
AcDbLine
 10
-506.2738952636719
 20
412.9934082031249
 30
0.0
 11
-506.2738952636719
 21
437.3600769042968
 31
0.0
  0
LINE
  5
337
330
22
100
AcDbEntity
  8
0
  6
Continuous
 62
     7
100
AcDbLine
 10
-448.7738952636719
 20
419.1434020996093
 30
0.0
 11
-448.7738952636719
 21
437.3600769042968
 31
0.0
  0
LINE
  5
338
330
22
100
AcDbEntity
  8
0
  6
Continuous
 62
     7
100
AcDbLine
 10
-448.7738952636719
 20
349.1739807128906
 30
0.0
 11
-448.7738952636719
 21
367.47705078125
 31
0.0
  0
LINE
  5
339
330
22
100
AcDbEntity
  8
0
  6
Continuous
 62
     7
100
AcDbLine
 10
-448.7738952636719
 20
378.1103820800781
 30
0.0
 11
-448.7738952636719
 21
408.47705078125
 31
0.0
  0
LINE
  5
33A
330
22
100
AcDbEntity
  8
0
  6
Continuous
 62
     7
100
AcDbLine
 10
-448.7738952636719
 20
537.1795043945313
 30
0.0
 11
-448.7738952636719
 21
518.87646484375
 31
0.0
  0
LINE
  5
33B
330
22
100
AcDbEntity
  8
0
  6
Continuous
 62
     7
100
AcDbLine
 10
-448.7738952636719
 20
508.2431030273438
 30
0.0
 11
-448.7738952636719
 21
477.8764343261719
 31
0.0
  0
LINE
  5
33C
330
22
100
AcDbEntity
  8
0
  6
Continuous
 62
     7
100
AcDbLine
 10
-448.7738952636719
 20
467.2100830078124
 30
0.0
 11
-448.7738952636719
 21
448.993408203125
 31
0.0
  0
ARC
  5
33D
330
22
100
AcDbEntity
  8
0
  6
Continuous
 62
     7
100
AcDbCircle
 10
-326.8881225585938
 20
278.5848388671875
 30
0.0
 40
1.0
100
AcDbArc
 50
0.0
 51
90.00000000000019
  0
ARC
  5
33E
330
22
100
AcDbEntity
  8
0
  6
Continuous
 62
     7
100
AcDbCircle
 10
-326.8881225585938
 20
276.5848388671875
 30
0.0
 40
1.0
100
AcDbArc
 50
270.0000000000005
 51
0.0
  0
ARC
  5
33F
330
22
100
AcDbEntity
  8
0
  6
Continuous
 62
     7
100
AcDbCircle
 10
-331.8881225585938
 20
274.5848388671875
 30
0.0
 40
1.0
100
AcDbArc
 50
90.00000000000019
 51
180.0000000000004
  0
ARC
  5
340
330
22
100
AcDbEntity
  8
0
  6
Continuous
 62
     7
100
AcDbCircle
 10
-339.8881225585938
 20
276.0848388671875
 30
0.0
 40
0.5
100
AcDbArc
 50
0.0
 51
90.00000000000019
  0
ARC
  5
341
330
22
100
AcDbEntity
  8
0
  6
Continuous
 62
     7
100
AcDbCircle
 10
-554.8881225585938
 20
276.5848388671875
 30
0.0
 40
1.0
100
AcDbArc
 50
180.0000000000004
 51
270.0000000000005
  0
ARC
  5
342
330
22
100
AcDbEntity
  8
0
  6
Continuous
 62
     7
100
AcDbCircle
 10
-387.3881225585938
 20
237.5848388671875
 30
0.0
 40
1.0
100
AcDbArc
 50
180.0000000000004
 51
270.0000000000005
  0
ARC
  5
343
330
22
100
AcDbEntity
  8
0
  6
Continuous
 62
     7
100
AcDbCircle
 10
-374.3881225585938
 20
237.8513031005859
 30
0.0
 40
5.0
100
AcDbArc
 50
120.0000178622841
 51
180.0000000000004
  0
ARC
  5
344
330
22
100
AcDbEntity
  8
0
  6
Continuous
 62
     7
100
AcDbCircle
 10
-384.8881225585938
 20
225.0848388671875
 30
0.0
 40
0.5
100
AcDbArc
 50
270.0000000000005
 51
0.0
  0
ARC
  5
345
330
22
100
AcDbEntity
  8
0
  6
Continuous
 62
     7
100
AcDbCircle
 10
-387.3881225585938
 20
238.4286499023438
 30
0.0
 40
1.0
100
AcDbArc
 50
119.9999304359993
 51
180.0000000000004
  0
ARC
  5
346
330
22
100
AcDbEntity
  8
0
  6
Continuous
 62
     7
100
AcDbCircle
 10
-386.3881225585938
 20
234.5848388671875
 30
0.0
 40
2.0
100
AcDbArc
 50
0.0
 51
90.00000000000019
  0
ARC
  5
347
330
22
100
AcDbEntity
  8
0
  6
Continuous
 62
     7
100
AcDbCircle
 10
-554.8881225585938
 20
278.5848388671875
 30
0.0
 40
1.0
100
AcDbArc
 50
90.00000000000019
 51
180.0000000000004
  0
ARC
  5
348
330
22
100
AcDbEntity
  8
0
  6
Continuous
 62
     7
100
AcDbCircle
 10
-331.8881225585938
 20
104.5848388671875
 30
0.0
 40
2.0
100
AcDbArc
 50
0.0
 51
90.00000000000019
  0
ARC
  5
349
330
22
100
AcDbEntity
  8
0
  6
Continuous
 62
     7
100
AcDbCircle
 10
-330.3881225585938
 20
103.5848388671875
 30
0.0
 40
0.5
100
AcDbArc
 50
270.0000000000005
 51
0.0
  0
ARC
  5
34A
330
22
100
AcDbEntity
  8
0
  6
Continuous
 62
     7
100
AcDbCircle
 10
-380.8881225585938
 20
145.5848388671875
 30
0.0
 40
1.0
100
AcDbArc
 50
0.0
 51
90.00000000000019
  0
ARC
  5
34B
330
22
100
AcDbEntity
  8
0
  6
Continuous
 62
     7
100
AcDbCircle
 10
-372.7451477050781
 20
265.7799377441406
 30
0.0
 40
4.859811782836914
100
AcDbArc
 50
209.9784150038464
 51
279.3598748099739
  0
ARC
  5
34C
330
22
100
AcDbEntity
  8
0
  6
Continuous
 62
     7
100
AcDbCircle
 10
-500.8881225585938
 20
145.5848388671875
 30
0.0
 40
1.0
100
AcDbArc
 50
90.00000000000019
 51
180.0000000000004
  0
ARC
  5
34D
330
22
100
AcDbEntity
  8
0
  6
Continuous
 62
     7
100
AcDbCircle
 10
-508.3256530761718
 20
238.4240264892578
 30
0.0
 40
5.0
100
AcDbArc
 50
9.064937697373572
 51
54.01965193787703
  0
ARC
  5
34E
330
22
100
AcDbEntity
  8
0
  6
Continuous
 62
     7
100
AcDbCircle
 10
-473.0273132324218
 20
204.0158386230469
 30
0.0
 40
1.708203315734863
100
AcDbArc
 50
113.2906589445077
 51
160.5431017157958
  0
ARC
  5
34F
330
22
100
AcDbEntity
  8
0
  6
Continuous
 62
     7
100
AcDbCircle
 10
-473.19970703125
 20
196.0751495361328
 30
0.0
 40
9.522980690002439
100
AcDbArc
 50
63.328652682142
 51
93.02787590646829
  0
ARC
  5
350
330
22
100
AcDbEntity
  8
0
  6
Continuous
 62
     7
100
AcDbCircle
 10
-374.8881225585938
 20
111.5848388671875
 30
0.0
 40
5.0
100
AcDbArc
 50
180.0000000000004
 51
270.0000000000005
  0
ARC
  5
351
330
22
100
AcDbEntity
  8
0
  6
Continuous
 62
     7
100
AcDbCircle
 10
-379.3881225585938
 20
62.5848388671875
 30
0.0
 40
1.0
100
AcDbArc
 50
270.0000000000005
 51
0.0
  0
ARC
  5
352
330
22
100
AcDbEntity
  8
0
  6
Continuous
 62
     7
100
AcDbCircle
 10
-377.3881225585938
 20
102.0848388671875
 30
0.0
 40
1.0
100
AcDbArc
 50
90.00000000000019
 51
180.0000000000004
  0
ARC
  5
353
330
22
100
AcDbEntity
  8
0
  6
Continuous
 62
     7
100
AcDbCircle
 10
-549.8881225585939
 20
104.5848388671875
 30
0.0
 40
2.0
100
AcDbArc
 50
90.00000000000019
 51
180.0000000000004
  0
ARC
  5
354
330
22
100
AcDbEntity
  8
0
  6
Continuous
 62
     7
100
AcDbCircle
 10
-551.3881225585938
 20
103.5848388671875
 30
0.0
 40
0.5
100
AcDbArc
 50
180.0000000000004
 51
270.0000000000005
  0
ARC
  5
355
330
22
100
AcDbEntity
  8
0
  6
Continuous
 62
     7
100
AcDbCircle
 10
-525.2005004882813
 20
82.49320220947266
 30
0.0
 40
18.0
100
AcDbArc
 50
8.278212593538523
 51
73.10498678841887
  0
ARC
  5
356
330
22
100
AcDbEntity
  8
0
  6
Continuous
 62
     7
100
AcDbCircle
 10
-506.8881225585938
 20
111.5848388671875
 30
0.0
 40
5.0
100
AcDbArc
 50
270.0000000000005
 51
0.0
  0
ARC
  5
357
330
22
100
AcDbEntity
  8
0
  6
Continuous
 62
     7
100
AcDbCircle
 10
-502.3881225585937
 20
62.5848388671875
 30
0.0
 40
1.0
100
AcDbArc
 50
180.0000000000004
 51
270.0000000000005
  0
ARC
  5
358
330
22
100
AcDbEntity
  8
0
  6
Continuous
 62
     7
100
AcDbCircle
 10
-504.3881225585938
 20
102.0848388671875
 30
0.0
 40
1.0
100
AcDbArc
 50
0.0
 51
90.00000000000019
  0
ARC
  5
359
330
22
100
AcDbEntity
  8
0
  6
Continuous
 62
     7
100
AcDbCircle
 10
-505.3880615234374
 20
83.0848388671875
 30
0.0
 40
2.0
100
AcDbArc
 50
180.0000000000004
 51
270.0000000000005
  0
ARC
  5
35A
330
22
100
AcDbEntity
  8
0
  6
Continuous
 62
     7
100
AcDbCircle
 10
-519.3881225585938
 20
101.6299743652344
 30
0.0
 40
2.0
100
AcDbArc
 50
180.0000000000004
 51
253.1049514997739
  0
ARC
  5
35B
330
22
100
AcDbEntity
  8
0
  6
Continuous
 62
     7
100
AcDbCircle
 10
-371.7082824707031
 20
273.8753356933594
 30
0.0
 40
12.89286136627197
100
AcDbArc
 50
268.904531247404
 51
306.9688460717396
  0
ARC
  5
35C
330
22
100
AcDbEntity
  8
0
  6
Continuous
 62
     7
100
AcDbCircle
 10
-344.3881225585938
 20
270.1829223632813
 30
0.0
 40
5.0
100
AcDbArc
 50
299.9999304360001
 51
0.0
  0
ARC
  5
35D
330
22
100
AcDbEntity
  8
0
  6
Continuous
 62
     7
100
AcDbCircle
 10
-337.8881225585938
 20
270.4715881347656
 30
0.0
 40
5.0
100
AcDbArc
 50
299.9999304360001
 51
0.0
  0
ARC
  5
35E
330
22
100
AcDbEntity
  8
0
  6
Continuous
 62
     7
100
AcDbCircle
 10
-543.8881225585938
 20
270.4715881347656
 30
0.0
 40
5.0
100
AcDbArc
 50
180.0000000000004
 51
240.0000695640013
  0
ARC
  5
35F
330
22
100
AcDbEntity
  8
0
  6
Continuous
 62
     7
100
AcDbCircle
 10
-440.5238952636718
 20
472.5433959960938
 30
0.0
 40
3.283333301544189
100
AcDbArc
 50
351.8291530098786
 51
188.1708469901228
  0
ARC
  5
360
330
22
100
AcDbEntity
  8
0
  6
Continuous
 62
     7
100
AcDbCircle
 10
-440.5238952636718
 20
449.4600830078125
 30
0.0
 40
3.283333301544189
100
AcDbArc
 50
171.8291530098779
 51
8.170846990122083
  0
ARC
  5
361
330
22
100
AcDbEntity
  8
0
  6
Continuous
 62
     7
100
AcDbCircle
 10
-440.5238952636718
 20
537.3934326171875
 30
0.0
 40
3.283333301544189
100
AcDbArc
 50
8.17031984824097
 51
171.829680151759
  0
ARC
  5
362
330
22
100
AcDbEntity
  8
0
  6
Continuous
 62
     7
100
AcDbCircle
 10
-429.0238952636719
 20
436.8934020996094
 30
0.0
 40
3.283333301544189
100
AcDbArc
 50
351.8286258693902
 51
188.1713741306112
  0
ARC
  5
363
330
22
100
AcDbEntity
  8
0
  6
Continuous
 62
     7
100
AcDbCircle
 10
-429.0238952636719
 20
536.7128295898438
 30
0.0
 40
3.283333301544189
100
AcDbArc
 50
351.8286258693902
 51
171.8286258693895
  0
ARC
  5
364
330
22
100
AcDbEntity
  8
0
  6
Continuous
 62
     7
100
AcDbCircle
 10
-429.0238952636719
 20
449.4600830078125
 30
0.0
 40
3.283333301544189
100
AcDbArc
 50
171.8291530098779
 51
8.170846990122083
  0
ARC
  5
365
330
22
100
AcDbEntity
  8
0
  6
Continuous
 62
     7
100
AcDbCircle
 10
-429.0238952636719
 20
466.743408203125
 30
0.0
 40
3.283333301544189
100
AcDbArc
 50
351.8286258693902
 51
188.1713741306112
  0
ARC
  5
366
330
22
100
AcDbEntity
  8
0
  6
Continuous
 62
     7
100
AcDbCircle
 10
-429.0238952636719
 20
519.3430786132814
 30
0.0
 40
3.283333301544189
100
AcDbArc
 50
171.8286258693895
 51
8.171374130610477
  0
ARC
  5
367
330
22
100
AcDbEntity
  8
0
  6
Continuous
 62
     7
100
AcDbCircle
 10
-429.0238952636719
 20
507.7764282226563
 30
0.0
 40
3.283333301544189
100
AcDbArc
 50
351.8291530098786
 51
188.1708469901228
  0
ARC
  5
368
330
22
100
AcDbEntity
  8
0
  6
Continuous
 62
     7
100
AcDbCircle
 10
-429.0238952636719
 20
478.3431091308593
 30
0.0
 40
3.283333301544189
100
AcDbArc
 50
171.8286258693895
 51
8.171374130610477
  0
ARC
  5
369
330
22
100
AcDbEntity
  8
0
  6
Continuous
 62
     7
100
AcDbCircle
 10
-348.5238952636719
 20
436.8934020996094
 30
0.0
 40
3.283333301544189
100
AcDbArc
 50
351.8286258693902
 51
188.1713741306112
  0
ARC
  5
36A
330
22
100
AcDbEntity
  8
0
  6
Continuous
 62
     7
100
AcDbCircle
 10
-348.5238952636719
 20
449.4600830078125
 30
0.0
 40
3.283333301544189
100
AcDbArc
 50
171.8291530098779
 51
8.170846990122083
  0
ARC
  5
36B
330
22
100
AcDbEntity
  8
0
  6
Continuous
 62
     7
100
AcDbCircle
 10
-349.7738952636719
 20
472.9204406738281
 30
0.0
 40
2.0
100
AcDbArc
 50
18.14631868123702
 51
180.0000000000004
  0
ARC
  5
36C
330
22
100
AcDbEntity
  8
0
  6
Continuous
 62
     7
100
AcDbCircle
 10
-440.5238952636718
 20
443.1767272949218
 30
0.0
 40
97.5
100
AcDbArc
 50
12.33290294476902
 51
18.14677587832189
  0
ARC
  5
36D
330
22
100
AcDbEntity
  8
0
  6
Continuous
 62
     7
100
AcDbCircle
 10
-406.0238952636718
 20
530.849609375
 30
0.0
 40
3.283333301544189
100
AcDbArc
 50
8.171374130610477
 51
171.8286258693895
  0
ARC
  5
36E
330
22
100
AcDbEntity
  8
0
  6
Continuous
 62
     7
100
AcDbCircle
 10
-406.0238952636718
 20
505.8465881347656
 30
0.0
 40
3.283333301544189
100
AcDbArc
 50
351.8286258693902
 51
188.1713741306112
  0
ARC
  5
36F
330
22
100
AcDbEntity
  8
0
  6
Continuous
 62
     7
100
AcDbCircle
 10
-406.0238952636718
 20
474.4600830078125
 30
0.0
 40
3.283333301544189
100
AcDbArc
 50
171.8291530098779
 51
8.170846990122083
  0
ARC
  5
370
330
22
100
AcDbEntity
  8
0
  6
Continuous
 62
     7
100
AcDbCircle
 10
-406.0238952636718
 20
449.4600830078125
 30
0.0
 40
3.283333301544189
100
AcDbArc
 50
171.8291530098779
 51
8.170846990122083
  0
ARC
  5
371
330
22
100
AcDbEntity
  8
0
  6
Continuous
 62
     7
100
AcDbCircle
 10
-406.0238952636718
 20
517.4162597656249
 30
0.0
 40
3.283333301544189
100
AcDbArc
 50
171.8286258693895
 51
8.171374130610477
  0
ARC
  5
372
330
22
100
AcDbEntity
  8
0
  6
Continuous
 62
     7
100
AcDbCircle
 10
-406.0238952636718
 20
462.8934020996093
 30
0.0
 40
3.283333301544189
100
AcDbArc
 50
351.8286258693902
 51
188.1713741306112
  0
ARC
  5
373
330
22
100
AcDbEntity
  8
0
  6
Continuous
 62
     7
100
AcDbCircle
 10
-440.5238952636718
 20
434.6434020996094
 30
0.0
 40
3.283333301544189
100
AcDbArc
 50
351.8286258693902
 51
188.1713741306112
  0
ARC
  5
374
330
22
100
AcDbEntity
  8
0
  6
Continuous
 62
     7
100
AcDbCircle
 10
-440.5238952636718
 20
504.9934082031249
 30
0.0
 40
3.283333301544189
100
AcDbArc
 50
351.8286258693902
 51
188.1713741306112
  0
ARC
  5
375
330
22
100
AcDbEntity
  8
0
  6
Continuous
 62
     7
100
AcDbCircle
 10
-440.5238952636718
 20
516.5600585937499
 30
0.0
 40
3.283333301544189
100
AcDbArc
 50
188.1713741306112
 51
351.8286258693902
  0
ARC
  5
376
330
22
100
AcDbEntity
  8
0
  6
Continuous
 62
     7
100
AcDbCircle
 10
-440.5238952636718
 20
484.1600646972656
 30
0.0
 40
3.283333301544189
100
AcDbArc
 50
171.8286258693895
 51
8.171374130610477
  0
ARC
  5
377
330
22
100
AcDbEntity
  8
0
  6
Continuous
 62
     7
100
AcDbCircle
 10
-417.5238952636719
 20
496.1934204101563
 30
0.0
 40
3.283333301544189
100
AcDbArc
 50
351.8286258693902
 51
188.1713741306112
  0
ARC
  5
378
330
22
100
AcDbEntity
  8
0
  6
Continuous
 62
     7
100
AcDbCircle
 10
-417.5238952636719
 20
487.7600708007813
 30
0.0
 40
3.283333301544189
100
AcDbArc
 50
171.8286258693895
 51
8.171374130610477
  0
ARC
  5
379
330
22
100
AcDbEntity
  8
0
  6
Continuous
 62
     7
100
AcDbCircle
 10
-383.0238952636719
 20
477.8934020996094
 30
0.0
 40
3.283333301544189
100
AcDbArc
 50
351.8286258693902
 51
188.1713741306112
  0
ARC
  5
37A
330
22
100
AcDbEntity
  8
0
  6
Continuous
 62
     7
100
AcDbCircle
 10
-394.5238952636719
 20
471.6934204101563
 30
0.0
 40
3.283333301544189
100
AcDbArc
 50
351.8286258693902
 51
188.1713741306112
  0
ARC
  5
37B
330
22
100
AcDbEntity
  8
0
  6
Continuous
 62
     7
100
AcDbCircle
 10
-394.5238952636719
 20
503.2630920410156
 30
0.0
 40
3.283333301544189
100
AcDbArc
 50
171.8286258693895
 51
8.171374130610477
  0
ARC
  5
37C
330
22
100
AcDbEntity
  8
0
  6
Continuous
 62
     7
100
AcDbCircle
 10
-394.5238952636719
 20
491.6934204101563
 30
0.0
 40
3.283333301544189
100
AcDbArc
 50
351.8286258693902
 51
188.1713741306112
  0
ARC
  5
37D
330
22
100
AcDbEntity
  8
0
  6
Continuous
 62
     7
100
AcDbCircle
 10
-394.5238952636719
 20
449.4600830078125
 30
0.0
 40
3.283333301544189
100
AcDbArc
 50
171.8291530098779
 51
8.170846990122083
  0
ARC
  5
37E
330
22
100
AcDbEntity
  8
0
  6
Continuous
 62
     7
100
AcDbCircle
 10
-394.5238952636719
 20
483.2600708007813
 30
0.0
 40
3.283333301544189
100
AcDbArc
 50
171.8286258693895
 51
8.171374130610477
  0
ARC
  5
37F
330
22
100
AcDbEntity
  8
0
  6
Continuous
 62
     7
100
AcDbCircle
 10
-383.0238952636719
 20
517.8136596679689
 30
0.0
 40
3.283333301544189
100
AcDbArc
 50
8.17031984824097
 51
171.829680151759
  0
ARC
  5
380
330
22
100
AcDbEntity
  8
0
  6
Continuous
 62
     7
100
AcDbCircle
 10
-383.0238952636719
 20
489.4600830078124
 30
0.0
 40
3.283333301544189
100
AcDbArc
 50
171.8291530098779
 51
8.170846990122083
  0
ARC
  5
381
330
22
100
AcDbEntity
  8
0
  6
Continuous
 62
     7
100
AcDbCircle
 10
-383.0238952636719
 20
449.4600830078125
 30
0.0
 40
3.283333301544189
100
AcDbArc
 50
171.8291530098779
 51
8.170846990122083
  0
ARC
  5
382
330
22
100
AcDbEntity
  8
0
  6
Continuous
 62
     7
100
AcDbCircle
 10
-394.5238952636719
 20
525.4267578124999
 30
0.0
 40
3.283333301544189
100
AcDbArc
 50
8.171374130610477
 51
171.8286258693895
  0
ARC
  5
383
330
22
100
AcDbEntity
  8
0
  6
Continuous
 62
     7
100
AcDbCircle
 10
-417.5238952636719
 20
436.8934020996094
 30
0.0
 40
3.283333301544189
100
AcDbArc
 50
351.8286258693902
 51
188.1713741306112
  0
ARC
  5
384
330
22
100
AcDbEntity
  8
0
  6
Continuous
 62
     7
100
AcDbCircle
 10
-406.0238952636718
 20
436.8934020996094
 30
0.0
 40
3.283333301544189
100
AcDbArc
 50
351.8286258693902
 51
188.1713741306112
  0
ARC
  5
385
330
22
100
AcDbEntity
  8
0
  6
Continuous
 62
     7
100
AcDbCircle
 10
-394.5238952636719
 20
436.8934020996094
 30
0.0
 40
3.283333301544189
100
AcDbArc
 50
351.8286258693902
 51
188.1713741306112
  0
ARC
  5
386
330
22
100
AcDbEntity
  8
0
  6
Continuous
 62
     7
100
AcDbCircle
 10
-383.0238952636719
 20
436.8934020996094
 30
0.0
 40
3.283333301544189
100
AcDbArc
 50
351.8286258693902
 51
188.1713741306112
  0
ARC
  5
387
330
22
100
AcDbEntity
  8
0
  6
Continuous
 62
     7
100
AcDbCircle
 10
-417.5238952636719
 20
507.7630920410156
 30
0.0
 40
3.283333301544189
100
AcDbArc
 50
171.8286258693895
 51
8.171374130610477
  0
ARC
  5
388
330
22
100
AcDbEntity
  8
0
  6
Continuous
 62
     7
100
AcDbCircle
 10
-417.5238952636719
 20
449.4600830078125
 30
0.0
 40
3.283333301544189
100
AcDbArc
 50
171.8291530098779
 51
8.170846990122083
  0
ARC
  5
389
330
22
100
AcDbEntity
  8
0
  6
Continuous
 62
     7
100
AcDbCircle
 10
-417.5238952636719
 20
534.5826416015625
 30
0.0
 40
3.283333301544189
100
AcDbArc
 50
8.171374130610477
 51
171.8286258693895
  0
ARC
  5
38A
330
22
100
AcDbEntity
  8
0
  6
Continuous
 62
     7
100
AcDbCircle
 10
-417.5238952636719
 20
476.1934204101563
 30
0.0
 40
3.283333301544189
100
AcDbArc
 50
351.8286258693902
 51
188.1713741306112
  0
ARC
  5
38B
330
22
100
AcDbEntity
  8
0
  6
Continuous
 62
     7
100
AcDbCircle
 10
-440.5238952636718
 20
402.1934204101563
 30
0.0
 40
3.283333301544189
100
AcDbArc
 50
351.8286258693902
 51
188.1713741306112
  0
ARC
  5
38C
330
22
100
AcDbEntity
  8
0
  6
Continuous
 62
     7
100
AcDbCircle
 10
-440.5238952636718
 20
348.9600830078125
 30
0.0
 40
3.283333301544189
100
AcDbArc
 50
171.8291530098779
 51
8.170846990122083
  0
ARC
  5
38D
330
22
100
AcDbEntity
  8
0
  6
Continuous
 62
     7
100
AcDbCircle
 10
-429.0238952636719
 20
349.6406555175781
 30
0.0
 40
3.283333301544189
100
AcDbArc
 50
171.8286258693895
 51
8.171374130610477
  0
ARC
  5
38E
330
22
100
AcDbEntity
  8
0
  6
Continuous
 62
     7
100
AcDbCircle
 10
-429.0238952636719
 20
367.0103759765625
 30
0.0
 40
3.283333301544189
100
AcDbArc
 50
351.8286258693902
 51
188.1713741306112
  0
ARC
  5
38F
330
22
100
AcDbEntity
  8
0
  6
Continuous
 62
     7
100
AcDbCircle
 10
-429.0238952636719
 20
408.0103759765624
 30
0.0
 40
3.283333301544189
100
AcDbArc
 50
351.8286258693902
 51
188.1713741306112
  0
ARC
  5
390
330
22
100
AcDbEntity
  8
0
  6
Continuous
 62
     7
100
AcDbCircle
 10
-429.0238952636719
 20
419.6100769042969
 30
0.0
 40
3.283333301544189
100
AcDbArc
 50
171.8286258693895
 51
8.171374130610477
  0
ARC
  5
391
330
22
100
AcDbEntity
  8
0
  6
Continuous
 62
     7
100
AcDbCircle
 10
-429.0238952636719
 20
378.5770263671875
 30
0.0
 40
3.283333301544189
100
AcDbArc
 50
171.8286258693895
 51
8.171374130610477
  0
ARC
  5
392
330
22
100
AcDbEntity
  8
0
  6
Continuous
 62
     7
100
AcDbCircle
 10
-349.7738952636719
 20
413.4330444335938
 30
0.0
 40
2.0
100
AcDbArc
 50
180.0000000000004
 51
341.8536813187637
  0
ARC
  5
393
330
22
100
AcDbEntity
  8
0
  6
Continuous
 62
     7
100
AcDbCircle
 10
-406.0238952636718
 20
368.9372253417969
 30
0.0
 40
3.283333301544189
100
AcDbArc
 50
351.8286258693902
 51
188.1713741306112
  0
ARC
  5
394
330
22
100
AcDbEntity
  8
0
  6
Continuous
 62
     7
100
AcDbCircle
 10
-394.5238952636719
 20
360.9267272949219
 30
0.0
 40
3.283333301544189
100
AcDbArc
 50
171.8286258693895
 51
8.171374130610477
  0
ARC
  5
395
330
22
100
AcDbEntity
  8
0
  6
Continuous
 62
     7
100
AcDbCircle
 10
-383.0238952636719
 20
396.8934020996094
 30
0.0
 40
3.283333301544189
100
AcDbArc
 50
351.8286258693902
 51
188.1713741306112
  0
ARC
  5
396
330
22
100
AcDbEntity
  8
0
  6
Continuous
 62
     7
100
AcDbCircle
 10
-394.5238952636719
 20
403.0934143066406
 30
0.0
 40
3.283333301544189
100
AcDbArc
 50
351.8286258693902
 51
188.1713741306112
  0
ARC
  5
397
330
22
100
AcDbEntity
  8
0
  6
Continuous
 62
     7
100
AcDbCircle
 10
-394.5238952636719
 20
394.6600646972656
 30
0.0
 40
3.283333301544189
100
AcDbArc
 50
171.8286258693895
 51
8.171374130610477
  0
ARC
  5
398
330
22
100
AcDbEntity
  8
0
  6
Continuous
 62
     7
100
AcDbCircle
 10
-394.5238952636719
 20
382.9903869628907
 30
0.0
 40
3.283333301544189
100
AcDbArc
 50
351.8286258693902
 51
188.1713741306112
  0
ARC
  5
399
330
22
100
AcDbEntity
  8
0
  6
Continuous
 62
     7
100
AcDbCircle
 10
-383.0238952636719
 20
368.5398559570313
 30
0.0
 40
3.283333301544189
100
AcDbArc
 50
171.8291530098779
 51
8.170846990122083
  0
ARC
  5
39A
330
22
100
AcDbEntity
  8
0
  6
Continuous
 62
     7
100
AcDbCircle
 10
-406.0238952636718
 20
355.5038757324219
 30
0.0
 40
3.283333301544189
100
AcDbArc
 50
171.8286258693895
 51
8.171374130610477
  0
ARC
  5
39B
330
22
100
AcDbEntity
  8
0
  6
Continuous
 62
     7
100
AcDbCircle
 10
-440.5238952636718
 20
413.8100585937499
 30
0.0
 40
3.283333301544189
100
AcDbArc
 50
171.8286258693895
 51
8.171374130610477
  0
ARC
  5
39C
330
22
100
AcDbEntity
  8
0
  6
Continuous
 62
     7
100
AcDbCircle
 10
-440.5238952636718
 20
369.7933959960938
 30
0.0
 40
3.283333301544189
100
AcDbArc
 50
351.8291530098786
 51
188.1708469901228
  0
ARC
  5
39D
330
22
100
AcDbEntity
  8
0
  6
Continuous
 62
     7
100
AcDbCircle
 10
-440.5238952636718
 20
381.3600769042969
 30
0.0
 40
3.283333301544189
100
AcDbArc
 50
171.8286258693895
 51
8.171374130610477
  0
ARC
  5
39E
330
22
100
AcDbEntity
  8
0
  6
Continuous
 62
     7
100
AcDbCircle
 10
-417.5238952636719
 20
378.5903930664063
 30
0.0
 40
3.283333301544189
100
AcDbArc
 50
351.8286258693902
 51
188.1713741306112
  0
ARC
  5
39F
330
22
100
AcDbEntity
  8
0
  6
Continuous
 62
     7
100
AcDbCircle
 10
-417.5238952636719
 20
390.2600708007813
 30
0.0
 40
3.283333301544189
100
AcDbArc
 50
171.8286258693895
 51
8.171374130610477
  0
ARC
  5
3A0
330
22
100
AcDbEntity
  8
0
  6
Continuous
 62
     7
100
AcDbCircle
 10
-417.5238952636719
 20
398.7933959960938
 30
0.0
 40
3.283333301544189
100
AcDbArc
 50
351.8291530098786
 51
188.1708469901228
  0
ARC
  5
3A1
330
22
100
AcDbEntity
  8
0
  6
Continuous
 62
     7
100
AcDbCircle
 10
-417.5238952636719
 20
351.7708435058594
 30
0.0
 40
3.283333301544189
100
AcDbArc
 50
171.8286258693895
 51
8.171374130610477
  0
ARC
  5
3A2
330
22
100
AcDbEntity
  8
0
  6
Continuous
 62
     7
100
AcDbCircle
 10
-394.5238952636719
 20
414.6600646972656
 30
0.0
 40
3.283333301544189
100
AcDbArc
 50
171.8286258693895
 51
8.171374130610477
  0
ARC
  5
3A3
330
22
100
AcDbEntity
  8
0
  6
Continuous
 62
     7
100
AcDbCircle
 10
-406.0238952636718
 20
411.8934020996094
 30
0.0
 40
3.283333301544189
100
AcDbArc
 50
351.8286258693902
 51
188.1713741306112
  0
ARC
  5
3A4
330
22
100
AcDbEntity
  8
0
  6
Continuous
 62
     7
100
AcDbCircle
 10
-417.5238952636719
 20
410.3600769042968
 30
0.0
 40
3.283333301544189
100
AcDbArc
 50
171.8286258693895
 51
8.171374130610477
  0
ARC
  5
3A5
330
22
100
AcDbEntity
  8
0
  6
Continuous
 62
     7
100
AcDbCircle
 10
-383.0238952636719
 20
408.4600830078125
 30
0.0
 40
3.283333301544189
100
AcDbArc
 50
171.8291530098779
 51
8.170846990122083
  0
ARC
  5
3A6
330
22
100
AcDbEntity
  8
0
  6
Continuous
 62
     7
100
AcDbCircle
 10
-406.0238952636718
 20
380.6069030761719
 30
0.0
 40
3.283333301544189
100
AcDbArc
 50
171.8286258693895
 51
8.171374130610477
  0
ARC
  5
3A7
330
22
100
AcDbEntity
  8
0
  6
Continuous
 62
     7
100
AcDbCircle
 10
-486.5238952636718
 20
491.6934204101563
 30
0.0
 40
3.283333301544189
100
AcDbArc
 50
351.8286258693902
 51
188.1713741306112
  0
ARC
  5
3A8
330
22
100
AcDbEntity
  8
0
  6
Continuous
 62
     7
100
AcDbCircle
 10
-463.5238952636719
 20
534.5826416015625
 30
0.0
 40
3.283333301544189
100
AcDbArc
 50
351.8286258693902
 51
188.1713741306112
  0
ARC
  5
3A9
330
22
100
AcDbEntity
  8
0
  6
Continuous
 62
     7
100
AcDbCircle
 10
-498.0238952636718
 20
517.8136596679689
 30
0.0
 40
3.283333301544189
100
AcDbArc
 50
351.8286258693902
 51
188.1713741306112
  0
ARC
  5
3AA
330
22
100
AcDbEntity
  8
0
  6
Continuous
 62
     7
100
AcDbCircle
 10
-475.0238952636719
 20
505.74658203125
 30
0.0
 40
3.283333301544189
100
AcDbArc
 50
351.8286258693902
 51
188.1713741306112
  0
ARC
  5
3AB
330
22
100
AcDbEntity
  8
0
  6
Continuous
 62
     7
100
AcDbCircle
 10
-475.0238952636719
 20
449.4600830078125
 30
0.0
 40
3.283333301544189
100
AcDbArc
 50
171.8291530098779
 51
8.170846990122083
  0
ARC
  5
3AC
330
22
100
AcDbEntity
  8
0
  6
Continuous
 62
     7
100
AcDbCircle
 10
-486.5238952636718
 20
503.3630981445313
 30
0.0
 40
3.283333301544189
100
AcDbArc
 50
171.8286258693895
 51
8.171374130610477
  0
ARC
  5
3AD
330
22
100
AcDbEntity
  8
0
  6
Continuous
 62
     7
100
AcDbCircle
 10
-463.5238952636719
 20
496.0934143066406
 30
0.0
 40
3.283333301544189
100
AcDbArc
 50
351.8286258693902
 51
188.1713741306112
  0
ARC
  5
3AE
330
22
100
AcDbEntity
  8
0
  6
Continuous
 62
     7
100
AcDbCircle
 10
-475.0238952636719
 20
462.8934020996093
 30
0.0
 40
3.283333301544189
100
AcDbArc
 50
351.8286258693902
 51
188.1713741306112
  0
ARC
  5
3AF
330
22
100
AcDbEntity
  8
0
  6
Continuous
 62
     7
100
AcDbCircle
 10
-498.0238952636718
 20
449.4600830078125
 30
0.0
 40
3.283333301544189
100
AcDbArc
 50
171.8291530098779
 51
8.170846990122083
  0
ARC
  5
3B0
330
22
100
AcDbEntity
  8
0
  6
Continuous
 62
     7
100
AcDbCircle
 10
-475.0238952636719
 20
474.4600830078125
 30
0.0
 40
3.283333301544189
100
AcDbArc
 50
171.8291530098779
 51
8.170846990122083
  0
ARC
  5
3B1
330
22
100
AcDbEntity
  8
0
  6
Continuous
 62
     7
100
AcDbCircle
 10
-486.5238952636718
 20
471.6934204101563
 30
0.0
 40
3.283333301544189
100
AcDbArc
 50
351.8286258693902
 51
188.1713741306112
  0
ARC
  5
3B2
330
22
100
AcDbEntity
  8
0
  6
Continuous
 62
     7
100
AcDbCircle
 10
-498.0238952636718
 20
477.8934020996094
 30
0.0
 40
3.283333301544189
100
AcDbArc
 50
351.8286258693902
 51
188.1713741306112
  0
ARC
  5
3B3
330
22
100
AcDbEntity
  8
0
  6
Continuous
 62
     7
100
AcDbCircle
 10
-498.0238952636718
 20
489.4600830078124
 30
0.0
 40
3.283333301544189
100
AcDbArc
 50
171.8291530098779
 51
8.170846990122083
  0
ARC
  5
3B4
330
22
100
AcDbEntity
  8
0
  6
Continuous
 62
     7
100
AcDbCircle
 10
-463.5238952636719
 20
487.5600585937499
 30
0.0
 40
3.283333301544189
100
AcDbArc
 50
171.8286258693895
 51
8.171374130610477
  0
ARC
  5
3B5
330
22
100
AcDbEntity
  8
0
  6
Continuous
 62
     7
100
AcDbCircle
 10
-463.5238952636719
 20
507.7630920410156
 30
0.0
 40
3.283333301544189
100
AcDbArc
 50
171.8286258693895
 51
8.171374130610477
  0
ARC
  5
3B6
330
22
100
AcDbEntity
  8
0
  6
Continuous
 62
     7
100
AcDbCircle
 10
-463.5238952636719
 20
475.9934082031249
 30
0.0
 40
3.283333301544189
100
AcDbArc
 50
351.8286258693902
 51
188.1713741306112
  0
ARC
  5
3B7
330
22
100
AcDbEntity
  8
0
  6
Continuous
 62
     7
100
AcDbCircle
 10
-486.5238952636718
 20
483.2600708007813
 30
0.0
 40
3.283333301544189
100
AcDbArc
 50
171.8286258693895
 51
8.171374130610477
  0
ARC
  5
3B8
330
22
100
AcDbEntity
  8
0
  6
Continuous
 62
     7
100
AcDbCircle
 10
-463.5238952636719
 20
449.4600830078125
 30
0.0
 40
3.283333301544189
100
AcDbArc
 50
171.8291530098779
 51
8.170846990122083
  0
ARC
  5
3B9
330
22
100
AcDbEntity
  8
0
  6
Continuous
 62
     7
100
AcDbCircle
 10
-475.0238952636719
 20
530.849609375
 30
0.0
 40
3.283333301544189
100
AcDbArc
 50
351.8286258693902
 51
188.1713741306112
  0
ARC
  5
3BA
330
22
100
AcDbEntity
  8
0
  6
Continuous
 62
     7
100
AcDbCircle
 10
-486.5238952636718
 20
449.4600830078125
 30
0.0
 40
3.283333301544189
100
AcDbArc
 50
171.8291530098779
 51
8.170846990122083
  0
ARC
  5
3BB
330
22
100
AcDbEntity
  8
0
  6
Continuous
 62
     7
100
AcDbCircle
 10
-486.5238952636718
 20
525.4267578124999
 30
0.0
 40
3.283333301544189
100
AcDbArc
 50
351.8286258693902
 51
188.1713741306112
  0
ARC
  5
3BC
330
22
100
AcDbEntity
  8
0
  6
Continuous
 62
     7
100
AcDbCircle
 10
-475.0238952636719
 20
517.4162597656249
 30
0.0
 40
3.283333301544189
100
AcDbArc
 50
171.8286258693895
 51
8.171374130610477
  0
CIRCLE
  5
3BD
330
22
100
AcDbEntity
  8
0
  6
Continuous
 62
     7
100
AcDbCircle
 10
-509.8970642089843
 20
512.5371704101564
 30
0.0
 40
5.0
  0
ARC
  5
3BE
330
22
100
AcDbEntity
  8
0
  6
Continuous
 62
     7
100
AcDbCircle
 10
-509.5238952636718
 20
502.3934020996093
 30
0.0
 40
3.283333301544189
100
AcDbArc
 50
351.8286258693902
 51
188.1714498244951
  0
ARC
  5
3BF
330
22
100
AcDbEntity
  8
0
  6
Continuous
 62
     7
100
AcDbCircle
 10
-509.5238952636718
 20
484.4600830078125
 30
0.0
 40
3.283333301544189
100
AcDbArc
 50
171.8290773207439
 51
8.170846990122083
  0
ARC
  5
3C0
330
22
100
AcDbEntity
  8
0
  6
Continuous
 62
     7
100
AcDbCircle
 10
-509.5238952636718
 20
472.8934020996093
 30
0.0
 40
3.283333301544189
100
AcDbArc
 50
351.8286258693902
 51
188.1714498244951
  0
ARC
  5
3C1
330
22
100
AcDbEntity
  8
0
  6
Continuous
 62
     7
100
AcDbCircle
 10
-509.5238952636718
 20
449.4600830078125
 30
0.0
 40
3.283333301544189
100
AcDbArc
 50
171.8290773207439
 51
8.170846990122083
  0
ARC
  5
3C2
330
22
100
AcDbEntity
  8
0
  6
Continuous
 62
     7
100
AcDbCircle
 10
-521.0238647460938
 20
449.4600830078125
 30
0.0
 40
3.283333301544189
100
AcDbArc
 50
171.8291530098779
 51
8.170846990122083
  0
ARC
  5
3C3
330
22
100
AcDbEntity
  8
0
  6
Continuous
 62
     7
100
AcDbCircle
 10
-521.0238647460938
 20
457.8934020996094
 30
0.0
 40
3.283333301544189
100
AcDbArc
 50
351.8286258693902
 51
188.1713741306112
  0
ARC
  5
3C4
330
22
100
AcDbEntity
  8
0
  6
Continuous
 62
     7
100
AcDbCircle
 10
-521.0238647460938
 20
469.4600830078124
 30
0.0
 40
3.283333301544189
100
AcDbArc
 50
171.8291530098779
 51
8.170846990122083
  0
ARC
  5
3C5
330
22
100
AcDbEntity
  8
0
  6
Continuous
 62
     7
100
AcDbCircle
 10
-521.0238647460938
 20
492.2201232910156
 30
0.0
 40
3.283333301544189
100
AcDbArc
 50
351.8291530098786
 51
188.1708469901228
  0
ARC
  5
3C6
330
22
100
AcDbEntity
  8
0
  6
Continuous
 62
     7
100
AcDbCircle
 10
-475.0238952636719
 20
380.6069030761719
 30
0.0
 40
3.283333301544189
100
AcDbArc
 50
171.8286258693895
 51
8.171374130610477
  0
ARC
  5
3C7
330
22
100
AcDbEntity
  8
0
  6
Continuous
 62
     7
100
AcDbCircle
 10
-463.5238952636719
 20
378.5903930664063
 30
0.0
 40
3.283333301544189
100
AcDbArc
 50
351.8286258693902
 51
188.1713741306112
  0
ARC
  5
3C8
330
22
100
AcDbEntity
  8
0
  6
Continuous
 62
     7
100
AcDbCircle
 10
-486.5238952636718
 20
394.6600646972656
 30
0.0
 40
3.283333301544189
100
AcDbArc
 50
171.8286258693895
 51
8.171374130610477
  0
ARC
  5
3C9
330
22
100
AcDbEntity
  8
0
  6
Continuous
 62
     7
100
AcDbCircle
 10
-498.0238952636718
 20
396.8934020996094
 30
0.0
 40
3.283333301544189
100
AcDbArc
 50
351.8286258693902
 51
188.1713741306112
  0
ARC
  5
3CA
330
22
100
AcDbEntity
  8
0
  6
Continuous
 62
     7
100
AcDbCircle
 10
-486.5238952636718
 20
403.0934143066406
 30
0.0
 40
3.283333301544189
100
AcDbArc
 50
351.8286258693902
 51
188.1713741306112
  0
ARC
  5
3CB
330
22
100
AcDbEntity
  8
0
  6
Continuous
 62
     7
100
AcDbCircle
 10
-463.5238952636719
 20
398.7933959960938
 30
0.0
 40
3.283333301544189
100
AcDbArc
 50
351.8291530098786
 51
188.1708469901228
  0
ARC
  5
3CC
330
22
100
AcDbEntity
  8
0
  6
Continuous
 62
     7
100
AcDbCircle
 10
-498.0238952636718
 20
436.8934020996094
 30
0.0
 40
3.283333301544189
100
AcDbArc
 50
351.8286258693902
 51
188.1713741306112
  0
ARC
  5
3CD
330
22
100
AcDbEntity
  8
0
  6
Continuous
 62
     7
100
AcDbCircle
 10
-509.5238952636718
 20
436.8934020996094
 30
0.0
 40
3.283333301544189
100
AcDbArc
 50
351.8286258693902
 51
188.1714498244951
  0
ARC
  5
3CE
330
22
100
AcDbEntity
  8
0
  6
Continuous
 62
     7
100
AcDbCircle
 10
-521.0238647460938
 20
436.8934020996094
 30
0.0
 40
3.283333301544189
100
AcDbArc
 50
351.8286258693902
 51
188.1713741306112
  0
ARC
  5
3CF
330
22
100
AcDbEntity
  8
0
  6
Continuous
 62
     7
100
AcDbCircle
 10
-486.5238952636718
 20
436.8934020996094
 30
0.0
 40
3.283333301544189
100
AcDbArc
 50
351.8286258693902
 51
188.1713741306112
  0
ARC
  5
3D0
330
22
100
AcDbEntity
  8
0
  6
Continuous
 62
     7
100
AcDbCircle
 10
-475.0238952636719
 20
436.8934020996094
 30
0.0
 40
3.283333301544189
100
AcDbArc
 50
351.8286258693902
 51
188.1713741306112
  0
ARC
  5
3D1
330
22
100
AcDbEntity
  8
0
  6
Continuous
 62
     7
100
AcDbCircle
 10
-463.5238952636719
 20
436.8934020996094
 30
0.0
 40
3.283333301544189
100
AcDbArc
 50
351.8286258693902
 51
188.1713741306112
  0
CIRCLE
  5
3D2
330
22
100
AcDbEntity
  8
0
  6
Continuous
 62
     7
100
AcDbCircle
 10
-509.8970642089843
 20
512.5371704101564
 30
0.0
 40
5.5
  0
ARC
  5
3D3
330
22
100
AcDbEntity
  8
0
  6
Continuous
 62
     7
100
AcDbCircle
 10
-486.5238952636718
 20
382.9903869628907
 30
0.0
 40
3.283333301544189
100
AcDbArc
 50
351.8286258693902
 51
188.1713741306112
  0
ARC
  5
3D4
330
22
100
AcDbEntity
  8
0
  6
Continuous
 62
     7
100
AcDbCircle
 10
-463.5238952636719
 20
390.2600708007813
 30
0.0
 40
3.283333301544189
100
AcDbArc
 50
171.8286258693895
 51
8.171374130610477
  0
ARC
  5
3D5
330
22
100
AcDbEntity
  8
0
  6
Continuous
 62
     7
100
AcDbCircle
 10
-463.5238952636719
 20
410.3600769042968
 30
0.0
 40
3.283333301544189
100
AcDbArc
 50
171.8286258693895
 51
8.171374130610477
  0
ARC
  5
3D6
330
22
100
AcDbEntity
  8
0
  6
Continuous
 62
     7
100
AcDbCircle
 10
-498.0238952636718
 20
408.4600830078125
 30
0.0
 40
3.283333301544189
100
AcDbArc
 50
171.8291530098779
 51
8.170846990122083
  0
ARC
  5
3D7
330
22
100
AcDbEntity
  8
0
  6
Continuous
 62
     7
100
AcDbCircle
 10
-475.0238952636719
 20
411.8934020996094
 30
0.0
 40
3.283333301544189
100
AcDbArc
 50
351.8286258693902
 51
188.1713741306112
  0
ARC
  5
3D8
330
22
100
AcDbEntity
  8
0
  6
Continuous
 62
     7
100
AcDbCircle
 10
-486.5238952636718
 20
414.6600646972656
 30
0.0
 40
3.283333301544189
100
AcDbArc
 50
171.8286258693895
 51
8.171374130610477
  0
ARC
  5
3D9
330
22
100
AcDbEntity
  8
0
  6
Continuous
 62
     7
100
AcDbCircle
 10
-486.5238952636718
 20
360.9267272949219
 30
0.0
 40
3.283333301544189
100
AcDbArc
 50
171.8286258693895
 51
8.171374130610477
  0
ARC
  5
3DA
330
22
100
AcDbEntity
  8
0
  6
Continuous
 62
     7
100
AcDbCircle
 10
-475.0238952636719
 20
355.5038757324219
 30
0.0
 40
3.283333301544189
100
AcDbArc
 50
171.8286258693895
 51
8.171374130610477
  0
ARC
  5
3DB
330
22
100
AcDbEntity
  8
0
  6
Continuous
 62
     7
100
AcDbCircle
 10
-463.5238952636719
 20
351.7708435058594
 30
0.0
 40
3.283333301544189
100
AcDbArc
 50
171.8286258693895
 51
8.171374130610477
  0
ARC
  5
3DC
330
22
100
AcDbEntity
  8
0
  6
Continuous
 62
     7
100
AcDbCircle
 10
-475.0238952636719
 20
368.9372253417969
 30
0.0
 40
3.283333301544189
100
AcDbArc
 50
351.8286258693902
 51
188.1713741306112
  0
ARC
  5
3DD
330
22
100
AcDbEntity
  8
0
  6
Continuous
 62
     7
100
AcDbCircle
 10
-498.0238952636718
 20
368.5398559570313
 30
0.0
 40
3.283333301544189
100
AcDbArc
 50
171.8291530098779
 51
8.170846990122083
  0
ARC
  5
3DE
330
22
100
AcDbEntity
  8
0
  6
Continuous
 62
     7
100
AcDbCircle
 10
-509.5238952636718
 20
383.9600830078125
 30
0.0
 40
3.283333301544189
100
AcDbArc
 50
171.8290773207439
 51
8.170846990122083
  0
ARC
  5
3DF
330
22
100
AcDbEntity
  8
0
  6
Continuous
 62
     7
100
AcDbCircle
 10
-509.5238952636718
 20
413.4600830078125
 30
0.0
 40
3.283333301544189
100
AcDbArc
 50
171.8290773207439
 51
8.170846990122083
  0
CIRCLE
  5
3E0
330
22
100
AcDbEntity
  8
0
  6
Continuous
 62
     7
100
AcDbCircle
 10
-509.8839416503905
 20
373.8031921386719
 30
0.0
 40
5.5
  0
ARC
  5
3E1
330
22
100
AcDbEntity
  8
0
  6
Continuous
 62
     7
100
AcDbCircle
 10
-509.5238952636718
 20
401.8934020996093
 30
0.0
 40
3.283333301544189
100
AcDbArc
 50
351.8286258693902
 51
188.1714498244951
  0
CIRCLE
  5
3E2
330
22
100
AcDbEntity
  8
0
  6
Continuous
 62
     7
100
AcDbCircle
 10
-509.8839416503905
 20
373.8031921386719
 30
0.0
 40
5.0
  0
ARC
  5
3E3
330
22
100
AcDbEntity
  8
0
  6
Continuous
 62
     7
100
AcDbCircle
 10
-521.0238647460938
 20
394.1333312988281
 30
0.0
 40
3.283333301544189
100
AcDbArc
 50
171.8286258693895
 51
8.171374130610477
  0
ARC
  5
3E4
330
22
100
AcDbEntity
  8
0
  6
Continuous
 62
     7
100
AcDbCircle
 10
-521.0238647460938
 20
416.8934020996093
 30
0.0
 40
3.283333301544189
100
AcDbArc
 50
351.8286258693902
 51
188.1713741306112
  0
ARC
  5
3E5
330
22
100
AcDbEntity
  8
0
  6
Continuous
 62
     7
100
AcDbCircle
 10
-360.0238952636719
 20
469.4600830078124
 30
0.0
 40
3.283333301544189
100
AcDbArc
 50
171.8291530098779
 51
8.170846990122083
  0
ARC
  5
3E6
330
22
100
AcDbEntity
  8
0
  6
Continuous
 62
     7
100
AcDbCircle
 10
-360.0238952636719
 20
457.8934020996094
 30
0.0
 40
3.283333301544189
100
AcDbArc
 50
351.8286258693902
 51
188.1713741306112
  0
ARC
  5
3E7
330
22
100
AcDbEntity
  8
0
  6
Continuous
 62
     7
100
AcDbCircle
 10
-371.5238952636719
 20
413.4600830078125
 30
0.0
 40
3.283333301544189
100
AcDbArc
 50
171.8291530098779
 51
8.170846990122083
  0
ARC
  5
3E8
330
22
100
AcDbEntity
  8
0
  6
Continuous
 62
     7
100
AcDbCircle
 10
-371.5238952636719
 20
401.8934020996093
 30
0.0
 40
3.283333301544189
100
AcDbArc
 50
351.8286258693902
 51
188.1713741306112
  0
ARC
  5
3E9
330
22
100
AcDbEntity
  8
0
  6
Continuous
 62
     7
100
AcDbCircle
 10
-360.0238952636719
 20
394.1333312988281
 30
0.0
 40
3.283333301544189
100
AcDbArc
 50
171.8286258693895
 51
8.171374130610477
  0
ARC
  5
3EA
330
22
100
AcDbEntity
  8
0
  6
Continuous
 62
     7
100
AcDbCircle
 10
-360.0238952636719
 20
416.8934020996093
 30
0.0
 40
3.283333301544189
100
AcDbArc
 50
351.8286258693902
 51
188.1713741306112
  0
ARC
  5
3EB
330
22
100
AcDbEntity
  8
0
  6
Continuous
 62
     7
100
AcDbCircle
 10
-360.0238952636719
 20
436.8934020996094
 30
0.0
 40
3.283333301544189
100
AcDbArc
 50
351.8286258693902
 51
188.1713741306112
  0
ARC
  5
3EC
330
22
100
AcDbEntity
  8
0
  6
Continuous
 62
     7
100
AcDbCircle
 10
-371.5238952636719
 20
436.8934020996094
 30
0.0
 40
3.283333301544189
100
AcDbArc
 50
351.8286258693902
 51
188.1713741306112
  0
ARC
  5
3ED
330
22
100
AcDbEntity
  8
0
  6
Continuous
 62
     7
100
AcDbCircle
 10
-371.5238952636719
 20
502.3934020996093
 30
0.0
 40
3.283333301544189
100
AcDbArc
 50
8.171374130610477
 51
171.8286258693895
  0
CIRCLE
  5
3EE
330
22
100
AcDbEntity
  8
0
  6
Continuous
 62
     7
100
AcDbCircle
 10
-371.1630859375
 20
512.55029296875
 30
0.0
 40
5.0
  0
CIRCLE
  5
3EF
330
22
100
AcDbEntity
  8
0
  6
Continuous
 62
     7
100
AcDbCircle
 10
-371.1630859375
 20
512.55029296875
 30
0.0
 40
5.5
  0
ARC
  5
3F0
330
22
100
AcDbEntity
  8
0
  6
Continuous
 62
     7
100
AcDbCircle
 10
-371.5238952636719
 20
449.4600830078125
 30
0.0
 40
3.283333301544189
100
AcDbArc
 50
171.8291530098779
 51
8.170846990122083
  0
ARC
  5
3F1
330
22
100
AcDbEntity
  8
0
  6
Continuous
 62
     7
100
AcDbCircle
 10
-371.5238952636719
 20
484.4600830078125
 30
0.0
 40
3.283333301544189
100
AcDbArc
 50
171.8291530098779
 51
8.170846990122083
  0
ARC
  5
3F2
330
22
100
AcDbEntity
  8
0
  6
Continuous
 62
     7
100
AcDbCircle
 10
-371.5238952636719
 20
472.8934020996093
 30
0.0
 40
3.283333301544189
100
AcDbArc
 50
351.8286258693902
 51
188.1713741306112
  0
ARC
  5
3F3
330
22
100
AcDbEntity
  8
0
  6
Continuous
 62
     7
100
AcDbCircle
 10
-360.0238952636719
 20
492.2201232910156
 30
0.0
 40
3.283333301544189
100
AcDbArc
 50
8.171374130610477
 51
171.8286258693895
  0
ARC
  5
3F4
330
22
100
AcDbEntity
  8
0
  6
Continuous
 62
     7
100
AcDbCircle
 10
-360.0238952636719
 20
449.4600830078125
 30
0.0
 40
3.283333301544189
100
AcDbArc
 50
171.8291530098779
 51
8.170846990122083
  0
ARC
  5
3F5
330
22
100
AcDbEntity
  8
0
  6
Continuous
 62
     7
100
AcDbCircle
 10
-531.2738647460938
 20
413.4330444335938
 30
0.0
 40
2.0
100
AcDbArc
 50
198.1460464023002
 51
0.0
  0
ARC
  5
3F6
330
22
100
AcDbEntity
  8
0
  6
Continuous
 62
     7
100
AcDbCircle
 10
-532.5238647460938
 20
436.8934020996094
 30
0.0
 40
3.283333301544189
100
AcDbArc
 50
351.8286258693902
 51
188.1713741306112
  0
ARC
  5
3F7
330
22
100
AcDbEntity
  8
0
  6
Continuous
 62
     7
100
AcDbCircle
 10
-440.5238952636718
 20
443.1767272949218
 30
0.0
 40
97.5
100
AcDbArc
 50
161.8532241216781
 51
167.6670932247612
  0
ARC
  5
3F8
330
22
100
AcDbEntity
  8
0
  6
Continuous
 62
     7
100
AcDbCircle
 10
-531.2738647460938
 20
472.9204406738281
 30
0.0
 40
2.0
100
AcDbArc
 50
0.0
 51
161.8539535977006
  0
ARC
  5
3F9
330
22
100
AcDbEntity
  8
0
  6
Continuous
 62
     7
100
AcDbCircle
 10
-532.5238647460938
 20
449.4600830078125
 30
0.0
 40
3.283333301544189
100
AcDbArc
 50
171.8291530098779
 51
8.170846990122083
  0
CIRCLE
  5
3FA
330
22
100
AcDbEntity
  8
0
  6
Continuous
 62
     7
100
AcDbCircle
 10
-371.1499633789063
 20
373.8163146972656
 30
0.0
 40
5.5
  0
ARC
  5
3FB
330
22
100
AcDbEntity
  8
0
  6
Continuous
 62
     7
100
AcDbCircle
 10
-371.5238952636719
 20
383.9600830078125
 30
0.0
 40
3.283333301544189
100
AcDbArc
 50
171.8291530098779
 51
8.170846990122083
  0
CIRCLE
  5
3FC
330
22
100
AcDbEntity
  8
0
  6
Continuous
 62
     7
100
AcDbCircle
 10
-371.1499633789063
 20
373.8163146972656
 30
0.0
 40
5.0
  0
ARC
  5
3FD
330
22
100
AcDbEntity
  8
0
  6
Continuous
 62
     7
100
AcDbCircle
 10
-521.0238647460938
 20
428.4600830078125
 30
0.0
 40
3.283333301544189
100
AcDbArc
 50
171.8291530098779
 51
8.170846990122083
  0
ARC
  5
3FE
330
22
100
AcDbEntity
  8
0
  6
Continuous
 62
     7
100
AcDbCircle
 10
-440.5238952636718
 20
443.1767272949218
 30
0.0
 40
97.5
100
AcDbArc
 50
192.3329067752395
 51
198.1467588366862
  0
ARC
  5
3FF
330
22
100
AcDbEntity
  8
0
  6
Continuous
 62
     7
100
AcDbCircle
 10
-475.0238952636719
 20
423.4600830078124
 30
0.0
 40
3.283333301544189
100
AcDbArc
 50
171.8291530098779
 51
8.170846990122083
  0
ARC
  5
400
330
22
100
AcDbEntity
  8
0
  6
Continuous
 62
     7
100
AcDbCircle
 10
-360.0238952636719
 20
428.4600830078125
 30
0.0
 40
3.283333301544189
100
AcDbArc
 50
171.8291530098779
 51
8.170846990122083
  0
ARC
  5
401
330
22
100
AcDbEntity
  8
0
  6
Continuous
 62
     7
100
AcDbCircle
 10
-406.0238952636718
 20
423.4600830078124
 30
0.0
 40
3.283333301544189
100
AcDbArc
 50
171.8291530098779
 51
8.170846990122083
  0
ARC
  5
402
330
22
100
AcDbEntity
  8
0
  6
Continuous
 62
     7
100
AcDbCircle
 10
-440.5238952636718
 20
443.1767272949218
 30
0.0
 40
97.5
100
AcDbArc
 50
341.8532411633152
 51
347.6670970552317
  0
CIRCLE
  5
403
330
22
100
AcDbEntity
  8
0
  6
Continuous
 62
     7
100
AcDbCircle
 10
-440.5238952636718
 20
443.1767272949218
 30
0.0
 40
115.0
  0
CIRCLE
  5
404
330
22
100
AcDbEntity
  8
0
  6
DASHED
 62
     7
100
AcDbCircle
 10
-440.8881225585938
 20
443.1767272949218
 30
0.0
 40
111.0
  0
ARC
  5
405
330
22
100
AcDbEntity
  8
0
  6
Continuous
 62
     7
100
AcDbCircle
 10
-452.0238952636718
 20
436.8934020996094
 30
0.0
 40
3.283333301544189
100
AcDbArc
 50
351.8286258693902
 51
188.1713741306112
  0
ARC
  5
406
330
22
100
AcDbEntity
  8
0
  6
Continuous
 62
     7
100
AcDbCircle
 10
-452.0238952636718
 20
349.6406555175781
 30
0.0
 40
3.283333301544189
100
AcDbArc
 50
171.8286258693895
 51
8.171374130610477
  0
ARC
  5
407
330
22
100
AcDbEntity
  8
0
  6
Continuous
 62
     7
100
AcDbCircle
 10
-452.0238952636718
 20
378.5770263671875
 30
0.0
 40
3.283333301544189
100
AcDbArc
 50
171.8286258693895
 51
8.171374130610477
  0
ARC
  5
408
330
22
100
AcDbEntity
  8
0
  6
Continuous
 62
     7
100
AcDbCircle
 10
-452.0238952636718
 20
367.0103759765625
 30
0.0
 40
3.283333301544189
100
AcDbArc
 50
351.8286258693902
 51
188.1713741306112
  0
ARC
  5
409
330
22
100
AcDbEntity
  8
0
  6
Continuous
 62
     7
100
AcDbCircle
 10
-452.0238952636718
 20
408.0103759765624
 30
0.0
 40
3.283333301544189
100
AcDbArc
 50
351.8286258693902
 51
188.1713741306112
  0
ARC
  5
40A
330
22
100
AcDbEntity
  8
0
  6
Continuous
 62
     7
100
AcDbCircle
 10
-452.0238952636718
 20
419.6100769042969
 30
0.0
 40
3.283333301544189
100
AcDbArc
 50
171.8286258693895
 51
8.171374130610477
  0
ARC
  5
40B
330
22
100
AcDbEntity
  8
0
  6
Continuous
 62
     7
100
AcDbCircle
 10
-452.0238952636718
 20
536.7128295898438
 30
0.0
 40
3.283333301544189
100
AcDbArc
 50
351.8286258693902
 51
188.1713741306112
  0
ARC
  5
40C
330
22
100
AcDbEntity
  8
0
  6
Continuous
 62
     7
100
AcDbCircle
 10
-452.0238952636718
 20
519.3430786132814
 30
0.0
 40
3.283333301544189
100
AcDbArc
 50
171.8286258693895
 51
8.171374130610477
  0
ARC
  5
40D
330
22
100
AcDbEntity
  8
0
  6
Continuous
 62
     7
100
AcDbCircle
 10
-452.0238952636718
 20
478.3431091308593
 30
0.0
 40
3.283333301544189
100
AcDbArc
 50
171.8286258693895
 51
8.171374130610477
  0
ARC
  5
40E
330
22
100
AcDbEntity
  8
0
  6
Continuous
 62
     7
100
AcDbCircle
 10
-452.0238952636718
 20
449.4600830078125
 30
0.0
 40
3.283333301544189
100
AcDbArc
 50
171.8291530098779
 51
8.170846990122083
  0
ARC
  5
40F
330
22
100
AcDbEntity
  8
0
  6
Continuous
 62
     7
100
AcDbCircle
 10
-452.0238952636718
 20
507.7764282226563
 30
0.0
 40
3.283333301544189
100
AcDbArc
 50
351.8291530098786
 51
188.1708469901228
  0
ARC
  5
410
330
22
100
AcDbEntity
  8
0
  6
Continuous
 62
     7
100
AcDbCircle
 10
-452.0238952636718
 20
466.743408203125
 30
0.0
 40
3.283333301544189
100
AcDbArc
 50
351.8286258693902
 51
188.1713741306112
  0
CIRCLE
  5
411
330
22
100
AcDbEntity
  8
0
  6
Continuous
 62
     7
100
AcDbCircle
 10
-440.5238952636718
 20
443.1767272949218
 30
0.0
 40
105.0
  0
CIRCLE
  5
412
330
22
100
AcDbEntity
  8
0
  6
Continuous
 62
     7
100
AcDbCircle
 10
-440.5238952636718
 20
443.1767272949218
 30
0.0
 40
104.5
  0
CIRCLE
  5
413
330
22
100
AcDbEntity
  8
0
  6
DASHED
 62
     7
100
AcDbCircle
 10
-440.5238952636718
 20
443.1767272949218
 30
0.0
 40
52.5
  0
LWPOLYLINE
  5
414
330
22
100
AcDbEntity
  8
0
  6
Continuous
 62
     7
100
AcDbPolyline
 90
       17
 70
     0
 43
0.0
 10
-468.9250926713301
 20
239.7786407470441
 42
0.0401679067373623
 10
-469.0962368094006
 20
240.1878730205808
 42
0.0401679067373623
 10
-469.336479495957
 20
240.5865748192912
 42
0.0401679067373623
 10
-469.6396387416331
 20
240.9644866413564
 42
0.0401679067373623
 10
-469.9979135712577
 20
241.3118839582226
 42
0.0401679067373623
 10
-470.4020847606436
 20
241.6198274487837
 42
0.0401679067373623
 10
-470.8417520681408
 20
241.8803930283934
 42
0.0401679067373623
 10
-471.3056018564508
 20
242.0868757535409
 42
0.0401679067373623
 10
-471.7816982181801
 20
242.233962355259
 42
0.0401679067373623
 10
-472.2577901138173
 20
242.3178679615889
 42
0.0401679067373623
 10
-472.721626618774
 20
242.3364334909224
 42
0.0401679067373623
 10
-473.1612721674676
 20
242.2891812100698
 42
0.0401679067373623
 10
-473.5654136825028
 20
242.1773270274192
 42
0.0401679067373623
 10
-473.9236516858182
 20
242.0037492048548
 42
0.0401679067373623
 10
-474.2267679008507
 20
241.7729142935486
 42
0.0401679067373623
 10
-474.4669624597052
 20
241.4907621994658
 42
0.0401679067373623
 10
-474.638054611451
 20
241.1645533361079
 42
-1.0
  0
TEXT
  5
427
330
22
100
AcDbEntity
  8
0
  6
Continuous
 62
     7
100
AcDbText
 10
-359.2821893692017
 20
19.5162467956543
 30
0.0
 40
7.0
  1
DL-CS100
 41
1.093228423823388
100
AcDbText
  0
DIMENSION
  5
428
330
22
100
AcDbEntity
  8
0
  6
Continuous
 62
     7
100
AcDbDimension
  2
*D1
 10
-378.3881225585938
 20
35.54355621337891
 30
0.0
 11
-440.8881225585938
 21
35.54355621337891
 31
0.0
 71
     5
 42
-1.0
  3
DIMSTYLE1
100
AcDbAlignedDimension
 13
-503.3881225585938
 23
62.5848388671875
 33
0.0
 14
-378.3881225585938
 24
62.5848388671875
 34
0.0
100
AcDbRotatedDimension
  0
DIMENSION
  5
429
330
22
100
AcDbEntity
  8
0
  6
Continuous
 62
     7
100
AcDbDimension
  2
*D2
 10
-570.8431396484375
 20
146.5848388671875
 30
0.0
 11
-570.8431396484375
 21
104.0848388671875
 31
0.0
 71
     5
 42
-1.0
  3
DIMSTYLE2
100
AcDbAlignedDimension
 13
-502.3881225585937
 23
61.5848388671875
 33
0.0
 14
-500.8881225585938
 24
146.5848388671875
 34
0.0
 50
90.0
100
AcDbRotatedDimension
  0
DIMENSION
  5
42A
330
22
100
AcDbEntity
  8
0
  6
Continuous
 62
     7
100
AcDbDimension
  2
*D3
 10
-529.2880859374999
 20
81.08483886718749
 30
0.0
 11
-529.2880859374999
 21
92.08483886718751
 31
0.0
 71
     5
 42
-1.0
  3
DIMSTYLE3
100
AcDbAlignedDimension
 13
-551.3881225585938
 23
103.0848388671875
 33
0.0
 14
-505.3880615234374
 24
81.08483886718749
 34
0.0
 50
90.0
100
AcDbRotatedDimension
  0
DIMENSION
  5
42B
330
22
100
AcDbEntity
  8
0
  6
Continuous
 62
     7
100
AcDbDimension
  2
*D4
 10
-521.3881225585939
 20
71.90570068359375
 30
0.0
 11
-512.3881225585939
 21
71.90570068359375
 31
0.0
 71
     5
 42
-1.0
  3
DIMSTYLE4
100
AcDbAlignedDimension
 13
-503.3881225585938
 23
62.5848388671875
 33
0.0
 14
-521.3881225585939
 24
101.6299743652344
 34
0.0
100
AcDbRotatedDimension
  0
INSERT
  5
42C
330
22
100
AcDbEntity
  8
0
  6
Continuous
 62
     7
100
AcDbBlockReference
  2
KOZU0001
 10
-511.6137390136718
 20
98.68498992919922
 30
0.0
  0
INSERT
  5
42D
330
22
100
AcDbEntity
  8
0
  6
Continuous
 62
     7
100
AcDbBlockReference
  2
KOZU0002
 10
-385.004638671875
 20
81.31246948242187
 30
0.0
  0
DIMENSION
  5
42E
330
22
100
AcDbEntity
  8
0
  6
Continuous
 62
     7
100
AcDbDimension
  2
*D5
 10
-291.129150390625
 20
279.5848388671875
 30
0.0
 11
-291.129150390625
 21
193.0848388671875
 31
0.0
 71
     5
 42
-1.0
  3
DIMSTYLE5
100
AcDbAlignedDimension
 13
-331.8881225585938
 23
106.5848388671875
 33
0.0
 14
-326.8881225585938
 24
279.5848388671875
 34
0.0
 50
90.0
100
AcDbRotatedDimension
  0
DIMENSION
  5
42F
330
22
100
AcDbEntity
  8
0
  6
Continuous
 62
     7
100
AcDbDimension
  2
*D6
 10
-291.129150390625
 20
103.0848388671875
 30
0.0
 11
-291.129150390625
 21
90.80574035644531
 31
0.0
 71
     5
 42
-1.0
  3
DIMSTYLE6
100
AcDbAlignedDimension
 13
-288.8431396484375
 23
106.5848388671875
 33
0.0
 14
-330.3881225585938
 24
103.0848388671875
 34
0.0
 50
90.0
100
AcDbRotatedDimension
  0
DIMENSION
  5
430
330
22
100
AcDbEntity
  8
0
  6
Continuous
 62
     7
100
AcDbDimension
  2
*D7
 10
-305.8721313476563
 20
204.5848388671875
 30
0.0
 11
-305.8721313476563
 21
242.0848388671875
 31
0.0
 71
     5
 42
-1.0
  3
DIMSTYLE7
100
AcDbAlignedDimension
 13
-288.8431396484375
 23
279.5848388671875
 33
0.0
 14
-380.3881225585938
 24
204.5848388671875
 34
0.0
 50
90.0
100
AcDbRotatedDimension
  0
DIMENSION
  5
431
330
22
100
AcDbEntity
  8
0
  6
Continuous
 62
     7
100
AcDbDimension
  2
*D8
 10
-305.8721313476563
 20
146.5848388671875
 30
0.0
 11
-305.8721313476563
 21
126.5848388671875
 31
0.0
 71
     5
 42
-1.0
  3
DIMSTYLE8
100
AcDbAlignedDimension
 13
-288.8431396484375
 23
106.5848388671875
 33
0.0
 14
-380.8881225585938
 24
146.5848388671875
 34
0.0
 50
90.0
100
AcDbRotatedDimension
  0
DIMENSION
  5
432
330
22
100
AcDbEntity
  8
0
  6
Continuous
 62
     7
100
AcDbDimension
  2
*D9
 10
-418.5801391601563
 20
226.5848388671875
 30
0.0
 11
-418.5801391601563
 21
176.5848388671875
 31
0.0
 71
     5
 42
-1.0
  3
DIMSTYLE9
100
AcDbAlignedDimension
 13
-440.8881225585938
 23
126.5848388671875
 33
0.0
 14
-416.8703918457031
 24
226.5848388671875
 34
0.0
 50
90.0
100
AcDbRotatedDimension
  0
DIMENSION
  5
433
330
22
100
AcDbEntity
  8
0
  6
Continuous
 62
     7
100
AcDbDimension
  2
*D10
 10
-408.8342285156249
 20
176.5848388671875
 30
0.0
 11
-408.8342285156249
 21
151.5848388671875
 31
0.0
 71
     5
 42
-1.0
  3
DIMSTYLE10
100
AcDbAlignedDimension
 13
-385.8881225585938
 23
126.5848388671875
 33
0.0
 14
-385.8881225585938
 24
176.5848388671875
 34
0.0
 50
90.0
100
AcDbRotatedDimension
  0
DIMENSION
  5
434
330
22
100
AcDbEntity
  8
0
  6
Continuous
 62
     7
100
AcDbDimension
  2
*D11
 10
-531.2921153740981
 20
372.564191453294
 30
0.0
 11
-329.7398986816406
 21
529.3604125976563
 31
0.0
 70
     3
 71
     5
 42
-1.0
  3
DIMSTYLE11
100
AcDbDiametricDimension
 15
-349.7556751532455
 25
513.7892631365498
 35
0.0
 40
0.0
  0
DIMENSION
  5
435
330
22
100
AcDbEntity
  8
0
  6
Continuous
 62
     7
100
AcDbDimension
  2
*D12
 10
-537.9622934655865
 20
405.4141988328984
 30
0.0
 11
-310.6562805175781
 21
493.5072937011718
 31
0.0
 70
     3
 71
     5
 42
-1.0
  3
DIMSTYLE12
100
AcDbDiametricDimension
 15
-343.0854970617573
 25
480.9392557569453
 35
0.0
 40
0.0
  0
DIMENSION
  5
436
330
22
100
AcDbEntity
  8
0
  6
Continuous
 62
     7
100
AcDbDimension
  2
*D13
 10
-538.3312196489725
 20
390.0180701501537
 30
0.0
 11
-317.7507629394531
 21
510.3525085449218
 31
0.0
 70
     3
 71
     5
 42
-1.0
  3
DIMSTYLE13
100
AcDbDiametricDimension
 15
-343.445025468215
 25
496.3353844396902
 35
0.0
 40
0.0
  0
ENDSEC
  0
SECTION
  2
OBJECTS
  0
DICTIONARY
  5
C
330
0
100
AcDbDictionary
281
     1
  3
ACAD_COLOR
350
1B
  3
ACAD_GROUP
350
D
  3
ACAD_LAYOUT
350
19
  3
ACAD_MATERIAL
350
1A
  3
ACAD_MLINESTYLE
350
16
  3
ACAD_PLOTSETTINGS
350
18
  3
ACAD_PLOTSTYLENAME
350
E
  3
ACAD_TABLESTYLE
350
1C
  3
AcDbVariableDictionary
350
442
  0
DICTIONARY
  5
1B
102
{ACAD_REACTORS
330
C
102
}
330
C
100
AcDbDictionary
281
     1
  0
DICTIONARY
  5
D
102
{ACAD_REACTORS
330
C
102
}
330
C
100
AcDbDictionary
281
     1
  0
DICTIONARY
  5
19
102
{ACAD_REACTORS
330
C
102
}
330
C
100
AcDbDictionary
281
     1
  3
Model
350
25
  3
レイアウト1
350
21
  0
DICTIONARY
  5
1A
102
{ACAD_REACTORS
330
C
102
}
330
C
100
AcDbDictionary
281
     1
  0
DICTIONARY
  5
16
102
{ACAD_REACTORS
330
C
102
}
330
C
100
AcDbDictionary
281
     1
  3
Standard
350
17
  0
DICTIONARY
  5
18
102
{ACAD_REACTORS
330
C
102
}
330
C
100
AcDbDictionary
281
     1
  0
ACDBDICTIONARYWDFLT
  5
E
102
{ACAD_REACTORS
330
C
102
}
330
C
100
AcDbDictionary
281
     1
  3
Normal
350
F
100
AcDbDictionaryWithDefault
340
F
  0
DICTIONARY
  5
1C
102
{ACAD_REACTORS
330
C
102
}
330
C
100
AcDbDictionary
281
     1
  3
Standard
350
1D
  0
DICTIONARY
  5
442
102
{ACAD_REACTORS
330
C
102
}
330
C
100
AcDbDictionary
281
     1
  3
CTABLESTYLE
350
443
  0
LAYOUT
  5
25
102
{ACAD_REACTORS
330
19
102
}
330
19
100
AcDbPlotSettings
  1

  2
PDF reDirect v2
  4
User120
  6

 40
3.174999952316284
 41
3.174999952316284
 42
3.17498779296875
 43
3.17498779296875
 44
594.0
 45
841.0
 46
0.0
 47
0.0
 48
0.0
 49
0.0
140
0.0
141
0.0
142
1.0
143
1.0
 70
 11952
 72
     1
 73
     1
 74
     2
  7
C:\Users\ck\AppData\Roaming\Autodesk\AutoCAD 2005\R16.1\jpn\Plot Styles\black.ctb
 75
    16
147
1.0
 76
     0
 77
     2
 78
   300
148
839.0
149
0.0
100
AcDbLayout
  1
Model
 70
     1
 71
     0
 10
0.0
 20
0.0
 11
12.0
 21
9.0
 12
0.0
 22
0.0
 32
0.0
 14
0.0
 24
0.0
 34
0.0
 15
0.0
 25
0.0
 35
0.0
146
0.0
 13
0.0
 23
0.0
 33
0.0
 16
1.0
 26
0.0
 36
0.0
 17
0.0
 27
1.0
 37
0.0
 76
     0
330
22
1001
ACAD_PSEXT
1000
PDF reDirect v2
1000
PDF reDirect Pro
1000
PDF_REDIRECT_PORT:
1000
PDF reDirect provided by EXP Systems
1070
     0
  0
LAYOUT
  5
21
102
{ACAD_REACTORS
330
19
102
}
330
19
100
AcDbPlotSettings
  1

  2
PDF reDirect v2
  4

  6

 40
0.0
 41
0.0
 42
0.0
 43
0.0
 44
0.0
 45
0.0
 46
0.0
 47
0.0
 48
0.0
 49
0.0
140
0.0
141
0.0
142
1.0
143
1.0
 70
   688
 72
     0
 73
     0
 74
     5
  7
C:\Users\ck\AppData\Roaming\Autodesk\AutoCAD 2005\R16.1\jpn\Plot Styles\black.ctb
 75
    16
147
1.0
 76
     0
 77
     2
 78
   300
148
0.0
149
0.0
100
AcDbLayout
  1
レイアウト1
 70
     1
 71
     1
 10
-839.0
 20
0.0
 11
0.0
 21
591.0
 12
0.0
 22
0.0
 32
0.0
 14
1.000000000000000E+20
 24
1.000000000000000E+20
 34
1.000000000000000E+20
 15
-1.000000000000000E+20
 25
-1.000000000000000E+20
 35
-1.000000000000000E+20
146
0.0
 13
0.0
 23
0.0
 33
0.0
 16
1.0
 26
0.0
 36
0.0
 17
0.0
 27
1.0
 37
0.0
 76
     0
330
1E
  0
MLINESTYLE
  5
17
102
{ACAD_REACTORS
330
16
102
}
330
16
100
AcDbMlineStyle
  2
STANDARD
 70
     0
  3

 62
   256
 51
90.0
 52
90.0
 71
     2
 49
0.5
 62
   256
  6
BYLAYER
 49
-0.5
 62
   256
  6
BYLAYER
  0
ACDBPLACEHOLDER
  5
F
102
{ACAD_REACTORS
330
E
102
}
330
E
  0
TABLESTYLE
  5
1D
102
{ACAD_REACTORS
330
1C
102
}
330
1C
100
AcDbTableStyle
  3
Standard
 70
     0
 71
     0
 40
0.06
 41
0.06
280
     0
281
     0
  7
STANDARD
140
0.18
170
     2
 62
     0
 63
     7
283
     0
274
    -2
284
     1
 64
     0
275
    -2
285
     1
 65
     0
276
    -2
286
     1
 66
     0
277
    -2
287
     1
 67
     0
278
    -2
288
     1
 68
     0
279
    -2
289
     1
 69
     0
  7
STANDARD
140
0.25
170
     5
 62
     0
 63
     7
283
     0
274
    -2
284
     1
 64
     0
275
    -2
285
     1
 65
     0
276
    -2
286
     1
 66
     0
277
    -2
287
     1
 67
     0
278
    -2
288
     1
 68
     0
279
    -2
289
     1
 69
     0
  7
STANDARD
140
0.18
170
     5
 62
     0
 63
     7
283
     0
274
    -2
284
     1
 64
     0
275
    -2
285
     1
 65
     0
276
    -2
286
     1
 66
     0
277
    -2
287
     1
 67
     0
278
    -2
288
     1
 68
     0
279
    -2
289
     1
 69
     0
  0
DICTIONARYVAR
  5
443
102
{ACAD_REACTORS
330
442
102
}
330
442
100
DictionaryVariables
280
     0
  1
STANDARD
  0
ENDSEC
  0
EOF
