  0
SECTION
  2
HEADER
  9
$ACADVER
  1
AC1018
  9
$ACADMAINTVER
 70
    39
  9
$DWGCODEPAGE
  3
ANSI_932
  9
$INSBASE
 10
0.0
 20
0.0
 30
0.0
  9
$EXTMIN
 10
-554.1783424415373
 20
30.10189960443176
 30
-0.0015258207003583
  9
$EXTMAX
 10
-276.3722517862593
 20
551.970338244655
 30
0.0000000349246037
  9
$LIMMIN
 10
-839.0
 20
0.0
  9
$LIMMAX
 10
0.0
 20
591.0
  9
$ORTHOMODE
 70
     0
  9
$REGENMODE
 70
     1
  9
$FILLMODE
 70
     1
  9
$QTEXTMODE
 70
     0
  9
$MIRRTEXT
 70
     0
  9
$LTSCALE
 40
1.0
  9
$ATTMODE
 70
     1
  9
$TEXTSIZE
 40
0.2
  9
$TRACEWID
 40
0.05
  9
$TEXTSTYLE
  7
STANDARD
  9
$CLAYER
  8
0
  9
$CELTYPE
  6
CONTINUOUS
  9
$CECOLOR
 62
   256
  9
$CELTSCALE
 40
1.0
  9
$DISPSILH
 70
     0
  9
$DIMSCALE
 40
1.0
  9
$DIMASZ
 40
1.0
  9
$DIMEXO
 40
2.54
  9
$DIMDLI
 40
0.38
  9
$DIMRND
 40
0.0
  9
$DIMDLE
 40
0.0
  9
$DIMEXE
 40
2.54
  9
$DIMTP
 40
0.0
  9
$DIMTM
 40
0.0
  9
$DIMTXT
 40
3.0
  9
$DIMCEN
 40
0.09
  9
$DIMTSZ
 40
0.0
  9
$DIMTOL
 70
     0
  9
$DIMLIM
 70
     0
  9
$DIMTIH
 70
     0
  9
$DIMTOH
 70
     0
  9
$DIMSE1
 70
     0
  9
$DIMSE2
 70
     0
  9
$DIMTAD
 70
     1
  9
$DIMZIN
 70
     0
  9
$DIMBLK
  1

  9
$DIMASO
 70
     1
  9
$DIMSHO
 70
     0
  9
$DIMPOST
  1

  9
$DIMAPOST
  1

  9
$DIMALT
 70
     0
  9
$DIMALTD
 70
     2
  9
$DIMALTF
 40
25.4
  9
$DIMLFAC
 40
1.0
  9
$DIMTOFL
 70
     0
  9
$DIMTVP
 40
1.0
  9
$DIMTIX
 70
     0
  9
$DIMSOXD
 70
     0
  9
$DIMSAH
 70
     1
  9
$DIMBLK1
  1

  9
$DIMBLK2
  1

  9
$DIMSTYLE
  2
DIMSTYLE1
  9
$DIMCLRD
 70
     0
  9
$DIMCLRE
 70
     0
  9
$DIMCLRT
 70
     0
  9
$DIMTFAC
 40
1.0
  9
$DIMGAP
 40
1.5
  9
$DIMJUST
 70
     0
  9
$DIMSD1
 70
     0
  9
$DIMSD2
 70
     0
  9
$DIMTOLJ
 70
     1
  9
$DIMTZIN
 70
     0
  9
$DIMALTZ
 70
     0
  9
$DIMALTTZ
 70
     0
  9
$DIMUPT
 70
     0
  9
$DIMDEC
 70
     4
  9
$DIMTDEC
 70
     4
  9
$DIMALTU
 70
     2
  9
$DIMALTTD
 70
     2
  9
$DIMTXSTY
  7
STANDARD
  9
$DIMAUNIT
 70
     0
  9
$DIMADEC
 70
     0
  9
$DIMALTRND
 40
0.0
  9
$DIMAZIN
 70
     0
  9
$DIMDSEP
 70
    46
  9
$DIMATFIT
 70
     3
  9
$DIMFRAC
 70
     0
  9
$DIMLDRBLK
  1

  9
$DIMLUNIT
 70
     2
  9
$DIMLWD
 70
    -2
  9
$DIMLWE
 70
    -2
  9
$DIMTMOVE
 70
     0
  9
$LUNITS
 70
     2
  9
$LUPREC
 70
     4
  9
$SKETCHINC
 40
0.1
  9
$FILLETRAD
 40
0.0
  9
$AUNITS
 70
     0
  9
$AUPREC
 70
     0
  9
$MENU
  1
.
  9
$ELEVATION
 40
0.0
  9
$PELEVATION
 40
0.0
  9
$THICKNESS
 40
0.0
  9
$LIMCHECK
 70
     0
  9
$CHAMFERA
 40
0.0
  9
$CHAMFERB
 40
0.0
  9
$CHAMFERC
 40
0.0
  9
$CHAMFERD
 40
0.0
  9
$SKPOLY
 70
     0
  9
$TDCREATE
 40
2457840.787550961
  9
$TDUCREATE
 40
2457840.412550961
  9
$TDUPDATE
 40
2457840.788088148
  9
$TDUUPDATE
 40
2457840.413088148
  9
$TDINDWG
 40
0.0005383333
  9
$TDUSRTIMER
 40
0.0005383333
  9
$USRTIMER
 70
     1
  9
$ANGBASE
 50
0.0
  9
$ANGDIR
 70
     0
  9
$PDMODE
 70
     0
  9
$PDSIZE
 40
0.0
  9
$PLINEWID
 40
0.0
  9
$SPLFRAME
 70
     0
  9
$SPLINETYPE
 70
     6
  9
$SPLINESEGS
 70
     8
  9
$HANDSEED
  5
32F
  9
$SURFTAB1
 70
     6
  9
$SURFTAB2
 70
     6
  9
$SURFTYPE
 70
     6
  9
$SURFU
 70
     6
  9
$SURFV
 70
     6
  9
$UCSBASE
  2

  9
$UCSNAME
  2

  9
$UCSORG
 10
0.0
 20
0.0
 30
0.0
  9
$UCSXDIR
 10
1.0
 20
0.0
 30
0.0
  9
$UCSYDIR
 10
0.0
 20
1.0
 30
0.0
  9
$UCSORTHOREF
  2

  9
$UCSORTHOVIEW
 70
     0
  9
$UCSORGTOP
 10
0.0
 20
0.0
 30
0.0
  9
$UCSORGBOTTOM
 10
0.0
 20
0.0
 30
0.0
  9
$UCSORGLEFT
 10
0.0
 20
0.0
 30
0.0
  9
$UCSORGRIGHT
 10
0.0
 20
0.0
 30
0.0
  9
$UCSORGFRONT
 10
0.0
 20
0.0
 30
0.0
  9
$UCSORGBACK
 10
0.0
 20
0.0
 30
0.0
  9
$PUCSBASE
  2

  9
$PUCSNAME
  2

  9
$PUCSORG
 10
0.0
 20
0.0
 30
0.0
  9
$PUCSXDIR
 10
1.0
 20
0.0
 30
0.0
  9
$PUCSYDIR
 10
0.0
 20
1.0
 30
0.0
  9
$PUCSORTHOREF
  2

  9
$PUCSORTHOVIEW
 70
     0
  9
$PUCSORGTOP
 10
0.0
 20
0.0
 30
0.0
  9
$PUCSORGBOTTOM
 10
0.0
 20
0.0
 30
0.0
  9
$PUCSORGLEFT
 10
0.0
 20
0.0
 30
0.0
  9
$PUCSORGRIGHT
 10
0.0
 20
0.0
 30
0.0
  9
$PUCSORGFRONT
 10
0.0
 20
0.0
 30
0.0
  9
$PUCSORGBACK
 10
0.0
 20
0.0
 30
0.0
  9
$USERI1
 70
     0
  9
$USERI2
 70
     0
  9
$USERI3
 70
     0
  9
$USERI4
 70
     0
  9
$USERI5
 70
     0
  9
$USERR1
 40
0.0
  9
$USERR2
 40
0.0
  9
$USERR3
 40
0.0
  9
$USERR4
 40
0.0
  9
$USERR5
 40
0.0
  9
$WORLDVIEW
 70
     1
  9
$SHADEDGE
 70
     3
  9
$SHADEDIF
 70
    70
  9
$TILEMODE
 70
     1
  9
$MAXACTVP
 70
    64
  9
$PINSBASE
 10
0.0
 20
0.0
 30
0.0
  9
$PLIMCHECK
 70
     0
  9
$PEXTMIN
 10
1.000000000000000E+20
 20
1.000000000000000E+20
 30
1.000000000000000E+20
  9
$PEXTMAX
 10
-1.000000000000000E+20
 20
-1.000000000000000E+20
 30
-1.000000000000000E+20
  9
$PLIMMIN
 10
-839.0
 20
0.0
  9
$PLIMMAX
 10
0.0
 20
591.0
  9
$UNITMODE
 70
     0
  9
$VISRETAIN
 70
     1
  9
$PLINEGEN
 70
     0
  9
$PSLTSCALE
 70
     1
  9
$TREEDEPTH
 70
  3020
  9
$CMLSTYLE
  2
Standard
  9
$CMLJUST
 70
     0
  9
$CMLSCALE
 40
1.0
  9
$PROXYGRAPHICS
 70
     1
  9
$MEASUREMENT
 70
     0
  9
$CELWEIGHT
370
    -1
  9
$ENDCAPS
280
     0
  9
$JOINSTYLE
280
     0
  9
$LWDISPLAY
290
     0
  9
$INSUNITS
 70
     0
  9
$HYPERLINKBASE
  1

  9
$STYLESHEET
  1

  9
$XEDIT
290
     1
  9
$CEPSNTYPE
380
     0
  9
$PSTYLEMODE
290
     1
  9
$FINGERPRINTGUID
  2
{82CAD979-102C-4F0F-904E-AD3CDE471D0B}
  9
$VERSIONGUID
  2
{608C4742-C022-4FD4-BA2E-BE846EDA3DED}
  9
$EXTNAMES
290
     1
  9
$PSVPSCALE
 40
0.0
  9
$OLESTARTUP
290
     0
  9
$SORTENTS
280
   127
  9
$INDEXCTL
280
     0
  9
$HIDETEXT
280
     0
  9
$XCLIPFRAME
290
     0
  9
$HALOGAP
280
     0
  9
$OBSCOLOR
 70
   257
  9
$OBSLTYPE
280
     0
  9
$INTERSECTIONDISPLAY
280
     0
  9
$INTERSECTIONCOLOR
 70
   257
  9
$DIMASSOC
280
     1
  9
$PROJECTNAME
  1

  0
ENDSEC
  0
SECTION
  2
CLASSES
  0
CLASS
  1
ACDBDICTIONARYWDFLT
  2
AcDbDictionaryWithDefault
  3
ObjectDBX Classes
 90
        0
 91
        1
280
     0
281
     0
  0
CLASS
  1
TABLESTYLE
  2
AcDbTableStyle
  3
ObjectDBX Classes
 90
     2047
 91
        1
280
     0
281
     0
  0
CLASS
  1
DICTIONARYVAR
  2
AcDbDictionaryVar
  3
ObjectDBX Classes
 90
        0
 91
        1
280
     0
281
     0
  0
ENDSEC
  0
SECTION
  2
TABLES
  0
TABLE
  2
VPORT
  5
8
330
0
100
AcDbSymbolTable
 70
     2
  0
VPORT
  5
32E
330
8
100
AcDbSymbolTableRecord
100
AcDbViewportTableRecord
  2
*Active
 70
     0
 10
0.0
 20
0.0
 11
1.0
 21
1.0
 12
-419.5
 22
295.5
 13
0.0
 23
0.0
 14
1.0
 24
1.0
 15
0.0
 25
0.0
 16
0.0
 26
0.0
 36
1.0
 17
0.0
 27
0.0
 37
0.0
 40
595.6719367588932
 41
1.707124010554089
 42
50.0
 43
0.0
 44
0.0
 50
0.0
 51
0.0
 71
     0
 72
   100
 73
     1
 74
     1
 75
     0
 76
     0
 77
     0
 78
     0
281
     0
 65
     1
110
0.0
120
0.0
130
0.0
111
1.0
121
0.0
131
0.0
112
0.0
122
1.0
132
0.0
 79
     0
146
0.0
  0
ENDTAB
  0
TABLE
  2
LTYPE
  5
5
330
0
100
AcDbSymbolTable
 70
     6
  0
LTYPE
  5
13
330
5
100
AcDbSymbolTableRecord
100
AcDbLinetypeTableRecord
  2
ByBlock
 70
     0
  3

 72
    65
 73
     0
 40
0.0
  0
LTYPE
  5
14
330
5
100
AcDbSymbolTableRecord
100
AcDbLinetypeTableRecord
  2
ByLayer
 70
     0
  3

 72
    65
 73
     0
 40
0.0
  0
LTYPE
  5
15
330
5
100
AcDbSymbolTableRecord
100
AcDbLinetypeTableRecord
  2
CONTINUOUS
 70
     0
  3
Solid line
 72
    65
 73
     0
 40
0.0
  0
LTYPE
  5
26
330
5
100
AcDbSymbolTableRecord
100
AcDbLinetypeTableRecord
  2
DASHED
 70
     0
  3
__ __ __ __ __ __ __ __ __ __ __ __ __ __ __
 72
    65
 73
     2
 40
3.5
 49
2.0
 74
     0
 49
-1.5
 74
     0
  0
LTYPE
  5
27
330
5
100
AcDbSymbolTableRecord
100
AcDbLinetypeTableRecord
  2
CENTER
 70
     0
  3
____ _ ____ _ ____ _ ____ _ ____ _ ____ _ ____
 72
    65
 73
     4
 40
17.5
 49
13.0
 74
     0
 49
-1.5
 74
     0
 49
1.5
 74
     0
 49
-1.5
 74
     0
  0
LTYPE
  5
28
330
5
100
AcDbSymbolTableRecord
100
AcDbLinetypeTableRecord
  2
PHANTOM
 70
     0
  3
_____ _ _ _____ _ _ _____ _ _ _____ _ _ ____  
 72
    65
 73
     6
 40
15.5
 49
8.0
 74
     0
 49
-1.5
 74
     0
 49
1.5
 74
     0
 49
-1.5
 74
     0
 49
1.5
 74
     0
 49
-1.5
 74
     0
  0
LTYPE
  5
29
330
5
100
AcDbSymbolTableRecord
100
AcDbLinetypeTableRecord
  2
DOT
 70
     0
  3
. . . . . . . . . . . . . . . . . . . . . . . .
 72
    65
 73
     2
 40
0.25
 49
0.0
 74
     0
 49
-0.25
 74
     0
  0
LTYPE
  5
2A
330
5
100
AcDbSymbolTableRecord
100
AcDbLinetypeTableRecord
  2
HIDDEN
 70
     0
  3
__ __ __ __ __ __ __ __ __ __ __ __ __ __ __
 72
    65
 73
     2
 40
3.5
 49
2.0
 74
     0
 49
-1.5
 74
     0
  0
ENDTAB
  0
TABLE
  2
LAYER
  5
2
330
0
100
AcDbSymbolTable
 70
     2
  0
LAYER
  5
10
330
2
100
AcDbSymbolTableRecord
100
AcDbLayerTableRecord
  2
0
 70
     0
 62
     7
  6
CONTINUOUS
370
    -3
390
F
  0
LAYER
  5
2B
330
2
100
AcDbSymbolTableRecord
100
AcDbLayerTableRecord
  2
DEFPOINTS
 70
     0
 62
     7
  6
CONTINUOUS
290
     0
370
    -3
390
F
  0
ENDTAB
  0
TABLE
  2
STYLE
  5
3
330
0
100
AcDbSymbolTable
 70
     2
  0
STYLE
  5
11
330
3
100
AcDbSymbolTableRecord
100
AcDbTextStyleTableRecord
  2
STANDARD
 70
     0
 40
0.0
 41
1.0
 50
0.0
 71
     0
 42
0.2
  3

  4

1001
ACAD
1000
MS Gothic
1071
    32817
  0
ENDTAB
  0
TABLE
  2
VIEW
  5
6
330
0
100
AcDbSymbolTable
 70
     0
  0
ENDTAB
  0
TABLE
  2
UCS
  5
7
330
0
100
AcDbSymbolTable
 70
     0
  0
ENDTAB
  0
TABLE
  2
APPID
  5
9
330
0
100
AcDbSymbolTable
 70
     2
  0
APPID
  5
12
330
9
100
AcDbSymbolTableRecord
100
AcDbRegAppTableRecord
  2
ACAD
 70
     0
  0
APPID
  5
323
330
9
100
AcDbSymbolTableRecord
100
AcDbRegAppTableRecord
  2
ACAD_PSEXT
 70
     0
  0
ENDTAB
  0
TABLE
  2
DIMSTYLE
  5
A
330
0
100
AcDbSymbolTable
 70
    15
100
AcDbDimStyleTable
 71
     1
340
2C
  0
DIMSTYLE
105
2C
102
{ACAD_REACTORS
330
312
102
}
330
A
100
AcDbSymbolTableRecord
100
AcDbDimStyleTableRecord
  2
DIMSTYLE1
 70
     0
 41
1.0
 42
2.54
 44
2.54
 73
     0
 74
     0
 77
     1
140
3.0
145
1.0
147
1.5
172
     1
173
     1
279
     2
340
11
  0
DIMSTYLE
105
2D
102
{ACAD_REACTORS
330
313
102
}
330
A
100
AcDbSymbolTableRecord
100
AcDbDimStyleTableRecord
  2
DIMSTYLE2
 70
     0
 41
1.0
 42
2.54
 44
2.54
 73
     0
 74
     0
 75
     1
 76
     1
 77
     1
140
3.0
145
1.0
147
1.5
172
     1
173
     1
279
     2
340
11
  0
DIMSTYLE
105
2E
102
{ACAD_REACTORS
330
314
102
}
330
A
100
AcDbSymbolTableRecord
100
AcDbDimStyleTableRecord
  2
DIMSTYLE3
 70
     0
 41
1.0
 42
2.54
 44
2.54
 73
     0
 74
     0
 75
     1
 76
     1
 77
     1
140
3.0
145
1.0
147
1.5
172
     1
173
     1
279
     2
340
11
  0
DIMSTYLE
105
2F
102
{ACAD_REACTORS
330
315
102
}
330
A
100
AcDbSymbolTableRecord
100
AcDbDimStyleTableRecord
  2
DIMSTYLE4
 70
     0
 41
1.0
 42
2.54
 44
2.54
 73
     0
 74
     0
 75
     1
 76
     1
 77
     1
140
3.0
145
1.0
147
1.5
172
     1
173
     1
279
     2
340
11
  0
DIMSTYLE
105
30
102
{ACAD_REACTORS
330
316
102
}
330
A
100
AcDbSymbolTableRecord
100
AcDbDimStyleTableRecord
  2
DIMSTYLE5
 70
     0
 41
1.0
 42
2.54
 44
2.54
 73
     0
 74
     0
 75
     1
 76
     1
 77
     1
140
3.0
145
1.0
147
1.5
172
     1
173
     1
279
     2
340
11
  0
DIMSTYLE
105
31
102
{ACAD_REACTORS
330
317
102
}
330
A
100
AcDbSymbolTableRecord
100
AcDbDimStyleTableRecord
  2
DIMSTYLE6
 70
     0
 41
1.0
 42
2.54
 44
2.54
 73
     0
 74
     0
 77
     1
140
3.0
145
1.0
147
1.5
172
     1
173
     1
279
     2
340
11
  0
DIMSTYLE
105
32
102
{ACAD_REACTORS
330
318
102
}
330
A
100
AcDbSymbolTableRecord
100
AcDbDimStyleTableRecord
  2
DIMSTYLE7
 70
     0
 41
1.0
 42
2.54
 44
2.54
 73
     0
 74
     0
 77
     1
140
3.0
145
1.0
147
1.5
172
     1
173
     1
279
     2
340
11
  0
DIMSTYLE
105
33
102
{ACAD_REACTORS
330
319
102
}
330
A
100
AcDbSymbolTableRecord
100
AcDbDimStyleTableRecord
  2
DIMSTYLE8
 70
     0
 41
1.0
 42
2.54
 44
2.54
 73
     0
 74
     0
 77
     1
140
3.0
145
1.0
147
1.5
172
     1
173
     1
279
     2
340
11
  0
DIMSTYLE
105
34
102
{ACAD_REACTORS
330
31A
102
}
330
A
100
AcDbSymbolTableRecord
100
AcDbDimStyleTableRecord
  2
DIMSTYLE9
 70
     0
 41
1.0
 42
2.54
 44
2.54
 73
     0
 74
     0
 77
     1
140
3.0
145
1.0
147
1.5
172
     1
173
     1
279
     2
340
11
  0
DIMSTYLE
105
35
102
{ACAD_REACTORS
330
31B
102
}
330
A
100
AcDbSymbolTableRecord
100
AcDbDimStyleTableRecord
  2
DIMSTYLE10
 70
     0
 41
1.0
 42
2.54
 44
2.54
 73
     0
 74
     0
 77
     1
140
3.0
145
1.0
147
1.5
172
     1
173
     1
279
     2
340
11
  0
DIMSTYLE
105
36
102
{ACAD_REACTORS
330
31C
102
}
330
A
100
AcDbSymbolTableRecord
100
AcDbDimStyleTableRecord
  2
DIMSTYLE11
 70
     0
 41
1.0
 42
2.54
 44
2.54
 73
     0
 74
     0
 77
     1
140
3.0
145
1.0
147
1.5
172
     1
173
     1
279
     2
340
11
  0
DIMSTYLE
105
37
102
{ACAD_REACTORS
330
31D
102
}
330
A
100
AcDbSymbolTableRecord
100
AcDbDimStyleTableRecord
  2
DIMSTYLE12
 70
     0
 41
1.0
 42
2.54
 44
2.54
 73
     0
 74
     0
 77
     1
140
3.0
145
1.0
147
1.5
172
     1
173
     1
279
     2
340
11
  0
DIMSTYLE
105
38
102
{ACAD_REACTORS
330
31F
102
}
330
A
100
AcDbSymbolTableRecord
100
AcDbDimStyleTableRecord
  2
DIMSTYLE13
 70
     0
 41
1.0
 42
2.54
 44
2.54
 73
     0
 74
     0
 77
     1
140
3.0
145
1.0
147
1.5
172
     1
173
     1
279
     2
340
11
  0
DIMSTYLE
105
39
102
{ACAD_REACTORS
330
320
102
}
330
A
100
AcDbSymbolTableRecord
100
AcDbDimStyleTableRecord
  2
DIMSTYLE14
 70
     0
 41
1.0
 42
2.54
 44
2.54
 73
     0
 74
     0
 77
     1
140
3.0
145
1.0
147
1.5
172
     1
173
     1
279
     2
340
11
  0
ENDTAB
  0
TABLE
  2
BLOCK_RECORD
  5
1
330
0
100
AcDbSymbolTable
 70
    18
  0
BLOCK_RECORD
  5
22
330
1
100
AcDbSymbolTableRecord
100
AcDbBlockTableRecord
  2
*Model_Space
340
25
  0
BLOCK_RECORD
  5
1E
330
1
100
AcDbSymbolTableRecord
100
AcDbBlockTableRecord
  2
*Paper_Space
340
21
  0
BLOCK_RECORD
  5
3D
330
1
100
AcDbSymbolTableRecord
100
AcDbBlockTableRecord
  2
_OPEN30
340
0
102
{BLKREFS
331
47
331
49
331
55
331
56
331
5F
331
60
331
69
331
6A
331
73
331
74
331
7C
331
7D
331
88
331
89
331
94
331
95
331
9F
331
A0
331
AA
331
AB
331
B6
331
B7
331
C1
331
C2
331
CC
331
CD
331
D6
331
D7
102
}
  0
BLOCK_RECORD
  5
43
330
1
100
AcDbSymbolTableRecord
100
AcDbBlockTableRecord
  2
*D1
340
0
  0
BLOCK_RECORD
  5
51
330
1
100
AcDbSymbolTableRecord
100
AcDbBlockTableRecord
  2
*D2
340
0
  0
BLOCK_RECORD
  5
5B
330
1
100
AcDbSymbolTableRecord
100
AcDbBlockTableRecord
  2
*D3
340
0
  0
BLOCK_RECORD
  5
65
330
1
100
AcDbSymbolTableRecord
100
AcDbBlockTableRecord
  2
*D4
340
0
  0
BLOCK_RECORD
  5
6F
330
1
100
AcDbSymbolTableRecord
100
AcDbBlockTableRecord
  2
*D5
340
0
  0
BLOCK_RECORD
  5
79
330
1
100
AcDbSymbolTableRecord
100
AcDbBlockTableRecord
  2
*D6
340
0
  0
BLOCK_RECORD
  5
85
330
1
100
AcDbSymbolTableRecord
100
AcDbBlockTableRecord
  2
*D7
340
0
  0
BLOCK_RECORD
  5
91
330
1
100
AcDbSymbolTableRecord
100
AcDbBlockTableRecord
  2
*D8
340
0
  0
BLOCK_RECORD
  5
9C
330
1
100
AcDbSymbolTableRecord
100
AcDbBlockTableRecord
  2
*D9
340
0
  0
BLOCK_RECORD
  5
A7
330
1
100
AcDbSymbolTableRecord
100
AcDbBlockTableRecord
  2
*D10
340
0
  0
BLOCK_RECORD
  5
B3
330
1
100
AcDbSymbolTableRecord
100
AcDbBlockTableRecord
  2
*D11
340
0
  0
BLOCK_RECORD
  5
BE
330
1
100
AcDbSymbolTableRecord
100
AcDbBlockTableRecord
  2
*D12
340
0
  0
BLOCK_RECORD
  5
C9
330
1
100
AcDbSymbolTableRecord
100
AcDbBlockTableRecord
  2
*D13
340
0
  0
BLOCK_RECORD
  5
D3
330
1
100
AcDbSymbolTableRecord
100
AcDbBlockTableRecord
  2
*D14
340
0
  0
BLOCK_RECORD
  5
DE
330
1
100
AcDbSymbolTableRecord
100
AcDbBlockTableRecord
  2
KOZU0001
340
0
102
{BLKREFS
331
311
102
}
  0
BLOCK_RECORD
  5
E7
330
1
100
AcDbSymbolTableRecord
100
AcDbBlockTableRecord
  2
KOZU0002
340
0
102
{BLKREFS
331
31E
102
}
  0
ENDTAB
  0
ENDSEC
  0
SECTION
  2
BLOCKS
  0
BLOCK
  5
23
330
22
100
AcDbEntity
  8
0
100
AcDbBlockBegin
  2
*Model_Space
 70
     0
 10
0.0
 20
0.0
 30
0.0
  3
*Model_Space
  1

  0
ENDBLK
  5
24
330
22
100
AcDbEntity
  8
0
100
AcDbBlockEnd
  0
BLOCK
  5
1F
330
1E
100
AcDbEntity
 67
     1
  8
0
100
AcDbBlockBegin
  2
*Paper_Space
 70
     0
 10
0.0
 20
0.0
 30
0.0
  3
*Paper_Space
  1

  0
ENDBLK
  5
20
330
1E
100
AcDbEntity
 67
     1
  8
0
100
AcDbBlockEnd
  0
BLOCK
  5
3E
330
3D
100
AcDbEntity
  8
0
100
AcDbBlockBegin
  2
_OPEN30
 70
     0
 10
0.0
 20
0.0
 30
0.0
  3
_OPEN30
  1

  0
LINE
  5
3F
330
3D
100
AcDbEntity
  8
0
  6
ByBlock
 62
     0
100
AcDbLine
 10
0.0
 20
0.0
 30
0.0
 11
-2.999999999999993
 21
-1.000000000000017
 31
0.0
  0
LINE
  5
40
330
3D
100
AcDbEntity
  8
0
  6
ByBlock
 62
     0
100
AcDbLine
 10
0.0
 20
0.0
 30
0.0
 11
-3.000000000000006
 21
0.9999999999999815
 31
0.0
  0
LINE
  5
41
330
3D
100
AcDbEntity
  8
0
  6
ByBlock
 62
     0
100
AcDbLine
 10
0.0
 20
0.0
 30
0.0
 11
-3.0
 21
0.0
 31
0.0
  0
ENDBLK
  5
42
330
3D
100
AcDbEntity
  8
0
100
AcDbBlockEnd
  0
BLOCK
  5
44
330
43
100
AcDbEntity
  8
0
100
AcDbBlockBegin
  2
*D1
 70
     1
 10
0.0
 20
0.0
 30
0.0
  3
*D1
  1

  0
LINE
  5
45
330
43
100
AcDbEntity
  8
0
  6
Continuous
 62
     7
100
AcDbLine
 10
-296.2301635742188
 20
102.3186111450195
 30
0.0
 11
-296.2301635742188
 21
85.77010345458985
 31
0.0
  0
LINE
  5
46
330
43
100
AcDbEntity
  8
0
  6
Continuous
 62
     7
100
AcDbLine
 10
-296.2301635742188
 20
105.8186111450195
 30
0.0
 11
-296.2301635742188
 21
102.3186111450195
 31
0.0
  0
INSERT
  5
47
330
43
100
AcDbEntity
  8
0
  6
Continuous
 62
     7
100
AcDbBlockReference
  2
_OPEN30
 10
-296.2301635742188
 20
105.8186111450195
 30
0.0
 50
270.0000000000002
  0
LINE
  5
48
330
43
100
AcDbEntity
  8
0
  6
Continuous
 62
     7
100
AcDbLine
 10
-296.2301635742188
 20
108.8186111450195
 30
0.0
 11
-296.2301635742188
 21
112.1686111450195
 31
0.0
  0
INSERT
  5
49
330
43
100
AcDbEntity
  8
0
  6
Continuous
 62
     7
100
AcDbBlockReference
  2
_OPEN30
 10
-296.2301635742188
 20
102.3186111450195
 30
0.0
 50
90.00000000000049
  0
LINE
  5
4A
330
43
100
AcDbEntity
  8
0
  6
Continuous
 62
     7
100
AcDbLine
 10
-296.2301635742188
 20
99.31861114501952
 30
0.0
 11
-296.2301635742187
 21
95.96861114501955
 31
0.0
  0
LINE
  5
4B
330
43
100
AcDbEntity
  8
0
  6
Continuous
 62
     7
100
AcDbLine
 10
-313.7689904785156
 20
102.3186111450195
 30
0.0
 11
-293.9441528320313
 21
102.3186111450195
 31
0.0
  0
TEXT
  5
4C
330
43
100
AcDbEntity
  8
0
  6
Continuous
 62
     7
100
AcDbText
 10
-296.9801633963133
 20
85.77010294496913
 30
0.0
 40
3.0
  1
3.5
 50
90.00000250447815
 41
1.356666684150696
100
AcDbText
  0
POINT
  5
4D
330
43
100
AcDbEntity
  8
DEFPOINTS
  6
Continuous
 62
     7
100
AcDbPoint
 10
-305.327880859375
 20
105.8186111450195
 30
0.0
  0
POINT
  5
4E
330
43
100
AcDbEntity
  8
DEFPOINTS
  6
Continuous
 62
     7
100
AcDbPoint
 10
-316.3089904785156
 20
102.3186111450195
 30
0.0
  0
POINT
  5
4F
330
43
100
AcDbEntity
  8
DEFPOINTS
  6
Continuous
 62
     7
100
AcDbPoint
 10
-296.2301635742188
 20
102.3186111450195
 30
0.0
  0
ENDBLK
  5
50
330
43
100
AcDbEntity
  8
0
100
AcDbBlockEnd
  0
BLOCK
  5
52
330
51
100
AcDbEntity
  8
0
100
AcDbBlockBegin
  2
*D2
 70
     1
 10
0.0
 20
0.0
 30
0.0
  3
*D2
  1

  0
LINE
  5
53
330
51
100
AcDbEntity
  8
0
  6
Continuous
 62
     7
100
AcDbLine
 10
-408.2439270019531
 20
425.469268798828
 30
0.0
 11
-291.7864685058594
 21
383.0193786621094
 31
0.0
  0
LINE
  5
54
330
51
100
AcDbEntity
  8
0
  6
Continuous
 62
     7
100
AcDbLine
 10
-443.0065148219358
 20
438.1405660054333
 30
0.0
 11
-411.0625159397829
 21
426.4966715433947
 31
0.0
  0
INSERT
  5
55
330
51
100
AcDbEntity
  8
0
  6
Continuous
 62
     7
100
AcDbBlockReference
  2
_OPEN30
 10
-445.8251037597656
 20
439.1679687499999
 30
0.0
 50
159.972716032344
  0
INSERT
  5
56
330
51
100
AcDbEntity
  8
0
  6
Continuous
 62
     7
100
AcDbBlockReference
  2
_OPEN30
 10
-408.2439270019531
 20
425.469268798828
 30
0.0
 50
339.9727160323448
  0
TEXT
  5
57
330
51
100
AcDbEntity
  8
0
  6
Continuous
 62
     7
100
AcDbText
 10
-316.0913995878933
 20
392.6703951610533
 30
0.0
 40
3.0
  1
%%C４０（子栓外径）
 50
340.0000005818142
 41
0.8448610247221777
100
AcDbText
  0
POINT
  5
58
330
51
100
AcDbEntity
  8
DEFPOINTS
  6
Continuous
 62
     7
100
AcDbPoint
 10
-445.8251037597656
 20
439.1679687499999
 30
0.0
  0
POINT
  5
59
330
51
100
AcDbEntity
  8
DEFPOINTS
  6
Continuous
 62
     7
100
AcDbPoint
 10
-408.2439270019531
 20
425.469268798828
 30
0.0
  0
ENDBLK
  5
5A
330
51
100
AcDbEntity
  8
0
100
AcDbBlockEnd
  0
BLOCK
  5
5C
330
5B
100
AcDbEntity
  8
0
100
AcDbBlockBegin
  2
*D3
 70
     1
 10
0.0
 20
0.0
 30
0.0
  3
*D3
  1

  0
LINE
  5
5D
330
5B
100
AcDbEntity
  8
0
  6
Continuous
 62
     7
100
AcDbLine
 10
-338.7926330566406
 20
499.9508666992188
 30
0.0
 11
-308.5791320800781
 21
523.1670532226563
 31
0.0
  0
LINE
  5
5E
330
5B
100
AcDbEntity
  8
0
  6
Continuous
 62
     7
100
AcDbLine
 10
-512.446497077909
 20
366.5142696315389
 30
0.0
 11
-341.171453361544
 21
498.1229679172892
 31
0.0
  0
INSERT
  5
5F
330
5B
100
AcDbEntity
  8
0
  6
Continuous
 62
     7
100
AcDbBlockReference
  2
_OPEN30
 10
-514.8253173828124
 20
364.6863708496094
 30
0.0
 50
217.5388762625337
  0
INSERT
  5
60
330
5B
100
AcDbEntity
  8
0
  6
Continuous
 62
     7
100
AcDbBlockReference
  2
_OPEN30
 10
-338.7926330566406
 20
499.9508666992188
 30
0.0
 50
37.53887626253292
  0
TEXT
  5
61
330
5B
100
AcDbEntity
  8
0
  6
Continuous
 62
     7
100
AcDbText
 10
-334.5274151446421
 20
504.1878289508746
 30
0.0
 40
3.0
  1
%%C２２２（防水皿外径）
 50
37.49999933598528
 41
0.8440126077968535
100
AcDbText
  0
POINT
  5
62
330
5B
100
AcDbEntity
  8
DEFPOINTS
  6
Continuous
 62
     7
100
AcDbPoint
 10
-514.8253173828124
 20
364.6863708496094
 30
0.0
  0
POINT
  5
63
330
5B
100
AcDbEntity
  8
DEFPOINTS
  6
Continuous
 62
     7
100
AcDbPoint
 10
-338.7926330566406
 20
499.9508666992188
 30
0.0
  0
ENDBLK
  5
64
330
5B
100
AcDbEntity
  8
0
100
AcDbBlockEnd
  0
BLOCK
  5
66
330
65
100
AcDbEntity
  8
0
100
AcDbBlockBegin
  2
*D4
 70
     1
 10
0.0
 20
0.0
 30
0.0
  3
*D4
  1

  0
LINE
  5
67
330
65
100
AcDbEntity
  8
0
  6
Continuous
 62
     7
100
AcDbLine
 10
-353.0943908691406
 20
463.4017028808593
 30
0.0
 11
-291.6074523925781
 21
489.3287963867187
 31
0.0
  0
LINE
  5
68
330
65
100
AcDbEntity
  8
0
  6
Continuous
 62
     7
100
AcDbLine
 10
-497.7592624438242
 20
402.4011204665461
 30
0.0
 11
-355.858687995629
 21
462.2360865647038
 31
0.0
  0
INSERT
  5
69
330
65
100
AcDbEntity
  8
0
  6
Continuous
 62
     7
100
AcDbBlockReference
  2
_OPEN30
 10
-500.5235595703124
 20
401.2355041503906
 30
0.0
 50
202.8636080429241
  0
INSERT
  5
6A
330
65
100
AcDbEntity
  8
0
  6
Continuous
 62
     7
100
AcDbBlockReference
  2
_OPEN30
 10
-353.0943908691406
 20
463.4017028808593
 30
0.0
 50
22.86360804292337
  0
TEXT
  5
6B
330
65
100
AcDbEntity
  8
0
  6
Continuous
 62
     7
100
AcDbText
 10
-318.7462296723384
 20
478.6891384179792
 30
0.0
 40
3.0
  1
%%C１６０（本体外径）
 50
22.90000040957758
 41
0.8443929326254473
100
AcDbText
  0
POINT
  5
6C
330
65
100
AcDbEntity
  8
DEFPOINTS
  6
Continuous
 62
     7
100
AcDbPoint
 10
-500.5235595703124
 20
401.2355041503906
 30
0.0
  0
POINT
  5
6D
330
65
100
AcDbEntity
  8
DEFPOINTS
  6
Continuous
 62
     7
100
AcDbPoint
 10
-353.0943908691406
 20
463.4017028808593
 30
0.0
  0
ENDBLK
  5
6E
330
65
100
AcDbEntity
  8
0
100
AcDbBlockEnd
  0
BLOCK
  5
70
330
6F
100
AcDbEntity
  8
0
100
AcDbBlockBegin
  2
*D5
 70
     1
 10
0.0
 20
0.0
 30
0.0
  3
*D5
  1

  0
LINE
  5
71
330
6F
100
AcDbEntity
  8
0
  6
Continuous
 62
     7
100
AcDbLine
 10
-365.84228515625
 20
440.4002075195313
 30
0.0
 11
-278.7865295410156
 21
451.9400939941406
 31
0.0
  0
LINE
  5
72
330
6F
100
AcDbEntity
  8
0
  6
Continuous
 62
     7
100
AcDbLine
 10
-484.8016802528857
 20
424.6312241170491
 30
0.0
 11
-368.8162701865674
 21
440.0059829142008
 31
0.0
  0
INSERT
  5
73
330
6F
100
AcDbEntity
  8
0
  6
Continuous
 62
     7
100
AcDbBlockReference
  2
_OPEN30
 10
-487.7756652832031
 20
424.2369995117187
 30
0.0
 50
187.5509744852667
  0
INSERT
  5
74
330
6F
100
AcDbEntity
  8
0
  6
Continuous
 62
     7
100
AcDbBlockReference
  2
_OPEN30
 10
-365.84228515625
 20
440.4002075195313
 30
0.0
 50
7.550974485265957
  0
TEXT
  5
75
330
6F
100
AcDbEntity
  8
0
  6
Continuous
 62
     7
100
AcDbText
 10
-310.7451897495463
 20
448.4464204753735
 30
0.0
 40
3.0
  1
%%C１２３（排水栓外径）
 50
7.600000154571024
 41
0.8440126077968535
100
AcDbText
  0
POINT
  5
76
330
6F
100
AcDbEntity
  8
DEFPOINTS
  6
Continuous
 62
     7
100
AcDbPoint
 10
-487.7756652832031
 20
424.2369995117187
 30
0.0
  0
POINT
  5
77
330
6F
100
AcDbEntity
  8
DEFPOINTS
  6
Continuous
 62
     7
100
AcDbPoint
 10
-365.84228515625
 20
440.4002075195313
 30
0.0
  0
ENDBLK
  5
78
330
6F
100
AcDbEntity
  8
0
100
AcDbBlockEnd
  0
BLOCK
  5
7A
330
79
100
AcDbEntity
  8
0
100
AcDbBlockBegin
  2
*D6
 70
     1
 10
0.0
 20
0.0
 30
0.0
  3
*D6
  1

  0
LINE
  5
7B
330
79
100
AcDbEntity
  8
0
  6
Continuous
 62
     7
100
AcDbLine
 10
-486.3089904785156
 20
32.40806198120117
 30
0.0
 11
-367.3089904785156
 21
32.40806198120115
 31
0.0
  0
INSERT
  5
7C
330
79
100
AcDbEntity
  8
0
  6
Continuous
 62
     7
100
AcDbBlockReference
  2
_OPEN30
 10
-489.3089904785155
 20
32.40806198120117
 30
0.0
 50
180.0000000000004
  0
INSERT
  5
7D
330
79
100
AcDbEntity
  8
0
  6
Continuous
 62
     7
100
AcDbBlockReference
  2
_OPEN30
 10
-364.3089904785156
 20
32.40806198120117
 30
0.0
  0
LINE
  5
7E
330
79
100
AcDbEntity
  8
0
  6
Continuous
 62
     7
100
AcDbLine
 10
-489.3089904785155
 20
59.27861114501953
 30
0.0
 11
-489.3089904785155
 21
30.12206077575684
 31
0.0
  0
LINE
  5
7F
330
79
100
AcDbEntity
  8
0
  6
Continuous
 62
     7
100
AcDbLine
 10
-364.3089904785156
 20
59.27861114501953
 30
0.0
 11
-364.3089904785156
 21
30.12206077575684
 31
0.0
  0
TEXT
  5
80
330
79
100
AcDbEntity
  8
0
  6
Continuous
 62
     7
100
AcDbText
 10
-432.3789907097816
 20
33.15806198120117
 30
0.0
 40
3.0
  1
%%C125
 41
1.053926216168795
100
AcDbText
  0
POINT
  5
81
330
79
100
AcDbEntity
  8
DEFPOINTS
  6
Continuous
 62
     7
100
AcDbPoint
 10
-489.3089904785155
 20
61.81861114501953
 30
0.0
  0
POINT
  5
82
330
79
100
AcDbEntity
  8
DEFPOINTS
  6
Continuous
 62
     7
100
AcDbPoint
 10
-364.3089904785156
 20
61.81861114501953
 30
0.0
  0
POINT
  5
83
330
79
100
AcDbEntity
  8
DEFPOINTS
  6
Continuous
 62
     7
100
AcDbPoint
 10
-364.3089904785156
 20
32.40806198120117
 30
0.0
  0
ENDBLK
  5
84
330
79
100
AcDbEntity
  8
0
100
AcDbBlockEnd
  0
BLOCK
  5
86
330
85
100
AcDbEntity
  8
0
100
AcDbBlockBegin
  2
*D7
 70
     1
 10
0.0
 20
0.0
 30
0.0
  3
*D7
  1

  0
LINE
  5
87
330
85
100
AcDbEntity
  8
0
  6
Continuous
 62
     7
100
AcDbLine
 10
-296.2301635742188
 20
108.8186111450195
 30
0.0
 11
-296.2301635742188
 21
269.818603515625
 31
0.0
  0
INSERT
  5
88
330
85
100
AcDbEntity
  8
0
  6
Continuous
 62
     7
100
AcDbBlockReference
  2
_OPEN30
 10
-296.2301635742188
 20
105.8186111450195
 30
0.0
 50
270.0000000000005
  0
INSERT
  5
89
330
85
100
AcDbEntity
  8
0
  6
Continuous
 62
     7
100
AcDbBlockReference
  2
_OPEN30
 10
-296.2301635742188
 20
272.818603515625
 30
0.0
 50
90.00000000000019
  0
LINE
  5
8A
330
85
100
AcDbEntity
  8
0
  6
Continuous
 62
     7
100
AcDbLine
 10
-315.2689904785156
 20
105.8186111450195
 30
0.0
 11
-293.9441528320313
 21
105.8186111450195
 31
0.0
  0
LINE
  5
8B
330
85
100
AcDbEntity
  8
0
  6
Continuous
 62
     7
100
AcDbLine
 10
-345.2696313476562
 20
272.818603515625
 30
0.0
 11
-293.9441528320313
 21
272.818603515625
 31
0.0
  0
TEXT
  5
8C
330
85
100
AcDbEntity
  8
0
  6
Continuous
 62
     7
100
AcDbText
 10
-296.9801627406425
 20
170.2486027151337
 30
0.0
 40
3.0
  1
１６７　（１４４～１７１）
 50
90.00000250447815
 41
0.8434321120058422
100
AcDbText
  0
POINT
  5
8D
330
85
100
AcDbEntity
  8
DEFPOINTS
  6
Continuous
 62
     7
100
AcDbPoint
 10
-317.8089904785156
 20
105.8186111450195
 30
0.0
  0
POINT
  5
8E
330
85
100
AcDbEntity
  8
DEFPOINTS
  6
Continuous
 62
     7
100
AcDbPoint
 10
-347.8096313476563
 20
272.818603515625
 30
0.0
  0
POINT
  5
8F
330
85
100
AcDbEntity
  8
DEFPOINTS
  6
Continuous
 62
     7
100
AcDbPoint
 10
-296.2301635742188
 20
272.818603515625
 30
0.0
  0
ENDBLK
  5
90
330
85
100
AcDbEntity
  8
0
100
AcDbBlockEnd
  0
BLOCK
  5
92
330
91
100
AcDbEntity
  8
0
100
AcDbBlockBegin
  2
*D8
 70
     1
 10
0.0
 20
0.0
 30
0.0
  3
*D8
  1

  0
LINE
  5
93
330
91
100
AcDbEntity
  8
0
  6
Continuous
 62
     7
100
AcDbLine
 10
-310.4492797851563
 20
269.818603515625
 30
0.0
 11
-310.4492797851563
 21
206.818603515625
 31
0.0
  0
INSERT
  5
94
330
91
100
AcDbEntity
  8
0
  6
Continuous
 62
     7
100
AcDbBlockReference
  2
_OPEN30
 10
-310.4492797851563
 20
272.818603515625
 30
0.0
 50
90.00000000000019
  0
INSERT
  5
95
330
91
100
AcDbEntity
  8
0
  6
Continuous
 62
     7
100
AcDbBlockReference
  2
_OPEN30
 10
-310.4492797851563
 20
203.818603515625
 30
0.0
 50
270.0000000000005
  0
LINE
  5
96
330
91
100
AcDbEntity
  8
0
  6
Continuous
 62
     7
100
AcDbLine
 10
-363.2696313476562
 20
203.818603515625
 30
0.0
 11
-308.1632690429688
 21
203.818603515625
 31
0.0
  0
TEXT
  5
97
330
91
100
AcDbEntity
  8
0
  6
Continuous
 62
     7
100
AcDbText
 10
-311.199279672818
 20
235.7486033707847
 30
0.0
 40
3.0
  1
69
 50
90.00000250447815
 41
1.028000020980834
100
AcDbText
  0
POINT
  5
98
330
91
100
AcDbEntity
  8
DEFPOINTS
  6
Continuous
 62
     7
100
AcDbPoint
 10
-293.9441528320313
 20
272.818603515625
 30
0.0
  0
POINT
  5
99
330
91
100
AcDbEntity
  8
DEFPOINTS
  6
Continuous
 62
     7
100
AcDbPoint
 10
-365.8096313476563
 20
203.818603515625
 30
0.0
  0
POINT
  5
9A
330
91
100
AcDbEntity
  8
DEFPOINTS
  6
Continuous
 62
     7
100
AcDbPoint
 10
-310.4492797851563
 20
203.818603515625
 30
0.0
  0
ENDBLK
  5
9B
330
91
100
AcDbEntity
  8
0
100
AcDbBlockEnd
  0
BLOCK
  5
9D
330
9C
100
AcDbEntity
  8
0
100
AcDbBlockBegin
  2
*D9
 70
     1
 10
0.0
 20
0.0
 30
0.0
  3
*D9
  1

  0
LINE
  5
9E
330
9C
100
AcDbEntity
  8
0
  6
Continuous
 62
     7
100
AcDbLine
 10
-310.4492797851563
 20
108.8186111450195
 30
0.0
 11
-310.4492797851563
 21
142.818603515625
 31
0.0
  0
INSERT
  5
9F
330
9C
100
AcDbEntity
  8
0
  6
Continuous
 62
     7
100
AcDbBlockReference
  2
_OPEN30
 10
-310.4492797851563
 20
105.8186111450195
 30
0.0
 50
270.0000000000005
  0
INSERT
  5
A0
330
9C
100
AcDbEntity
  8
0
  6
Continuous
 62
     7
100
AcDbBlockReference
  2
_OPEN30
 10
-310.4492797851563
 20
145.818603515625
 30
0.0
 50
90.00000000000019
  0
LINE
  5
A1
330
9C
100
AcDbEntity
  8
0
  6
Continuous
 62
     7
100
AcDbLine
 10
-364.2689904785156
 20
145.818603515625
 30
0.0
 11
-308.1632690429688
 21
145.818603515625
 31
0.0
  0
TEXT
  5
A2
330
9C
100
AcDbEntity
  8
0
  6
Continuous
 62
     7
100
AcDbText
 10
-311.199279672818
 20
123.2486110001793
 30
0.0
 40
3.0
  1
40
 50
90.00000250447815
 41
1.101428593908038
100
AcDbText
  0
POINT
  5
A3
330
9C
100
AcDbEntity
  8
DEFPOINTS
  6
Continuous
 62
     7
100
AcDbPoint
 10
-317.8089904785156
 20
105.8186111450195
 30
0.0
  0
POINT
  5
A4
330
9C
100
AcDbEntity
  8
DEFPOINTS
  6
Continuous
 62
     7
100
AcDbPoint
 10
-366.8089904785156
 20
145.818603515625
 30
0.0
  0
POINT
  5
A5
330
9C
100
AcDbEntity
  8
DEFPOINTS
  6
Continuous
 62
     7
100
AcDbPoint
 10
-310.4492797851563
 20
145.818603515625
 30
0.0
  0
ENDBLK
  5
A6
330
9C
100
AcDbEntity
  8
0
100
AcDbBlockEnd
  0
BLOCK
  5
A8
330
A7
100
AcDbEntity
  8
0
100
AcDbBlockBegin
  2
*D10
 70
     1
 10
0.0
 20
0.0
 30
0.0
  3
*D10
  1

  0
LINE
  5
A9
330
A7
100
AcDbEntity
  8
0
  6
Continuous
 62
     7
100
AcDbLine
 10
-549.2814941406249
 20
63.81861114501953
 30
0.0
 11
-549.2814941406249
 21
142.818603515625
 31
0.0
  0
INSERT
  5
AA
330
A7
100
AcDbEntity
  8
0
  6
Continuous
 62
     7
100
AcDbBlockReference
  2
_OPEN30
 10
-549.2814941406249
 20
60.81861114501953
 30
0.0
 50
270.0000000000005
  0
INSERT
  5
AB
330
A7
100
AcDbEntity
  8
0
  6
Continuous
 62
     7
100
AcDbBlockReference
  2
_OPEN30
 10
-549.2814941406249
 20
145.818603515625
 30
0.0
 50
90.00000000000019
  0
LINE
  5
AC
330
A7
100
AcDbEntity
  8
0
  6
Continuous
 62
     7
100
AcDbLine
 10
-490.8489904785157
 20
60.81861114501952
 30
0.0
 11
-551.5675048828125
 21
60.81861114501953
 31
0.0
  0
LINE
  5
AD
330
A7
100
AcDbEntity
  8
0
  6
Continuous
 62
     7
100
AcDbLine
 10
-489.3489904785156
 20
145.818603515625
 30
0.0
 11
-551.5675048828125
 21
145.818603515625
 31
0.0
  0
TEXT
  5
AE
330
A7
100
AcDbEntity
  8
0
  6
Continuous
 62
     7
100
AcDbText
 10
-550.0314940282867
 20
100.7486110001793
 30
0.0
 40
3.0
  1
85
 50
90.00000250447815
 41
1.028000020980834
100
AcDbText
  0
POINT
  5
AF
330
A7
100
AcDbEntity
  8
DEFPOINTS
  6
Continuous
 62
     7
100
AcDbPoint
 10
-488.3089904785156
 20
60.81861114501953
 30
0.0
  0
POINT
  5
B0
330
A7
100
AcDbEntity
  8
DEFPOINTS
  6
Continuous
 62
     7
100
AcDbPoint
 10
-486.8089904785156
 20
145.818603515625
 30
0.0
  0
POINT
  5
B1
330
A7
100
AcDbEntity
  8
DEFPOINTS
  6
Continuous
 62
     7
100
AcDbPoint
 10
-549.2814941406249
 20
145.818603515625
 30
0.0
  0
ENDBLK
  5
B2
330
A7
100
AcDbEntity
  8
0
100
AcDbBlockEnd
  0
BLOCK
  5
B4
330
B3
100
AcDbEntity
  8
0
100
AcDbBlockBegin
  2
*D11
 70
     1
 10
0.0
 20
0.0
 30
0.0
  3
*D11
  1

  0
LINE
  5
B5
330
B3
100
AcDbEntity
  8
0
  6
Continuous
 62
     7
100
AcDbLine
 10
-492.3089904785156
 20
66.47749328613279
 30
0.0
 11
-504.3089904785156
 21
66.47749328613281
 31
0.0
  0
INSERT
  5
B6
330
B3
100
AcDbEntity
  8
0
  6
Continuous
 62
     7
100
AcDbBlockReference
  2
_OPEN30
 10
-489.3089904785155
 20
66.47749328613281
 30
0.0
  0
INSERT
  5
B7
330
B3
100
AcDbEntity
  8
0
  6
Continuous
 62
     7
100
AcDbBlockReference
  2
_OPEN30
 10
-507.3089904785156
 20
66.47749328613281
 30
0.0
 50
180.0000000000004
  0
LINE
  5
B8
330
B3
100
AcDbEntity
  8
0
  6
Continuous
 62
     7
100
AcDbLine
 10
-507.3089904785156
 20
98.32374664306641
 30
0.0
 11
-507.3089904785156
 21
64.19149017333984
 31
0.0
  0
TEXT
  5
B9
330
B3
100
AcDbEntity
  8
0
  6
Continuous
 62
     7
100
AcDbText
 10
-500.8789905905723
 20
67.22749328613281
 30
0.0
 40
3.0
  1
18
 41
1.285000026226043
100
AcDbText
  0
POINT
  5
BA
330
B3
100
AcDbEntity
  8
DEFPOINTS
  6
Continuous
 62
     7
100
AcDbPoint
 10
-489.3089904785155
 20
61.81861114501953
 30
0.0
  0
POINT
  5
BB
330
B3
100
AcDbEntity
  8
DEFPOINTS
  6
Continuous
 62
     7
100
AcDbPoint
 10
-507.3089904785156
 20
100.8637466430664
 30
0.0
  0
POINT
  5
BC
330
B3
100
AcDbEntity
  8
DEFPOINTS
  6
Continuous
 62
     7
100
AcDbPoint
 10
-507.3089904785156
 20
66.47749328613281
 30
0.0
  0
ENDBLK
  5
BD
330
B3
100
AcDbEntity
  8
0
100
AcDbBlockEnd
  0
BLOCK
  5
BF
330
BE
100
AcDbEntity
  8
0
100
AcDbBlockBegin
  2
*D12
 70
     1
 10
0.0
 20
0.0
 30
0.0
  3
*D12
  1

  0
LINE
  5
C0
330
BE
100
AcDbEntity
  8
0
  6
Continuous
 62
     7
100
AcDbLine
 10
-516.7196044921874
 20
99.31861114501952
 30
0.0
 11
-516.7196044921874
 21
83.31861114501952
 31
0.0
  0
INSERT
  5
C1
330
BE
100
AcDbEntity
  8
0
  6
Continuous
 62
     7
100
AcDbBlockReference
  2
_OPEN30
 10
-516.7196044921874
 20
102.3186111450195
 30
0.0
 50
90.00000000000019
  0
INSERT
  5
C2
330
BE
100
AcDbEntity
  8
0
  6
Continuous
 62
     7
100
AcDbBlockReference
  2
_OPEN30
 10
-516.7196044921874
 20
80.31861114501953
 30
0.0
 50
270.0000000000005
  0
LINE
  5
C3
330
BE
100
AcDbEntity
  8
0
  6
Continuous
 62
     7
100
AcDbLine
 10
-493.8489294433593
 20
80.31861114501952
 30
0.0
 11
-519.005615234375
 21
80.31861114501953
 31
0.0
  0
TEXT
  5
C4
330
BE
100
AcDbEntity
  8
0
  6
Continuous
 62
     7
100
AcDbText
 10
-517.4696043798491
 20
88.74861100017925
 30
0.0
 40
3.0
  1
22
 50
90.00000250447815
 41
1.028000020980834
100
AcDbText
  0
POINT
  5
C5
330
BE
100
AcDbEntity
  8
DEFPOINTS
  6
Continuous
 62
     7
100
AcDbPoint
 10
-537.3089599609374
 20
102.3186111450195
 30
0.0
  0
POINT
  5
C6
330
BE
100
AcDbEntity
  8
DEFPOINTS
  6
Continuous
 62
     7
100
AcDbPoint
 10
-491.3089294433594
 20
80.31861114501953
 30
0.0
  0
POINT
  5
C7
330
BE
100
AcDbEntity
  8
DEFPOINTS
  6
Continuous
 62
     7
100
AcDbPoint
 10
-516.7196044921874
 20
80.31861114501953
 30
0.0
  0
ENDBLK
  5
C8
330
BE
100
AcDbEntity
  8
0
100
AcDbBlockEnd
  0
BLOCK
  5
CA
330
C9
100
AcDbEntity
  8
0
100
AcDbBlockBegin
  2
*D13
 70
     1
 10
0.0
 20
0.0
 30
0.0
  3
*D13
  1

  0
LINE
  5
CB
330
C9
100
AcDbEntity
  8
0
  6
Continuous
 62
     7
100
AcDbLine
 10
-409.4386901855468
 20
128.8186111450195
 30
0.0
 11
-409.4386901855468
 21
222.818603515625
 31
0.0
  0
INSERT
  5
CC
330
C9
100
AcDbEntity
  8
0
  6
Continuous
 62
     7
100
AcDbBlockReference
  2
_OPEN30
 10
-409.4386901855468
 20
125.8186111450195
 30
0.0
 50
270.0000000000005
  0
INSERT
  5
CD
330
C9
100
AcDbEntity
  8
0
  6
Continuous
 62
     7
100
AcDbBlockReference
  2
_OPEN30
 10
-409.4386901855468
 20
225.818603515625
 30
0.0
 50
90.00000000000019
  0
TEXT
  5
CE
330
C9
100
AcDbEntity
  8
0
  6
Continuous
 62
     7
100
AcDbText
 10
-410.1886900076415
 20
171.7486033111801
 30
0.0
 40
3.0
  1
100
 50
90.00000250447815
 41
1.320000017011488
100
AcDbText
  0
POINT
  5
CF
330
C9
100
AcDbEntity
  8
DEFPOINTS
  6
Continuous
 62
     7
100
AcDbPoint
 10
-426.8089904785155
 20
125.8186111450195
 30
0.0
  0
POINT
  5
D0
330
C9
100
AcDbEntity
  8
DEFPOINTS
  6
Continuous
 62
     7
100
AcDbPoint
 10
-426.8089904785155
 20
225.818603515625
 30
0.0
  0
POINT
  5
D1
330
C9
100
AcDbEntity
  8
DEFPOINTS
  6
Continuous
 62
     7
100
AcDbPoint
 10
-409.4386901855468
 20
225.818603515625
 30
0.0
  0
ENDBLK
  5
D2
330
C9
100
AcDbEntity
  8
0
100
AcDbBlockEnd
  0
BLOCK
  5
D4
330
D3
100
AcDbEntity
  8
0
100
AcDbBlockBegin
  2
*D14
 70
     1
 10
0.0
 20
0.0
 30
0.0
  3
*D14
  1

  0
LINE
  5
D5
330
D3
100
AcDbEntity
  8
0
  6
Continuous
 62
     7
100
AcDbLine
 10
-392.9530639648438
 20
128.8186111450195
 30
0.0
 11
-392.9530639648438
 21
172.818603515625
 31
0.0
  0
INSERT
  5
D6
330
D3
100
AcDbEntity
  8
0
  6
Continuous
 62
     7
100
AcDbBlockReference
  2
_OPEN30
 10
-392.9530639648438
 20
125.8186111450195
 30
0.0
 50
270.0000000000005
  0
INSERT
  5
D7
330
D3
100
AcDbEntity
  8
0
  6
Continuous
 62
     7
100
AcDbBlockReference
  2
_OPEN30
 10
-392.9530639648438
 20
175.818603515625
 30
0.0
 50
90.00000000000019
  0
LINE
  5
D8
330
D3
100
AcDbEntity
  8
0
  6
Continuous
 62
     7
100
AcDbLine
 10
-374.3489904785157
 20
175.818603515625
 30
0.0
 11
-395.2390747070313
 21
175.818603515625
 31
0.0
  0
TEXT
  5
D9
330
D3
100
AcDbEntity
  8
0
  6
Continuous
 62
     7
100
AcDbText
 10
-393.7030638525055
 20
148.2486033707846
 30
0.0
 40
3.0
  1
50
 50
90.00000250447815
 41
1.101428593908038
100
AcDbText
  0
POINT
  5
DA
330
D3
100
AcDbEntity
  8
DEFPOINTS
  6
Continuous
 62
     7
100
AcDbPoint
 10
-371.8089904785156
 20
125.8186111450195
 30
0.0
  0
POINT
  5
DB
330
D3
100
AcDbEntity
  8
DEFPOINTS
  6
Continuous
 62
     7
100
AcDbPoint
 10
-371.8089904785156
 20
175.818603515625
 30
0.0
  0
POINT
  5
DC
330
D3
100
AcDbEntity
  8
DEFPOINTS
  6
Continuous
 62
     7
100
AcDbPoint
 10
-392.9530639648438
 20
175.818603515625
 30
0.0
  0
ENDBLK
  5
DD
330
D3
100
AcDbEntity
  8
0
100
AcDbBlockEnd
  0
BLOCK
  5
DF
330
DE
100
AcDbEntity
  8
0
100
AcDbBlockBegin
  2
KOZU0001
 70
     0
 10
0.0
 20
0.0
 30
0.0
  3
KOZU0001
  1

  0
LINE
  5
E0
330
DE
100
AcDbEntity
  8
0
  6
Continuous
 62
     7
100
AcDbLine
 10
0.0
 20
0.0
 30
0.0
 11
10.79525756835938
 21
-8.688583374023437
 31
0.0
  0
LINE
  5
E1
330
DE
100
AcDbEntity
  8
0
  6
Continuous
 62
     7
100
AcDbLine
 10
10.79525756835938
 20
-8.688583374023437
 30
0.0
 11
43.12615966796875
 21
-8.688583374023437
 31
0.0
  0
LINE
  5
E2
330
DE
100
AcDbEntity
  8
0
  6
Continuous
 62
     7
100
AcDbLine
 10
0.0
 20
0.0
 30
0.0
 11
2.964061960164707
 21
-1.101969462509988
 31
0.0
  0
LINE
  5
E3
330
DE
100
AcDbEntity
  8
0
  6
Continuous
 62
     7
100
AcDbLine
 10
0.0
 20
0.0
 30
0.0
 11
1.710067890625774
 21
-2.660012746106815
 31
0.0
  0
TEXT
  5
E4
330
DE
100
AcDbEntity
  8
0
  6
Continuous
 62
     7
100
AcDbText
 10
15.26615834236145
 20
-7.938583374023437
 30
0.0
 40
3.0
  1
配管接続口
 41
0.8487395020950888
100
AcDbText
  0
TEXT
  5
E5
330
DE
100
AcDbEntity
  8
0
  6
Continuous
 62
     7
100
AcDbText
 10
15.26615834236145
 20
-13.20358337402344
 30
0.0
 40
3.0
  1
Ｒｃ４（１００Ａ）
 41
0.8448610247221777
100
AcDbText
  0
ENDBLK
  5
E6
330
DE
100
AcDbEntity
  8
0
100
AcDbBlockEnd
  0
BLOCK
  5
E8
330
E7
100
AcDbEntity
  8
0
100
AcDbBlockBegin
  2
KOZU0002
 70
     0
 10
0.0
 20
0.0
 30
0.0
  3
KOZU0002
  1

  0
LINE
  5
E9
330
E7
100
AcDbEntity
  8
0
  6
Continuous
 62
     7
100
AcDbLine
 10
0.0
 20
0.0
 30
0.0
 11
-28.07339477539063
 21
-55.32106018066406
 31
0.0
  0
LINE
  5
EA
330
E7
100
AcDbEntity
  8
0
  6
Continuous
 62
     7
100
AcDbLine
 10
-28.07339477539063
 20
-55.32106018066406
 30
0.0
 11
-58.41720581054688
 21
-55.32106018066406
 31
0.0
  0
LINE
  5
EB
330
E7
100
AcDbEntity
  8
0
  6
Continuous
 62
     7
100
AcDbLine
 10
0.0
 20
0.0
 30
0.0
 11
-0.4658401848764723
 21
-3.127777633105373
 31
0.0
  0
LINE
  5
EC
330
E7
100
AcDbEntity
  8
0
  6
Continuous
 62
     7
100
AcDbLine
 10
0.0
 20
0.0
 30
0.0
 11
-2.249338727764401
 21
-2.222717995558415
 31
0.0
  0
TEXT
  5
ED
330
E7
100
AcDbEntity
  8
0
  6
Continuous
 62
     7
100
AcDbText
 10
-56.6972359418869
 20
-54.57106018066406
 30
0.0
 40
3.0
  1
共廻り防止用羽根
 41
0.8454512278006642
100
AcDbText
  0
TEXT
  5
EE
330
E7
100
AcDbEntity
  8
0
  6
Continuous
 62
     7
100
AcDbText
 10
-56.6972359418869
 20
-59.83606018066407
 30
0.0
 40
3.0
  1
３ヶ所
 41
0.8550420278260688
100
AcDbText
  0
ENDBLK
  5
EF
330
E7
100
AcDbEntity
  8
0
100
AcDbBlockEnd
  0
ENDSEC
  0
SECTION
  2
ENTITIES
  0
LINE
  5
F0
330
22
100
AcDbEntity
  8
0
  6
CENTER
 62
     7
100
AcDbLine
 10
-310.3777160644531
 20
432.318603515625
 30
0.0
 11
-545.4595336914064
 21
432.318603515625
 31
0.0
  0
LINE
  5
F1
330
22
100
AcDbEntity
  8
0
  6
CENTER
 62
     7
100
AcDbLine
 10
-426.8089904785155
 20
54.78522872924805
 30
0.0
 11
-426.8089904785155
 21
282.270751953125
 31
0.0
  0
LINE
  5
F2
330
22
100
AcDbEntity
  8
0
  6
CENTER
 62
     7
100
AcDbLine
 10
-426.8089904785155
 20
313.6978759765625
 30
0.0
 11
-426.8089904785155
 21
551.9695434570313
 31
0.0
  0
LINE
  5
F3
330
22
100
AcDbEntity
  8
0
  6
Continuous
 62
     7
100
AcDbLine
 10
-419.3589782714843
 20
434.7686157226562
 30
0.0
 11
-419.3589782714843
 21
429.8686218261718
 31
0.0
  0
LINE
  5
F4
330
22
100
AcDbEntity
  8
0
  6
Continuous
 62
     7
100
AcDbLine
 10
-434.2589721679687
 20
434.7686157226562
 30
0.0
 11
-434.2589721679687
 21
429.8686218261718
 31
0.0
  0
LINE
  5
F5
330
22
100
AcDbEntity
  8
0
  6
Continuous
 62
     7
100
AcDbLine
 10
-430.5238342285156
 20
429.8686218261718
 30
0.0
 11
-434.2589721679687
 21
429.8686218261718
 31
0.0
  0
LINE
  5
F6
330
22
100
AcDbEntity
  8
0
  6
Continuous
 62
     7
100
AcDbLine
 10
-430.5238342285156
 20
434.7686157226562
 30
0.0
 11
-434.2589721679687
 21
434.7686157226562
 31
0.0
  0
LINE
  5
F7
330
22
100
AcDbEntity
  8
0
  6
Continuous
 62
     7
100
AcDbLine
 10
-423.0941467285155
 20
434.7686157226562
 30
0.0
 11
-419.3589782714843
 21
434.7686157226562
 31
0.0
  0
LINE
  5
F8
330
22
100
AcDbEntity
  8
0
  6
Continuous
 62
     7
100
AcDbLine
 10
-423.0941467285155
 20
429.8686218261718
 30
0.0
 11
-419.3589782714843
 21
429.8686218261718
 31
0.0
  0
LINE
  5
F9
330
22
100
AcDbEntity
  8
0
  6
Continuous
 62
     7
100
AcDbLine
 10
-360.9508361816406
 20
267.9922485351563
 30
0.0
 11
-364.8096313476563
 21
248.818603515625
 31
0.0
  0
LINE
  5
FA
330
22
100
AcDbEntity
  8
0
  6
Continuous
 62
     7
100
AcDbLine
 10
-412.8145446777343
 20
259.3150939941406
 30
0.0
 11
-412.8145446777343
 21
259.4645690917969
 31
0.0
  0
LINE
  5
FB
330
22
100
AcDbEntity
  8
0
  6
Continuous
 62
     7
100
AcDbLine
 10
-407.7808532714843
 20
253.8150939941406
 30
0.0
 11
-419.5349426269531
 21
253.8150939941406
 31
0.0
  0
LINE
  5
FC
330
22
100
AcDbEntity
  8
0
  6
Continuous
 62
     7
100
AcDbLine
 10
-422.0349426269531
 20
256.8150939941406
 30
0.0
 11
-408.8163452148438
 21
256.8150939941406
 31
0.0
  0
LINE
  5
FD
330
22
100
AcDbEntity
  8
0
  6
Continuous
 62
     7
100
AcDbLine
 10
-422.0349426269531
 20
252.4437408447266
 30
0.0
 11
-421.9063110351562
 21
252.3150939941406
 31
0.0
  0
LINE
  5
FE
330
22
100
AcDbEntity
  8
0
  6
Continuous
 62
     7
100
AcDbLine
 10
-408.8163452148438
 20
263.1460571289063
 30
0.0
 11
-408.8163452148438
 21
256.8150939941406
 31
0.0
  0
LINE
  5
FF
330
22
100
AcDbEntity
  8
0
  6
Continuous
 62
     7
100
AcDbLine
 10
-410.7349548339843
 20
253.8150939941406
 30
0.0
 11
-410.7349548339843
 21
256.8150939941406
 31
0.0
  0
LINE
  5
100
330
22
100
AcDbEntity
  8
0
  6
Continuous
 62
     7
100
AcDbLine
 10
-421.0349426269531
 20
252.3150939941406
 30
0.0
 11
-422.0349426269531
 21
252.3150939941406
 31
0.0
  0
LINE
  5
101
330
22
100
AcDbEntity
  8
0
  6
Continuous
 62
     7
100
AcDbLine
 10
-422.0349426269531
 20
252.3150939941406
 30
0.0
 11
-422.0349426269531
 21
256.8150939941406
 31
0.0
  0
LINE
  5
102
330
22
100
AcDbEntity
  8
0
  6
Continuous
 62
     7
100
AcDbLine
 10
-408.8163452148438
 20
262.8145446777344
 30
0.0
 11
-410.8145446777343
 21
262.8145446777344
 31
0.0
  0
LINE
  5
103
330
22
100
AcDbEntity
  8
0
  6
Continuous
 62
     7
100
AcDbLine
 10
-408.9145507812499
 20
260.3150939941406
 30
0.0
 11
-408.9145507812499
 21
258.3150939941406
 31
0.0
  0
LINE
  5
104
330
22
100
AcDbEntity
  8
0
  6
Continuous
 62
     7
100
AcDbLine
 10
-372.603515625
 20
225.818603515625
 30
0.0
 11
-371.46435546875
 21
189.3677520751953
 31
0.0
  0
LINE
  5
105
330
22
100
AcDbEntity
  8
0
  6
Continuous
 62
     7
100
AcDbLine
 10
-371.0543518066406
 20
224.2694702148438
 30
0.0
 11
-369.9152221679688
 21
187.818603515625
 31
0.0
  0
LINE
  5
106
330
22
100
AcDbEntity
  8
0
  6
Continuous
 62
     7
100
AcDbLine
 10
-409.4145507812499
 20
257.8150939941405
 30
0.0
 11
-411.3145446777343
 21
257.8150939941405
 31
0.0
  0
LINE
  5
107
330
22
100
AcDbEntity
  8
0
  6
Continuous
 62
     7
100
AcDbLine
 10
-410.7349548339843
 20
253.8716735839844
 30
0.0
 11
-410.6783752441406
 21
253.8150939941406
 31
0.0
  0
LINE
  5
108
330
22
100
AcDbEntity
  8
0
  6
Continuous
 62
     7
100
AcDbLine
 10
-413.8145446777343
 20
260.4645690917969
 30
0.0
 11
-419.8149414062499
 21
260.4645690917969
 31
0.0
  0
LINE
  5
109
330
22
100
AcDbEntity
  8
0
  6
Continuous
 62
     7
100
AcDbLine
 10
-419.5349426269531
 20
256.8150939941406
 30
0.0
 11
-419.5349426269531
 21
253.8150939941406
 31
0.0
  0
LINE
  5
10A
330
22
100
AcDbEntity
  8
0
  6
Continuous
 62
     7
100
AcDbLine
 10
-370.8061828613281
 20
250.3150939941406
 30
0.0
 11
-370.8061828613281
 21
247.8150939941406
 31
0.0
  0
LINE
  5
10B
330
22
100
AcDbEntity
  8
0
  6
Continuous
 62
     7
100
AcDbLine
 10
-370.8061828613281
 20
247.8150939941406
 30
0.0
 11
-368.9061889648438
 21
247.8150939941406
 31
0.0
  0
LINE
  5
10C
330
22
100
AcDbEntity
  8
0
  6
Continuous
 62
     7
100
AcDbLine
 10
-368.9061889648438
 20
241.8150939941406
 30
0.0
 11
-368.9061889648438
 21
247.8150939941406
 31
0.0
  0
LINE
  5
10D
330
22
100
AcDbEntity
  8
0
  6
Continuous
 62
     7
100
AcDbLine
 10
-368.8061828613281
 20
250.3150939941406
 30
0.0
 11
-370.8061828613281
 21
250.3150939941406
 31
0.0
  0
LINE
  5
10E
330
22
100
AcDbEntity
  8
0
  6
Continuous
 62
     7
100
AcDbLine
 10
-368.9061889648438
 20
247.8150939941406
 30
0.0
 11
-368.8061828613281
 21
250.3150939941406
 31
0.0
  0
LINE
  5
10F
330
22
100
AcDbEntity
  8
0
  6
Continuous
 62
     7
100
AcDbLine
 10
-371.826171875
 20
241.8150939941406
 30
0.0
 11
-372.0424194335938
 21
242.0144348144531
 31
0.0
  0
LINE
  5
110
330
22
100
AcDbEntity
  8
0
  6
Continuous
 62
     7
100
AcDbLine
 10
-369.4061889648438
 20
241.8150939941406
 30
0.0
 11
-371.826171875
 21
241.8150939941406
 31
0.0
  0
LINE
  5
111
330
22
100
AcDbEntity
  8
0
  6
Continuous
 62
     7
100
AcDbLine
 10
-373.9989318847656
 20
266.051788330078
 30
0.0
 11
-372.0424194335938
 21
242.0144348144531
 31
0.0
  0
LINE
  5
112
330
22
100
AcDbEntity
  8
0
  6
Continuous
 62
     7
100
AcDbLine
 10
-403.4154663085938
 20
267.4300842285155
 30
0.0
 11
-375.4939880371094
 21
267.4300842285155
 31
0.0
  0
LINE
  5
113
330
22
100
AcDbEntity
  8
0
  6
Continuous
 62
     7
100
AcDbLine
 10
-410.8145446777343
 20
262.8145446777344
 30
0.0
 11
-410.8145446777343
 21
260.3150939941406
 31
0.0
  0
LINE
  5
114
330
22
100
AcDbEntity
  8
0
  6
Continuous
 62
     7
100
AcDbLine
 10
-410.8145446777343
 20
260.3150939941406
 30
0.0
 11
-408.9145507812499
 21
260.3150939941406
 31
0.0
  0
LINE
  5
115
330
22
100
AcDbEntity
  8
0
  6
Continuous
 62
     7
100
AcDbLine
 10
-404.9101867675781
 20
266.05615234375
 30
0.0
 11
-405.7879333496093
 21
255.6470336914063
 31
0.0
  0
LINE
  5
116
330
22
100
AcDbEntity
  8
0
  6
Continuous
 62
     7
100
AcDbLine
 10
-408.8163452148438
 20
262.8145446777344
 30
0.0
 11
-408.8163452148438
 21
263.1460571289063
 31
0.0
  0
LINE
  5
117
330
22
100
AcDbEntity
  8
0
  6
Continuous
 62
     7
100
AcDbLine
 10
-315.8089904785156
 20
102.8186111450195
 30
0.0
 11
-315.8089904785156
 21
103.8186111450195
 31
0.0
  0
LINE
  5
118
330
22
100
AcDbEntity
  8
0
  6
Continuous
 62
     7
100
AcDbLine
 10
-371.8089904785156
 20
107.3186111450195
 30
0.0
 11
-370.3089904785156
 21
105.8186111450195
 31
0.0
  0
LINE
  5
119
330
22
100
AcDbEntity
  8
0
  6
Continuous
 62
     7
100
AcDbLine
 10
-365.8089904785156
 20
110.8186111450195
 30
0.0
 11
-365.8089904785156
 21
144.818603515625
 31
0.0
  0
LINE
  5
11A
330
22
100
AcDbEntity
  8
0
  6
Continuous
 62
     7
100
AcDbLine
 10
-370.3089904785156
 20
145.818603515625
 30
0.0
 11
-370.3089904785156
 21
105.8186111450195
 31
0.0
  0
LINE
  5
11B
330
22
100
AcDbEntity
  8
0
  6
Continuous
 62
     7
100
AcDbLine
 10
-370.4152526855469
 20
203.818603515625
 30
0.0
 11
-365.8096313476563
 21
203.818603515625
 31
0.0
  0
LINE
  5
11C
330
22
100
AcDbEntity
  8
0
  6
Continuous
 62
     7
100
AcDbLine
 10
-360.8089904785156
 20
105.8186111450195
 30
0.0
 11
-317.8089904785156
 21
105.8186111450195
 31
0.0
  0
LINE
  5
11D
330
22
100
AcDbEntity
  8
0
  6
Continuous
 62
     7
100
AcDbLine
 10
-332.5565795898438
 20
104.8186111450195
 30
0.0
 11
-331.5565795898438
 21
105.8186111450195
 31
0.0
  0
LINE
  5
11E
330
22
100
AcDbEntity
  8
0
  6
Continuous
 62
     7
100
AcDbLine
 10
-332.5565795898438
 20
104.8186111450195
 30
0.0
 11
-333.5565795898438
 21
105.8186111450195
 31
0.0
  0
LINE
  5
11F
330
22
100
AcDbEntity
  8
0
  6
Continuous
 62
     7
100
AcDbLine
 10
-370.3089904785156
 20
145.818603515625
 30
0.0
 11
-371.8089904785156
 21
144.318603515625
 31
0.0
  0
LINE
  5
120
330
22
100
AcDbEntity
  8
0
  6
Continuous
 62
     7
100
AcDbLine
 10
-348.5589904785156
 20
104.8186111450195
 30
0.0
 11
-347.5589904785156
 21
105.8186111450195
 31
0.0
  0
LINE
  5
121
330
22
100
AcDbEntity
  8
0
  6
Continuous
 62
     7
100
AcDbLine
 10
-371.8089904785156
 20
125.8186111450195
 30
0.0
 11
-370.3089904785156
 21
127.3186111450195
 31
0.0
  0
LINE
  5
122
330
22
100
AcDbEntity
  8
0
  6
Continuous
 62
     7
100
AcDbLine
 10
-363.3089904785156
 20
102.3186111450195
 30
0.0
 11
-316.3089904785156
 21
102.3186111450195
 31
0.0
  0
LINE
  5
123
330
22
100
AcDbEntity
  8
0
  6
Continuous
 62
     7
100
AcDbLine
 10
-364.8096313476563
 20
206.818603515625
 30
0.0
 11
-362.8096313476563
 21
208.818603515625
 31
0.0
  0
LINE
  5
124
330
22
100
AcDbEntity
  8
0
  6
Continuous
 62
     7
100
AcDbLine
 10
-370.3055419921875
 20
225.818603515625
 30
0.0
 11
-371.8055419921875
 21
224.318603515625
 31
0.0
  0
LINE
  5
125
330
22
100
AcDbEntity
  8
0
  6
Continuous
 62
     7
100
AcDbLine
 10
-370.3055419921875
 20
203.818603515625
 30
0.0
 11
-371.8055419921875
 21
205.318603515625
 31
0.0
  0
LINE
  5
126
330
22
100
AcDbEntity
  8
0
  6
Continuous
 62
     7
100
AcDbLine
 10
-371.8055419921875
 20
205.318603515625
 30
0.0
 11
-371.8055419921875
 21
224.318603515625
 31
0.0
  0
LINE
  5
127
330
22
100
AcDbEntity
  8
0
  6
Continuous
 62
     7
100
AcDbLine
 10
-365.8096313476563
 20
203.818603515625
 30
0.0
 11
-364.8096313476563
 21
204.818603515625
 31
0.0
  0
LINE
  5
128
330
22
100
AcDbEntity
  8
0
  6
Continuous
 62
     7
100
AcDbLine
 10
-372.603515625
 20
225.818603515625
 30
0.0
 11
-371.0543518066406
 21
224.2694702148438
 31
0.0
  0
LINE
  5
129
330
22
100
AcDbEntity
  8
0
  6
Continuous
 62
     7
100
AcDbLine
 10
-369.6589965820313
 20
187.5623779296875
 30
0.0
 11
-369.6589965820313
 21
177.9686126708984
 31
0.0
  0
LINE
  5
12A
330
22
100
AcDbEntity
  8
0
  6
Continuous
 62
     7
100
AcDbLine
 10
-369.6589965820313
 20
187.5623779296875
 30
0.0
 11
-371.46435546875
 21
189.3677520751953
 31
0.0
  0
LINE
  5
12B
330
22
100
AcDbEntity
  8
0
  6
Continuous
 62
     7
100
AcDbLine
 10
-371.8089904785156
 20
175.818603515625
 30
0.0
 11
-369.6589965820313
 21
177.9686126708984
 31
0.0
  0
LINE
  5
12C
330
22
100
AcDbEntity
  8
0
  6
Continuous
 62
     7
100
AcDbLine
 10
-374.30712890625
 20
230.818603515625
 30
0.0
 11
-373.30712890625
 21
231.818603515625
 31
0.0
  0
LINE
  5
12D
330
22
100
AcDbEntity
  8
0
  6
Continuous
 62
     7
100
AcDbLine
 10
-371.8566589355469
 20
62.3208999633789
 30
0.0
 11
-372.9972839355469
 21
98.81861114501951
 31
0.0
  0
LINE
  5
12E
330
22
100
AcDbEntity
  8
0
  6
Continuous
 62
     7
100
AcDbLine
 10
-372.9972839355469
 20
98.81861114501951
 30
0.0
 11
-371.5420227050781
 21
100.2738647460938
 31
0.0
  0
LINE
  5
12F
330
22
100
AcDbEntity
  8
0
  6
Continuous
 62
     7
100
AcDbLine
 10
-370.3089904785156
 20
60.81861114501953
 30
0.0
 11
-371.5420227050781
 21
100.2738647460938
 31
0.0
  0
LINE
  5
130
330
22
100
AcDbEntity
  8
0
  6
Continuous
 62
     7
100
AcDbLine
 10
-364.3089904785156
 20
61.81861114501953
 30
0.0
 11
-364.3089904785156
 21
101.3186111450195
 31
0.0
  0
LINE
  5
131
330
22
100
AcDbEntity
  8
0
  6
Continuous
 62
     7
100
AcDbLine
 10
-370.3089904785156
 20
145.6867370605469
 30
0.0
 11
-370.1770935058594
 21
145.818603515625
 31
0.0
  0
LINE
  5
132
330
22
100
AcDbEntity
  8
0
  6
Continuous
 62
     7
100
AcDbLine
 10
-370.3089904785156
 20
141.444091796875
 30
0.0
 11
-366.1770935058594
 21
145.5759735107422
 31
0.0
  0
LINE
  5
133
330
22
100
AcDbEntity
  8
0
  6
Continuous
 62
     7
100
AcDbLine
 10
-370.3089904785156
 20
137.2014465332031
 30
0.0
 11
-365.8089904785156
 21
141.7014465332031
 31
0.0
  0
LINE
  5
134
330
22
100
AcDbEntity
  8
0
  6
Continuous
 62
     7
100
AcDbLine
 10
-370.3089904785156
 20
132.9588165283203
 30
0.0
 11
-365.8089904785156
 21
137.4588165283203
 31
0.0
  0
LINE
  5
135
330
22
100
AcDbEntity
  8
0
  6
Continuous
 62
     7
100
AcDbLine
 10
-370.3089904785156
 20
128.7161712646484
 30
0.0
 11
-365.8089904785156
 21
133.2161712646484
 31
0.0
  0
LINE
  5
136
330
22
100
AcDbEntity
  8
0
  6
Continuous
 62
     7
100
AcDbLine
 10
-370.3089904785156
 20
124.4735336303711
 30
0.0
 11
-365.8089904785156
 21
128.9735260009766
 31
0.0
  0
LINE
  5
137
330
22
100
AcDbEntity
  8
0
  6
Continuous
 62
     7
100
AcDbLine
 10
-370.3089904785156
 20
120.2308883666992
 30
0.0
 11
-365.8089904785156
 21
124.7308883666992
 31
0.0
  0
LINE
  5
138
330
22
100
AcDbEntity
  8
0
  6
Continuous
 62
     7
100
AcDbLine
 10
-370.3089904785156
 20
115.9882507324219
 30
0.0
 11
-365.8089904785156
 21
120.4882507324219
 31
0.0
  0
LINE
  5
139
330
22
100
AcDbEntity
  8
0
  6
Continuous
 62
     7
100
AcDbLine
 10
-370.3089904785156
 20
111.74560546875
 30
0.0
 11
-365.8089904785156
 21
116.24560546875
 31
0.0
  0
LINE
  5
13A
330
22
100
AcDbEntity
  8
0
  6
Continuous
 62
     7
100
AcDbLine
 10
-370.3089904785156
 20
107.5029678344727
 30
0.0
 11
-365.8089904785156
 21
112.0029678344727
 31
0.0
  0
LINE
  5
13B
330
22
100
AcDbEntity
  8
0
  6
Continuous
 62
     7
100
AcDbLine
 10
-371.0405883789063
 20
102.5287246704102
 30
0.0
 11
-365.1621704101563
 21
108.4071426391602
 31
0.0
  0
LINE
  5
13C
330
22
100
AcDbEntity
  8
0
  6
Continuous
 62
     7
100
AcDbLine
 10
-371.4665832519531
 20
97.86008453369142
 30
0.0
 11
-362.9863586425781
 21
106.3403015136719
 31
0.0
  0
LINE
  5
13D
330
22
100
AcDbEntity
  8
0
  6
Continuous
 62
     7
100
AcDbLine
 10
-362.7654113769531
 20
102.3186111450195
 30
0.0
 11
-359.2654113769531
 21
105.8186111450195
 31
0.0
  0
LINE
  5
13E
330
22
100
AcDbEntity
  8
0
  6
Continuous
 62
     7
100
AcDbLine
 10
-371.3380126953125
 20
93.74600982666015
 30
0.0
 11
-364.3089904785156
 21
100.7750473022461
 31
0.0
  0
LINE
  5
13F
330
22
100
AcDbEntity
  8
0
  6
Continuous
 62
     7
100
AcDbLine
 10
-358.5227661132813
 20
102.3186111450195
 30
0.0
 11
-355.0227661132813
 21
105.8186111450195
 31
0.0
  0
LINE
  5
140
330
22
100
AcDbEntity
  8
0
  6
Continuous
 62
     7
100
AcDbLine
 10
-371.2094421386719
 20
89.63194274902344
 30
0.0
 11
-364.3089904785156
 21
96.53240203857421
 31
0.0
  0
LINE
  5
141
330
22
100
AcDbEntity
  8
0
  6
Continuous
 62
     7
100
AcDbLine
 10
-354.2801513671875
 20
102.3186111450195
 30
0.0
 11
-350.7801513671875
 21
105.8186111450195
 31
0.0
  0
LINE
  5
142
330
22
100
AcDbEntity
  8
0
  6
Continuous
 62
     7
100
AcDbLine
 10
-371.0808715820313
 20
85.51787567138672
 30
0.0
 11
-364.3089904785156
 21
92.28976440429688
 31
0.0
  0
LINE
  5
143
330
22
100
AcDbEntity
  8
0
  6
Continuous
 62
     7
100
AcDbLine
 10
-350.0375061035156
 20
102.3186111450195
 30
0.0
 11
-346.5375061035156
 21
105.8186111450195
 31
0.0
  0
LINE
  5
144
330
22
100
AcDbEntity
  8
0
  6
Continuous
 62
     7
100
AcDbLine
 10
-370.9523010253906
 20
81.40380096435547
 30
0.0
 11
-364.3089904785156
 21
88.04712677001953
 31
0.0
  0
LINE
  5
145
330
22
100
AcDbEntity
  8
0
  6
Continuous
 62
     7
100
AcDbLine
 10
-345.7948608398438
 20
102.3186111450195
 30
0.0
 11
-342.2948608398438
 21
105.8186111450195
 31
0.0
  0
LINE
  5
146
330
22
100
AcDbEntity
  8
0
  6
Continuous
 62
     7
100
AcDbLine
 10
-370.82373046875
 20
77.28973388671875
 30
0.0
 11
-364.3089904785156
 21
83.80448150634766
 31
0.0
  0
LINE
  5
147
330
22
100
AcDbEntity
  8
0
  6
Continuous
 62
     7
100
AcDbLine
 10
-341.5522155761719
 20
102.3186111450195
 30
0.0
 11
-338.0522155761719
 21
105.8186111450195
 31
0.0
  0
LINE
  5
148
330
22
100
AcDbEntity
  8
0
  6
Continuous
 62
     7
100
AcDbLine
 10
-370.6951599121094
 20
73.17566680908203
 30
0.0
 11
-364.3089904785156
 21
79.56184387207031
 31
0.0
  0
LINE
  5
149
330
22
100
AcDbEntity
  8
0
  6
Continuous
 62
     7
100
AcDbLine
 10
-337.3095703125
 20
102.3186111450195
 30
0.0
 11
-333.8095703125
 21
105.8186111450195
 31
0.0
  0
LINE
  5
14A
330
22
100
AcDbEntity
  8
0
  6
Continuous
 62
     7
100
AcDbLine
 10
-370.5665893554688
 20
69.06159210205078
 30
0.0
 11
-364.3089904785156
 21
75.31919860839844
 31
0.0
  0
LINE
  5
14B
330
22
100
AcDbEntity
  8
0
  6
Continuous
 62
     7
100
AcDbLine
 10
-333.0669250488281
 20
102.3186111450195
 30
0.0
 11
-329.5669250488281
 21
105.8186111450195
 31
0.0
  0
LINE
  5
14C
330
22
100
AcDbEntity
  8
0
  6
Continuous
 62
     7
100
AcDbLine
 10
-370.4380187988281
 20
64.94752502441406
 30
0.0
 11
-364.3089904785156
 21
71.07656097412109
 31
0.0
  0
LINE
  5
14D
330
22
100
AcDbEntity
  8
0
  6
Continuous
 62
     7
100
AcDbLine
 10
-328.8242797851563
 20
102.3186111450195
 30
0.0
 11
-325.3242797851563
 21
105.8186111450195
 31
0.0
  0
LINE
  5
14E
330
22
100
AcDbEntity
  8
0
  6
Continuous
 62
     7
100
AcDbLine
 10
-370.3094482421875
 20
60.83345413208007
 30
0.0
 11
-364.3089904785156
 21
66.83392333984375
 31
0.0
  0
LINE
  5
14F
330
22
100
AcDbEntity
  8
0
  6
Continuous
 62
     7
100
AcDbLine
 10
-324.5816650390625
 20
102.3186111450195
 30
0.0
 11
-321.0816650390625
 21
105.8186111450195
 31
0.0
  0
LINE
  5
150
330
22
100
AcDbEntity
  8
0
  6
Continuous
 62
     7
100
AcDbLine
 10
-366.0816650390625
 20
60.81861114501953
 30
0.0
 11
-364.3089904785156
 21
62.59127807617188
 31
0.0
  0
LINE
  5
151
330
22
100
AcDbEntity
  8
0
  6
Continuous
 62
     7
100
AcDbLine
 10
-320.3390197753906
 20
102.3186111450195
 30
0.0
 11
-317.0122375488281
 21
105.645393371582
 31
0.0
  0
LINE
  5
152
330
22
100
AcDbEntity
  8
0
  6
Continuous
 62
     7
100
AcDbLine
 10
-371.5420227050781
 20
100.2738647460938
 30
0.0
 11
-371.5420227050781
 21
105.8186111450195
 31
0.0
  0
LINE
  5
153
330
22
100
AcDbEntity
  8
0
  6
Continuous
 62
     7
100
AcDbLine
 10
-370.3089904785156
 20
60.81861114501953
 30
0.0
 11
-371.8581237792969
 21
62.36775588989257
 31
0.0
  0
LINE
  5
154
330
22
100
AcDbEntity
  8
0
  6
Continuous
 62
     7
100
AcDbLine
 10
-402.791259765625
 20
125.8186111450195
 30
0.0
 11
-390.729736328125
 21
125.8186111450195
 31
0.0
  0
LINE
  5
155
330
22
100
AcDbEntity
  8
0
  6
Continuous
 62
     7
100
AcDbLine
 10
-402.791259765625
 20
225.818603515625
 30
0.0
 11
-390.729736328125
 21
225.818603515625
 31
0.0
  0
LINE
  5
156
330
22
100
AcDbEntity
  8
0
  6
Continuous
 62
     7
100
AcDbLine
 10
-370.3089904785156
 20
127.3186111450195
 30
0.0
 11
-370.3089904785156
 21
177.318603515625
 31
0.0
  0
LINE
  5
157
330
22
100
AcDbEntity
  8
0
  6
Continuous
 62
     7
100
AcDbLine
 10
-371.8089904785156
 20
125.8186111450195
 30
0.0
 11
-371.8089904785156
 21
175.818603515625
 31
0.0
  0
LINE
  5
158
330
22
100
AcDbEntity
  8
0
  6
Continuous
 62
     7
100
AcDbLine
 10
-373.8089904785156
 20
222.8050537109375
 30
0.0
 11
-372.5487060546875
 21
224.0653381347656
 31
0.0
  0
LINE
  5
159
330
22
100
AcDbEntity
  8
0
  6
Continuous
 62
     7
100
AcDbLine
 10
-373.8089904785156
 20
215.7339935302734
 30
0.0
 11
-372.3344421386719
 21
217.2085418701172
 31
0.0
  0
LINE
  5
15A
330
22
100
AcDbEntity
  8
0
  6
Continuous
 62
     7
100
AcDbLine
 10
-373.8089904785156
 20
208.6629180908203
 30
0.0
 11
-372.1201477050781
 21
210.3517608642578
 31
0.0
  0
LINE
  5
15B
330
22
100
AcDbEntity
  8
0
  6
Continuous
 62
     7
100
AcDbLine
 10
-373.8089904785156
 20
201.5918579101563
 30
0.0
 11
-371.9058532714844
 21
203.4949798583984
 31
0.0
  0
LINE
  5
15C
330
22
100
AcDbEntity
  8
0
  6
Continuous
 62
     7
100
AcDbLine
 10
-373.8089904785156
 20
194.5207824707031
 30
0.0
 11
-371.6915588378906
 21
196.6381988525391
 31
0.0
  0
LINE
  5
15D
330
22
100
AcDbEntity
  8
0
  6
Continuous
 62
     7
100
AcDbLine
 10
-373.8089904785156
 20
187.4497222900391
 30
0.0
 11
-371.477294921875
 21
189.7814178466797
 31
0.0
  0
LINE
  5
15E
330
22
100
AcDbEntity
  8
0
  6
Continuous
 62
     7
100
AcDbLine
 10
-373.8089904785156
 20
180.3786468505859
 30
0.0
 11
-369.6589965820313
 21
184.5286560058594
 31
0.0
  0
LINE
  5
15F
330
22
100
AcDbEntity
  8
0
  6
Continuous
 62
     7
100
AcDbLine
 10
-373.8089904785156
 20
173.3075866699219
 30
0.0
 11
-371.8089904785156
 21
175.3075866699219
 31
0.0
  0
LINE
  5
160
330
22
100
AcDbEntity
  8
0
  6
Continuous
 62
     7
100
AcDbLine
 10
-373.8089904785156
 20
166.2365112304688
 30
0.0
 11
-371.8089904785156
 21
168.2365112304688
 31
0.0
  0
LINE
  5
161
330
22
100
AcDbEntity
  8
0
  6
Continuous
 62
     7
100
AcDbLine
 10
-373.8089904785156
 20
159.1654510498047
 30
0.0
 11
-371.8089904785156
 21
161.1654510498047
 31
0.0
  0
LINE
  5
162
330
22
100
AcDbEntity
  8
0
  6
Continuous
 62
     7
100
AcDbLine
 10
-373.8089904785156
 20
152.0943756103516
 30
0.0
 11
-371.8089904785156
 21
154.0943756103516
 31
0.0
  0
LINE
  5
163
330
22
100
AcDbEntity
  8
0
  6
Continuous
 62
     7
100
AcDbLine
 10
-373.8089904785156
 20
145.0233154296875
 30
0.0
 11
-371.8089904785156
 21
147.0233154296875
 31
0.0
  0
LINE
  5
164
330
22
100
AcDbEntity
  8
0
  6
Continuous
 62
     7
100
AcDbLine
 10
-373.8089904785156
 20
137.9522399902344
 30
0.0
 11
-371.8089904785156
 21
139.9522399902344
 31
0.0
  0
LINE
  5
165
330
22
100
AcDbEntity
  8
0
  6
Continuous
 62
     7
100
AcDbLine
 10
-373.8089904785156
 20
130.8811798095703
 30
0.0
 11
-371.8089904785156
 21
132.8811798095703
 31
0.0
  0
LINE
  5
166
330
22
100
AcDbEntity
  8
0
  6
Continuous
 62
     7
100
AcDbLine
 10
-373.8089904785156
 20
225.818603515625
 30
0.0
 11
-373.8089904785156
 21
125.8186111450195
 31
0.0
  0
LINE
  5
167
330
22
100
AcDbEntity
  8
0
  6
Continuous
 62
     7
100
AcDbLine
 10
-339.3089904785156
 20
105.8186111450195
 30
0.0
 11
-335.2155151367188
 21
105.8186111450195
 31
0.0
  0
LINE
  5
168
330
22
100
AcDbEntity
  8
0
  6
Continuous
 62
     7
100
AcDbLine
 10
-348.5589904785156
 20
104.8186111450195
 30
0.0
 11
-349.5589904785156
 21
105.8186111450195
 31
0.0
  0
LINE
  5
169
330
22
100
AcDbEntity
  8
0
  6
Continuous
 62
     7
100
AcDbLine
 10
-371.8089904785156
 20
144.318603515625
 30
0.0
 11
-371.8089904785156
 21
107.3186111450195
 31
0.0
  0
LINE
  5
16A
330
22
100
AcDbEntity
  8
0
  6
Continuous
 62
     7
100
AcDbLine
 10
-370.3089904785156
 20
145.818603515625
 30
0.0
 11
-366.8089904785156
 21
145.818603515625
 31
0.0
  0
LINE
  5
16B
330
22
100
AcDbEntity
  8
0
  6
Continuous
 62
     7
100
AcDbLine
 10
-487.8089904785156
 20
110.8186111450195
 30
0.0
 11
-487.8089904785156
 21
144.818603515625
 31
0.0
  0
LINE
  5
16C
330
22
100
AcDbEntity
  8
0
  6
Continuous
 62
     7
100
AcDbLine
 10
-483.9589843749999
 20
187.5623779296875
 30
0.0
 11
-482.1535949707031
 21
189.3677520751953
 31
0.0
  0
LINE
  5
16D
330
22
100
AcDbEntity
  8
0
  6
Continuous
 62
     7
100
AcDbLine
 10
-483.9589843749999
 20
187.5623779296875
 30
0.0
 11
-483.9589843749999
 21
177.9686126708984
 31
0.0
  0
LINE
  5
16E
330
22
100
AcDbEntity
  8
0
  6
Continuous
 62
     7
100
AcDbLine
 10
-481.8089904785156
 20
175.818603515625
 30
0.0
 11
-483.9589843749999
 21
177.9686126708984
 31
0.0
  0
LINE
  5
16F
330
22
100
AcDbEntity
  8
0
  6
Continuous
 62
     7
100
AcDbLine
 10
-481.7019958496094
 20
203.818603515625
 30
0.0
 11
-482.1535949707031
 21
189.3677520751953
 31
0.0
  0
LINE
  5
170
330
22
100
AcDbEntity
  8
0
  6
Continuous
 62
     7
100
AcDbLine
 10
-483.2027282714843
 20
203.818603515625
 30
0.0
 11
-483.7027587890625
 21
187.818603515625
 31
0.0
  0
LINE
  5
171
330
22
100
AcDbEntity
  8
0
  6
Continuous
 62
     7
100
AcDbLine
 10
-488.8017883300781
 20
206.8116149902344
 30
0.0
 11
-490.802001953125
 21
208.8114013671875
 31
0.0
  0
LINE
  5
172
330
22
100
AcDbEntity
  8
0
  6
Continuous
 62
     7
100
AcDbLine
 10
-487.8014526367188
 20
203.8117370605469
 30
0.0
 11
-488.8015747070313
 21
204.8116149902344
 31
0.0
  0
LINE
  5
173
330
22
100
AcDbEntity
  8
0
  6
Continuous
 62
     7
100
AcDbLine
 10
-535.8089599609375
 20
105.8186111450195
 30
0.0
 11
-492.8089904785156
 21
105.8186111450195
 31
0.0
  0
LINE
  5
174
330
22
100
AcDbEntity
  8
0
  6
Continuous
 62
     7
100
AcDbLine
 10
-537.8089599609374
 20
102.8186111450195
 30
0.0
 11
-537.8089599609374
 21
103.8186111450195
 31
0.0
  0
LINE
  5
175
330
22
100
AcDbEntity
  8
0
  6
Continuous
 62
     7
100
AcDbLine
 10
-494.3089904785156
 20
102.3186111450195
 30
0.0
 11
-490.3089904785156
 21
102.3186111450195
 31
0.0
  0
LINE
  5
176
330
22
100
AcDbEntity
  8
0
  6
Continuous
 62
     7
100
AcDbLine
 10
-492.6674804687499
 20
267.9848327636719
 30
0.0
 11
-488.8065185546874
 21
248.8116149902344
 31
0.0
  0
LINE
  5
177
330
22
100
AcDbEntity
  8
0
  6
Continuous
 62
     7
100
AcDbLine
 10
-373.30712890625
 20
231.818603515625
 30
0.0
 11
-368.8061828613281
 21
231.818603515625
 31
0.0
  0
LINE
  5
178
330
22
100
AcDbEntity
  8
0
  6
Continuous
 62
     7
100
AcDbLine
 10
-362.8096313476563
 20
208.818603515625
 30
0.0
 11
-362.8096313476563
 21
248.6193542480469
 31
0.0
  0
LINE
  5
179
330
22
100
AcDbEntity
  8
0
  6
Continuous
 62
     7
100
AcDbLine
 10
-420.81494140625
 20
241.3150939941406
 30
0.0
 11
-420.81494140625
 21
237.8150939941406
 31
0.0
  0
LINE
  5
17A
330
22
100
AcDbEntity
  8
0
  6
Continuous
 62
     7
100
AcDbLine
 10
-370.3055419921875
 20
203.818603515625
 30
0.0
 11
-370.3055419921875
 21
227.818603515625
 31
0.0
  0
LINE
  5
17B
330
22
100
AcDbEntity
  8
0
  6
Continuous
 62
     7
100
AcDbLine
 10
-416.8096313476563
 20
227.818603515625
 30
0.0
 11
-370.3055419921875
 21
227.818603515625
 31
0.0
  0
LINE
  5
17C
330
22
100
AcDbEntity
  8
0
  6
Continuous
 62
     7
100
AcDbLine
 10
-416.8096313476563
 20
230.818603515625
 30
0.0
 11
-416.8096313476563
 21
227.818603515625
 31
0.0
  0
LINE
  5
17D
330
22
100
AcDbEntity
  8
0
  6
Continuous
 62
     7
100
AcDbLine
 10
-368.8061828613281
 20
250.3150939941406
 30
0.0
 11
-368.8061828613281
 21
231.818603515625
 31
0.0
  0
LINE
  5
17E
330
22
100
AcDbEntity
  8
0
  6
Continuous
 62
     7
100
AcDbLine
 10
-364.8096313476563
 20
204.818603515625
 30
0.0
 11
-364.8096313476563
 21
248.818603515625
 31
0.0
  0
LINE
  5
17F
330
22
100
AcDbEntity
  8
0
  6
Continuous
 62
     7
100
AcDbLine
 10
-416.8096313476563
 20
230.818603515625
 30
0.0
 11
-374.30712890625
 21
230.818603515625
 31
0.0
  0
LINE
  5
180
330
22
100
AcDbEntity
  8
0
  6
Continuous
 62
     7
100
AcDbLine
 10
-346.8096313476563
 20
271.818603515625
 30
0.0
 11
-346.8096313476563
 21
268.818603515625
 31
0.0
  0
LINE
  5
181
330
22
100
AcDbEntity
  8
0
  6
Continuous
 62
     7
100
AcDbLine
 10
-488.8065185546874
 20
248.8116149902344
 30
0.0
 11
-432.1440124511719
 21
248.8116149902344
 31
0.0
  0
LINE
  5
182
330
22
100
AcDbEntity
  8
0
  6
Continuous
 62
     7
100
AcDbLine
 10
-488.8015747070313
 20
204.8116149902344
 30
0.0
 11
-488.8065185546874
 21
248.8116149902344
 31
0.0
  0
LINE
  5
183
330
22
100
AcDbEntity
  8
0
  6
Continuous
 62
     7
100
AcDbLine
 10
-490.802001953125
 20
208.8114013671875
 30
0.0
 11
-490.8064880371093
 21
248.6121368408203
 31
0.0
  0
LINE
  5
184
330
22
100
AcDbEntity
  8
0
  6
Continuous
 62
     7
100
AcDbLine
 10
-507.3089904785156
 20
102.3186111450195
 30
0.0
 11
-507.3089904785156
 21
100.8637466430664
 31
0.0
  0
LINE
  5
185
330
22
100
AcDbEntity
  8
0
  6
Continuous
 62
     7
100
AcDbLine
 10
-489.3089904785155
 20
61.81861114501953
 30
0.0
 11
-489.3089904785155
 21
101.3186111450195
 31
0.0
  0
LINE
  5
186
330
22
100
AcDbEntity
  8
0
  6
Continuous
 62
     7
100
AcDbLine
 10
-507.3089904785156
 20
102.3186111450195
 30
0.0
 11
-523.1293334960938
 21
102.3186111450195
 31
0.0
  0
LINE
  5
187
330
22
100
AcDbEntity
  8
0
  6
Continuous
 62
     7
100
AcDbLine
 10
-493.3089294433593
 20
84.31861114501954
 30
0.0
 11
-493.3089294433593
 21
82.25361633300781
 31
0.0
  0
LINE
  5
188
330
22
100
AcDbEntity
  8
0
  6
Continuous
 62
     7
100
AcDbLine
 10
-491.3089294433594
 20
80.31861114501953
 30
0.0
 11
-489.3089904785155
 21
80.31861114501953
 31
0.0
  0
LINE
  5
189
330
22
100
AcDbEntity
  8
0
  6
Continuous
 62
     7
100
AcDbLine
 10
-481.8089904785156
 20
145.818603515625
 30
0.0
 11
-481.8089904785156
 21
175.818603515625
 31
0.0
  0
LINE
  5
18A
330
22
100
AcDbEntity
  8
0
  6
Continuous
 62
     7
100
AcDbLine
 10
-483.3089904785156
 20
145.818603515625
 30
0.0
 11
-483.3089904785156
 21
177.318603515625
 31
0.0
  0
LINE
  5
18B
330
22
100
AcDbEntity
  8
0
  6
Continuous
 62
     7
100
AcDbLine
 10
-537.3089599609374
 20
102.3186111450195
 30
0.0
 11
-494.3089904785156
 21
102.3186111450195
 31
0.0
  0
LINE
  5
18C
330
22
100
AcDbEntity
  8
0
  6
Continuous
 62
     7
100
AcDbLine
 10
-432.3051452636718
 20
268.818603515625
 30
0.0
 11
-431.8055419921875
 21
206.7783508300781
 31
0.0
  0
LINE
  5
18D
330
22
100
AcDbEntity
  8
0
  6
Continuous
 62
     7
100
AcDbLine
 10
-506.8096313476563
 20
271.818603515625
 30
0.0
 11
-506.8096313476563
 21
268.818603515625
 31
0.0
  0
LINE
  5
18E
330
22
100
AcDbEntity
  8
0
  6
Continuous
 62
     7
100
AcDbLine
 10
-494.8739929199218
 20
268.8109436035156
 30
0.0
 11
-490.8064880371093
 21
248.6121368408203
 31
0.0
  0
LINE
  5
18F
330
22
100
AcDbEntity
  8
0
  6
Continuous
 62
     7
100
AcDbLine
 10
-416.8096313476563
 20
229.1806945800781
 30
0.0
 11
-415.1717224121093
 21
230.818603515625
 31
0.0
  0
LINE
  5
190
330
22
100
AcDbEntity
  8
0
  6
Continuous
 62
     7
100
AcDbLine
 10
-415.3432922363281
 20
227.818603515625
 30
0.0
 11
-412.3432922363281
 21
230.818603515625
 31
0.0
  0
LINE
  5
191
330
22
100
AcDbEntity
  8
0
  6
Continuous
 62
     7
100
AcDbLine
 10
-412.5148620605468
 20
227.818603515625
 30
0.0
 11
-409.5148620605469
 21
230.818603515625
 31
0.0
  0
LINE
  5
192
330
22
100
AcDbEntity
  8
0
  6
Continuous
 62
     7
100
AcDbLine
 10
-409.6864318847655
 20
227.818603515625
 30
0.0
 11
-406.6864318847656
 21
230.818603515625
 31
0.0
  0
LINE
  5
193
330
22
100
AcDbEntity
  8
0
  6
Continuous
 62
     7
100
AcDbLine
 10
-365.4761962890625
 20
269.200439453125
 30
0.0
 11
-362.8580017089844
 21
271.818603515625
 31
0.0
  0
LINE
  5
194
330
22
100
AcDbEntity
  8
0
  6
Continuous
 62
     7
100
AcDbLine
 10
-406.8580017089844
 20
227.818603515625
 30
0.0
 11
-403.8580017089843
 21
230.818603515625
 31
0.0
  0
LINE
  5
195
330
22
100
AcDbEntity
  8
0
  6
Continuous
 62
     7
100
AcDbLine
 10
-366.0816650390625
 20
265.7665100097656
 30
0.0
 11
-360.0295715332031
 21
271.818603515625
 31
0.0
  0
LINE
  5
196
330
22
100
AcDbEntity
  8
0
  6
Continuous
 62
     7
100
AcDbLine
 10
-404.0295715332031
 20
227.818603515625
 30
0.0
 11
-401.0295715332031
 21
230.818603515625
 31
0.0
  0
LINE
  5
197
330
22
100
AcDbEntity
  8
0
  6
Continuous
 62
     7
100
AcDbLine
 10
-360.2676696777344
 20
268.7521057128906
 30
0.0
 11
-357.201171875
 21
271.818603515625
 31
0.0
  0
LINE
  5
198
330
22
100
AcDbEntity
  8
0
  6
Continuous
 62
     7
100
AcDbLine
 10
-366.6871643066406
 20
262.3326110839844
 30
0.0
 11
-360.9261169433594
 21
268.0936584472656
 31
0.0
  0
LINE
  5
199
330
22
100
AcDbEntity
  8
0
  6
Continuous
 62
     7
100
AcDbLine
 10
-401.201171875
 20
227.818603515625
 30
0.0
 11
-398.201171875
 21
230.818603515625
 31
0.0
  0
LINE
  5
19A
330
22
100
AcDbEntity
  8
0
  6
Continuous
 62
     7
100
AcDbLine
 10
-357.3727416992188
 20
268.818603515625
 30
0.0
 11
-354.3727416992188
 21
271.818603515625
 31
0.0
  0
LINE
  5
19B
330
22
100
AcDbEntity
  8
0
  6
Continuous
 62
     7
100
AcDbLine
 10
-367.2926635742188
 20
258.898681640625
 30
0.0
 11
-361.6441955566406
 21
264.5471496582031
 31
0.0
  0
LINE
  5
19C
330
22
100
AcDbEntity
  8
0
  6
Continuous
 62
     7
100
AcDbLine
 10
-398.3727416992188
 20
227.818603515625
 30
0.0
 11
-395.3727416992188
 21
230.818603515625
 31
0.0
  0
LINE
  5
19D
330
22
100
AcDbEntity
  8
0
  6
Continuous
 62
     7
100
AcDbLine
 10
-354.5443115234375
 20
268.818603515625
 30
0.0
 11
-351.5443115234375
 21
271.818603515625
 31
0.0
  0
LINE
  5
19E
330
22
100
AcDbEntity
  8
0
  6
Continuous
 62
     7
100
AcDbLine
 10
-367.8981628417969
 20
255.4647521972656
 30
0.0
 11
-362.3568420410156
 21
261.0060729980469
 31
0.0
  0
LINE
  5
19F
330
22
100
AcDbEntity
  8
0
  6
Continuous
 62
     7
100
AcDbLine
 10
-395.5443115234375
 20
227.818603515625
 30
0.0
 11
-392.5443115234375
 21
230.818603515625
 31
0.0
  0
LINE
  5
1A0
330
22
100
AcDbEntity
  8
0
  6
Continuous
 62
     7
100
AcDbLine
 10
-351.7158813476563
 20
268.818603515625
 30
0.0
 11
-347.7375793457031
 21
272.7969055175781
 31
0.0
  0
LINE
  5
1A1
330
22
100
AcDbEntity
  8
0
  6
Continuous
 62
     7
100
AcDbLine
 10
-368.503662109375
 20
252.0308380126953
 30
0.0
 11
-363.0695190429688
 21
257.4649658203125
 31
0.0
  0
LINE
  5
1A2
330
22
100
AcDbEntity
  8
0
  6
Continuous
 62
     7
100
AcDbLine
 10
-392.7158813476563
 20
227.818603515625
 30
0.0
 11
-389.7158813476563
 21
230.818603515625
 31
0.0
  0
LINE
  5
1A3
330
22
100
AcDbEntity
  8
0
  6
Continuous
 62
     7
100
AcDbLine
 10
-348.887451171875
 20
268.818603515625
 30
0.0
 11
-346.8096313476563
 21
270.8964233398438
 31
0.0
  0
LINE
  5
1A4
330
22
100
AcDbEntity
  8
0
  6
Continuous
 62
     7
100
AcDbLine
 10
-368.8061828613281
 20
248.8998870849609
 30
0.0
 11
-363.7821655273438
 21
253.9238891601563
 31
0.0
  0
LINE
  5
1A5
330
22
100
AcDbEntity
  8
0
  6
Continuous
 62
     7
100
AcDbLine
 10
-389.887451171875
 20
227.818603515625
 30
0.0
 11
-386.887451171875
 21
230.818603515625
 31
0.0
  0
LINE
  5
1A6
330
22
100
AcDbEntity
  8
0
  6
Continuous
 62
     7
100
AcDbLine
 10
-368.8061828613281
 20
246.0714569091797
 30
0.0
 11
-364.4948425292969
 21
250.3827972412109
 31
0.0
  0
LINE
  5
1A7
330
22
100
AcDbEntity
  8
0
  6
Continuous
 62
     7
100
AcDbLine
 10
-387.0590209960938
 20
227.818603515625
 30
0.0
 11
-384.0590209960938
 21
230.818603515625
 31
0.0
  0
LINE
  5
1A8
330
22
100
AcDbEntity
  8
0
  6
Continuous
 62
     7
100
AcDbLine
 10
-368.8061828613281
 20
243.2430267333984
 30
0.0
 11
-364.8096313476563
 21
247.2395629882814
 31
0.0
  0
LINE
  5
1A9
330
22
100
AcDbEntity
  8
0
  6
Continuous
 62
     7
100
AcDbLine
 10
-384.2305908203125
 20
227.818603515625
 30
0.0
 11
-381.2305908203125
 21
230.818603515625
 31
0.0
  0
LINE
  5
1AA
330
22
100
AcDbEntity
  8
0
  6
Continuous
 62
     7
100
AcDbLine
 10
-368.8061828613281
 20
240.4145965576172
 30
0.0
 11
-364.8096313476563
 21
244.4111328125
 31
0.0
  0
LINE
  5
1AB
330
22
100
AcDbEntity
  8
0
  6
Continuous
 62
     7
100
AcDbLine
 10
-381.4021606445313
 20
227.818603515625
 30
0.0
 11
-378.4021606445313
 21
230.818603515625
 31
0.0
  0
LINE
  5
1AC
330
22
100
AcDbEntity
  8
0
  6
Continuous
 62
     7
100
AcDbLine
 10
-368.8061828613281
 20
237.5861663818359
 30
0.0
 11
-364.8096313476563
 21
241.5827178955078
 31
0.0
  0
LINE
  5
1AD
330
22
100
AcDbEntity
  8
0
  6
Continuous
 62
     7
100
AcDbLine
 10
-378.57373046875
 20
227.818603515625
 30
0.0
 11
-375.57373046875
 21
230.818603515625
 31
0.0
  0
LINE
  5
1AE
330
22
100
AcDbEntity
  8
0
  6
Continuous
 62
     7
100
AcDbLine
 10
-368.8061828613281
 20
234.7577514648438
 30
0.0
 11
-364.8096313476563
 21
238.7542877197266
 31
0.0
  0
LINE
  5
1AF
330
22
100
AcDbEntity
  8
0
  6
Continuous
 62
     7
100
AcDbLine
 10
-375.7453002929688
 20
227.818603515625
 30
0.0
 11
-371.7453002929688
 21
231.818603515625
 31
0.0
  0
LINE
  5
1B0
330
22
100
AcDbEntity
  8
0
  6
Continuous
 62
     7
100
AcDbLine
 10
-368.8061828613281
 20
231.9293212890625
 30
0.0
 11
-364.8096313476563
 21
235.9258575439453
 31
0.0
  0
LINE
  5
1B1
330
22
100
AcDbEntity
  8
0
  6
Continuous
 62
     7
100
AcDbLine
 10
-372.9169006347656
 20
227.818603515625
 30
0.0
 11
-368.9169006347656
 21
231.818603515625
 31
0.0
  0
LINE
  5
1B2
330
22
100
AcDbEntity
  8
0
  6
Continuous
 62
     7
100
AcDbLine
 10
-370.3055419921875
 20
227.6015319824219
 30
0.0
 11
-364.8096313476563
 21
233.0974273681641
 31
0.0
  0
LINE
  5
1B3
330
22
100
AcDbEntity
  8
0
  6
Continuous
 62
     7
100
AcDbLine
 10
-370.3055419921875
 20
224.7731018066406
 30
0.0
 11
-364.8096313476563
 21
230.2689971923828
 31
0.0
  0
LINE
  5
1B4
330
22
100
AcDbEntity
  8
0
  6
Continuous
 62
     7
100
AcDbLine
 10
-370.3055419921875
 20
221.9446716308594
 30
0.0
 11
-364.8096313476563
 21
227.4405822753906
 31
0.0
  0
LINE
  5
1B5
330
22
100
AcDbEntity
  8
0
  6
Continuous
 62
     7
100
AcDbLine
 10
-370.3055419921875
 20
219.1162414550781
 30
0.0
 11
-364.8096313476563
 21
224.6121520996094
 31
0.0
  0
LINE
  5
1B6
330
22
100
AcDbEntity
  8
0
  6
Continuous
 62
     7
100
AcDbLine
 10
-370.3055419921875
 20
216.2878112792969
 30
0.0
 11
-364.8096313476563
 21
221.7837219238281
 31
0.0
  0
LINE
  5
1B7
330
22
100
AcDbEntity
  8
0
  6
Continuous
 62
     7
100
AcDbLine
 10
-370.3055419921875
 20
213.4593963623047
 30
0.0
 11
-364.8096313476563
 21
218.9552917480469
 31
0.0
  0
LINE
  5
1B8
330
22
100
AcDbEntity
  8
0
  6
Continuous
 62
     7
100
AcDbLine
 10
-370.3055419921875
 20
210.6309661865234
 30
0.0
 11
-364.8096313476563
 21
216.1268615722656
 31
0.0
  0
LINE
  5
1B9
330
22
100
AcDbEntity
  8
0
  6
Continuous
 62
     7
100
AcDbLine
 10
-370.3055419921875
 20
207.8025360107422
 30
0.0
 11
-364.8096313476563
 21
213.2984466552734
 31
0.0
  0
LINE
  5
1BA
330
22
100
AcDbEntity
  8
0
  6
Continuous
 62
     7
100
AcDbLine
 10
-370.3055419921875
 20
204.9741058349609
 30
0.0
 11
-364.8096313476563
 21
210.4700164794922
 31
0.0
  0
LINE
  5
1BB
330
22
100
AcDbEntity
  8
0
  6
Continuous
 62
     7
100
AcDbLine
 10
-368.6326293945313
 20
203.818603515625
 30
0.0
 11
-364.8096313476563
 21
207.6415863037109
 31
0.0
  0
LINE
  5
1BC
330
22
100
AcDbEntity
  8
0
  6
Continuous
 62
     7
100
AcDbLine
 10
-418.8149414062499
 20
268.8150939941406
 30
0.0
 11
-418.8149414062499
 21
262.8150939941406
 31
0.0
  0
LINE
  5
1BD
330
22
100
AcDbEntity
  8
0
  6
Continuous
 62
     7
100
AcDbLine
 10
-365.01513671875
 20
271.8150939941406
 30
0.0
 11
-368.8061828613281
 21
250.3150939941406
 31
0.0
  0
LINE
  5
1BE
330
22
100
AcDbEntity
  8
0
  6
Continuous
 62
     7
100
AcDbLine
 10
-366.1092529296875
 20
271.8150939941406
 30
0.0
 11
-365.1791687011719
 21
270.8849792480469
 31
0.0
  0
LINE
  5
1BF
330
22
100
AcDbEntity
  8
0
  6
Continuous
 62
     7
100
AcDbLine
 10
-366.4628295898438
 20
271.8150939941406
 30
0.0
 11
-365.2321472167969
 21
270.5844421386719
 31
0.0
  0
LINE
  5
1C0
330
22
100
AcDbEntity
  8
0
  6
Continuous
 62
     7
100
AcDbLine
 10
-367.5234680175781
 20
271.8150939941406
 30
0.0
 11
-365.3911437988281
 21
269.6827697753906
 31
0.0
  0
LINE
  5
1C1
330
22
100
AcDbEntity
  8
0
  6
Continuous
 62
     7
100
AcDbLine
 10
-367.8770446777344
 20
271.8150939941406
 30
0.0
 11
-365.4441223144531
 21
269.3822021484375
 31
0.0
  0
LINE
  5
1C2
330
22
100
AcDbEntity
  8
0
  6
Continuous
 62
     7
100
AcDbLine
 10
-368.9376831054688
 20
271.8150939941406
 30
0.0
 11
-365.6031188964844
 21
268.4805297851563
 31
0.0
  0
LINE
  5
1C3
330
22
100
AcDbEntity
  8
0
  6
Continuous
 62
     7
100
AcDbLine
 10
-369.291259765625
 20
271.8150939941406
 30
0.0
 11
-365.6561279296875
 21
268.1799621582031
 31
0.0
  0
LINE
  5
1C4
330
22
100
AcDbEntity
  8
0
  6
Continuous
 62
     7
100
AcDbLine
 10
-370.3518981933594
 20
271.8150939941406
 30
0.0
 11
-365.8151245117188
 21
267.2782897949219
 31
0.0
  0
LINE
  5
1C5
330
22
100
AcDbEntity
  8
0
  6
Continuous
 62
     7
100
AcDbLine
 10
-370.7054443359375
 20
271.8150939941406
 30
0.0
 11
-365.8681030273438
 21
266.9777526855469
 31
0.0
  0
LINE
  5
1C6
330
22
100
AcDbEntity
  8
0
  6
Continuous
 62
     7
100
AcDbLine
 10
-371.76611328125
 20
271.8150939941406
 30
0.0
 11
-366.027099609375
 21
266.0760803222656
 31
0.0
  0
LINE
  5
1C7
330
22
100
AcDbEntity
  8
0
  6
Continuous
 62
     7
100
AcDbLine
 10
-372.1196594238281
 20
271.8150939941406
 30
0.0
 11
-366.080078125
 21
265.7755126953125
 31
0.0
  0
LINE
  5
1C8
330
22
100
AcDbEntity
  8
0
  6
Continuous
 62
     7
100
AcDbLine
 10
-373.1803283691406
 20
271.8150939941406
 30
0.0
 11
-366.2390747070313
 21
264.8738403320313
 31
0.0
  0
LINE
  5
1C9
330
22
100
AcDbEntity
  8
0
  6
Continuous
 62
     7
100
AcDbLine
 10
-373.5338745117188
 20
271.8150939941406
 30
0.0
 11
-366.2920837402344
 21
264.5732727050781
 31
0.0
  0
LINE
  5
1CA
330
22
100
AcDbEntity
  8
0
  6
Continuous
 62
     7
100
AcDbLine
 10
-374.5945434570313
 20
271.8150939941406
 30
0.0
 11
-366.4510803222656
 21
263.6716003417969
 31
0.0
  0
LINE
  5
1CB
330
22
100
AcDbEntity
  8
0
  6
Continuous
 62
     7
100
AcDbLine
 10
-374.9480895996094
 20
271.8150939941406
 30
0.0
 11
-366.5040588378906
 21
263.3710632324219
 31
0.0
  0
LINE
  5
1CC
330
22
100
AcDbEntity
  8
0
  6
Continuous
 62
     7
100
AcDbLine
 10
-376.0087585449219
 20
271.8150939941406
 30
0.0
 11
-366.6630554199219
 21
262.4693908691406
 31
0.0
  0
LINE
  5
1CD
330
22
100
AcDbEntity
  8
0
  6
Continuous
 62
     7
100
AcDbLine
 10
-376.3623046875
 20
271.8150939941406
 30
0.0
 11
-366.7160339355469
 21
262.1688232421875
 31
0.0
  0
LINE
  5
1CE
330
22
100
AcDbEntity
  8
0
  6
Continuous
 62
     7
100
AcDbLine
 10
-377.4229736328125
 20
271.8150939941406
 30
0.0
 11
-366.8750305175781
 21
261.2671508789063
 31
0.0
  0
LINE
  5
1CF
330
22
100
AcDbEntity
  8
0
  6
Continuous
 62
     7
100
AcDbLine
 10
-377.7765197753906
 20
271.8150939941406
 30
0.0
 11
-366.9280395507813
 21
260.9666137695313
 31
0.0
  0
LINE
  5
1D0
330
22
100
AcDbEntity
  8
0
  6
Continuous
 62
     7
100
AcDbLine
 10
-378.8371887207031
 20
271.8150939941406
 30
0.0
 11
-367.0870361328125
 21
260.06494140625
 31
0.0
  0
LINE
  5
1D1
330
22
100
AcDbEntity
  8
0
  6
Continuous
 62
     7
100
AcDbLine
 10
-379.1907348632813
 20
271.8150939941406
 30
0.0
 11
-367.1400146484375
 21
259.7643737792969
 31
0.0
  0
LINE
  5
1D2
330
22
100
AcDbEntity
  8
0
  6
Continuous
 62
     7
100
AcDbLine
 10
-373.9555969238281
 20
265.519287109375
 30
0.0
 11
-367.2990112304688
 21
258.8627014160156
 31
0.0
  0
LINE
  5
1D3
330
22
100
AcDbEntity
  8
0
  6
Continuous
 62
     7
100
AcDbLine
 10
-380.2514038085938
 20
271.8150939941406
 30
0.0
 11
-375.8663940429688
 21
267.4300842285155
 31
0.0
  0
LINE
  5
1D4
330
22
100
AcDbEntity
  8
0
  6
Continuous
 62
     7
100
AcDbLine
 10
-373.9242553710938
 20
265.1343994140625
 30
0.0
 11
-367.3519897460938
 21
258.5621337890625
 31
0.0
  0
LINE
  5
1D5
330
22
100
AcDbEntity
  8
0
  6
Continuous
 62
     7
100
AcDbLine
 10
-380.6049499511719
 20
271.8150939941406
 30
0.0
 11
-376.2199401855469
 21
267.4300842285155
 31
0.0
  0
LINE
  5
1D6
330
22
100
AcDbEntity
  8
0
  6
Continuous
 62
     7
100
AcDbLine
 10
-373.8302917480469
 20
263.9797668457031
 30
0.0
 11
-367.510986328125
 21
257.6604614257813
 31
0.0
  0
LINE
  5
1D7
330
22
100
AcDbEntity
  8
0
  6
Continuous
 62
     7
100
AcDbLine
 10
-381.6656188964844
 20
271.8150939941406
 30
0.0
 11
-377.2806091308594
 21
267.4300842285155
 31
0.0
  0
LINE
  5
1D8
330
22
100
AcDbEntity
  8
0
  6
Continuous
 62
     7
100
AcDbLine
 10
-373.7989501953125
 20
263.5948791503906
 30
0.0
 11
-367.5639953613281
 21
257.3599243164063
 31
0.0
  0
LINE
  5
1D9
330
22
100
AcDbEntity
  8
0
  6
Continuous
 62
     7
100
AcDbLine
 10
-382.0191650390625
 20
271.8150939941406
 30
0.0
 11
-377.6341552734375
 21
267.4300842285155
 31
0.0
  0
LINE
  5
1DA
330
22
100
AcDbEntity
  8
0
  6
Continuous
 62
     7
100
AcDbLine
 10
-373.7049560546875
 20
262.4402465820313
 30
0.0
 11
-367.7229919433594
 21
256.458251953125
 31
0.0
  0
LINE
  5
1DB
330
22
100
AcDbEntity
  8
0
  6
Continuous
 62
     7
100
AcDbLine
 10
-383.079833984375
 20
271.8150939941406
 30
0.0
 11
-378.69482421875
 21
267.4300842285155
 31
0.0
  0
LINE
  5
1DC
330
22
100
AcDbEntity
  8
0
  6
Continuous
 62
     7
100
AcDbLine
 10
-373.6736450195313
 20
262.0553588867188
 30
0.0
 11
-367.7759704589844
 21
256.1576843261719
 31
0.0
  0
LINE
  5
1DD
330
22
100
AcDbEntity
  8
0
  6
Continuous
 62
     7
100
AcDbLine
 10
-383.4333801269531
 20
271.8150939941406
 30
0.0
 11
-379.0483703613281
 21
267.4300842285155
 31
0.0
  0
LINE
  5
1DE
330
22
100
AcDbEntity
  8
0
  6
Continuous
 62
     7
100
AcDbLine
 10
-373.5796508789063
 20
260.9007263183594
 30
0.0
 11
-367.9349670410156
 21
255.2560119628906
 31
0.0
  0
LINE
  5
1DF
330
22
100
AcDbEntity
  8
0
  6
Continuous
 62
     7
100
AcDbLine
 10
-384.4940490722656
 20
271.8150939941406
 30
0.0
 11
-380.1090393066406
 21
267.4300842285155
 31
0.0
  0
LINE
  5
1E0
330
22
100
AcDbEntity
  8
0
  6
Continuous
 62
     7
100
AcDbLine
 10
-373.54833984375
 20
260.5158386230469
 30
0.0
 11
-367.9879455566406
 21
254.9554595947266
 31
0.0
  0
LINE
  5
1E1
330
22
100
AcDbEntity
  8
0
  6
Continuous
 62
     7
100
AcDbLine
 10
-384.8475952148438
 20
271.8150939941406
 30
0.0
 11
-380.4625854492188
 21
267.4300842285155
 31
0.0
  0
LINE
  5
1E2
330
22
100
AcDbEntity
  8
0
  6
Continuous
 62
     7
100
AcDbLine
 10
-373.454345703125
 20
259.3612060546875
 30
0.0
 11
-368.1469421386719
 21
254.0537872314453
 31
0.0
  0
LINE
  5
1E3
330
22
100
AcDbEntity
  8
0
  6
Continuous
 62
     7
100
AcDbLine
 10
-385.9082641601563
 20
271.8150939941406
 30
0.0
 11
-381.5232543945313
 21
267.4300842285155
 31
0.0
  0
LINE
  5
1E4
330
22
100
AcDbEntity
  8
0
  6
Continuous
 62
     7
100
AcDbLine
 10
-373.4230346679688
 20
258.976318359375
 30
0.0
 11
-368.199951171875
 21
253.7532348632813
 31
0.0
  0
LINE
  5
1E5
330
22
100
AcDbEntity
  8
0
  6
Continuous
 62
     7
100
AcDbLine
 10
-386.2618103027344
 20
271.8150939941406
 30
0.0
 11
-381.8768005371094
 21
267.4300842285155
 31
0.0
  0
LINE
  5
1E6
330
22
100
AcDbEntity
  8
0
  6
Continuous
 62
     7
100
AcDbLine
 10
-373.3290405273438
 20
257.8216552734375
 30
0.0
 11
-368.3589477539063
 21
252.8515625
 31
0.0
  0
LINE
  5
1E7
330
22
100
AcDbEntity
  8
0
  6
Continuous
 62
     7
100
AcDbLine
 10
-387.3224792480469
 20
271.8150939941406
 30
0.0
 11
-382.9374694824219
 21
267.4300842285155
 31
0.0
  0
LINE
  5
1E8
330
22
100
AcDbEntity
  8
0
  6
Continuous
 62
     7
100
AcDbLine
 10
-373.2976989746094
 20
257.4367980957031
 30
0.0
 11
-368.4119262695313
 21
252.5510101318359
 31
0.0
  0
LINE
  5
1E9
330
22
100
AcDbEntity
  8
0
  6
Continuous
 62
     7
100
AcDbLine
 10
-387.676025390625
 20
271.8150939941406
 30
0.0
 11
-383.291015625
 21
267.4300842285155
 31
0.0
  0
LINE
  5
1EA
330
22
100
AcDbEntity
  8
0
  6
Continuous
 62
     7
100
AcDbLine
 10
-373.2037353515625
 20
256.2821350097656
 30
0.0
 11
-368.5709228515625
 21
251.6493377685547
 31
0.0
  0
LINE
  5
1EB
330
22
100
AcDbEntity
  8
0
  6
Continuous
 62
     7
100
AcDbLine
 10
-388.7366943359375
 20
271.8150939941406
 30
0.0
 11
-384.3516845703125
 21
267.4300842285155
 31
0.0
  0
LINE
  5
1EC
330
22
100
AcDbEntity
  8
0
  6
Continuous
 62
     7
100
AcDbLine
 10
-373.1723937988281
 20
255.8972625732422
 30
0.0
 11
-368.6239013671875
 21
251.3487701416016
 31
0.0
  0
LINE
  5
1ED
330
22
100
AcDbEntity
  8
0
  6
Continuous
 62
     7
100
AcDbLine
 10
-389.0902404785156
 20
271.8150939941406
 30
0.0
 11
-384.7052307128906
 21
267.4300842285155
 31
0.0
  0
LINE
  5
1EE
330
22
100
AcDbEntity
  8
0
  6
Continuous
 62
     7
100
AcDbLine
 10
-373.0784301757813
 20
254.7426147460938
 30
0.0
 11
-368.7828979492188
 21
250.4470977783203
 31
0.0
  0
LINE
  5
1EF
330
22
100
AcDbEntity
  8
0
  6
Continuous
 62
     7
100
AcDbLine
 10
-390.1509094238281
 20
271.8150939941406
 30
0.0
 11
-385.7658996582031
 21
267.4300842285155
 31
0.0
  0
LINE
  5
1F0
330
22
100
AcDbEntity
  8
0
  6
Continuous
 62
     7
100
AcDbLine
 10
-373.0470886230469
 20
254.3577423095703
 30
0.0
 11
-369.0044555664063
 21
250.3150939941406
 31
0.0
  0
LINE
  5
1F1
330
22
100
AcDbEntity
  8
0
  6
Continuous
 62
     7
100
AcDbLine
 10
-390.5044555664063
 20
271.8150939941406
 30
0.0
 11
-386.1194458007813
 21
267.4300842285155
 31
0.0
  0
LINE
  5
1F2
330
22
100
AcDbEntity
  8
0
  6
Continuous
 62
     7
100
AcDbLine
 10
-372.953125
 20
253.2030944824219
 30
0.0
 11
-370.0650939941406
 21
250.3150939941406
 31
0.0
  0
LINE
  5
1F3
330
22
100
AcDbEntity
  8
0
  6
Continuous
 62
     7
100
AcDbLine
 10
-391.5650939941406
 20
271.8150939941406
 30
0.0
 11
-387.1801147460938
 21
267.4300842285155
 31
0.0
  0
LINE
  5
1F4
330
22
100
AcDbEntity
  8
0
  6
Continuous
 62
     7
100
AcDbLine
 10
-372.9217834472656
 20
252.8182220458984
 30
0.0
 11
-370.4186706542969
 21
250.3150939941406
 31
0.0
  0
LINE
  5
1F5
330
22
100
AcDbEntity
  8
0
  6
Continuous
 62
     7
100
AcDbLine
 10
-391.9186706542969
 20
271.8150939941406
 30
0.0
 11
-387.5336608886719
 21
267.4300842285155
 31
0.0
  0
LINE
  5
1F6
330
22
100
AcDbEntity
  8
0
  6
Continuous
 62
     7
100
AcDbLine
 10
-368.9793090820313
 20
247.8150939941406
 30
0.0
 11
-368.9061889648438
 21
247.7419586181641
 31
0.0
  0
LINE
  5
1F7
330
22
100
AcDbEntity
  8
0
  6
Continuous
 62
     7
100
AcDbLine
 10
-372.8277893066406
 20
251.66357421875
 30
0.0
 11
-370.8061828613281
 21
249.6419525146484
 31
0.0
  0
LINE
  5
1F8
330
22
100
AcDbEntity
  8
0
  6
Continuous
 62
     7
100
AcDbLine
 10
-392.9793090820313
 20
271.8150939941406
 30
0.0
 11
-388.5943298339844
 21
267.4300842285155
 31
0.0
  0
LINE
  5
1F9
330
22
100
AcDbEntity
  8
0
  6
Continuous
 62
     7
100
AcDbLine
 10
-369.3328857421875
 20
247.8150939941406
 30
0.0
 11
-368.9061889648438
 21
247.3883972167969
 31
0.0
  0
LINE
  5
1FA
330
22
100
AcDbEntity
  8
0
  6
Continuous
 62
     7
100
AcDbLine
 10
-372.7964782714844
 20
251.2786865234375
 30
0.0
 11
-370.8061828613281
 21
249.2884063720703
 31
0.0
  0
LINE
  5
1FB
330
22
100
AcDbEntity
  8
0
  6
Continuous
 62
     7
100
AcDbLine
 10
-393.3328857421875
 20
271.8150939941406
 30
0.0
 11
-388.9478759765625
 21
267.4300842285155
 31
0.0
  0
LINE
  5
1FC
330
22
100
AcDbEntity
  8
0
  6
Continuous
 62
     7
100
AcDbLine
 10
-370.3935241699219
 20
247.8150939941406
 30
0.0
 11
-368.9061889648438
 21
246.3277435302734
 31
0.0
  0
LINE
  5
1FD
330
22
100
AcDbEntity
  8
0
  6
Continuous
 62
     7
100
AcDbLine
 10
-372.7024841308594
 20
250.1240539550781
 30
0.0
 11
-370.8061828613281
 21
248.2277374267578
 31
0.0
  0
LINE
  5
1FE
330
22
100
AcDbEntity
  8
0
  6
Continuous
 62
     7
100
AcDbLine
 10
-394.3935241699219
 20
271.8150939941406
 30
0.0
 11
-390.008544921875
 21
267.4300842285155
 31
0.0
  0
LINE
  5
1FF
330
22
100
AcDbEntity
  8
0
  6
Continuous
 62
     7
100
AcDbLine
 10
-370.7471008300781
 20
247.8150939941406
 30
0.0
 11
-368.9061889648438
 21
245.9741821289064
 31
0.0
  0
LINE
  5
200
330
22
100
AcDbEntity
  8
0
  6
Continuous
 62
     7
100
AcDbLine
 10
-372.6711730957031
 20
249.7391662597656
 30
0.0
 11
-370.8061828613281
 21
247.8741912841797
 31
0.0
  0
LINE
  5
201
330
22
100
AcDbEntity
  8
0
  6
Continuous
 62
     7
100
AcDbLine
 10
-394.7471008300781
 20
271.8150939941406
 30
0.0
 11
-390.3620910644531
 21
267.4300842285155
 31
0.0
  0
LINE
  5
202
330
22
100
AcDbEntity
  8
0
  6
Continuous
 62
     7
100
AcDbLine
 10
-372.5771789550781
 20
248.5845336914064
 30
0.0
 11
-368.9061889648438
 21
244.9135284423828
 31
0.0
  0
LINE
  5
203
330
22
100
AcDbEntity
  8
0
  6
Continuous
 62
     7
100
AcDbLine
 10
-395.8077392578125
 20
271.8150939941406
 30
0.0
 11
-391.4227600097656
 21
267.4300842285155
 31
0.0
  0
LINE
  5
204
330
22
100
AcDbEntity
  8
0
  6
Continuous
 62
     7
100
AcDbLine
 10
-372.5458374023438
 20
248.1996459960938
 30
0.0
 11
-368.9061889648438
 21
244.5599670410156
 31
0.0
  0
LINE
  5
205
330
22
100
AcDbEntity
  8
0
  6
Continuous
 62
     7
100
AcDbLine
 10
-396.1613159179688
 20
271.8150939941406
 30
0.0
 11
-391.7763061523438
 21
267.4300842285155
 31
0.0
  0
LINE
  5
206
330
22
100
AcDbEntity
  8
0
  6
Continuous
 62
     7
100
AcDbLine
 10
-372.4518737792969
 20
247.0449981689453
 30
0.0
 11
-368.9061889648438
 21
243.4993133544922
 31
0.0
  0
LINE
  5
207
330
22
100
AcDbEntity
  8
0
  6
Continuous
 62
     7
100
AcDbLine
 10
-397.2219543457031
 20
271.8150939941406
 30
0.0
 11
-392.8369750976563
 21
267.4300842285155
 31
0.0
  0
LINE
  5
208
330
22
100
AcDbEntity
  8
0
  6
Continuous
 62
     7
100
AcDbLine
 10
-372.4205322265625
 20
246.6601257324219
 30
0.0
 11
-368.9061889648438
 21
243.145751953125
 31
0.0
  0
LINE
  5
209
330
22
100
AcDbEntity
  8
0
  6
Continuous
 62
     7
100
AcDbLine
 10
-397.5755310058594
 20
271.8150939941406
 30
0.0
 11
-393.1905212402344
 21
267.4300842285155
 31
0.0
  0
LINE
  5
20A
330
22
100
AcDbEntity
  8
0
  6
Continuous
 62
     7
100
AcDbLine
 10
-372.3265686035156
 20
245.5054779052734
 30
0.0
 11
-368.9735412597656
 21
242.1524658203125
 31
0.0
  0
LINE
  5
20B
330
22
100
AcDbEntity
  8
0
  6
Continuous
 62
     7
100
AcDbLine
 10
-398.6361694335938
 20
271.8150939941406
 30
0.0
 11
-394.2511901855469
 21
267.4300842285155
 31
0.0
  0
LINE
  5
20C
330
22
100
AcDbEntity
  8
0
  6
Continuous
 62
     7
100
AcDbLine
 10
-372.2952270507813
 20
245.12060546875
 30
0.0
 11
-369.1116943359375
 21
241.9370727539063
 31
0.0
  0
LINE
  5
20D
330
22
100
AcDbEntity
  8
0
  6
Continuous
 62
     7
100
AcDbLine
 10
-398.9897155761719
 20
271.8150939941406
 30
0.0
 11
-394.604736328125
 21
267.4300842285155
 31
0.0
  0
LINE
  5
20E
330
22
100
AcDbEntity
  8
0
  6
Continuous
 62
     7
100
AcDbLine
 10
-372.2012634277344
 20
243.9659576416016
 30
0.0
 11
-370.0503845214844
 21
241.8150939941406
 31
0.0
  0
LINE
  5
20F
330
22
100
AcDbEntity
  8
0
  6
Continuous
 62
     7
100
AcDbLine
 10
-400.0503845214844
 20
271.8150939941406
 30
0.0
 11
-395.6653747558594
 21
267.4300842285155
 31
0.0
  0
LINE
  5
210
330
22
100
AcDbEntity
  8
0
  6
Continuous
 62
     7
100
AcDbLine
 10
-372.169921875
 20
243.5810699462891
 30
0.0
 11
-370.4039306640625
 21
241.8150939941406
 31
0.0
  0
LINE
  5
211
330
22
100
AcDbEntity
  8
0
  6
Continuous
 62
     7
100
AcDbLine
 10
-400.4039306640625
 20
271.8150939941406
 30
0.0
 11
-396.0189514160156
 21
267.4300842285155
 31
0.0
  0
LINE
  5
212
330
22
100
AcDbEntity
  8
0
  6
Continuous
 62
     7
100
AcDbLine
 10
-372.075927734375
 20
242.4264373779297
 30
0.0
 11
-371.464599609375
 21
241.8150939941406
 31
0.0
  0
LINE
  5
213
330
22
100
AcDbEntity
  8
0
  6
Continuous
 62
     7
100
AcDbLine
 10
-401.464599609375
 20
271.8150939941406
 30
0.0
 11
-397.07958984375
 21
267.4300842285155
 31
0.0
  0
LINE
  5
214
330
22
100
AcDbEntity
  8
0
  6
Continuous
 62
     7
100
AcDbLine
 10
-372.0165405273438
 20
242.0134735107422
 30
0.0
 11
-371.8181457519531
 21
241.8150939941406
 31
0.0
  0
LINE
  5
215
330
22
100
AcDbEntity
  8
0
  6
Continuous
 62
     7
100
AcDbLine
 10
-401.818145751953
 20
271.8150939941406
 30
0.0
 11
-397.4331665039063
 21
267.4300842285155
 31
0.0
  0
LINE
  5
216
330
22
100
AcDbEntity
  8
0
  6
Continuous
 62
     7
100
AcDbLine
 10
-402.8788146972656
 20
271.8150939941406
 30
0.0
 11
-398.4938049316406
 21
267.4300842285155
 31
0.0
  0
LINE
  5
217
330
22
100
AcDbEntity
  8
0
  6
Continuous
 62
     7
100
AcDbLine
 10
-403.2323608398438
 20
271.8150939941406
 30
0.0
 11
-398.8473815917969
 21
267.4300842285155
 31
0.0
  0
LINE
  5
218
330
22
100
AcDbEntity
  8
0
  6
Continuous
 62
     7
100
AcDbLine
 10
-404.2930297851563
 20
271.8150939941406
 30
0.0
 11
-399.9080200195313
 21
267.4300842285155
 31
0.0
  0
LINE
  5
219
330
22
100
AcDbEntity
  8
0
  6
Continuous
 62
     7
100
AcDbLine
 10
-404.6465759277343
 20
271.8150939941406
 30
0.0
 11
-400.2615966796875
 21
267.4300842285155
 31
0.0
  0
LINE
  5
21A
330
22
100
AcDbEntity
  8
0
  6
Continuous
 62
     7
100
AcDbLine
 10
-405.7072448730468
 20
271.8150939941406
 30
0.0
 11
-401.3222351074218
 21
267.4300842285155
 31
0.0
  0
LINE
  5
21B
330
22
100
AcDbEntity
  8
0
  6
Continuous
 62
     7
100
AcDbLine
 10
-406.060791015625
 20
271.8150939941406
 30
0.0
 11
-401.6758117675781
 21
267.4300842285155
 31
0.0
  0
LINE
  5
21C
330
22
100
AcDbEntity
  8
0
  6
Continuous
 62
     7
100
AcDbLine
 10
-406.8436279296874
 20
271.5372619628906
 30
0.0
 11
-402.7364501953124
 21
267.4300842285155
 31
0.0
  0
LINE
  5
21D
330
22
100
AcDbEntity
  8
0
  6
Continuous
 62
     7
100
AcDbLine
 10
-406.9462585449218
 20
271.2863464355469
 30
0.0
 11
-403.0899963378906
 21
267.4300842285155
 31
0.0
  0
LINE
  5
21E
330
22
100
AcDbEntity
  8
0
  6
Continuous
 62
     7
100
AcDbLine
 10
-407.1376953125
 20
270.4171142578125
 30
0.0
 11
-404.0035400390625
 21
267.282958984375
 31
0.0
  0
LINE
  5
21F
330
22
100
AcDbEntity
  8
0
  6
Continuous
 62
     7
100
AcDbLine
 10
-407.2040100097656
 20
270.1298828125
 30
0.0
 11
-404.2353820800781
 21
267.1612548828125
 31
0.0
  0
LINE
  5
220
330
22
100
AcDbEntity
  8
0
  6
Continuous
 62
     7
100
AcDbLine
 10
-407.4029541015624
 20
269.2681579589844
 30
0.0
 11
-404.74462890625
 21
266.6098327636719
 31
0.0
  0
LINE
  5
221
330
22
100
AcDbEntity
  8
0
  6
Continuous
 62
     7
100
AcDbLine
 10
-407.4692687988281
 20
268.980926513672
 30
0.0
 11
-404.8286132812499
 21
266.3402709960938
 31
0.0
  0
LINE
  5
222
330
22
100
AcDbEntity
  8
0
  6
Continuous
 62
     7
100
AcDbLine
 10
-407.668212890625
 20
268.1192016601563
 30
0.0
 11
-404.9642333984374
 21
265.4152221679688
 31
0.0
  0
LINE
  5
223
330
22
100
AcDbEntity
  8
0
  6
Continuous
 62
     7
100
AcDbLine
 10
-407.7345275878906
 20
267.8319702148438
 30
0.0
 11
-404.9917297363281
 21
265.0891723632813
 31
0.0
  0
LINE
  5
224
330
22
100
AcDbEntity
  8
0
  6
Continuous
 62
     7
100
AcDbLine
 10
-407.9334716796875
 20
266.9702453613281
 30
0.0
 11
-405.0741882324218
 21
264.1109924316406
 31
0.0
  0
LINE
  5
225
330
22
100
AcDbEntity
  8
0
  6
Continuous
 62
     7
100
AcDbLine
 10
-407.9997863769531
 20
266.6830139160156
 30
0.0
 11
-405.1016845703125
 21
263.784912109375
 31
0.0
  0
LINE
  5
226
330
22
100
AcDbEntity
  8
0
  6
Continuous
 62
     7
100
AcDbLine
 10
-408.1987304687499
 20
265.8212890625
 30
0.0
 11
-405.1841735839843
 21
262.8067626953125
 31
0.0
  0
LINE
  5
227
330
22
100
AcDbEntity
  8
0
  6
Continuous
 62
     7
100
AcDbLine
 10
-408.2650451660156
 20
265.5340576171875
 30
0.0
 11
-405.211669921875
 21
262.480682373047
 31
0.0
  0
LINE
  5
228
330
22
100
AcDbEntity
  8
0
  6
Continuous
 62
     7
100
AcDbLine
 10
-408.4639892578125
 20
264.6723327636719
 30
0.0
 11
-405.2941589355468
 21
261.5025329589844
 31
0.0
  0
LINE
  5
229
330
22
100
AcDbEntity
  8
0
  6
Continuous
 62
     7
100
AcDbLine
 10
-408.5303039550781
 20
264.3851013183594
 30
0.0
 11
-405.3216552734374
 21
261.1764526367188
 31
0.0
  0
LINE
  5
22A
330
22
100
AcDbEntity
  8
0
  6
Continuous
 62
     7
100
AcDbLine
 10
-408.7292480468749
 20
263.5233764648438
 30
0.0
 11
-405.4041442871094
 21
260.1983032226563
 31
0.0
  0
LINE
  5
22B
330
22
100
AcDbEntity
  8
0
  6
Continuous
 62
     7
100
AcDbLine
 10
-408.7955627441406
 20
263.2361450195313
 30
0.0
 11
-405.4316406249999
 21
259.8722229003906
 31
0.0
  0
LINE
  5
22C
330
22
100
AcDbEntity
  8
0
  6
Continuous
 62
     7
100
AcDbLine
 10
-408.8163452148438
 20
262.1962890625
 30
0.0
 11
-405.5141296386718
 21
258.8940734863281
 31
0.0
  0
LINE
  5
22D
330
22
100
AcDbEntity
  8
0
  6
Continuous
 62
     7
100
AcDbLine
 10
-408.8163452148438
 20
261.8427429199219
 30
0.0
 11
-405.5416259765625
 21
258.5679931640625
 31
0.0
  0
LINE
  5
22E
330
22
100
AcDbEntity
  8
0
  6
Continuous
 62
     7
100
AcDbLine
 10
-408.8163452148438
 20
260.7820739746094
 30
0.0
 11
-405.6241149902343
 21
257.5898132324219
 31
0.0
  0
LINE
  5
22F
330
22
100
AcDbEntity
  8
0
  6
Continuous
 62
     7
100
AcDbLine
 10
-408.8163452148438
 20
260.4285278320313
 30
0.0
 11
-405.651611328125
 21
257.2637634277344
 31
0.0
  0
LINE
  5
230
330
22
100
AcDbEntity
  8
0
  6
Continuous
 62
     7
100
AcDbLine
 10
-408.8163452148438
 20
259.3678588867188
 30
0.0
 11
-405.7341003417969
 21
256.2855834960938
 31
0.0
  0
LINE
  5
231
330
22
100
AcDbEntity
  8
0
  6
Continuous
 62
     7
100
AcDbLine
 10
-408.8163452148438
 20
259.0143127441406
 30
0.0
 11
-405.7615966796874
 21
255.9595336914064
 31
0.0
  0
LINE
  5
232
330
22
100
AcDbEntity
  8
0
  6
Continuous
 62
     7
100
AcDbLine
 10
-408.8163452148438
 20
257.9536437988281
 30
0.0
 11
-405.9316406249999
 21
255.0689392089844
 31
0.0
  0
LINE
  5
233
330
22
100
AcDbEntity
  8
0
  6
Continuous
 62
     7
100
AcDbLine
 10
-408.8163452148438
 20
257.60009765625
 30
0.0
 11
-406.0686950683593
 21
254.8524322509766
 31
0.0
  0
LINE
  5
234
330
22
100
AcDbEntity
  8
0
  6
Continuous
 62
     7
100
AcDbLine
 10
-409.0920104980468
 20
256.8150939941406
 30
0.0
 11
-406.5556945800781
 21
254.2787628173828
 31
0.0
  0
LINE
  5
235
330
22
100
AcDbEntity
  8
0
  6
Continuous
 62
     7
100
AcDbLine
 10
-409.4455871582031
 20
256.8150939941406
 30
0.0
 11
-406.7631225585937
 21
254.1326293945314
 31
0.0
  0
LINE
  5
236
330
22
100
AcDbEntity
  8
0
  6
Continuous
 62
     7
100
AcDbLine
 10
-410.5062255859374
 20
256.8150939941406
 30
0.0
 11
-407.5480651855468
 21
253.8569183349609
 31
0.0
  0
LINE
  5
237
330
22
100
AcDbEntity
  8
0
  6
Continuous
 62
     7
100
AcDbLine
 10
-410.7349548339843
 20
256.6902465820313
 30
0.0
 11
-407.8598022460938
 21
253.8150939941406
 31
0.0
  0
LINE
  5
238
330
22
100
AcDbEntity
  8
0
  6
Continuous
 62
     7
100
AcDbLine
 10
-410.7349548339843
 20
255.6295928955078
 30
0.0
 11
-408.920440673828
 21
253.8150939941406
 31
0.0
  0
LINE
  5
239
330
22
100
AcDbEntity
  8
0
  6
Continuous
 62
     7
100
AcDbLine
 10
-410.7349548339843
 20
255.2760467529297
 30
0.0
 11
-409.2739868164063
 21
253.8150939941406
 31
0.0
  0
LINE
  5
23A
330
22
100
AcDbEntity
  8
0
  6
Continuous
 62
     7
100
AcDbLine
 10
-410.7349548339843
 20
254.2153778076172
 30
0.0
 11
-410.3346557617188
 21
253.8150939941406
 31
0.0
  0
LINE
  5
23B
330
22
100
AcDbEntity
  8
0
  6
Continuous
 62
     7
100
AcDbLine
 10
-410.7349548339843
 20
253.8618316650391
 30
0.0
 11
-410.6882019042968
 21
253.8150939941406
 31
0.0
  0
LINE
  5
23C
330
22
100
AcDbEntity
  8
0
  6
Continuous
 62
     7
100
AcDbLine
 10
-420.4057312011718
 20
256.8150939941406
 30
0.0
 11
-419.5349426269531
 21
255.9443206787109
 31
0.0
  0
LINE
  5
23D
330
22
100
AcDbEntity
  8
0
  6
Continuous
 62
     7
100
AcDbLine
 10
-420.7592773437499
 20
256.8150939941406
 30
0.0
 11
-419.5349426269531
 21
255.5907592773438
 31
0.0
  0
LINE
  5
23E
330
22
100
AcDbEntity
  8
0
  6
Continuous
 62
     7
100
AcDbLine
 10
-421.8199462890624
 20
256.8150939941406
 30
0.0
 11
-419.5349426269531
 21
254.5301055908203
 31
0.0
  0
LINE
  5
23F
330
22
100
AcDbEntity
  8
0
  6
Continuous
 62
     7
100
AcDbLine
 10
-422.0349426269531
 20
256.6765441894531
 30
0.0
 11
-419.5349426269531
 21
254.1765441894531
 31
0.0
  0
LINE
  5
240
330
22
100
AcDbEntity
  8
0
  6
Continuous
 62
     7
100
AcDbLine
 10
-422.0349426269531
 20
255.6158905029297
 30
0.0
 11
-420.0617370605469
 21
253.6426849365234
 31
0.0
  0
LINE
  5
241
330
22
100
AcDbEntity
  8
0
  6
Continuous
 62
     7
100
AcDbLine
 10
-422.0349426269531
 20
255.2623291015625
 30
0.0
 11
-420.2631835937499
 21
253.4905700683594
 31
0.0
  0
LINE
  5
242
330
22
100
AcDbEntity
  8
0
  6
Continuous
 62
     7
100
AcDbLine
 10
-422.0349426269531
 20
254.2016754150391
 30
0.0
 11
-420.5640869140625
 21
252.7308197021484
 31
0.0
  0
LINE
  5
243
330
22
100
AcDbEntity
  8
0
  6
Continuous
 62
     7
100
AcDbLine
 10
-422.0349426269531
 20
253.8481292724609
 30
0.0
 11
-420.674560546875
 21
252.4877471923828
 31
0.0
  0
LINE
  5
244
330
22
100
AcDbEntity
  8
0
  6
Continuous
 62
     7
100
AcDbLine
 10
-422.0349426269531
 20
252.7874603271484
 30
0.0
 11
-421.5625915527343
 21
252.3150939941406
 31
0.0
  0
LINE
  5
245
330
22
100
AcDbEntity
  8
0
  6
Continuous
 62
     7
100
AcDbLine
 10
-418.8177490234375
 20
269.9533996582031
 30
0.0
 11
-418.8177490234375
 21
268.8041687011719
 31
0.0
  0
LINE
  5
246
330
22
100
AcDbEntity
  8
0
  6
Continuous
 62
     7
100
AcDbLine
 10
-359.9660339355469
 20
268.818603515625
 30
0.0
 11
-346.8096313476563
 21
268.818603515625
 31
0.0
  0
LINE
  5
247
330
22
100
AcDbEntity
  8
0
  6
Continuous
 62
     7
100
AcDbLine
 10
-358.7444458007813
 20
268.818603515625
 30
0.0
 11
-362.8096313476563
 21
248.6193542480469
 31
0.0
  0
LINE
  5
248
330
22
100
AcDbEntity
  8
0
  6
Continuous
 62
     7
100
AcDbLine
 10
-364.4705505371094
 20
271.818603515625
 30
0.0
 11
-348.8096313476563
 21
271.818603515625
 31
0.0
  0
LINE
  5
249
330
22
100
AcDbEntity
  8
0
  6
Continuous
 62
     7
100
AcDbLine
 10
-365.1602478027344
 20
270.9922485351563
 30
0.0
 11
-368.8061828613281
 21
250.3150939941406
 31
0.0
  0
LINE
  5
24A
330
22
100
AcDbEntity
  8
0
  6
Continuous
 62
     7
100
AcDbLine
 10
-406.9563598632813
 20
271.202606201172
 30
0.0
 11
-408.8163452148438
 21
263.1460571289063
 31
0.0
  0
LINE
  5
24B
330
22
100
AcDbEntity
  8
0
  6
Continuous
 62
     7
100
AcDbLine
 10
-416.8096313476563
 20
230.818603515625
 30
0.0
 11
-426.8070678710937
 21
230.8180389404297
 31
0.0
  0
LINE
  5
24C
330
22
100
AcDbEntity
  8
0
  6
Continuous
 62
     7
100
AcDbLine
 10
-420.81494140625
 20
237.8150939941406
 30
0.0
 11
-426.81494140625
 21
237.8150939941406
 31
0.0
  0
LINE
  5
24D
330
22
100
AcDbEntity
  8
0
  6
Continuous
 62
     7
100
AcDbLine
 10
-371.5420227050781
 20
100.2738647460938
 30
0.0
 11
-426.8089904785155
 21
100.2738647460938
 31
0.0
  0
LINE
  5
24E
330
22
100
AcDbEntity
  8
0
  6
Continuous
 62
     7
100
AcDbLine
 10
-426.8089904785155
 20
98.81861114501951
 30
0.0
 11
-372.9972839355469
 21
98.81861114501951
 31
0.0
  0
LINE
  5
24F
330
22
100
AcDbEntity
  8
0
  6
Continuous
 62
     7
100
AcDbLine
 10
-371.8581237792969
 20
62.36775588989257
 30
0.0
 11
-426.8089904785155
 21
62.36775588989257
 31
0.0
  0
LINE
  5
250
330
22
100
AcDbEntity
  8
0
  6
Continuous
 62
     7
100
AcDbLine
 10
-371.8089904785156
 20
107.3186111450195
 30
0.0
 11
-426.8089904785155
 21
107.3186111450195
 31
0.0
  0
LINE
  5
251
330
22
100
AcDbEntity
  8
0
  6
Continuous
 62
     7
100
AcDbLine
 10
-426.8089904785155
 20
125.8186111450195
 30
0.0
 11
-371.8089904785156
 21
125.8186111450195
 31
0.0
  0
LINE
  5
252
330
22
100
AcDbEntity
  8
0
  6
Continuous
 62
     7
100
AcDbLine
 10
-370.3089904785156
 20
105.8186111450195
 30
0.0
 11
-426.8089904785155
 21
105.8186111450195
 31
0.0
  0
LINE
  5
253
330
22
100
AcDbEntity
  8
0
  6
Continuous
 62
     7
100
AcDbLine
 10
-426.8056335449219
 20
205.3155059814453
 30
0.0
 11
-426.8089904785155
 21
205.3155059814453
 31
0.0
  0
LINE
  5
254
330
22
100
AcDbEntity
  8
0
  6
Continuous
 62
     7
100
AcDbLine
 10
-370.3055419921875
 20
225.818603515625
 30
0.0
 11
-426.8067932128906
 21
225.8154296875
 31
0.0
  0
LINE
  5
255
330
22
100
AcDbEntity
  8
0
  6
Continuous
 62
     7
100
AcDbLine
 10
-431.8219299316406
 20
208.8114013671875
 30
0.0
 11
-426.8058166503906
 21
208.8116760253906
 31
0.0
  0
LINE
  5
256
330
22
100
AcDbEntity
  8
0
  6
Continuous
 62
     7
100
AcDbLine
 10
-426.8089904785155
 20
225.818603515625
 30
0.0
 11
-372.603515625
 21
225.818603515625
 31
0.0
  0
LINE
  5
257
330
22
100
AcDbEntity
  8
0
  6
Continuous
 62
     7
100
AcDbLine
 10
-418.8149414062499
 20
262.8150939941406
 30
0.0
 11
-426.81494140625
 21
262.8150939941406
 31
0.0
  0
LINE
  5
258
330
22
100
AcDbEntity
  8
0
  6
Continuous
 62
     7
100
AcDbLine
 10
-422.0349426269531
 20
252.3150939941406
 30
0.0
 11
-422.81494140625
 21
252.3150939941406
 31
0.0
  0
LINE
  5
259
330
22
100
AcDbEntity
  8
0
  6
Continuous
 62
     7
100
AcDbLine
 10
-424.56494140625
 20
270.8150939941406
 30
0.0
 11
-424.56494140625
 21
268.8150939941406
 31
0.0
  0
LINE
  5
25A
330
22
100
AcDbEntity
  8
0
  6
Continuous
 62
     7
100
AcDbLine
 10
-424.56494140625
 20
268.8150939941406
 30
0.0
 11
-418.8149414062499
 21
268.8150939941406
 31
0.0
  0
LINE
  5
25B
330
22
100
AcDbEntity
  8
0
  6
Continuous
 62
     7
100
AcDbLine
 10
-422.0349426269531
 20
256.8150939941406
 30
0.0
 11
-422.81494140625
 21
256.8150939941406
 31
0.0
  0
LINE
  5
25C
330
22
100
AcDbEntity
  8
0
  6
Continuous
 62
     7
100
AcDbLine
 10
-364.4705505371094
 20
271.818603515625
 30
0.0
 11
-426.8093872070313
 21
271.8150939941406
 31
0.0
  0
LINE
  5
25D
330
22
100
AcDbEntity
  8
0
  6
Continuous
 62
     7
100
AcDbLine
 10
-424.5266418457031
 20
269.9533996582031
 30
0.0
 11
-418.8177490234375
 21
269.9533996582031
 31
0.0
  0
LINE
  5
25E
330
22
100
AcDbEntity
  8
0
  6
Continuous
 62
     7
100
AcDbLine
 10
-422.81494140625
 20
241.3150939941406
 30
0.0
 11
-422.81494140625
 21
257.4645690917969
 31
0.0
  0
LINE
  5
25F
330
22
100
AcDbEntity
  8
0
  6
Continuous
 62
     7
100
AcDbLine
 10
-426.81494140625
 20
241.3150939941406
 30
0.0
 11
-420.81494140625
 21
241.3150939941406
 31
0.0
  0
LINE
  5
260
330
22
100
AcDbEntity
  8
0
  6
Continuous
 62
     7
100
AcDbLine
 10
-486.8089904785156
 20
145.818603515625
 30
0.0
 11
-426.8089904785155
 21
145.818603515625
 31
0.0
  0
LINE
  5
261
330
22
100
AcDbEntity
  8
0
  6
Continuous
 62
     7
100
AcDbLine
 10
-492.8089904785156
 20
105.8186111450195
 30
0.0
 11
-426.8089904785155
 21
105.8186111450195
 31
0.0
  0
LINE
  5
262
330
22
100
AcDbEntity
  8
0
  6
Continuous
 62
     7
100
AcDbLine
 10
-490.3089904785156
 20
102.3186111450195
 30
0.0
 11
-426.8089904785155
 21
102.3186111450195
 31
0.0
  0
LINE
  5
263
330
22
100
AcDbEntity
  8
0
  6
Continuous
 62
     7
100
AcDbLine
 10
-488.3089904785156
 20
60.81861114501953
 30
0.0
 11
-365.3089904785156
 21
60.81861114501953
 31
0.0
  0
LINE
  5
264
330
22
100
AcDbEntity
  8
0
  6
Continuous
 62
     7
100
AcDbLine
 10
-481.8089904785156
 20
175.818603515625
 30
0.0
 11
-426.8089904785155
 21
175.818603515625
 31
0.0
  0
LINE
  5
265
330
22
100
AcDbEntity
  8
0
  6
Continuous
 62
     7
100
AcDbLine
 10
-482.1535949707031
 20
189.3677520751953
 30
0.0
 11
-426.8089904785155
 21
189.3677520751953
 31
0.0
  0
LINE
  5
266
330
22
100
AcDbEntity
  8
0
  6
Continuous
 62
     7
100
AcDbLine
 10
-506.8096313476563
 20
268.818603515625
 30
0.0
 11
-426.8051452636719
 21
268.818603515625
 31
0.0
  0
LINE
  5
267
330
22
100
AcDbEntity
  8
0
  6
Continuous
 62
     7
100
AcDbLine
 10
-505.8096313476562
 20
272.818603515625
 30
0.0
 11
-347.8096313476563
 21
272.818603515625
 31
0.0
  0
LINE
  5
268
330
22
100
AcDbEntity
  8
0
  6
Continuous
 62
     7
100
AcDbLine
 10
-487.8083190917968
 20
203.818603515625
 30
0.0
 11
-426.8089904785155
 21
203.818603515625
 31
0.0
  0
LINE
  5
269
330
22
100
AcDbEntity
  8
0
  6
Continuous
 62
     7
100
AcDbLine
 10
-424.56494140625
 20
270.2690734863281
 30
0.0
 11
-423.0189208984374
 21
271.8150939941406
 31
0.0
  0
LINE
  5
26A
330
22
100
AcDbEntity
  8
0
  6
Continuous
 62
     7
100
AcDbLine
 10
-422.759307861328
 20
269.9533996582031
 30
0.0
 11
-420.8976135253906
 21
271.8150939941406
 31
0.0
  0
LINE
  5
26B
330
22
100
AcDbEntity
  8
0
  6
Continuous
 62
     7
100
AcDbLine
 10
-420.6379699707031
 20
269.9533996582031
 30
0.0
 11
-418.7762756347656
 21
271.8150939941406
 31
0.0
  0
LINE
  5
26C
330
22
100
AcDbEntity
  8
0
  6
Continuous
 62
     7
100
AcDbLine
 10
-418.8177490234375
 20
269.652313232422
 30
0.0
 11
-416.6549682617188
 21
271.8150939941406
 31
0.0
  0
LINE
  5
26D
330
22
100
AcDbEntity
  8
0
  6
Continuous
 62
     7
100
AcDbLine
 10
-426.8093872070313
 20
261.6606750488281
 30
0.0
 11
-425.6549682617188
 21
262.8150939941406
 31
0.0
  0
LINE
  5
26E
330
22
100
AcDbEntity
  8
0
  6
Continuous
 62
     7
100
AcDbLine
 10
-418.8149414062499
 20
267.5337829589844
 30
0.0
 11
-414.5336608886719
 21
271.8150939941406
 31
0.0
  0
LINE
  5
26F
330
22
100
AcDbEntity
  8
0
  6
Continuous
 62
     7
100
AcDbLine
 10
-426.8093872070313
 20
259.5393676757813
 30
0.0
 11
-423.5336608886719
 21
262.8150939941406
 31
0.0
  0
LINE
  5
270
330
22
100
AcDbEntity
  8
0
  6
Continuous
 62
     7
100
AcDbLine
 10
-418.8149414062499
 20
265.4124755859375
 30
0.0
 11
-412.4123229980468
 21
271.8150939941406
 31
0.0
  0
LINE
  5
271
330
22
100
AcDbEntity
  8
0
  6
Continuous
 62
     7
100
AcDbLine
 10
-426.8093872070313
 20
257.4180603027344
 30
0.0
 11
-421.4123229980469
 21
262.8150939941406
 31
0.0
  0
LINE
  5
272
330
22
100
AcDbEntity
  8
0
  6
Continuous
 62
     7
100
AcDbLine
 10
-418.8149414062499
 20
263.2911682128906
 30
0.0
 11
-410.291015625
 21
271.8150939941406
 31
0.0
  0
LINE
  5
273
330
22
100
AcDbEntity
  8
0
  6
Continuous
 62
     7
100
AcDbLine
 10
-426.8093872070313
 20
255.2967224121094
 30
0.0
 11
-419.2910156249999
 21
262.8150939941406
 31
0.0
  0
LINE
  5
274
330
22
100
AcDbEntity
  8
0
  6
Continuous
 62
     7
100
AcDbLine
 10
-419.5202331542969
 20
260.4645690917969
 30
0.0
 11
-408.169677734375
 21
271.8150939941406
 31
0.0
  0
LINE
  5
275
330
22
100
AcDbEntity
  8
0
  6
Continuous
 62
     7
100
AcDbLine
 10
-426.8093872070313
 20
253.1753997802734
 30
0.0
 11
-422.81494140625
 21
257.1698303222656
 31
0.0
  0
LINE
  5
276
330
22
100
AcDbEntity
  8
0
  6
Continuous
 62
     7
100
AcDbLine
 10
-417.3988952636718
 20
260.4645690917969
 30
0.0
 11
-407.0450439453124
 21
270.8184204101563
 31
0.0
  0
LINE
  5
277
330
22
100
AcDbEntity
  8
0
  6
Continuous
 62
     7
100
AcDbLine
 10
-426.8093872070313
 20
251.0540924072266
 30
0.0
 11
-422.81494140625
 21
255.0485076904297
 31
0.0
  0
LINE
  5
278
330
22
100
AcDbEntity
  8
0
  6
Continuous
 62
     7
100
AcDbLine
 10
-415.277587890625
 20
260.4645690917969
 30
0.0
 11
-407.6817932128906
 21
268.0603332519531
 31
0.0
  0
LINE
  5
279
330
22
100
AcDbEntity
  8
0
  6
Continuous
 62
     7
100
AcDbLine
 10
-426.8093872070313
 20
248.9327697753906
 30
0.0
 11
-422.81494140625
 21
252.9272003173828
 31
0.0
  0
LINE
  5
27A
330
22
100
AcDbEntity
  8
0
  6
Continuous
 62
     7
100
AcDbLine
 10
-410.8062744140625
 20
262.8145446777344
 30
0.0
 11
-408.3185424804687
 21
265.3022766113281
 31
0.0
  0
LINE
  5
27B
330
22
100
AcDbEntity
  8
0
  6
Continuous
 62
     7
100
AcDbLine
 10
-413.3122863769531
 20
260.3085327148438
 30
0.0
 11
-410.8145446777343
 21
262.8062744140625
 31
0.0
  0
LINE
  5
27C
330
22
100
AcDbEntity
  8
0
  6
Continuous
 62
     7
100
AcDbLine
 10
-426.8093872070313
 20
246.8114471435547
 30
0.0
 11
-422.81494140625
 21
250.8058776855469
 31
0.0
  0
LINE
  5
27D
330
22
100
AcDbEntity
  8
0
  6
Continuous
 62
     7
100
AcDbLine
 10
-412.7131042480469
 20
258.7864074707031
 30
0.0
 11
-410.8145446777343
 21
260.6849670410156
 31
0.0
  0
LINE
  5
27E
330
22
100
AcDbEntity
  8
0
  6
Continuous
 62
     7
100
AcDbLine
 10
-426.8093872070313
 20
244.6901245117188
 30
0.0
 11
-422.81494140625
 21
248.6845550537109
 31
0.0
  0
LINE
  5
27F
330
22
100
AcDbEntity
  8
0
  6
Continuous
 62
     7
100
AcDbLine
 10
-411.5427551269531
 20
257.8354187011719
 30
0.0
 11
-409.0630798339843
 21
260.3150939941406
 31
0.0
  0
LINE
  5
280
330
22
100
AcDbEntity
  8
0
  6
Continuous
 62
     7
100
AcDbLine
 10
-426.8093872070313
 20
242.5688018798828
 30
0.0
 11
-422.81494140625
 21
246.563232421875
 31
0.0
  0
LINE
  5
281
330
22
100
AcDbEntity
  8
0
  6
Continuous
 62
     7
100
AcDbLine
 10
-409.4417724609375
 20
257.8150939941405
 30
0.0
 11
-408.9145507812499
 21
258.3423156738281
 31
0.0
  0
LINE
  5
282
330
22
100
AcDbEntity
  8
0
  6
Continuous
 62
     7
100
AcDbLine
 10
-425.9417724609375
 20
241.3150939941406
 30
0.0
 11
-422.81494140625
 21
244.4419097900391
 31
0.0
  0
LINE
  5
283
330
22
100
AcDbEntity
  8
0
  6
Continuous
 62
     7
100
AcDbLine
 10
-426.8093872070313
 20
240.4474792480469
 30
0.0
 11
-425.9417724609375
 21
241.3150939941406
 31
0.0
  0
LINE
  5
284
330
22
100
AcDbEntity
  8
0
  6
Continuous
 62
     7
100
AcDbLine
 10
-423.8204345703125
 20
241.3150939941406
 30
0.0
 11
-422.81494140625
 21
242.3205871582031
 31
0.0
  0
LINE
  5
285
330
22
100
AcDbEntity
  8
0
  6
Continuous
 62
     7
100
AcDbLine
 10
-426.8093872070313
 20
238.3261566162109
 30
0.0
 11
-423.8204345703125
 21
241.3150939941406
 31
0.0
  0
LINE
  5
286
330
22
100
AcDbEntity
  8
0
  6
Continuous
 62
     7
100
AcDbLine
 10
-425.1991271972656
 20
237.8150939941406
 30
0.0
 11
-421.6991271972656
 21
241.3150939941406
 31
0.0
  0
LINE
  5
287
330
22
100
AcDbEntity
  8
0
  6
Continuous
 62
     7
100
AcDbLine
 10
-423.0778198242187
 20
237.8150939941406
 30
0.0
 11
-420.81494140625
 21
240.0779571533203
 31
0.0
  0
LINE
  5
288
330
22
100
AcDbEntity
  8
0
  6
Continuous
 62
     7
100
AcDbLine
 10
-420.9564819335938
 20
237.8150939941406
 30
0.0
 11
-420.81494140625
 21
237.9566345214844
 31
0.0
  0
LINE
  5
289
330
22
100
AcDbEntity
  8
0
  6
Continuous
 62
     7
100
AcDbLine
 10
-423.8199768066406
 20
269.9533996582031
 30
0.0
 11
-421.9582824707031
 21
271.8150939941406
 31
0.0
  0
LINE
  5
28A
330
22
100
AcDbEntity
  8
0
  6
Continuous
 62
     7
100
AcDbLine
 10
-421.6986389160156
 20
269.9533996582031
 30
0.0
 11
-419.8369445800781
 21
271.8150939941406
 31
0.0
  0
LINE
  5
28B
330
22
100
AcDbEntity
  8
0
  6
Continuous
 62
     7
100
AcDbLine
 10
-419.5773315429688
 20
269.9533996582031
 30
0.0
 11
-417.7156372070313
 21
271.8150939941406
 31
0.0
  0
LINE
  5
28C
330
22
100
AcDbEntity
  8
0
  6
Continuous
 62
     7
100
AcDbLine
 10
-426.8093872070313
 20
262.7213439941406
 30
0.0
 11
-426.7156372070313
 21
262.8150939941406
 31
0.0
  0
LINE
  5
28D
330
22
100
AcDbEntity
  8
0
  6
Continuous
 62
     7
100
AcDbLine
 10
-418.8149414062499
 20
268.5944519042969
 30
0.0
 11
-415.5942993164063
 21
271.8150939941406
 31
0.0
  0
LINE
  5
28E
330
22
100
AcDbEntity
  8
0
  6
Continuous
 62
     7
100
AcDbLine
 10
-426.8093872070313
 20
260.6000366210938
 30
0.0
 11
-424.5942993164063
 21
262.8150939941406
 31
0.0
  0
LINE
  5
28F
330
22
100
AcDbEntity
  8
0
  6
Continuous
 62
     7
100
AcDbLine
 10
-418.8149414062499
 20
266.47314453125
 30
0.0
 11
-413.4729919433594
 21
271.8150939941406
 31
0.0
  0
LINE
  5
290
330
22
100
AcDbEntity
  8
0
  6
Continuous
 62
     7
100
AcDbLine
 10
-426.8093872070313
 20
258.4786987304688
 30
0.0
 11
-422.4729919433594
 21
262.8150939941406
 31
0.0
  0
LINE
  5
291
330
22
100
AcDbEntity
  8
0
  6
Continuous
 62
     7
100
AcDbLine
 10
-418.8149414062499
 20
264.351806640625
 30
0.0
 11
-411.3516540527343
 21
271.8150939941406
 31
0.0
  0
LINE
  5
292
330
22
100
AcDbEntity
  8
0
  6
Continuous
 62
     7
100
AcDbLine
 10
-426.8093872070313
 20
256.3573913574219
 30
0.0
 11
-420.3516540527344
 21
262.8150939941406
 31
0.0
  0
LINE
  5
293
330
22
100
AcDbEntity
  8
0
  6
Continuous
 62
     7
100
AcDbLine
 10
-420.7423095703124
 20
260.3031616210938
 30
0.0
 11
-409.2303466796875
 21
271.8150939941406
 31
0.0
  0
LINE
  5
294
330
22
100
AcDbEntity
  8
0
  6
Continuous
 62
     7
100
AcDbLine
 10
-426.8093872070313
 20
254.2360687255859
 30
0.0
 11
-422.6535339355469
 21
258.3919067382813
 31
0.0
  0
LINE
  5
295
330
22
100
AcDbEntity
  8
0
  6
Continuous
 62
     7
100
AcDbLine
 10
-418.4595642089844
 20
260.4645690917969
 30
0.0
 11
-407.1865539550781
 21
271.7375793457031
 31
0.0
  0
LINE
  5
296
330
22
100
AcDbEntity
  8
0
  6
Continuous
 62
     7
100
AcDbLine
 10
-426.8093872070313
 20
252.11474609375
 30
0.0
 11
-422.81494140625
 21
256.109161376953
 31
0.0
  0
LINE
  5
297
330
22
100
AcDbEntity
  8
0
  6
Continuous
 62
     7
100
AcDbLine
 10
-416.3382568359375
 20
260.4645690917969
 30
0.0
 11
-407.3634338378906
 21
269.4393615722656
 31
0.0
  0
LINE
  5
298
330
22
100
AcDbEntity
  8
0
  6
Continuous
 62
     7
100
AcDbLine
 10
-426.8093872070313
 20
249.9934234619141
 30
0.0
 11
-422.81494140625
 21
253.9878540039063
 31
0.0
  0
LINE
  5
299
330
22
100
AcDbEntity
  8
0
  6
Continuous
 62
     7
100
AcDbLine
 10
-414.2169189453125
 20
260.4645690917969
 30
0.0
 11
-408.0001831054688
 21
266.6813049316406
 31
0.0
  0
LINE
  5
29A
330
22
100
AcDbEntity
  8
0
  6
Continuous
 62
     7
100
AcDbLine
 10
-426.8093872070313
 20
247.8721008300781
 30
0.0
 11
-422.81494140625
 21
251.8665313720703
 31
0.0
  0
LINE
  5
29B
330
22
100
AcDbEntity
  8
0
  6
Continuous
 62
     7
100
AcDbLine
 10
-409.74560546875
 20
262.8145446777344
 30
0.0
 11
-408.6369323730468
 21
263.9232177734375
 31
0.0
  0
LINE
  5
29C
330
22
100
AcDbEntity
  8
0
  6
Continuous
 62
     7
100
AcDbLine
 10
-412.8611755371093
 20
259.698974609375
 30
0.0
 11
-410.8145446777343
 21
261.74560546875
 31
0.0
  0
LINE
  5
29D
330
22
100
AcDbEntity
  8
0
  6
Continuous
 62
     7
100
AcDbLine
 10
-426.8093872070313
 20
245.7507781982422
 30
0.0
 11
-422.81494140625
 21
249.7452087402344
 31
0.0
  0
LINE
  5
29E
330
22
100
AcDbEntity
  8
0
  6
Continuous
 62
     7
100
AcDbLine
 10
-412.2705688476562
 20
258.1682739257813
 30
0.0
 11
-410.1237487792968
 21
260.3150939941406
 31
0.0
  0
LINE
  5
29F
330
22
100
AcDbEntity
  8
0
  6
Continuous
 62
     7
100
AcDbLine
 10
-426.8093872070313
 20
243.6294708251953
 30
0.0
 11
-422.81494140625
 21
247.6238861083984
 31
0.0
  0
LINE
  5
2A0
330
22
100
AcDbEntity
  8
0
  6
Continuous
 62
     7
100
AcDbLine
 10
-410.50244140625
 20
257.8150939941405
 30
0.0
 11
-408.9145507812499
 21
259.4029846191406
 31
0.0
  0
LINE
  5
2A1
330
22
100
AcDbEntity
  8
0
  6
Continuous
 62
     7
100
AcDbLine
 10
-426.8093872070313
 20
241.5081481933594
 30
0.0
 11
-422.81494140625
 21
245.5025787353516
 31
0.0
  0
LINE
  5
2A2
330
22
100
AcDbEntity
  8
0
  6
Continuous
 62
     7
100
AcDbLine
 10
-424.881103515625
 20
241.3150939941406
 30
0.0
 11
-422.81494140625
 21
243.3812561035156
 31
0.0
  0
LINE
  5
2A3
330
22
100
AcDbEntity
  8
0
  6
Continuous
 62
     7
100
AcDbLine
 10
-426.8093872070313
 20
239.3868255615234
 30
0.0
 11
-424.881103515625
 21
241.3150939941406
 31
0.0
  0
LINE
  5
2A4
330
22
100
AcDbEntity
  8
0
  6
Continuous
 62
     7
100
AcDbLine
 10
-426.2597961425781
 20
237.8150939941406
 30
0.0
 11
-422.7597961425781
 21
241.3150939941406
 31
0.0
  0
LINE
  5
2A5
330
22
100
AcDbEntity
  8
0
  6
Continuous
 62
     7
100
AcDbLine
 10
-424.1384582519531
 20
237.8150939941406
 30
0.0
 11
-420.81494140625
 21
241.1386108398438
 31
0.0
  0
LINE
  5
2A6
330
22
100
AcDbEntity
  8
0
  6
Continuous
 62
     7
100
AcDbLine
 10
-422.0171508789062
 20
237.8150939941406
 30
0.0
 11
-420.81494140625
 21
239.0172882080078
 31
0.0
  0
LINE
  5
2A7
330
22
100
AcDbEntity
  8
0
  6
Continuous
 62
     7
100
AcDbLine
 10
-416.8096313476563
 20
227.818603515625
 30
0.0
 11
-426.806884765625
 21
227.8180389404297
 31
0.0
  0
ARC
  5
2A8
330
22
100
AcDbEntity
  8
0
  6
Continuous
 62
     7
100
AcDbCircle
 10
-426.8089904785155
 20
432.318603515625
 30
0.0
 40
4.449999809265136
100
AcDbArc
 50
33.40563324174365
 51
146.5943667582564
  0
ARC
  5
2A9
330
22
100
AcDbEntity
  8
0
  6
Continuous
 62
     7
100
AcDbCircle
 10
-426.8089904785155
 20
432.318603515625
 30
0.0
 40
4.449999809265136
100
AcDbArc
 50
213.4053052279186
 51
326.5946947720828
  0
CIRCLE
  5
2AA
330
22
100
AcDbEntity
  8
0
  6
Continuous
 62
     7
100
AcDbCircle
 10
-426.8089904785155
 20
432.318603515625
 30
0.0
 40
111.0
  0
CIRCLE
  5
2AB
330
22
100
AcDbEntity
  8
0
  6
Continuous
 62
     7
100
AcDbCircle
 10
-426.8089904785155
 20
432.318603515625
 30
0.0
 40
78.0
  0
CIRCLE
  5
2AC
330
22
100
AcDbEntity
  8
0
  6
Continuous
 62
     7
100
AcDbCircle
 10
-426.8089904785155
 20
432.318603515625
 30
0.0
 40
80.0
  0
CIRCLE
  5
2AD
330
22
100
AcDbEntity
  8
0
  6
Continuous
 62
     7
100
AcDbCircle
 10
-426.8089904785155
 20
432.318603515625
 30
0.0
 40
94.25240325927735
  0
CIRCLE
  5
2AE
330
22
100
AcDbEntity
  8
0
  6
Continuous
 62
     7
100
AcDbCircle
 10
-426.8089904785155
 20
432.318603515625
 30
0.0
 40
61.5
  0
CIRCLE
  5
2AF
330
22
100
AcDbEntity
  8
0
  6
Continuous
 62
     7
100
AcDbCircle
 10
-426.8089904785155
 20
432.318603515625
 30
0.0
 40
20.0
  0
ARC
  5
2B0
330
22
100
AcDbEntity
  8
0
  6
Continuous
 62
     7
100
AcDbCircle
 10
-419.5349426269531
 20
252.8150939941406
 30
0.0
 40
1.0
100
AcDbArc
 50
90.00000000000019
 51
180.0000000000004
  0
ARC
  5
2B1
330
22
100
AcDbEntity
  8
0
  6
Continuous
 62
     7
100
AcDbCircle
 10
-421.0349426269531
 20
252.8150939941406
 30
0.0
 40
0.5
100
AcDbArc
 50
270.0000000000005
 51
0.0
  0
ARC
  5
2B2
330
22
100
AcDbEntity
  8
0
  6
Continuous
 62
     7
100
AcDbCircle
 10
-411.3145446777343
 20
259.3150939941406
 30
0.0
 40
1.5
100
AcDbArc
 50
180.0000000000004
 51
270.0000000000005
  0
CIRCLE
  5
2B3
330
22
100
AcDbEntity
  8
0
  6
Continuous
 62
     7
100
AcDbCircle
 10
-409.8145446777343
 20
261.5151062011719
 30
0.0
 40
1.0
  0
ARC
  5
2B4
330
22
100
AcDbEntity
  8
0
  6
Continuous
 62
     7
100
AcDbCircle
 10
-403.4154663085938
 20
265.9300842285156
 30
0.0
 40
1.5
100
AcDbArc
 50
90.00000000000019
 51
175.178954032584
  0
ARC
  5
2B5
330
22
100
AcDbEntity
  8
0
  6
Continuous
 62
     7
100
AcDbCircle
 10
-409.4145507812499
 20
258.3150939941406
 30
0.0
 40
0.5
100
AcDbArc
 50
270.0000000000005
 51
0.0
  0
ARC
  5
2B6
330
22
100
AcDbEntity
  8
0
  6
Continuous
 62
     7
100
AcDbCircle
 10
-407.7808532714843
 20
255.8150939941406
 30
0.0
 40
2.0
100
AcDbArc
 50
270.0000000000005
 51
355.1797272374737
  0
ARC
  5
2B7
330
22
100
AcDbEntity
  8
0
  6
Continuous
 62
     7
100
AcDbCircle
 10
-413.8145446777343
 20
259.4645690917969
 30
0.0
 40
1.0
100
AcDbArc
 50
0.0
 51
90.00000000000019
  0
ARC
  5
2B8
330
22
100
AcDbEntity
  8
0
  6
Continuous
 62
     7
100
AcDbCircle
 10
-369.4061889648438
 20
242.3150939941406
 30
0.0
 40
0.5
100
AcDbArc
 50
270.0000000000005
 51
0.0
  0
CIRCLE
  5
2B9
330
22
100
AcDbEntity
  8
0
  6
Continuous
 62
     7
100
AcDbCircle
 10
-369.8061828613281
 20
249.0650939941406
 30
0.0
 40
1.0
  0
ARC
  5
2BA
330
22
100
AcDbEntity
  8
0
  6
Continuous
 62
     7
100
AcDbCircle
 10
-375.4939880371094
 20
265.9300842285156
 30
0.0
 40
1.5
100
AcDbArc
 50
4.653864959320402
 51
90.00000000000019
  0
ARC
  5
2BB
330
22
100
AcDbEntity
  8
0
  6
Continuous
 62
     7
100
AcDbCircle
 10
-317.8089904785156
 20
103.8186111450195
 30
0.0
 40
2.0
100
AcDbArc
 50
0.0
 51
90.00000000000019
  0
ARC
  5
2BC
330
22
100
AcDbEntity
  8
0
  6
Continuous
 62
     7
100
AcDbCircle
 10
-316.3089904785156
 20
102.8186111450195
 30
0.0
 40
0.5
100
AcDbArc
 50
270.0000000000005
 51
0.0
  0
ARC
  5
2BD
330
22
100
AcDbEntity
  8
0
  6
Continuous
 62
     7
100
AcDbCircle
 10
-360.8089904785156
 20
110.8186111450195
 30
0.0
 40
5.0
100
AcDbArc
 50
180.0000000000004
 51
270.0000000000005
  0
ARC
  5
2BE
330
22
100
AcDbEntity
  8
0
  6
Continuous
 62
     7
100
AcDbCircle
 10
-366.8089904785156
 20
144.818603515625
 30
0.0
 40
1.0
100
AcDbArc
 50
0.0
 51
90.00000000000019
  0
ARC
  5
2BF
330
22
100
AcDbEntity
  8
0
  6
Continuous
 62
     7
100
AcDbCircle
 10
-363.3089904785156
 20
101.3186111450195
 30
0.0
 40
1.0
100
AcDbArc
 50
90.00000000000019
 51
180.0000000000004
  0
ARC
  5
2C0
330
22
100
AcDbEntity
  8
0
  6
Continuous
 62
     7
100
AcDbCircle
 10
-365.3089904785156
 20
61.81861114501953
 30
0.0
 40
1.0
100
AcDbArc
 50
270.0000000000005
 51
0.0
  0
ARC
  5
2C1
330
22
100
AcDbEntity
  8
0
  6
Continuous
 62
     7
100
AcDbCircle
 10
-486.8089904785156
 20
144.818603515625
 30
0.0
 40
1.0
100
AcDbArc
 50
90.00000000000019
 51
180.0000000000004
  0
ARC
  5
2C2
330
22
100
AcDbEntity
  8
0
  6
Continuous
 62
     7
100
AcDbCircle
 10
-347.8096313476563
 20
271.818603515625
 30
0.0
 40
1.0
100
AcDbArc
 50
0.0
 51
180.0000000000004
  0
ARC
  5
2C3
330
22
100
AcDbEntity
  8
0
  6
Continuous
 62
     7
100
AcDbCircle
 10
-505.3089904785156
 20
100.8637466430664
 30
0.0
 40
2.0
100
AcDbArc
 50
180.0000000000004
 51
253.1050150192331
  0
ARC
  5
2C4
330
22
100
AcDbEntity
  8
0
  6
Continuous
 62
     7
100
AcDbCircle
 10
-490.3089904785156
 20
101.3186111450195
 30
0.0
 40
1.0
100
AcDbArc
 50
0.0
 51
90.00000000000019
  0
ARC
  5
2C5
330
22
100
AcDbEntity
  8
0
  6
Continuous
 62
     7
100
AcDbCircle
 10
-511.1213989257812
 20
81.72697448730469
 30
0.0
 40
18.0
100
AcDbArc
 50
8.278198607276527
 51
73.10488678292974
  0
ARC
  5
2C6
330
22
100
AcDbEntity
  8
0
  6
Continuous
 62
     7
100
AcDbCircle
 10
-488.3089904785156
 20
61.81861114501953
 30
0.0
 40
1.0
100
AcDbArc
 50
180.0000000000004
 51
270.0000000000005
  0
ARC
  5
2C7
330
22
100
AcDbEntity
  8
0
  6
Continuous
 62
     7
100
AcDbCircle
 10
-491.3089294433594
 20
82.31861114501953
 30
0.0
 40
2.0
100
AcDbArc
 50
180.0000000000004
 51
270.0000000000005
  0
ARC
  5
2C8
330
22
100
AcDbEntity
  8
0
  6
Continuous
 62
     7
100
AcDbCircle
 10
-535.8089599609375
 20
103.8186111450195
 30
0.0
 40
2.0
100
AcDbArc
 50
90.00000000000019
 51
180.0000000000004
  0
ARC
  5
2C9
330
22
100
AcDbEntity
  8
0
  6
Continuous
 62
     7
100
AcDbCircle
 10
-492.8089904785156
 20
110.8186111450195
 30
0.0
 40
5.0
100
AcDbArc
 50
270.0000000000005
 51
0.0
  0
ARC
  5
2CA
330
22
100
AcDbEntity
  8
0
  6
Continuous
 62
     7
100
AcDbCircle
 10
-537.3089599609374
 20
102.8186111450195
 30
0.0
 40
0.5
100
AcDbArc
 50
180.0000000000004
 51
270.0000000000005
  0
ARC
  5
2CB
330
22
100
AcDbEntity
  8
0
  6
Continuous
 62
     7
100
AcDbCircle
 10
-505.8096313476562
 20
271.818603515625
 30
0.0
 40
1.0
100
AcDbArc
 50
90.00000000000019
 51
180.0000000000004
  0
ARC
  5
2CC
330
22
100
AcDbEntity
  8
0
  6
Continuous
 62
     7
100
AcDbCircle
 10
-493.6522827148437
 20
267.8110656738281
 30
0.0
 40
1.0
100
AcDbArc
 50
10.00676434556929
 51
90.00524558526795
  0
ARC
  5
2CD
330
22
100
AcDbEntity
  8
0
  6
Continuous
 62
     7
100
AcDbCircle
 10
-365.6110229492188
 20
271.3150939941406
 30
0.0
 40
0.5
100
AcDbArc
 50
350.0001234095527
 51
90.00000000000019
  0
ARC
  5
2CE
330
22
100
AcDbEntity
  8
0
  6
Continuous
 62
     7
100
AcDbCircle
 10
-364.1754455566406
 20
270.818603515625
 30
0.0
 40
1.0
100
AcDbArc
 50
90.00000000000019
 51
170.000123409552
  0
ARC
  5
2CF
330
22
100
AcDbEntity
  8
0
  6
Continuous
 62
     7
100
AcDbCircle
 10
-359.9660339355469
 20
267.818603515625
 30
0.0
 40
1.0
100
AcDbArc
 50
90.00000000000019
 51
170.000123409552
  0
ARC
  5
2D0
330
22
100
AcDbEntity
  8
0
  6
Continuous
 62
     7
100
AcDbCircle
 10
-407.4435424804688
 20
271.3150939941406
 30
0.0
 40
0.5
100
AcDbArc
 50
346.9985682107818
 51
90.00000000000019
  0
ARC
  5
2D1
330
22
100
AcDbEntity
  8
0
  6
Continuous
 62
     7
100
AcDbCircle
 10
-406.4172363281249
 20
271.3150939941406
 30
0.0
 40
0.5
100
AcDbArc
 50
90.00000000000019
 51
166.9985682107812
  0
ARC
  5
2D2
330
22
100
AcDbEntity
  8
0
  6
Continuous
 62
     7
100
AcDbCircle
 10
-419.8149414062499
 20
257.4645690917969
 30
0.0
 40
3.0
100
AcDbArc
 50
90.00000000000019
 51
180.0000000000004
  0
ARC
  5
2D3
330
22
100
AcDbEntity
  8
0
  6
Continuous
 62
     7
100
AcDbCircle
 10
-423.56494140625
 20
270.8150939941406
 30
0.0
 40
1.0
100
AcDbArc
 50
90.00000000000019
 51
180.0000000000004
  0
TEXT
  5
2D4
330
22
100
AcDbEntity
  8
0
  6
Continuous
 62
     7
100
AcDbText
 10
-355.8570184707642
 20
47.66949081420897
 30
0.0
 40
7.0
  1
DL-CH-100
 41
1.081655248632571
100
AcDbText
  0
SOLID
  5
2D5
330
22
100
AcDbEntity
  8
0
  6
Continuous
 62
     7
100
AcDbTrace
 10
-409.7544250488281
 20
260.5169067382813
 30
0.0
 11
-409.9503173828124
 21
260.5243530273438
 31
0.0
 12
-409.707763671875
 22
260.5243530273438
 32
0.0
 13
-409.707763671875
 23
260.5243530273438
 33
0.0
  0
SOLID
  5
2D6
330
22
100
AcDbEntity
  8
0
  6
Continuous
 62
     7
100
AcDbTrace
 10
-409.6787719726562
 20
262.5058288574219
 30
0.0
 11
-409.9213256835938
 21
262.5058288574219
 31
0.0
 12
-409.8746643066406
 22
262.5132751464844
 32
0.0
 13
-409.8746643066406
 23
262.5132751464844
 33
0.0
  0
SOLID
  5
2D7
330
22
100
AcDbEntity
  8
0
  6
Continuous
 62
     7
100
AcDbTrace
 10
-409.5805053710938
 20
262.4823913574219
 30
0.0
 11
-410.0682678222656
 21
262.4823913574219
 31
0.0
 12
-409.6787719726562
 22
262.5058288574219
 32
0.0
 13
-409.9213256835938
 23
262.5058288574219
 33
0.0
  0
SOLID
  5
2D8
330
22
100
AcDbEntity
  8
0
  6
Continuous
 62
     7
100
AcDbTrace
 10
-409.4880981445313
 20
262.4603271484375
 30
0.0
 11
-410.1278381347656
 21
262.4603271484375
 31
0.0
 12
-409.5805053710938
 22
262.4823913574219
 32
0.0
 13
-410.0682678222656
 23
262.4823913574219
 33
0.0
  0
SOLID
  5
2D9
330
22
100
AcDbEntity
  8
0
  6
Continuous
 62
     7
100
AcDbTrace
 10
-409.3879394531249
 20
262.414306640625
 30
0.0
 11
-410.2520751953124
 21
262.414306640625
 31
0.0
 12
-409.4880981445313
 22
262.4603271484375
 32
0.0
 13
-410.1278381347656
 23
262.4603271484375
 33
0.0
  0
SOLID
  5
2DA
330
22
100
AcDbEntity
  8
0
  6
Continuous
 62
     7
100
AcDbTrace
 10
-409.3099670410156
 20
262.3784790039063
 30
0.0
 11
-410.3103942871094
 21
262.3784790039063
 31
0.0
 12
-409.3879394531249
 22
262.414306640625
 32
0.0
 13
-410.2520751953124
 23
262.414306640625
 33
0.0
  0
SOLID
  5
2DB
330
22
100
AcDbEntity
  8
0
  6
Continuous
 62
     7
100
AcDbTrace
 10
-409.2177734375
 20
262.3116455078125
 30
0.0
 11
-410.4190979003906
 21
262.3116455078125
 31
0.0
 12
-409.3099670410156
 22
262.3784790039063
 32
0.0
 13
-410.3103942871094
 23
262.3784790039063
 33
0.0
  0
SOLID
  5
2DC
330
22
100
AcDbEntity
  8
0
  6
Continuous
 62
     7
100
AcDbTrace
 10
-409.1512451171874
 20
262.263427734375
 30
0.0
 11
-410.4711303710938
 21
262.263427734375
 31
0.0
 12
-409.2177734375
 22
262.3116455078125
 32
0.0
 13
-410.4190979003906
 23
262.3116455078125
 33
0.0
  0
SOLID
  5
2DD
330
22
100
AcDbEntity
  8
0
  6
Continuous
 62
     7
100
AcDbTrace
 10
-409.0724487304687
 20
262.1784057617188
 30
0.0
 11
-410.5628967285156
 21
262.1784057617188
 31
0.0
 12
-409.1512451171874
 22
262.263427734375
 32
0.0
 13
-410.4711303710938
 23
262.263427734375
 33
0.0
  0
SOLID
  5
2DE
330
22
100
AcDbEntity
  8
0
  6
Continuous
 62
     7
100
AcDbTrace
 10
-409.0179748535156
 20
262.1196594238281
 30
0.0
 11
-410.60546875
 21
262.1196594238281
 31
0.0
 12
-409.0724487304687
 22
262.1784057617188
 32
0.0
 13
-410.5628967285156
 23
262.1784057617188
 33
0.0
  0
SOLID
  5
2DF
330
22
100
AcDbEntity
  8
0
  6
Continuous
 62
     7
100
AcDbTrace
 10
-408.95654296875
 20
262.0196533203125
 30
0.0
 11
-410.6779174804688
 21
262.0196533203125
 31
0.0
 12
-409.0179748535156
 22
262.1196594238281
 32
0.0
 13
-410.60546875
 23
262.1196594238281
 33
0.0
  0
SOLID
  5
2E0
330
22
100
AcDbEntity
  8
0
  6
Continuous
 62
     7
100
AcDbTrace
 10
-408.9153442382813
 20
261.95263671875
 30
0.0
 11
-410.7087097167968
 21
261.95263671875
 31
0.0
 12
-408.95654296875
 22
262.0196533203125
 32
0.0
 13
-410.6779174804688
 23
262.0196533203125
 33
0.0
  0
SOLID
  5
2E1
330
22
100
AcDbEntity
  8
0
  6
Continuous
 62
     7
100
AcDbTrace
 10
-408.8742065429688
 20
261.841552734375
 30
0.0
 11
-410.759765625
 21
261.841552734375
 31
0.0
 12
-408.9153442382813
 22
261.95263671875
 32
0.0
 13
-410.7087097167968
 23
261.95263671875
 33
0.0
  0
SOLID
  5
2E2
330
22
100
AcDbEntity
  8
0
  6
Continuous
 62
     7
100
AcDbTrace
 10
-408.8472595214843
 20
261.768798828125
 30
0.0
 11
-410.7771301269531
 21
261.768798828125
 31
0.0
 12
-408.8742065429688
 22
261.841552734375
 32
0.0
 13
-410.759765625
 23
261.841552734375
 33
0.0
  0
SOLID
  5
2E3
330
22
100
AcDbEntity
  8
0
  6
Continuous
 62
     7
100
AcDbTrace
 10
-408.8284301757813
 20
261.6508483886719
 30
0.0
 11
-410.8052978515624
 21
261.6508483886719
 31
0.0
 12
-408.8472595214843
 22
261.768798828125
 32
0.0
 13
-410.7771301269531
 23
261.768798828125
 33
0.0
  0
SOLID
  5
2E4
330
22
100
AcDbEntity
  8
0
  6
Continuous
 62
     7
100
AcDbTrace
 10
-408.8163452148438
 20
261.5752258300781
 30
0.0
 11
-410.8081665039063
 21
261.5752258300781
 31
0.0
 12
-408.8284301757813
 22
261.6508483886719
 32
0.0
 13
-410.8052978515624
 23
261.6508483886719
 33
0.0
  0
SOLID
  5
2E5
330
22
100
AcDbEntity
  8
0
  6
Continuous
 62
     7
100
AcDbTrace
 10
-408.8163452148438
 20
261.4549560546875
 30
0.0
 11
-410.8127441406249
 21
261.4549560546875
 31
0.0
 12
-408.8163452148438
 22
261.5752258300781
 32
0.0
 13
-410.8081665039063
 23
261.5752258300781
 33
0.0
  0
SOLID
  5
2E6
330
22
100
AcDbEntity
  8
0
  6
Continuous
 62
     7
100
AcDbTrace
 10
-408.8237915039063
 20
261.3793334960938
 30
0.0
 11
-410.8006591796875
 21
261.3793334960938
 31
0.0
 12
-408.8163452148438
 22
261.4549560546875
 32
0.0
 13
-410.8127441406249
 23
261.4549560546875
 33
0.0
  0
SOLID
  5
2E7
330
22
100
AcDbEntity
  8
0
  6
Continuous
 62
     7
100
AcDbTrace
 10
-408.8519592285156
 20
261.2613830566406
 30
0.0
 11
-410.7818298339843
 21
261.2613830566406
 31
0.0
 12
-408.8237915039063
 22
261.3793334960938
 32
0.0
 13
-410.8006591796875
 23
261.3793334960938
 33
0.0
  0
SOLID
  5
2E8
330
22
100
AcDbEntity
  8
0
  6
Continuous
 62
     7
100
AcDbTrace
 10
-408.8693237304688
 20
261.1886596679688
 30
0.0
 11
-410.7548828125
 21
261.1886596679688
 31
0.0
 12
-408.8519592285156
 22
261.2613830566406
 32
0.0
 13
-410.7818298339843
 23
261.2613830566406
 33
0.0
  0
SOLID
  5
2E9
330
22
100
AcDbEntity
  8
0
  6
Continuous
 62
     7
100
AcDbTrace
 10
-408.9203796386718
 20
261.0775451660156
 30
0.0
 11
-410.7137451171874
 21
261.0775451660156
 31
0.0
 12
-408.8693237304688
 22
261.1886596679688
 32
0.0
 13
-410.7548828125
 23
261.1886596679688
 33
0.0
  0
SOLID
  5
2EA
330
22
100
AcDbEntity
  8
0
  6
Continuous
 62
     7
100
AcDbTrace
 10
-408.9511718749999
 20
261.0105285644531
 30
0.0
 11
-410.6725463867188
 21
261.0105285644531
 31
0.0
 12
-408.9203796386718
 22
261.0775451660156
 32
0.0
 13
-410.7137451171874
 23
261.0775451660156
 33
0.0
  0
SOLID
  5
2EB
330
22
100
AcDbEntity
  8
0
  6
Continuous
 62
     7
100
AcDbTrace
 10
-409.0236206054687
 20
260.9105529785156
 30
0.0
 11
-410.611114501953
 21
260.9105529785156
 31
0.0
 12
-408.9511718749999
 22
261.0105285644531
 32
0.0
 13
-410.6725463867188
 23
261.0105285644531
 33
0.0
  0
SOLID
  5
2EC
330
22
100
AcDbEntity
  8
0
  6
Continuous
 62
     7
100
AcDbTrace
 10
-409.0661926269531
 20
260.8517761230469
 30
0.0
 11
-410.5566711425781
 21
260.8517761230469
 31
0.0
 12
-409.0236206054687
 22
260.9105529785156
 32
0.0
 13
-410.611114501953
 23
260.9105529785156
 33
0.0
  0
SOLID
  5
2ED
330
22
100
AcDbEntity
  8
0
  6
Continuous
 62
     7
100
AcDbTrace
 10
-409.157958984375
 20
260.7667541503906
 30
0.0
 11
-410.4778442382813
 21
260.7667541503906
 31
0.0
 12
-409.0661926269531
 22
260.8517761230469
 32
0.0
 13
-410.5566711425781
 23
260.8517761230469
 33
0.0
  0
SOLID
  5
2EE
330
22
100
AcDbEntity
  8
0
  6
Continuous
 62
     7
100
AcDbTrace
 10
-409.2099914550781
 20
260.7185363769531
 30
0.0
 11
-410.4113159179687
 21
260.7185363769531
 31
0.0
 12
-409.157958984375
 22
260.7667541503906
 32
0.0
 13
-410.4778442382813
 23
260.7667541503906
 33
0.0
  0
SOLID
  5
2EF
330
22
100
AcDbEntity
  8
0
  6
Continuous
 62
     7
100
AcDbTrace
 10
-409.3186950683593
 20
260.6517333984375
 30
0.0
 11
-410.3191223144531
 21
260.6517333984375
 31
0.0
 12
-409.2099914550781
 22
260.7185363769531
 32
0.0
 13
-410.4113159179687
 23
260.7185363769531
 33
0.0
  0
SOLID
  5
2F0
330
22
100
AcDbEntity
  8
0
  6
Continuous
 62
     7
100
AcDbTrace
 10
-409.3770141601563
 20
260.6159057617188
 30
0.0
 11
-410.2411499023437
 21
260.6159057617188
 31
0.0
 12
-409.3186950683593
 22
260.6517333984375
 32
0.0
 13
-410.3191223144531
 23
260.6517333984375
 33
0.0
  0
SOLID
  5
2F1
330
22
100
AcDbEntity
  8
0
  6
Continuous
 62
     7
100
AcDbTrace
 10
-409.5012512207031
 20
260.5698852539063
 30
0.0
 11
-410.1409912109375
 21
260.5698852539063
 31
0.0
 12
-409.3770141601563
 22
260.6159057617188
 32
0.0
 13
-410.2411499023437
 23
260.6159057617188
 33
0.0
  0
SOLID
  5
2F2
330
22
100
AcDbEntity
  8
0
  6
Continuous
 62
     7
100
AcDbTrace
 10
-409.5608520507813
 20
260.547821044922
 30
0.0
 11
-410.048583984375
 21
260.547821044922
 31
0.0
 12
-409.5012512207031
 22
260.5698852539063
 32
0.0
 13
-410.1409912109375
 23
260.5698852539063
 33
0.0
  0
SOLID
  5
2F3
330
22
100
AcDbEntity
  8
0
  6
Continuous
 62
     7
100
AcDbTrace
 10
-409.707763671875
 20
260.5243530273438
 30
0.0
 11
-409.9503173828124
 21
260.5243530273438
 31
0.0
 12
-409.5608520507813
 22
260.547821044922
 32
0.0
 13
-410.048583984375
 23
260.547821044922
 33
0.0
  0
SOLID
  5
2F4
330
22
100
AcDbEntity
  8
0
  6
Continuous
 62
     7
100
AcDbTrace
 10
-369.7226257324219
 20
248.0685882568359
 30
0.0
 11
-369.9186401367188
 21
248.0714416503906
 31
0.0
 12
-369.7071533203125
 22
248.0714416503906
 32
0.0
 13
-369.7071533203125
 23
248.0714416503906
 33
0.0
  0
SOLID
  5
2F5
330
22
100
AcDbEntity
  8
0
  6
Continuous
 62
     7
100
AcDbTrace
 10
-369.6937255859375
 20
250.0587463378906
 30
0.0
 11
-369.9052124023438
 21
250.0587463378906
 31
0.0
 12
-369.8897399902344
 22
250.0615997314453
 32
0.0
 13
-369.8897399902344
 23
250.0615997314453
 33
0.0
  0
SOLID
  5
2F6
330
22
100
AcDbEntity
  8
0
  6
Continuous
 62
     7
100
AcDbTrace
 10
-369.5414123535156
 20
250.0261535644531
 30
0.0
 11
-370.0825500488281
 21
250.0261535644531
 31
0.0
 12
-369.6937255859375
 22
250.0587463378906
 32
0.0
 13
-369.9052124023438
 23
250.0587463378906
 33
0.0
  0
SOLID
  5
2F7
330
22
100
AcDbEntity
  8
0
  6
Continuous
 62
     7
100
AcDbTrace
 10
-369.5020446777344
 20
250.0177154541016
 30
0.0
 11
-370.103759765625
 21
250.0177154541016
 31
0.0
 12
-369.5414123535156
 22
250.0261535644531
 32
0.0
 13
-370.0825500488281
 23
250.0261535644531
 33
0.0
  0
SOLID
  5
2F8
330
22
100
AcDbEntity
  8
0
  6
Continuous
 62
     7
100
AcDbTrace
 10
-369.353759765625
 20
249.9537658691406
 30
0.0
 11
-370.2647094726563
 21
249.9537658691406
 31
0.0
 12
-369.5020446777344
 22
250.0177154541016
 32
0.0
 13
-370.103759765625
 23
250.0177154541016
 33
0.0
  0
SOLID
  5
2F9
330
22
100
AcDbEntity
  8
0
  6
Continuous
 62
     7
100
AcDbTrace
 10
-369.322021484375
 20
249.9400787353516
 30
0.0
 11
-370.2858581542969
 21
249.9400787353516
 31
0.0
 12
-369.353759765625
 22
249.9537658691406
 32
0.0
 13
-370.2647094726563
 23
249.9537658691406
 33
0.0
  0
SOLID
  5
2FA
330
22
100
AcDbEntity
  8
0
  6
Continuous
 62
     7
100
AcDbTrace
 10
-369.1873474121094
 20
249.8472290039063
 30
0.0
 11
-370.4292907714844
 21
249.8472290039063
 31
0.0
 12
-369.322021484375
 22
249.9400787353516
 32
0.0
 13
-370.2858581542969
 23
249.9400787353516
 33
0.0
  0
SOLID
  5
2FB
330
22
100
AcDbEntity
  8
0
  6
Continuous
 62
     7
100
AcDbTrace
 10
-369.16064453125
 20
249.8288116455078
 30
0.0
 11
-370.4482421875
 21
249.8288116455078
 31
0.0
 12
-369.1873474121094
 22
249.8472290039063
 32
0.0
 13
-370.4292907714844
 23
249.8472290039063
 33
0.0
  0
SOLID
  5
2FC
330
22
100
AcDbEntity
  8
0
  6
Continuous
 62
     7
100
AcDbTrace
 10
-369.0458374023438
 20
249.7106475830078
 30
0.0
 11
-370.5698852539063
 21
249.7106475830078
 31
0.0
 12
-369.16064453125
 22
249.8288116455078
 32
0.0
 13
-370.4482421875
 23
249.8288116455078
 33
0.0
  0
SOLID
  5
2FD
330
22
100
AcDbEntity
  8
0
  6
Continuous
 62
     7
100
AcDbTrace
 10
-369.0240478515625
 20
249.6882019042969
 30
0.0
 11
-370.5853881835938
 21
249.6882019042969
 31
0.0
 12
-369.0458374023438
 22
249.7106475830078
 32
0.0
 13
-370.5698852539063
 23
249.7106475830078
 33
0.0
  0
SOLID
  5
2FE
330
22
100
AcDbEntity
  8
0
  6
Continuous
 62
     7
100
AcDbTrace
 10
-368.93408203125
 20
249.5492553710938
 30
0.0
 11
-370.68115234375
 21
249.5492553710938
 31
0.0
 12
-369.0240478515625
 22
249.6882019042969
 32
0.0
 13
-370.5853881835938
 23
249.6882019042969
 33
0.0
  0
SOLID
  5
2FF
330
22
100
AcDbEntity
  8
0
  6
Continuous
 62
     7
100
AcDbTrace
 10
-368.9175109863281
 20
249.5236358642578
 30
0.0
 11
-370.6921997070313
 21
249.5236358642578
 31
0.0
 12
-368.93408203125
 22
249.5492553710938
 32
0.0
 13
-370.68115234375
 23
249.5492553710938
 33
0.0
  0
SOLID
  5
300
330
22
100
AcDbEntity
  8
0
  6
Continuous
 62
     7
100
AcDbTrace
 10
-368.8561706542969
 20
249.3692474365234
 30
0.0
 11
-370.7588195800781
 21
249.3692474365234
 31
0.0
 12
-368.9175109863281
 22
249.5236358642578
 32
0.0
 13
-370.6921997070313
 23
249.5236358642578
 33
0.0
  0
SOLID
  5
301
330
22
100
AcDbEntity
  8
0
  6
Continuous
 62
     7
100
AcDbTrace
 10
-368.8451232910156
 20
249.3414611816406
 30
0.0
 11
-370.7647399902344
 21
249.3414611816406
 31
0.0
 12
-368.8561706542969
 22
249.3692474365234
 32
0.0
 13
-370.7588195800781
 23
249.3692474365234
 33
0.0
  0
SOLID
  5
302
330
22
100
AcDbEntity
  8
0
  6
Continuous
 62
     7
100
AcDbTrace
 10
-368.8516845703125
 20
249.1775512695313
 30
0.0
 11
-370.7998352050781
 21
249.1775512695313
 31
0.0
 12
-368.8451232910156
 22
249.3414611816406
 32
0.0
 13
-370.7647399902344
 23
249.3414611816406
 33
0.0
  0
SOLID
  5
303
330
22
100
AcDbEntity
  8
0
  6
Continuous
 62
     7
100
AcDbTrace
 10
-368.8595275878906
 20
248.9815368652344
 30
0.0
 11
-370.8026733398438
 21
248.9815368652344
 31
0.0
 12
-368.8516845703125
 22
249.1775512695313
 32
0.0
 13
-370.7998352050781
 23
249.1775512695313
 33
0.0
  0
SOLID
  5
304
330
22
100
AcDbEntity
  8
0
  6
Continuous
 62
     7
100
AcDbTrace
 10
-368.8672485351563
 20
248.7887420654297
 30
0.0
 11
-370.7672424316406
 21
248.7887420654297
 31
0.0
 12
-368.8595275878906
 22
248.9815368652344
 32
0.0
 13
-370.8026733398438
 23
248.9815368652344
 33
0.0
  0
SOLID
  5
305
330
22
100
AcDbEntity
  8
0
  6
Continuous
 62
     7
100
AcDbTrace
 10
-368.8702697753906
 20
248.7128601074219
 30
0.0
 11
-370.7370910644531
 21
248.7128601074219
 31
0.0
 12
-368.8672485351563
 22
248.7887420654297
 32
0.0
 13
-370.7672424316406
 23
248.7887420654297
 33
0.0
  0
SOLID
  5
306
330
22
100
AcDbEntity
  8
0
  6
Continuous
 62
     7
100
AcDbTrace
 10
-368.9193725585938
 20
248.6065521240234
 30
0.0
 11
-370.6948547363281
 21
248.6065521240234
 31
0.0
 12
-368.8702697753906
 22
248.7128601074219
 32
0.0
 13
-370.7370910644531
 23
248.7128601074219
 33
0.0
  0
SOLID
  5
307
330
22
100
AcDbEntity
  8
0
  6
Continuous
 62
     7
100
AcDbTrace
 10
-368.9311828613281
 20
248.5809478759766
 30
0.0
 11
-370.6782836914063
 21
248.5809478759766
 31
0.0
 12
-368.9193725585938
 22
248.6065521240234
 32
0.0
 13
-370.6948547363281
 23
248.6065521240234
 33
0.0
  0
SOLID
  5
308
330
22
100
AcDbEntity
  8
0
  6
Continuous
 62
     7
100
AcDbTrace
 10
-369.0269775390625
 20
248.4420013427734
 30
0.0
 11
-370.5883178710938
 21
248.4420013427734
 31
0.0
 12
-368.9311828613281
 22
248.5809478759766
 32
0.0
 13
-370.6782836914063
 23
248.5809478759766
 33
0.0
  0
SOLID
  5
309
330
22
100
AcDbEntity
  8
0
  6
Continuous
 62
     7
100
AcDbTrace
 10
-369.0424499511719
 20
248.4195404052734
 30
0.0
 11
-370.5665283203125
 21
248.4195404052734
 31
0.0
 12
-369.0269775390625
 22
248.4420013427734
 32
0.0
 13
-370.5883178710938
 23
248.4420013427734
 33
0.0
  0
SOLID
  5
30A
330
22
100
AcDbEntity
  8
0
  6
Continuous
 62
     7
100
AcDbTrace
 10
-369.1641235351563
 20
248.3013763427734
 30
0.0
 11
-370.4517211914063
 21
248.3013763427734
 31
0.0
 12
-369.0424499511719
 22
248.4195404052734
 32
0.0
 13
-370.5665283203125
 23
248.4195404052734
 33
0.0
  0
SOLID
  5
30B
330
22
100
AcDbEntity
  8
0
  6
Continuous
 62
     7
100
AcDbTrace
 10
-369.1830749511719
 20
248.282958984375
 30
0.0
 11
-370.4250183105469
 21
248.282958984375
 31
0.0
 12
-369.1641235351563
 22
248.3013763427734
 32
0.0
 13
-370.4517211914063
 23
248.3013763427734
 33
0.0
  0
SOLID
  5
30C
330
22
100
AcDbEntity
  8
0
  6
Continuous
 62
     7
100
AcDbTrace
 10
-369.3265075683594
 20
248.1901092529297
 30
0.0
 11
-370.2903442382813
 21
248.1901092529297
 31
0.0
 12
-369.1830749511719
 22
248.282958984375
 32
0.0
 13
-370.4250183105469
 23
248.282958984375
 33
0.0
  0
SOLID
  5
30D
330
22
100
AcDbEntity
  8
0
  6
Continuous
 62
     7
100
AcDbTrace
 10
-369.3476257324219
 20
248.1764221191406
 30
0.0
 11
-370.2586059570313
 21
248.1764221191406
 31
0.0
 12
-369.3265075683594
 22
248.1901092529297
 32
0.0
 13
-370.2903442382813
 23
248.1901092529297
 33
0.0
  0
SOLID
  5
30E
330
22
100
AcDbEntity
  8
0
  6
Continuous
 62
     7
100
AcDbTrace
 10
-369.5086059570313
 20
248.1124725341797
 30
0.0
 11
-370.1103210449219
 21
248.1124725341797
 31
0.0
 12
-369.3476257324219
 22
248.1764221191406
 32
0.0
 13
-370.2586059570313
 23
248.1764221191406
 33
0.0
  0
SOLID
  5
30F
330
22
100
AcDbEntity
  8
0
  6
Continuous
 62
     7
100
AcDbTrace
 10
-369.5298156738281
 20
248.1040344238281
 30
0.0
 11
-370.0709533691406
 21
248.1040344238281
 31
0.0
 12
-369.5086059570313
 22
248.1124725341797
 32
0.0
 13
-370.1103210449219
 23
248.1124725341797
 33
0.0
  0
SOLID
  5
310
330
22
100
AcDbEntity
  8
0
  6
Continuous
 62
     7
100
AcDbTrace
 10
-369.7071533203125
 20
248.0714416503906
 30
0.0
 11
-369.9186401367188
 21
248.0714416503906
 31
0.0
 12
-369.5298156738281
 22
248.1040344238281
 32
0.0
 13
-370.0709533691406
 23
248.1040344238281
 33
0.0
  0
INSERT
  5
311
330
22
100
AcDbEntity
  8
0
  6
Continuous
 62
     7
100
AcDbBlockReference
  2
KOZU0001
 10
-371.172119140625
 20
88.43728637695312
 30
0.0
  0
DIMENSION
  5
312
330
22
100
AcDbEntity
  8
0
  6
Continuous
 62
     7
100
AcDbDimension
  2
*D1
 10
-296.2301635742188
 20
102.3186111450195
 30
0.0
 11
-296.2301635742188
 21
89.84010314941405
 31
0.0
 71
     5
 42
-1.0
  3
DIMSTYLE1
100
AcDbAlignedDimension
 13
-305.327880859375
 23
105.8186111450195
 33
0.0
 14
-316.3089904785156
 24
102.3186111450195
 34
0.0
 50
90.0
100
AcDbRotatedDimension
  0
DIMENSION
  5
313
330
22
100
AcDbEntity
  8
0
  6
Continuous
 62
     7
100
AcDbDimension
  2
*D2
 10
-445.8251076456583
 20
439.1679569404439
 30
0.0
 11
-304.0661315917969
 21
387.4954223632813
 31
0.0
 70
     3
 71
     5
 42
-1.0
  3
DIMSTYLE2
100
AcDbDiametricDimension
 15
-408.2439231160605
 25
425.469250090806
 35
0.0
 40
0.0
  0
DIMENSION
  5
314
330
22
100
AcDbEntity
  8
0
  6
Continuous
 62
     7
100
AcDbDimension
  2
*D3
 10
-514.8253451888868
 20
364.6863530466505
 30
0.0
 11
-321.3216552734375
 21
513.3756103515625
 31
0.0
 70
     3
 71
     5
 42
-1.0
  3
DIMSTYLE3
100
AcDbDiametricDimension
 15
-338.7926357681444
 25
499.9508539845995
 35
0.0
 40
0.0
  0
DIMENSION
  5
315
330
22
100
AcDbEntity
  8
0
  6
Continuous
 62
     7
100
AcDbDimension
  2
*D4
 10
-500.5235789849288
 20
401.2354981152603
 30
0.0
 11
-305.03271484375
 21
483.6677856445312
 31
0.0
 70
     3
 71
     5
 42
-1.0
  3
DIMSTYLE4
100
AcDbDiametricDimension
 15
-353.0944019721025
 25
463.4017089159896
 35
0.0
 40
0.0
  0
DIMENSION
  5
316
330
22
100
AcDbEntity
  8
0
  6
Continuous
 62
     7
100
AcDbDimension
  2
*D5
 10
-487.7756846444983
 20
424.2370069857592
 30
0.0
 11
-294.7171630859375
 21
449.828369140625
 31
0.0
 70
     3
 71
     5
 42
-1.0
  3
DIMSTYLE5
100
AcDbDiametricDimension
 15
-365.842296312533
 25
440.4002000454908
 35
0.0
 40
0.0
  0
DIMENSION
  5
317
330
22
100
AcDbEntity
  8
0
  6
Continuous
 62
     7
100
AcDbDimension
  2
*D6
 10
-364.3089904785156
 20
32.40806198120117
 30
0.0
 11
-426.8089904785155
 21
32.40806198120117
 31
0.0
 71
     5
 42
-1.0
  3
DIMSTYLE6
100
AcDbAlignedDimension
 13
-489.3089904785155
 23
61.81861114501953
 33
0.0
 14
-364.3089904785156
 24
61.81861114501953
 34
0.0
100
AcDbRotatedDimension
  0
DIMENSION
  5
318
330
22
100
AcDbEntity
  8
0
  6
Continuous
 62
     7
100
AcDbDimension
  2
*D7
 10
-296.2301635742188
 20
272.818603515625
 30
0.0
 11
-296.2301635742188
 21
189.318603515625
 31
0.0
 71
     5
 42
-1.0
  3
DIMSTYLE7
100
AcDbAlignedDimension
 13
-317.8089904785156
 23
105.8186111450195
 33
0.0
 14
-347.8096313476563
 24
272.818603515625
 34
0.0
 50
90.0
100
AcDbRotatedDimension
  0
DIMENSION
  5
319
330
22
100
AcDbEntity
  8
0
  6
Continuous
 62
     7
100
AcDbDimension
  2
*D8
 10
-310.4492797851563
 20
203.818603515625
 30
0.0
 11
-310.4492797851563
 21
238.318603515625
 31
0.0
 71
     5
 42
-1.0
  3
DIMSTYLE8
100
AcDbAlignedDimension
 13
-293.9441528320313
 23
272.818603515625
 33
0.0
 14
-365.8096313476563
 24
203.818603515625
 34
0.0
 50
90.0
100
AcDbRotatedDimension
  0
DIMENSION
  5
31A
330
22
100
AcDbEntity
  8
0
  6
Continuous
 62
     7
100
AcDbDimension
  2
*D9
 10
-310.4492797851563
 20
145.818603515625
 30
0.0
 11
-310.4492797851563
 21
125.8186111450195
 31
0.0
 71
     5
 42
-1.0
  3
DIMSTYLE9
100
AcDbAlignedDimension
 13
-317.8089904785156
 23
105.8186111450195
 33
0.0
 14
-366.8089904785156
 24
145.818603515625
 34
0.0
 50
90.0
100
AcDbRotatedDimension
  0
DIMENSION
  5
31B
330
22
100
AcDbEntity
  8
0
  6
Continuous
 62
     7
100
AcDbDimension
  2
*D10
 10
-549.2814941406249
 20
145.818603515625
 30
0.0
 11
-549.2814941406249
 21
103.3186111450195
 31
0.0
 71
     5
 42
-1.0
  3
DIMSTYLE10
100
AcDbAlignedDimension
 13
-488.3089904785156
 23
60.81861114501953
 33
0.0
 14
-486.8089904785156
 24
145.818603515625
 34
0.0
 50
90.0
100
AcDbRotatedDimension
  0
DIMENSION
  5
31C
330
22
100
AcDbEntity
  8
0
  6
Continuous
 62
     7
100
AcDbDimension
  2
*D11
 10
-507.3089904785156
 20
66.47749328613281
 30
0.0
 11
-498.3089904785156
 21
66.47749328613281
 31
0.0
 71
     5
 42
-1.0
  3
DIMSTYLE11
100
AcDbAlignedDimension
 13
-489.3089904785155
 23
61.81861114501953
 33
0.0
 14
-507.3089904785156
 24
100.8637466430664
 34
0.0
100
AcDbRotatedDimension
  0
DIMENSION
  5
31D
330
22
100
AcDbEntity
  8
0
  6
Continuous
 62
     7
100
AcDbDimension
  2
*D12
 10
-516.7196044921874
 20
80.31861114501953
 30
0.0
 11
-516.7196044921874
 21
91.31861114501951
 31
0.0
 71
     5
 42
-1.0
  3
DIMSTYLE12
100
AcDbAlignedDimension
 13
-537.3089599609374
 23
102.3186111450195
 33
0.0
 14
-491.3089294433594
 24
80.31861114501953
 34
0.0
 50
90.0
100
AcDbRotatedDimension
  0
INSERT
  5
31E
330
22
100
AcDbEntity
  8
0
  6
Continuous
 62
     7
100
AcDbBlockReference
  2
KOZU0002
 10
-495.7471618652343
 20
98.13172149658205
 30
0.0
  0
DIMENSION
  5
31F
330
22
100
AcDbEntity
  8
0
  6
Continuous
 62
     7
100
AcDbDimension
  2
*D13
 10
-409.4386901855468
 20
225.818603515625
 30
0.0
 11
-409.4386901855468
 21
175.818603515625
 31
0.0
 71
     5
 42
-1.0
  3
DIMSTYLE13
100
AcDbAlignedDimension
 13
-426.8089904785155
 23
125.8186111450195
 33
0.0
 14
-426.8089904785155
 24
225.818603515625
 34
0.0
 50
90.0
100
AcDbRotatedDimension
  0
DIMENSION
  5
320
330
22
100
AcDbEntity
  8
0
  6
Continuous
 62
     7
100
AcDbDimension
  2
*D14
 10
-392.9530639648438
 20
175.818603515625
 30
0.0
 11
-392.9530639648438
 21
150.818603515625
 31
0.0
 71
     5
 42
-1.0
  3
DIMSTYLE14
100
AcDbAlignedDimension
 13
-371.8089904785156
 23
125.8186111450195
 33
0.0
 14
-371.8089904785156
 24
175.818603515625
 34
0.0
 50
90.0
100
AcDbRotatedDimension
  0
ENDSEC
  0
SECTION
  2
OBJECTS
  0
DICTIONARY
  5
C
330
0
100
AcDbDictionary
281
     1
  3
ACAD_COLOR
350
1B
  3
ACAD_GROUP
350
D
  3
ACAD_LAYOUT
350
19
  3
ACAD_MATERIAL
350
1A
  3
ACAD_MLINESTYLE
350
16
  3
ACAD_PLOTSETTINGS
350
18
  3
ACAD_PLOTSTYLENAME
350
E
  3
ACAD_TABLESTYLE
350
1C
  3
AcDbVariableDictionary
350
32C
  0
DICTIONARY
  5
1B
102
{ACAD_REACTORS
330
C
102
}
330
C
100
AcDbDictionary
281
     1
  0
DICTIONARY
  5
D
102
{ACAD_REACTORS
330
C
102
}
330
C
100
AcDbDictionary
281
     1
  0
DICTIONARY
  5
19
102
{ACAD_REACTORS
330
C
102
}
330
C
100
AcDbDictionary
281
     1
  3
Model
350
25
  3
レイアウト1
350
21
  0
DICTIONARY
  5
1A
102
{ACAD_REACTORS
330
C
102
}
330
C
100
AcDbDictionary
281
     1
  0
DICTIONARY
  5
16
102
{ACAD_REACTORS
330
C
102
}
330
C
100
AcDbDictionary
281
     1
  3
Standard
350
17
  0
DICTIONARY
  5
18
102
{ACAD_REACTORS
330
C
102
}
330
C
100
AcDbDictionary
281
     1
  0
ACDBDICTIONARYWDFLT
  5
E
102
{ACAD_REACTORS
330
C
102
}
330
C
100
AcDbDictionary
281
     1
  3
Normal
350
F
100
AcDbDictionaryWithDefault
340
F
  0
DICTIONARY
  5
1C
102
{ACAD_REACTORS
330
C
102
}
330
C
100
AcDbDictionary
281
     1
  3
Standard
350
1D
  0
DICTIONARY
  5
32C
102
{ACAD_REACTORS
330
C
102
}
330
C
100
AcDbDictionary
281
     1
  3
CTABLESTYLE
350
32D
  0
LAYOUT
  5
25
102
{ACAD_REACTORS
330
19
102
}
330
19
100
AcDbPlotSettings
  1

  2
PDF reDirect v2
  4
User120
  6

 40
3.174999952316284
 41
3.174999952316284
 42
3.17498779296875
 43
3.17498779296875
 44
594.0
 45
841.0
 46
0.0
 47
0.0
 48
0.0
 49
0.0
140
0.0
141
0.0
142
1.0
143
1.0
 70
 11952
 72
     1
 73
     1
 74
     2
  7
C:\Users\ck\AppData\Roaming\Autodesk\AutoCAD 2005\R16.1\jpn\Plot Styles\black.ctb
 75
    16
147
1.0
 76
     0
 77
     2
 78
   300
148
839.0
149
0.0
100
AcDbLayout
  1
Model
 70
     1
 71
     0
 10
0.0
 20
0.0
 11
12.0
 21
9.0
 12
0.0
 22
0.0
 32
0.0
 14
0.0
 24
0.0
 34
0.0
 15
0.0
 25
0.0
 35
0.0
146
0.0
 13
0.0
 23
0.0
 33
0.0
 16
1.0
 26
0.0
 36
0.0
 17
0.0
 27
1.0
 37
0.0
 76
     0
330
22
1001
ACAD_PSEXT
1000
PDF reDirect v2
1000
PDF reDirect Pro
1000
PDF_REDIRECT_PORT:
1000
PDF reDirect provided by EXP Systems
1070
     0
  0
LAYOUT
  5
21
102
{ACAD_REACTORS
330
19
102
}
330
19
100
AcDbPlotSettings
  1

  2
PDF reDirect v2
  4

  6

 40
0.0
 41
0.0
 42
0.0
 43
0.0
 44
0.0
 45
0.0
 46
0.0
 47
0.0
 48
0.0
 49
0.0
140
0.0
141
0.0
142
1.0
143
1.0
 70
   688
 72
     0
 73
     0
 74
     5
  7
C:\Users\ck\AppData\Roaming\Autodesk\AutoCAD 2005\R16.1\jpn\Plot Styles\black.ctb
 75
    16
147
1.0
 76
     0
 77
     2
 78
   300
148
0.0
149
0.0
100
AcDbLayout
  1
レイアウト1
 70
     1
 71
     1
 10
-839.0
 20
0.0
 11
0.0
 21
591.0
 12
0.0
 22
0.0
 32
0.0
 14
1.000000000000000E+20
 24
1.000000000000000E+20
 34
1.000000000000000E+20
 15
-1.000000000000000E+20
 25
-1.000000000000000E+20
 35
-1.000000000000000E+20
146
0.0
 13
0.0
 23
0.0
 33
0.0
 16
1.0
 26
0.0
 36
0.0
 17
0.0
 27
1.0
 37
0.0
 76
     0
330
1E
  0
MLINESTYLE
  5
17
102
{ACAD_REACTORS
330
16
102
}
330
16
100
AcDbMlineStyle
  2
STANDARD
 70
     0
  3

 62
   256
 51
90.0
 52
90.0
 71
     2
 49
0.5
 62
   256
  6
BYLAYER
 49
-0.5
 62
   256
  6
BYLAYER
  0
ACDBPLACEHOLDER
  5
F
102
{ACAD_REACTORS
330
E
102
}
330
E
  0
TABLESTYLE
  5
1D
102
{ACAD_REACTORS
330
1C
102
}
330
1C
100
AcDbTableStyle
  3
Standard
 70
     0
 71
     0
 40
0.06
 41
0.06
280
     0
281
     0
  7
STANDARD
140
0.18
170
     2
 62
     0
 63
     7
283
     0
274
    -2
284
     1
 64
     0
275
    -2
285
     1
 65
     0
276
    -2
286
     1
 66
     0
277
    -2
287
     1
 67
     0
278
    -2
288
     1
 68
     0
279
    -2
289
     1
 69
     0
  7
STANDARD
140
0.25
170
     5
 62
     0
 63
     7
283
     0
274
    -2
284
     1
 64
     0
275
    -2
285
     1
 65
     0
276
    -2
286
     1
 66
     0
277
    -2
287
     1
 67
     0
278
    -2
288
     1
 68
     0
279
    -2
289
     1
 69
     0
  7
STANDARD
140
0.18
170
     5
 62
     0
 63
     7
283
     0
274
    -2
284
     1
 64
     0
275
    -2
285
     1
 65
     0
276
    -2
286
     1
 66
     0
277
    -2
287
     1
 67
     0
278
    -2
288
     1
 68
     0
279
    -2
289
     1
 69
     0
  0
DICTIONARYVAR
  5
32D
102
{ACAD_REACTORS
330
32C
102
}
330
32C
100
DictionaryVariables
280
     0
  1
STANDARD
  0
ENDSEC
  0
EOF
